  0
SECTION
  2
HEADER
  9
$ACADVER
  1
AC1015
  9
$ACADMAINTVER
 70
    20
  9
$DWGCODEPAGE
  3
ANSI_1252
  9
$INSBASE
 10
0.0
 20
0.0
 30
0.0
  9
$EXTMIN
 10
9.471364135635335
 20
42.35703296948914
 30
0.0
  9
$EXTMAX
 10
415.8627274114018
 20
271.6822125390946
 30
0.0
  9
$LIMMIN
 10
0.0
 20
0.0
  9
$LIMMAX
 10
0.0
 20
0.0
  9
$ORTHOMODE
 70
     1
  9
$REGENMODE
 70
     1
  9
$FILLMODE
 70
     1
  9
$QTEXTMODE
 70
     0
  9
$MIRRTEXT
 70
     1
  9
$LTSCALE
 40
1.0
  9
$ATTMODE
 70
     1
  9
$TEXTSIZE
 40
4.0
  9
$TRACEWID
 40
1.0
  9
$TEXTSTYLE
  7
Arial
  9
$CLAYER
  8
0
  9
$CELTYPE
  6
ByLayer
  9
$CECOLOR
 62
   256
  9
$CELTSCALE
 40
1.0
  9
$DISPSILH
 70
     0
  9
$DIMSCALE
 40
1.0
  9
$DIMASZ
 40
3.962399999999999
  9
$DIMEXO
 40
1.27
  9
$DIMDLI
 40
3.75
  9
$DIMRND
 40
0.0
  9
$DIMDLE
 40
0.0
  9
$DIMEXE
 40
3.174999999999999
  9
$DIMTP
 40
0.0
  9
$DIMTM
 40
0.0
  9
$DIMTXT
 40
4.0
  9
$DIMCEN
 40
0.0
  9
$DIMTSZ
 40
0.0
  9
$DIMTOL
 70
     0
  9
$DIMLIM
 70
     0
  9
$DIMTIH
 70
     1
  9
$DIMTOH
 70
     1
  9
$DIMSE1
 70
     0
  9
$DIMSE2
 70
     0
  9
$DIMTAD
 70
     0
  9
$DIMZIN
 70
     1
  9
$DIMBLK
  1

  9
$DIMASO
 70
     1
  9
$DIMSHO
 70
     1
  9
$DIMPOST
  1

  9
$DIMAPOST
  1

  9
$DIMALT
 70
     0
  9
$DIMALTD
 70
     3
  9
$DIMALTF
 40
0.0393700787401575
  9
$DIMLFAC
 40
1.0
  9
$DIMTOFL
 70
     0
  9
$DIMTVP
 40
0.0
  9
$DIMTIX
 70
     0
  9
$DIMSOXD
 70
     0
  9
$DIMSAH
 70
     0
  9
$DIMBLK1
  1

  9
$DIMBLK2
  1

  9
$DIMSTYLE
  2
Arial
  9
$DIMCLRD
 70
     0
  9
$DIMCLRE
 70
     0
  9
$DIMCLRT
 70
     0
  9
$DIMTFAC
 40
1.0
  9
$DIMGAP
 40
1.524
  9
$DIMJUST
 70
     0
  9
$DIMSD1
 70
     0
  9
$DIMSD2
 70
     0
  9
$DIMTOLJ
 70
     0
  9
$DIMTZIN
 70
     1
  9
$DIMALTZ
 70
     0
  9
$DIMALTTZ
 70
     0
  9
$DIMUPT
 70
     0
  9
$DIMDEC
 70
     2
  9
$DIMTDEC
 70
     2
  9
$DIMALTU
 70
     2
  9
$DIMALTTD
 70
     3
  9
$DIMTXSTY
  7
Arial
  9
$DIMAUNIT
 70
     0
  9
$DIMADEC
 70
     2
  9
$DIMALTRND
 40
0.0
  9
$DIMAZIN
 70
     0
  9
$DIMDSEP
 70
    46
  9
$DIMATFIT
 70
     3
  9
$DIMFRAC
 70
     0
  9
$DIMLDRBLK
  1

  9
$DIMLUNIT
 70
     2
  9
$DIMLWD
 70
    -2
  9
$DIMLWE
 70
    -2
  9
$DIMTMOVE
 70
     0
  9
$LUNITS
 70
     2
  9
$LUPREC
 70
     2
  9
$SKETCHINC
 40
1.0
  9
$FILLETRAD
 40
10.0
  9
$AUNITS
 70
     0
  9
$AUPREC
 70
     0
  9
$MENU
  1
.
  9
$ELEVATION
 40
0.0
  9
$PELEVATION
 40
0.0
  9
$THICKNESS
 40
0.0
  9
$LIMCHECK
 70
     0
  9
$CHAMFERA
 40
10.0
  9
$CHAMFERB
 40
10.0
  9
$CHAMFERC
 40
20.0
  9
$CHAMFERD
 40
0.0
  9
$SKPOLY
 70
     0
  9
$TDCREATE
 40
2454532.759969977
  9
$TDUCREATE
 40
2454532.926636644
  9
$TDUPDATE
 40
2454571.658716725
  9
$TDUUPDATE
 40
2454571.825383391
  9
$TDINDWG
 40
0.2672207870
  9
$TDUSRTIMER
 40
0.2672207870
  9
$USRTIMER
 70
     1
  9
$ANGBASE
 50
0.0
  9
$ANGDIR
 70
     0
  9
$PDMODE
 70
     0
  9
$PDSIZE
 40
-1.0
  9
$PLINEWID
 40
0.0
  9
$SPLFRAME
 70
     0
  9
$SPLINETYPE
 70
     6
  9
$SPLINESEGS
 70
     8
  9
$HANDSEED
  5
DB7
  9
$SURFTAB1
 70
     6
  9
$SURFTAB2
 70
     6
  9
$SURFTYPE
 70
     6
  9
$SURFU
 70
     6
  9
$SURFV
 70
     6
  9
$UCSBASE
  2

  9
$UCSNAME
  2

  9
$UCSORG
 10
0.0
 20
0.0
 30
0.0
  9
$UCSXDIR
 10
1.0
 20
0.0
 30
0.0
  9
$UCSYDIR
 10
0.0
 20
1.0
 30
0.0
  9
$UCSORTHOREF
  2

  9
$UCSORTHOVIEW
 70
     0
  9
$UCSORGTOP
 10
0.0
 20
0.0
 30
0.0
  9
$UCSORGBOTTOM
 10
0.0
 20
0.0
 30
0.0
  9
$UCSORGLEFT
 10
0.0
 20
0.0
 30
0.0
  9
$UCSORGRIGHT
 10
0.0
 20
0.0
 30
0.0
  9
$UCSORGFRONT
 10
0.0
 20
0.0
 30
0.0
  9
$UCSORGBACK
 10
0.0
 20
0.0
 30
0.0
  9
$PUCSBASE
  2

  9
$PUCSNAME
  2

  9
$PUCSORG
 10
0.0
 20
0.0
 30
0.0
  9
$PUCSXDIR
 10
1.0
 20
0.0
 30
0.0
  9
$PUCSYDIR
 10
0.0
 20
1.0
 30
0.0
  9
$PUCSORTHOREF
  2

  9
$PUCSORTHOVIEW
 70
     0
  9
$PUCSORGTOP
 10
0.0
 20
0.0
 30
0.0
  9
$PUCSORGBOTTOM
 10
0.0
 20
0.0
 30
0.0
  9
$PUCSORGLEFT
 10
0.0
 20
0.0
 30
0.0
  9
$PUCSORGRIGHT
 10
0.0
 20
0.0
 30
0.0
  9
$PUCSORGFRONT
 10
0.0
 20
0.0
 30
0.0
  9
$PUCSORGBACK
 10
0.0
 20
0.0
 30
0.0
  9
$USERI1
 70
     0
  9
$USERI2
 70
     0
  9
$USERI3
 70
     0
  9
$USERI4
 70
     0
  9
$USERI5
 70
     0
  9
$USERR1
 40
0.0
  9
$USERR2
 40
0.0
  9
$USERR3
 40
0.0
  9
$USERR4
 40
0.0
  9
$USERR5
 40
0.0
  9
$WORLDVIEW
 70
     1
  9
$SHADEDGE
 70
     3
  9
$SHADEDIF
 70
    70
  9
$TILEMODE
 70
     1
  9
$MAXACTVP
 70
    64
  9
$PINSBASE
 10
0.0
 20
0.0
 30
0.0
  9
$PLIMCHECK
 70
     0
  9
$PEXTMIN
 10
1.000000000000000E+20
 20
1.000000000000000E+20
 30
1.000000000000000E+20
  9
$PEXTMAX
 10
-1.000000000000000E+20
 20
-1.000000000000000E+20
 30
-1.000000000000000E+20
  9
$PLIMMIN
 10
0.0
 20
0.0
  9
$PLIMMAX
 10
420.0
 20
297.0
  9
$UNITMODE
 70
     0
  9
$VISRETAIN
 70
     1
  9
$PLINEGEN
 70
     0
  9
$PSLTSCALE
 70
     1
  9
$TREEDEPTH
 70
  3020
  9
$CMLSTYLE
  2
Standard
  9
$CMLJUST
 70
     0
  9
$CMLSCALE
 40
20.0
  9
$PROXYGRAPHICS
 70
     1
  9
$MEASUREMENT
 70
     1
  9
$CELWEIGHT
370
    -1
  9
$ENDCAPS
280
     0
  9
$JOINSTYLE
280
     0
  9
$LWDISPLAY
290
     1
  9
$INSUNITS
 70
     4
  9
$HYPERLINKBASE
  1

  9
$STYLESHEET
  1
Dart1.ctb
  9
$XEDIT
290
     1
  9
$CEPSNTYPE
380
     0
  9
$PSTYLEMODE
290
     1
  9
$FINGERPRINTGUID
  2
{2C879DDC-6E99-489C-BF3B-6E6B5D63293D}
  9
$VERSIONGUID
  2
{036B60CB-9C93-49C2-BD50-1F67CC7D2E25}
  9
$EXTNAMES
290
     1
  9
$PSVPSCALE
 40
0.0
  9
$OLESTARTUP
290
     0
  0
ENDSEC
  0
SECTION
  2
CLASSES
  0
CLASS
  1
ACDBDICTIONARYWDFLT
  2
AcDbDictionaryWithDefault
  3
ObjectDBX Classes
 90
        0
280
     0
281
     0
  0
CLASS
  1
ACDBPLACEHOLDER
  2
AcDbPlaceHolder
  3
ObjectDBX Classes
 90
        0
280
     0
281
     0
  0
CLASS
  1
LAYOUT
  2
AcDbLayout
  3
ObjectDBX Classes
 90
        0
280
     0
281
     0
  0
CLASS
  1
TABLESTYLE
  2
AcDbTableStyle
  3
ObjectDBX Classes
 90
     2047
280
     0
281
     0
  0
CLASS
  1
DICTIONARYVAR
  2
AcDbDictionaryVar
  3
ObjectDBX Classes
 90
        0
280
     0
281
     0
  0
CLASS
  1
SORTENTSTABLE
  2
AcDbSortentsTable
  3
ObjectDBX Classes
 90
        0
280
     0
281
     0
  0
ENDSEC
  0
SECTION
  2
TABLES
  0
TABLE
  2
VPORT
  5
8
330
0
100
AcDbSymbolTable
 70
     2
  0
VPORT
  5
DAF
330
8
100
AcDbSymbolTableRecord
100
AcDbViewportTableRecord
  2
*Active
 70
     0
 10
0.0
 20
0.0
 11
1.0
 21
1.0
 12
207.6594944971808
 22
129.4306042698599
 13
0.0
 23
0.0
 14
10.0
 24
10.0
 15
10.0
 25
10.0
 16
0.0
 26
0.0
 36
1.0
 17
0.0
 27
0.0
 37
0.0
 40
303.3361854687812
 41
1.953028430160692
 42
50.0
 43
0.0
 44
0.0
 50
0.0
 51
0.0
 71
     0
 72
  2000
 73
     1
 74
     3
 75
     0
 76
     0
 77
     0
 78
     0
281
     0
 65
     1
110
0.0
120
0.0
130
0.0
111
1.0
121
0.0
131
0.0
112
0.0
122
1.0
132
0.0
 79
     0
146
0.0
  0
ENDTAB
  0
TABLE
  2
LTYPE
  5
5
330
0
100
AcDbSymbolTable
 70
     1
  0
LTYPE
  5
14
330
5
100
AcDbSymbolTableRecord
100
AcDbLinetypeTableRecord
  2
ByBlock
 70
     0
  3

 72
    65
 73
     0
 40
0.0
  0
LTYPE
  5
15
330
5
100
AcDbSymbolTableRecord
100
AcDbLinetypeTableRecord
  2
ByLayer
 70
     0
  3

 72
    65
 73
     0
 40
0.0
  0
LTYPE
  5
16
330
5
100
AcDbSymbolTableRecord
100
AcDbLinetypeTableRecord
  2
Continuous
 70
     0
  3
Solid line
 72
    65
 73
     0
 40
0.0
  0
ENDTAB
  0
TABLE
  2
LAYER
  5
2
330
0
100
AcDbSymbolTable
 70
     2
  0
LAYER
  5
10
330
2
100
AcDbSymbolTableRecord
100
AcDbLayerTableRecord
  2
0
 70
     0
 62
     7
  6
Continuous
370
    -3
390
F
  0
LAYER
  5
61
330
2
100
AcDbSymbolTableRecord
100
AcDbLayerTableRecord
  2
Defpoints
 70
     0
 62
     7
  6
Continuous
290
     0
370
    -3
390
F
  0
ENDTAB
  0
TABLE
  2
STYLE
  5
3
330
0
100
AcDbSymbolTable
 70
     2
  0
STYLE
  5
11
330
3
100
AcDbSymbolTableRecord
100
AcDbTextStyleTableRecord
  2
Standard
 70
     0
 40
0.0
 41
1.0
 50
0.0
 71
     0
 42
2.5
  3
txt
  4

  0
STYLE
  5
2B8
330
3
100
AcDbSymbolTableRecord
100
AcDbTextStyleTableRecord
  2
Arial
 70
     0
 40
0.0
 41
1.0
 50
0.0
 71
     0
 42
4.0
  3
ARIAL.TTF
  4

1001
ACAD
1000
Arial
1071
       34
  0
ENDTAB
  0
TABLE
  2
VIEW
  5
6
330
0
100
AcDbSymbolTable
 70
     0
  0
ENDTAB
  0
TABLE
  2
UCS
  5
7
330
0
100
AcDbSymbolTable
 70
     0
  0
ENDTAB
  0
TABLE
  2
APPID
  5
9
330
0
100
AcDbSymbolTable
 70
     3
  0
APPID
  5
12
330
9
100
AcDbSymbolTableRecord
100
AcDbRegAppTableRecord
  2
ACAD
 70
     0
  0
APPID
  5
27F
330
9
100
AcDbSymbolTableRecord
100
AcDbRegAppTableRecord
  2
ACAD_DSTYLE_DIMTEXT_FILL
 70
     0
  0
APPID
  5
5CF
330
9
100
AcDbSymbolTableRecord
100
AcDbRegAppTableRecord
  2
ACAD_PSEXT
 70
     0
  0
ENDTAB
  0
TABLE
  2
DIMSTYLE
  5
A
330
0
100
AcDbSymbolTable
 70
     1
100
AcDbDimStyleTable
 71
     1
340
2CB
  0
DIMSTYLE
105
2CB
102
{ACAD_REACTORS
330
88F
330
88E
330
84A
330
848
330
847
330
846
330
845
330
844
330
843
330
81D
330
81B
330
849
330
81F
330
81A
330
81E
330
81C
330
890
102
}
330
A
100
AcDbSymbolTableRecord
100
AcDbDimStyleTableRecord
  2
Arial
 70
     0
 41
3.962399999999999
 42
1.27
 43
3.75
 44
3.174999999999999
 78
     1
140
4.0
141
2.5
143
0.0393700787401575
147
1.524
171
     3
271
     2
272
     2
274
     3
283
     0
284
     1
340
2B8
  0
ENDTAB
  0
TABLE
  2
BLOCK_RECORD
  5
1
330
0
100
AcDbSymbolTable
 70
    21
  0
BLOCK_RECORD
  5
1F
102
{ACAD_XDICTIONARY
360
9B3
102
}
330
1
100
AcDbSymbolTableRecord
100
AcDbBlockTableRecord
  2
*Model_Space
340
22
  0
BLOCK_RECORD
  5
1B
330
1
100
AcDbSymbolTableRecord
100
AcDbBlockTableRecord
  2
*Paper_Space
340
1E
  0
BLOCK_RECORD
  5
23
330
1
100
AcDbSymbolTableRecord
100
AcDbBlockTableRecord
  2
*Paper_Space0
340
26
  0
BLOCK_RECORD
  5
1B1
330
1
100
AcDbSymbolTableRecord
100
AcDbBlockTableRecord
  2
SW_CENTERMARKSYMBOL_0
340
0
102
{BLKREFS
331
84B
102
}
  0
BLOCK_RECORD
  5
1B9
330
1
100
AcDbSymbolTableRecord
100
AcDbBlockTableRecord
  2
SW_CENTERMARKSYMBOL_1
340
0
102
{BLKREFS
331
84C
102
}
  0
BLOCK_RECORD
  5
1C1
330
1
100
AcDbSymbolTableRecord
100
AcDbBlockTableRecord
  2
SW_CENTERMARKSYMBOL_2
340
0
102
{BLKREFS
331
84D
102
}
  0
BLOCK_RECORD
  5
8D6
330
1
100
AcDbSymbolTableRecord
100
AcDbBlockTableRecord
  2
*D4
340
0
  0
BLOCK_RECORD
  5
8E4
330
1
100
AcDbSymbolTableRecord
100
AcDbBlockTableRecord
  2
*D5
340
0
  0
BLOCK_RECORD
  5
8F1
330
1
100
AcDbSymbolTableRecord
100
AcDbBlockTableRecord
  2
*D6
340
0
  0
BLOCK_RECORD
  5
8FE
330
1
100
AcDbSymbolTableRecord
100
AcDbBlockTableRecord
  2
*D7
340
0
  0
BLOCK_RECORD
  5
90B
330
1
100
AcDbSymbolTableRecord
100
AcDbBlockTableRecord
  2
*D8
340
0
  0
BLOCK_RECORD
  5
919
330
1
100
AcDbSymbolTableRecord
100
AcDbBlockTableRecord
  2
*D9
340
0
  0
BLOCK_RECORD
  5
927
330
1
100
AcDbSymbolTableRecord
100
AcDbBlockTableRecord
  2
*D10
340
0
  0
BLOCK_RECORD
  5
934
330
1
100
AcDbSymbolTableRecord
100
AcDbBlockTableRecord
  2
*D11
340
0
  0
BLOCK_RECORD
  5
941
330
1
100
AcDbSymbolTableRecord
100
AcDbBlockTableRecord
  2
*D12
340
0
  0
BLOCK_RECORD
  5
94C
330
1
100
AcDbSymbolTableRecord
100
AcDbBlockTableRecord
  2
*D13
340
0
  0
BLOCK_RECORD
  5
959
330
1
100
AcDbSymbolTableRecord
100
AcDbBlockTableRecord
  2
*D14
340
0
  0
BLOCK_RECORD
  5
966
330
1
100
AcDbSymbolTableRecord
100
AcDbBlockTableRecord
  2
*D15
340
0
  0
BLOCK_RECORD
  5
973
330
1
100
AcDbSymbolTableRecord
100
AcDbBlockTableRecord
  2
*D16
340
0
  0
BLOCK_RECORD
  5
97F
330
1
100
AcDbSymbolTableRecord
100
AcDbBlockTableRecord
  2
*D17
340
0
  0
BLOCK_RECORD
  5
98C
330
1
100
AcDbSymbolTableRecord
100
AcDbBlockTableRecord
  2
*D18
340
0
  0
BLOCK_RECORD
  5
999
330
1
100
AcDbSymbolTableRecord
100
AcDbBlockTableRecord
  2
*D19
340
0
  0
BLOCK_RECORD
  5
9A6
330
1
100
AcDbSymbolTableRecord
100
AcDbBlockTableRecord
  2
*D20
340
0
  0
ENDTAB
  0
ENDSEC
  0
SECTION
  2
BLOCKS
  0
BLOCK
  5
20
330
1F
100
AcDbEntity
  8
0
100
AcDbBlockBegin
  2
*Model_Space
 70
     0
 10
0.0
 20
0.0
 30
0.0
  3
*Model_Space
  1

  0
ENDBLK
  5
21
330
1F
100
AcDbEntity
  8
0
100
AcDbBlockEnd
  0
BLOCK
  5
1C
330
1B
100
AcDbEntity
 67
     1
  8
0
100
AcDbBlockBegin
  2
*Paper_Space
 70
     0
 10
0.0
 20
0.0
 30
0.0
  3
*Paper_Space
  1

  0
ENDBLK
  5
1D
330
1B
100
AcDbEntity
 67
     1
  8
0
100
AcDbBlockEnd
  0
BLOCK
  5
24
330
23
100
AcDbEntity
  8
0
100
AcDbBlockBegin
  2
*Paper_Space0
 70
     0
 10
0.0
 20
0.0
 30
0.0
  3
*Paper_Space0
  1

  0
ENDBLK
  5
25
330
23
100
AcDbEntity
  8
0
100
AcDbBlockEnd
  0
BLOCK
  5
1B2
330
1B1
100
AcDbEntity
  8
0
100
AcDbBlockBegin
  2
SW_CENTERMARKSYMBOL_0
 70
     0
 10
0.0
 20
0.0
 30
0.0
  3
SW_CENTERMARKSYMBOL_0
  1

  0
LINE
  5
1B4
330
1B1
100
AcDbEntity
  8
0
  6
Continuous
 62
     7
370
     0
100
AcDbLine
 10
0.0
 20
0.0
 30
0.0
 11
0.0
 21
4.99999999999999
 31
0.0
  0
LINE
  5
1B5
330
1B1
100
AcDbEntity
  8
0
  6
Continuous
 62
     7
370
     0
100
AcDbLine
 10
0.0
 20
0.0
 30
0.0
 11
-5.000000000000004
 21
0.0
 31
0.0
  0
LINE
  5
1B6
330
1B1
100
AcDbEntity
  8
0
  6
Continuous
 62
     7
370
     0
100
AcDbLine
 10
0.0
 20
0.0
 30
0.0
 11
0.0
 21
-5.000000000000004
 31
0.0
  0
LINE
  5
1B7
330
1B1
100
AcDbEntity
  8
0
  6
Continuous
 62
     7
370
     0
100
AcDbLine
 10
0.0
 20
0.0
 30
0.0
 11
5.000000000000004
 21
0.0
 31
0.0
  0
ENDBLK
  5
1B3
330
1B1
100
AcDbEntity
  8
0
100
AcDbBlockEnd
  0
BLOCK
  5
1BA
330
1B9
100
AcDbEntity
  8
0
100
AcDbBlockBegin
  2
SW_CENTERMARKSYMBOL_1
 70
     0
 10
0.0
 20
0.0
 30
0.0
  3
SW_CENTERMARKSYMBOL_1
  1

  0
LINE
  5
1BC
330
1B9
100
AcDbEntity
  8
0
  6
Continuous
 62
     7
370
     0
100
AcDbLine
 10
0.0
 20
0.0
 30
0.0
 11
0.0
 21
4.99999999999999
 31
0.0
  0
LINE
  5
1BD
330
1B9
100
AcDbEntity
  8
0
  6
Continuous
 62
     7
370
     0
100
AcDbLine
 10
0.0
 20
0.0
 30
0.0
 11
-5.000000000000004
 21
0.0
 31
0.0
  0
LINE
  5
1BE
330
1B9
100
AcDbEntity
  8
0
  6
Continuous
 62
     7
370
     0
100
AcDbLine
 10
0.0
 20
0.0
 30
0.0
 11
0.0
 21
-5.000000000000004
 31
0.0
  0
LINE
  5
1BF
330
1B9
100
AcDbEntity
  8
0
  6
Continuous
 62
     7
370
     0
100
AcDbLine
 10
0.0
 20
0.0
 30
0.0
 11
5.000000000000004
 21
0.0
 31
0.0
  0
ENDBLK
  5
1BB
330
1B9
100
AcDbEntity
  8
0
100
AcDbBlockEnd
  0
BLOCK
  5
1C2
330
1C1
100
AcDbEntity
  8
0
100
AcDbBlockBegin
  2
SW_CENTERMARKSYMBOL_2
 70
     0
 10
0.0
 20
0.0
 30
0.0
  3
SW_CENTERMARKSYMBOL_2
  1

  0
LINE
  5
1C4
330
1C1
100
AcDbEntity
  8
0
  6
Continuous
 62
     7
370
     0
100
AcDbLine
 10
0.0
 20
0.0
 30
0.0
 11
0.0
 21
4.99999999999999
 31
0.0
  0
LINE
  5
1C5
330
1C1
100
AcDbEntity
  8
0
  6
Continuous
 62
     7
370
     0
100
AcDbLine
 10
0.0
 20
0.0
 30
0.0
 11
-5.000000000000004
 21
0.0
 31
0.0
  0
LINE
  5
1C6
330
1C1
100
AcDbEntity
  8
0
  6
Continuous
 62
     7
370
     0
100
AcDbLine
 10
0.0
 20
0.0
 30
0.0
 11
0.0
 21
-5.000000000000004
 31
0.0
  0
LINE
  5
1C7
330
1C1
100
AcDbEntity
  8
0
  6
Continuous
 62
     7
370
     0
100
AcDbLine
 10
0.0
 20
0.0
 30
0.0
 11
4.99999999999999
 21
0.0
 31
0.0
  0
ENDBLK
  5
1C3
330
1C1
100
AcDbEntity
  8
0
100
AcDbBlockEnd
  0
BLOCK
  5
8E2
330
8D6
100
AcDbEntity
  8
0
100
AcDbBlockBegin
  2
*D4
 70
     1
 10
0.0
 20
0.0
 30
0.0
  3
*D4
  1

  0
LINE
  5
B94
330
8D6
100
AcDbEntity
  8
0
  6
Continuous
 62
     0
370
    -2
100
AcDbLine
 10
376.1647789482852
 20
85.1462958163869
 30
0.0
 11
402.8391855287279
 21
85.1462958163869
 31
0.0
  0
LINE
  5
B95
330
8D6
100
AcDbEntity
  8
0
  6
Continuous
 62
     0
370
    -2
100
AcDbLine
 10
384.9797190414699
 20
82.9872958163869
 30
0.0
 11
402.8391855287279
 21
82.9872958163869
 31
0.0
  0
LINE
  5
B96
330
8D6
100
AcDbEntity
  8
0
  6
Continuous
 62
     0
370
    -2
100
AcDbLine
 10
399.6641855287279
 20
79.0248958163869
 30
0.0
 11
399.6641855287279
 21
75.0624958163869
 31
0.0
  0
LINE
  5
B97
330
8D6
100
AcDbEntity
  8
0
  6
Continuous
 62
     0
370
    -2
100
AcDbLine
 10
399.6641855287279
 20
89.1086958163869
 30
0.0
 11
399.6641855287279
 21
93.07109581638689
 31
0.0
  0
LINE
  5
B98
330
8D6
100
AcDbEntity
  8
0
  6
Continuous
 62
     0
370
    -2
100
AcDbLine
 10
399.6641855287279
 20
93.07109581638689
 30
0.0
 11
403.6265855287279
 21
93.07109581638689
 31
0.0
  0
SOLID
  5
B99
330
8D6
100
AcDbEntity
  8
0
  6
Continuous
 62
     0
100
AcDbTrace
 10
399.0037855287279
 20
79.0248958163869
 30
0.0
 11
400.3245855287278
 21
79.0248958163869
 31
0.0
 12
399.6641855287279
 22
82.9872958163869
 32
0.0
 13
399.6641855287279
 23
82.9872958163869
 33
0.0
  0
SOLID
  5
B9A
330
8D6
100
AcDbEntity
  8
0
  6
Continuous
 62
     0
100
AcDbTrace
 10
399.0037855287279
 20
89.1086958163869
 30
0.0
 11
400.3245855287278
 21
89.1086958163869
 31
0.0
 12
399.6641855287279
 22
85.1462958163869
 32
0.0
 13
399.6641855287279
 23
85.1462958163869
 33
0.0
  0
MTEXT
  5
B9B
330
8D6
100
AcDbEntity
  8
0
  6
Continuous
 62
     0
370
     0
100
AcDbMText
 10
405.1505855287278
 20
95.11338776727372
 30
0.0
 40
4.0
 41
0.0
 71
     1
 72
     1
  1
2.16
  7
Arial
 73
     1
 44
1.0
1001
ACAD
1000
MTEXTBEGIN
1070
    73
1070
     1
1070
    44
1040
1.0
1070
    74
1070
     0
1000
MTEXTEND
  0
POINT
  5
B9C
330
8D6
100
AcDbEntity
  8
Defpoints
  6
Continuous
 62
     0
100
AcDbPoint
 10
374.8947789482853
 20
85.1462958163869
 30
0.0
  0
POINT
  5
B9D
330
8D6
100
AcDbEntity
  8
Defpoints
  6
Continuous
 62
     0
100
AcDbPoint
 10
383.7097190414699
 20
82.9872958163869
 30
0.0
  0
POINT
  5
B9E
330
8D6
100
AcDbEntity
  8
Defpoints
  6
Continuous
 62
     0
100
AcDbPoint
 10
399.6641855287279
 20
82.9872958163869
 30
0.0
  0
ENDBLK
  5
8E3
330
8D6
100
AcDbEntity
  8
0
100
AcDbBlockEnd
  0
BLOCK
  5
8EF
330
8E4
100
AcDbEntity
  8
0
100
AcDbBlockBegin
  2
*D5
 70
     1
 10
0.0
 20
0.0
 30
0.0
  3
*D5
  1

  0
LINE
  5
C39
330
8E4
100
AcDbEntity
  8
0
  6
Continuous
 62
     0
370
    -2
100
AcDbLine
 10
137.5409690414698
 20
89.48459581638688
 30
0.0
 11
137.5409690414698
 21
42.35703296948914
 31
0.0
  0
LINE
  5
C3A
330
8E4
100
AcDbEntity
  8
0
  6
Continuous
 62
     0
370
    -2
100
AcDbLine
 10
383.7097190414699
 20
81.71729581638691
 30
0.0
 11
383.7097190414699
 21
42.35703296948914
 31
0.0
  0
LINE
  5
C3B
330
8E4
100
AcDbEntity
  8
0
  6
Continuous
 62
     0
370
    -2
100
AcDbLine
 10
141.5033690414698
 20
45.53203296948914
 30
0.0
 11
227.8682554903803
 21
45.53203296948914
 31
0.0
  0
LINE
  5
C3C
330
8E4
100
AcDbEntity
  8
0
  6
Continuous
 62
     0
370
    -2
100
AcDbLine
 10
379.74731904147
 20
45.53203296948914
 30
0.0
 11
244.4414942352644
 21
45.53203296948914
 31
0.0
  0
SOLID
  5
C3D
330
8E4
100
AcDbEntity
  8
0
  6
Continuous
 62
     0
100
AcDbTrace
 10
141.5033690414698
 20
46.19243296948914
 30
0.0
 11
141.5033690414698
 21
44.87163296948913
 31
0.0
 12
137.5409690414698
 22
45.53203296948914
 32
0.0
 13
137.5409690414698
 23
45.53203296948914
 33
0.0
  0
SOLID
  5
C3E
330
8E4
100
AcDbEntity
  8
0
  6
Continuous
 62
     0
100
AcDbTrace
 10
379.74731904147
 20
46.19243296948914
 30
0.0
 11
379.74731904147
 21
44.87163296948913
 31
0.0
 12
383.7097190414699
 22
45.53203296948914
 32
0.0
 13
383.7097190414699
 23
45.53203296948914
 33
0.0
  0
MTEXT
  5
C3F
330
8E4
100
AcDbEntity
  8
0
  6
Continuous
 62
     0
370
     0
100
AcDbMText
 10
229.3922554903803
 20
47.57432492037589
 30
0.0
 40
4.0
 41
0.0
 71
     1
 72
     1
  1
246.2
  7
Arial
 73
     1
 44
1.0
1001
ACAD
1000
MTEXTBEGIN
1070
    73
1070
     1
1070
    44
1040
1.0
1070
    74
1070
     0
1000
MTEXTEND
  0
POINT
  5
C40
330
8E4
100
AcDbEntity
  8
Defpoints
  6
Continuous
 62
     0
100
AcDbPoint
 10
137.5409690414698
 20
90.75459581638687
 30
0.0
  0
POINT
  5
C41
330
8E4
100
AcDbEntity
  8
Defpoints
  6
Continuous
 62
     0
100
AcDbPoint
 10
383.7097190414699
 20
82.9872958163869
 30
0.0
  0
POINT
  5
C42
330
8E4
100
AcDbEntity
  8
Defpoints
  6
Continuous
 62
     0
100
AcDbPoint
 10
383.7097190414699
 20
45.53203296948914
 30
0.0
  0
ENDBLK
  5
8F0
330
8E4
100
AcDbEntity
  8
0
100
AcDbBlockEnd
  0
BLOCK
  5
8FC
330
8F1
100
AcDbEntity
  8
0
100
AcDbBlockBegin
  2
*D6
 70
     1
 10
0.0
 20
0.0
 30
0.0
  3
*D6
  1

  0
LINE
  5
C4D
330
8F1
100
AcDbEntity
  8
0
  6
Continuous
 62
     0
370
    -2
100
AcDbLine
 10
141.6159690414698
 20
78.54229581638684
 30
0.0
 11
141.6159690414698
 21
59.87703967510738
 31
0.0
  0
LINE
  5
C4E
330
8F1
100
AcDbEntity
  8
0
  6
Continuous
 62
     0
370
    -2
100
AcDbLine
 10
151.1409690414698
 20
78.54229581638684
 30
0.0
 11
151.1409690414698
 21
59.87703967510738
 31
0.0
  0
LINE
  5
C4F
330
8F1
100
AcDbEntity
  8
0
  6
Continuous
 62
     0
370
    -2
100
AcDbLine
 10
137.6535690414698
 20
63.05203967510738
 30
0.0
 11
133.6911690414698
 21
63.05203967510738
 31
0.0
  0
LINE
  5
C50
330
8F1
100
AcDbEntity
  8
0
  6
Continuous
 62
     0
370
    -2
100
AcDbLine
 10
155.1033690414698
 20
63.05203967510738
 30
0.0
 11
159.0862328886732
 21
63.05203967510738
 31
0.0
  0
SOLID
  5
C51
330
8F1
100
AcDbEntity
  8
0
  6
Continuous
 62
     0
100
AcDbTrace
 10
137.6535690414698
 20
63.71243967510738
 30
0.0
 11
137.6535690414698
 21
62.39163967510737
 31
0.0
 12
141.6159690414698
 22
63.05203967510738
 32
0.0
 13
141.6159690414698
 23
63.05203967510738
 33
0.0
  0
SOLID
  5
C52
330
8F1
100
AcDbEntity
  8
0
  6
Continuous
 62
     0
100
AcDbTrace
 10
155.1033690414698
 20
63.71243967510738
 30
0.0
 11
155.1033690414698
 21
62.39163967510737
 31
0.0
 12
151.1409690414698
 22
63.05203967510738
 32
0.0
 13
151.1409690414698
 23
63.05203967510738
 33
0.0
  0
MTEXT
  5
C53
330
8F1
100
AcDbEntity
  8
0
  6
Continuous
 62
     0
370
     0
100
AcDbMText
 10
160.6102328886731
 20
65.09433162599414
 30
0.0
 40
4.0
 41
0.0
 71
     1
 72
     1
  1
9.52
  7
Arial
 73
     1
 44
1.0
1001
ACAD
1000
MTEXTBEGIN
1070
    73
1070
     1
1070
    44
1040
1.0
1070
    74
1070
     0
1000
MTEXTEND
  0
POINT
  5
C54
330
8F1
100
AcDbEntity
  8
Defpoints
  6
Continuous
 62
     0
100
AcDbPoint
 10
141.6159690414698
 20
79.81229581638683
 30
0.0
  0
POINT
  5
C55
330
8F1
100
AcDbEntity
  8
Defpoints
  6
Continuous
 62
     0
100
AcDbPoint
 10
151.1409690414698
 20
79.81229581638683
 30
0.0
  0
POINT
  5
C56
330
8F1
100
AcDbEntity
  8
Defpoints
  6
Continuous
 62
     0
100
AcDbPoint
 10
151.1409690414698
 20
63.05203967510738
 30
0.0
  0
ENDBLK
  5
8FD
330
8F1
100
AcDbEntity
  8
0
100
AcDbBlockEnd
  0
BLOCK
  5
909
330
8FE
100
AcDbEntity
  8
0
100
AcDbBlockBegin
  2
*D7
 70
     1
 10
0.0
 20
0.0
 30
0.0
  3
*D7
  1

  0
LINE
  5
C57
330
8FE
100
AcDbEntity
  8
0
  6
Continuous
 62
     0
370
    -2
100
AcDbLine
 10
151.1409690414698
 20
78.54229581638684
 30
0.0
 11
151.1409690414698
 21
53.09512891152547
 31
0.0
  0
LINE
  5
C58
330
8FE
100
AcDbEntity
  8
0
  6
Continuous
 62
     0
370
    -2
100
AcDbLine
 10
383.7097190414699
 20
81.71729581638691
 30
0.0
 11
383.7097190414699
 21
53.09512891152547
 31
0.0
  0
LINE
  5
C59
330
8FE
100
AcDbEntity
  8
0
  6
Continuous
 62
     0
370
    -2
100
AcDbLine
 10
155.1033690414698
 20
56.27012891152546
 30
0.0
 11
238.1879746459853
 21
56.27012891152546
 31
0.0
  0
LINE
  5
C5A
330
8FE
100
AcDbEntity
  8
0
  6
Continuous
 62
     0
370
    -2
100
AcDbLine
 10
379.74731904147
 20
56.27012891152546
 30
0.0
 11
254.7994125723154
 21
56.27012891152546
 31
0.0
  0
SOLID
  5
C5B
330
8FE
100
AcDbEntity
  8
0
  6
Continuous
 62
     0
100
AcDbTrace
 10
155.1033690414698
 20
56.93052891152547
 30
0.0
 11
155.1033690414698
 21
55.60972891152546
 31
0.0
 12
151.1409690414698
 22
56.27012891152546
 32
0.0
 13
151.1409690414698
 23
56.27012891152546
 33
0.0
  0
SOLID
  5
C5C
330
8FE
100
AcDbEntity
  8
0
  6
Continuous
 62
     0
100
AcDbTrace
 10
379.74731904147
 20
56.93052891152547
 30
0.0
 11
379.74731904147
 21
55.60972891152546
 31
0.0
 12
383.7097190414699
 22
56.27012891152546
 32
0.0
 13
383.7097190414699
 23
56.27012891152546
 33
0.0
  0
MTEXT
  5
C5D
330
8FE
100
AcDbEntity
  8
0
  6
Continuous
 62
     0
370
     0
100
AcDbMText
 10
239.7119746459853
 20
58.31378511889244
 30
0.0
 40
4.0
 41
0.0
 71
     1
 72
     1
  1
232.6
  7
Arial
 73
     1
 44
1.0
1001
ACAD
1000
MTEXTBEGIN
1070
    73
1070
     1
1070
    44
1040
1.0
1070
    74
1070
     0
1000
MTEXTEND
  0
POINT
  5
C5E
330
8FE
100
AcDbEntity
  8
Defpoints
  6
Continuous
 62
     0
100
AcDbPoint
 10
151.1409690414698
 20
79.81229581638683
 30
0.0
  0
POINT
  5
C5F
330
8FE
100
AcDbEntity
  8
Defpoints
  6
Continuous
 62
     0
100
AcDbPoint
 10
383.7097190414699
 20
82.9872958163869
 30
0.0
  0
POINT
  5
C60
330
8FE
100
AcDbEntity
  8
Defpoints
  6
Continuous
 62
     0
100
AcDbPoint
 10
383.7097190414699
 20
56.27012891152546
 30
0.0
  0
ENDBLK
  5
90A
330
8FE
100
AcDbEntity
  8
0
100
AcDbBlockEnd
  0
BLOCK
  5
917
330
90B
100
AcDbEntity
  8
0
100
AcDbBlockBegin
  2
*D8
 70
     1
 10
0.0
 20
0.0
 30
0.0
  3
*D8
  1

  0
LINE
  5
BBD
330
90B
100
AcDbEntity
  8
0
  6
Continuous
 62
     0
370
    -2
100
AcDbLine
 10
152.4109690414699
 20
79.8122958163869
 30
0.0
 11
186.0872234254657
 21
79.81229581638688
 31
0.0
  0
LINE
  5
BBE
330
90B
100
AcDbEntity
  8
0
  6
Continuous
 62
     0
370
    -2
100
AcDbLine
 10
152.4109690414699
 20
82.9872958163869
 30
0.0
 11
186.0872234254657
 21
82.98729581638689
 31
0.0
  0
LINE
  5
BBF
330
90B
100
AcDbEntity
  8
0
  6
Continuous
 62
     0
370
    -2
100
AcDbLine
 10
182.9122234254657
 20
86.94969581638689
 30
0.0
 11
182.9122234254657
 21
90.9120958163869
 31
0.0
  0
LINE
  5
BC0
330
90B
100
AcDbEntity
  8
0
  6
Continuous
 62
     0
370
    -2
100
AcDbLine
 10
182.9122234254657
 20
75.84989581638687
 30
0.0
 11
182.9122234254657
 21
71.15963197784356
 31
0.0
  0
LINE
  5
BC1
330
90B
100
AcDbEntity
  8
0
  6
Continuous
 62
     0
370
    -2
100
AcDbLine
 10
182.9122234254657
 20
71.15963197784356
 30
0.0
 11
178.9498234254657
 21
71.15963197784356
 31
0.0
  0
SOLID
  5
BC2
330
90B
100
AcDbEntity
  8
0
  6
Continuous
 62
     0
100
AcDbTrace
 10
182.2518234254657
 20
86.94969581638689
 30
0.0
 11
183.5726234254657
 21
86.94969581638689
 31
0.0
 12
182.9122234254657
 22
82.98729581638689
 32
0.0
 13
182.9122234254657
 23
82.98729581638689
 33
0.0
  0
SOLID
  5
BC3
330
90B
100
AcDbEntity
  8
0
  6
Continuous
 62
     0
100
AcDbTrace
 10
182.2518234254657
 20
75.84989581638687
 30
0.0
 11
183.5726234254657
 21
75.84989581638687
 31
0.0
 12
182.9122234254657
 22
79.81229581638688
 32
0.0
 13
182.9122234254657
 23
79.81229581638688
 33
0.0
  0
MTEXT
  5
BC4
330
90B
100
AcDbEntity
  8
0
  6
Continuous
 62
     0
370
     0
100
AcDbMText
 10
167.0301890462024
 20
73.20328818521057
 30
0.0
 40
4.0
 41
0.0
 71
     1
 72
     1
  1
3.18
  7
Arial
 73
     1
 44
1.0
1001
ACAD
1000
MTEXTBEGIN
1070
    73
1070
     1
1070
    44
1040
1.0
1070
    74
1070
     0
1000
MTEXTEND
  0
POINT
  5
BC5
330
90B
100
AcDbEntity
  8
Defpoints
  6
Continuous
 62
     0
100
AcDbPoint
 10
151.1409690414699
 20
79.8122958163869
 30
0.0
  0
POINT
  5
BC6
330
90B
100
AcDbEntity
  8
Defpoints
  6
Continuous
 62
     0
100
AcDbPoint
 10
151.1409690414699
 20
82.9872958163869
 30
0.0
  0
POINT
  5
BC7
330
90B
100
AcDbEntity
  8
Defpoints
  6
Continuous
 62
     0
100
AcDbPoint
 10
182.9122234254657
 20
82.98729581638689
 30
0.0
  0
ENDBLK
  5
918
330
90B
100
AcDbEntity
  8
0
100
AcDbBlockEnd
  0
BLOCK
  5
925
330
919
100
AcDbEntity
  8
0
100
AcDbBlockBegin
  2
*D9
 70
     1
 10
0.0
 20
0.0
 30
0.0
  3
*D9
  1

  0
LINE
  5
BC8
330
919
100
AcDbEntity
  8
0
  6
Continuous
 62
     0
370
    -2
100
AcDbLine
 10
384.9797190414699
 20
82.9872958163869
 30
0.0
 11
393.7178398544724
 21
82.9872958163869
 31
0.0
  0
LINE
  5
BC9
330
919
100
AcDbEntity
  8
0
  6
Continuous
 62
     0
370
    -2
100
AcDbLine
 10
384.9797190414699
 20
88.32129581638685
 30
0.0
 11
393.7178398544724
 21
88.32129581638685
 31
0.0
  0
LINE
  5
BCA
330
919
100
AcDbEntity
  8
0
  6
Continuous
 62
     0
370
    -2
100
AcDbLine
 10
390.5428398544724
 20
79.0248958163869
 30
0.0
 11
390.5428398544724
 21
75.0624958163869
 31
0.0
  0
LINE
  5
BCB
330
919
100
AcDbEntity
  8
0
  6
Continuous
 62
     0
370
    -2
100
AcDbLine
 10
390.5428398544724
 20
92.28369581638686
 30
0.0
 11
390.5428398544724
 21
101.9109071415287
 31
0.0
  0
LINE
  5
BCC
330
919
100
AcDbEntity
  8
0
  6
Continuous
 62
     0
370
    -2
100
AcDbLine
 10
390.5428398544724
 20
101.9109071415287
 30
0.0
 11
394.5052398544723
 21
101.9109071415287
 31
0.0
  0
SOLID
  5
BCD
330
919
100
AcDbEntity
  8
0
  6
Continuous
 62
     0
100
AcDbTrace
 10
389.8824398544724
 20
79.0248958163869
 30
0.0
 11
391.2032398544723
 21
79.0248958163869
 31
0.0
 12
390.5428398544724
 22
82.9872958163869
 32
0.0
 13
390.5428398544724
 23
82.9872958163869
 33
0.0
  0
SOLID
  5
BCE
330
919
100
AcDbEntity
  8
0
  6
Continuous
 62
     0
100
AcDbTrace
 10
389.8824398544724
 20
92.28369581638686
 30
0.0
 11
391.2032398544723
 21
92.28369581638686
 31
0.0
 12
390.5428398544724
 22
88.32129581638685
 32
0.0
 13
390.5428398544724
 23
88.32129581638685
 33
0.0
  0
MTEXT
  5
BCF
330
919
100
AcDbEntity
  8
0
  6
Continuous
 62
     0
370
     0
100
AcDbMText
 10
396.0292398544723
 20
103.9545633488957
 30
0.0
 40
4.0
 41
0.0
 71
     1
 72
     1
  1
5.33
  7
Arial
 73
     1
 44
1.0
1001
ACAD
1000
MTEXTBEGIN
1070
    73
1070
     1
1070
    44
1040
1.0
1070
    74
1070
     0
1000
MTEXTEND
  0
POINT
  5
BD0
330
919
100
AcDbEntity
  8
Defpoints
  6
Continuous
 62
     0
100
AcDbPoint
 10
383.7097190414699
 20
82.9872958163869
 30
0.0
  0
POINT
  5
BD1
330
919
100
AcDbEntity
  8
Defpoints
  6
Continuous
 62
     0
100
AcDbPoint
 10
383.7097190414699
 20
88.32129581638685
 30
0.0
  0
POINT
  5
BD2
330
919
100
AcDbEntity
  8
Defpoints
  6
Continuous
 62
     0
100
AcDbPoint
 10
390.5428398544724
 20
88.32129581638685
 30
0.0
  0
ENDBLK
  5
926
330
919
100
AcDbEntity
  8
0
100
AcDbBlockEnd
  0
BLOCK
  5
932
330
927
100
AcDbEntity
  8
0
100
AcDbBlockBegin
  2
*D10
 70
     1
 10
0.0
 20
0.0
 30
0.0
  3
*D10
  1

  0
LINE
  5
BD3
330
927
100
AcDbEntity
  8
0
  6
Continuous
 62
     0
370
    -2
100
AcDbLine
 10
63.81293488181674
 20
82.51104581638696
 30
0.0
 11
63.81293488181674
 21
51.59916219797465
 31
0.0
  0
LINE
  5
BD4
330
927
100
AcDbEntity
  8
0
  6
Continuous
 62
     0
370
    -2
100
AcDbLine
 10
101.6129348818167
 20
82.51104581638683
 30
0.0
 11
101.6129348818167
 21
51.59916219797465
 31
0.0
  0
LINE
  5
BD5
330
927
100
AcDbEntity
  8
0
  6
Continuous
 62
     0
370
    -2
100
AcDbLine
 10
67.77533488181674
 20
54.77416219797465
 30
0.0
 11
74.78576455176233
 21
54.77416219797465
 31
0.0
  0
LINE
  5
BD6
330
927
100
AcDbEntity
  8
0
  6
Continuous
 62
     0
370
    -2
100
AcDbLine
 10
97.65053488181676
 20
54.77416219797465
 30
0.0
 11
88.22939893102562
 21
54.77416219797465
 31
0.0
  0
SOLID
  5
BD7
330
927
100
AcDbEntity
  8
0
  6
Continuous
 62
     0
100
AcDbTrace
 10
67.77533488181674
 20
55.43456219797465
 30
0.0
 11
67.77533488181674
 21
54.11376219797464
 31
0.0
 12
63.81293488181674
 22
54.77416219797465
 32
0.0
 13
63.81293488181674
 23
54.77416219797465
 33
0.0
  0
SOLID
  5
BD8
330
927
100
AcDbEntity
  8
0
  6
Continuous
 62
     0
100
AcDbTrace
 10
97.65053488181676
 20
55.43456219797465
 30
0.0
 11
97.65053488181676
 21
54.11376219797464
 31
0.0
 12
101.6129348818167
 22
54.77416219797465
 32
0.0
 13
101.6129348818167
 23
54.77416219797465
 33
0.0
  0
MTEXT
  5
BD9
330
927
100
AcDbEntity
  8
0
  6
Continuous
 62
     0
370
     0
100
AcDbMText
 10
76.30976455176233
 20
56.81781840534164
 30
0.0
 40
4.0
 41
0.0
 71
     1
 72
     1
  1
37.8
  7
Arial
 73
     1
 44
1.0
1001
ACAD
1000
MTEXTBEGIN
1070
    73
1070
     1
1070
    44
1040
1.0
1070
    74
1070
     0
1000
MTEXTEND
  0
POINT
  5
BDA
330
927
100
AcDbEntity
  8
Defpoints
  6
Continuous
 62
     0
100
AcDbPoint
 10
63.81293488181674
 20
83.78104581638694
 30
0.0
  0
POINT
  5
BDB
330
927
100
AcDbEntity
  8
Defpoints
  6
Continuous
 62
     0
100
AcDbPoint
 10
101.6129348818167
 20
83.78104581638684
 30
0.0
  0
POINT
  5
BDC
330
927
100
AcDbEntity
  8
Defpoints
  6
Continuous
 62
     0
100
AcDbPoint
 10
101.6129348818167
 20
54.77416219797465
 30
0.0
  0
ENDBLK
  5
933
330
927
100
AcDbEntity
  8
0
100
AcDbBlockEnd
  0
BLOCK
  5
93F
330
934
100
AcDbEntity
  8
0
100
AcDbBlockBegin
  2
*D11
 70
     1
 10
0.0
 20
0.0
 30
0.0
  3
*D11
  1

  0
LINE
  5
BDD
330
934
100
AcDbEntity
  8
0
  6
Continuous
 62
     0
370
    -2
100
AcDbLine
 10
66.51168488181674
 20
79.81229581638695
 30
0.0
 11
28.84783464150671
 21
79.81229581638697
 31
0.0
  0
LINE
  5
BDE
330
934
100
AcDbEntity
  8
0
  6
Continuous
 62
     0
370
    -2
100
AcDbLine
 10
66.51168488181683
 20
104.6122958163869
 30
0.0
 11
28.84783464150672
 21
104.612295816387
 31
0.0
  0
LINE
  5
BDF
330
934
100
AcDbEntity
  8
0
  6
Continuous
 62
     0
370
    -2
100
AcDbLine
 10
32.02283464150671
 20
83.77469581638695
 30
0.0
 11
32.02283464150671
 21
88.68797098364035
 31
0.0
  0
LINE
  5
BE0
330
934
100
AcDbEntity
  8
0
  6
Continuous
 62
     0
370
    -2
100
AcDbLine
 10
32.02283464150671
 20
100.6498958163869
 30
0.0
 11
32.02283464150671
 21
95.82055488541389
 31
0.0
  0
SOLID
  5
BE1
330
934
100
AcDbEntity
  8
0
  6
Continuous
 62
     0
100
AcDbTrace
 10
31.36243464150671
 20
83.77469581638697
 30
0.0
 11
32.68323464150672
 21
83.77469581638695
 31
0.0
 12
32.02283464150671
 22
79.81229581638695
 32
0.0
 13
32.02283464150671
 23
79.81229581638695
 33
0.0
  0
SOLID
  5
BE2
330
934
100
AcDbEntity
  8
0
  6
Continuous
 62
     0
100
AcDbTrace
 10
31.36243464150672
 20
100.6498958163869
 30
0.0
 11
32.68323464150672
 21
100.6498958163869
 31
0.0
 12
32.02283464150671
 22
104.6122958163869
 32
0.0
 13
32.02283464150671
 23
104.6122958163869
 33
0.0
  0
MTEXT
  5
BE3
330
934
100
AcDbEntity
  8
0
  6
Continuous
 62
     0
370
     0
100
AcDbMText
 10
26.78954678338937
 20
94.2965548854139
 30
0.0
 40
4.0
 41
0.0
 71
     1
 72
     1
  1
24.8
  7
Arial
 73
     1
 44
1.0
1001
ACAD
1000
MTEXTBEGIN
1070
    73
1070
     1
1070
    44
1040
1.0
1070
    74
1070
     0
1000
MTEXTEND
  0
POINT
  5
BE4
330
934
100
AcDbEntity
  8
Defpoints
  6
Continuous
 62
     0
100
AcDbPoint
 10
67.78168488181674
 20
79.81229581638695
 30
0.0
  0
POINT
  5
BE5
330
934
100
AcDbEntity
  8
Defpoints
  6
Continuous
 62
     0
100
AcDbPoint
 10
67.78168488181683
 20
104.6122958163869
 30
0.0
  0
POINT
  5
BE6
330
934
100
AcDbEntity
  8
Defpoints
  6
Continuous
 62
     0
100
AcDbPoint
 10
32.02283464150671
 20
104.6122958163869
 30
0.0
  0
ENDBLK
  5
940
330
934
100
AcDbEntity
  8
0
100
AcDbBlockEnd
  0
BLOCK
  5
94A
330
941
100
AcDbEntity
  8
0
100
AcDbBlockBegin
  2
*D12
 70
     1
 10
0.0
 20
0.0
 30
0.0
  3
*D12
  1

  0
LINE
  5
BE7
330
941
100
AcDbEntity
  8
0
  6
Continuous
 62
     0
370
    -2
100
AcDbLine
 10
114.8439539437433
 20
114.2190159482367
 30
0.0
 11
108.666823273623
 21
114.2190159482367
 31
0.0
  0
LINE
  5
BE8
330
941
100
AcDbEntity
  8
0
  6
Continuous
 62
     0
370
    -2
100
AcDbLine
 10
108.666823273623
 20
114.2190159482367
 30
0.0
 11
102.6434791649165
 21
106.8006715251462
 31
0.0
  0
MTEXT
  5
BE9
330
941
100
AcDbEntity
  8
0
  6
Continuous
 62
     0
370
     0
100
AcDbMText
 10
116.3679539437433
 20
116.2613078991235
 30
0.0
 40
4.0
 41
0.0
 71
     1
 72
     1
  1
R4.0
  7
Arial
 73
     1
 44
1.0
1001
ACAD
1000
MTEXTBEGIN
1070
    73
1070
     1
1070
    44
1040
1.0
1070
    74
1070
     0
1000
MTEXTEND
  0
SOLID
  5
BEA
330
941
100
AcDbEntity
  8
0
  6
Continuous
 62
     0
100
AcDbTrace
 10
102.1307961595435
 20
107.2169458289432
 30
0.0
 11
103.1561621702896
 21
106.3843972213493
 31
0.0
 12
100.1458333421349
 22
103.7245734929078
 32
0.0
 13
100.1458333421349
 23
103.7245734929078
 33
0.0
  0
POINT
  5
BEB
330
941
100
AcDbEntity
  8
Defpoints
  6
Continuous
 62
     0
100
AcDbPoint
 10
100.1458333421349
 20
103.7245734929078
 30
0.0
  0
POINT
  5
BEC
330
941
100
AcDbEntity
  8
Defpoints
  6
Continuous
 62
     0
100
AcDbPoint
 10
97.64418488181682
 20
100.6435458163868
 30
0.0
  0
ENDBLK
  5
94B
330
941
100
AcDbEntity
  8
0
100
AcDbBlockEnd
  0
BLOCK
  5
957
330
94C
100
AcDbEntity
  8
0
100
AcDbBlockBegin
  2
*D13
 70
     1
 10
0.0
 20
0.0
 30
0.0
  3
*D13
  1

  0
LINE
  5
BED
330
94C
100
AcDbEntity
  8
0
  6
Continuous
 62
     0
370
    -2
100
AcDbLine
 10
68.71293488181677
 20
83.74519581638695
 30
0.0
 11
68.71293488181677
 21
59.21188425436027
 31
0.0
  0
LINE
  5
BEE
330
94C
100
AcDbEntity
  8
0
  6
Continuous
 62
     0
370
    -2
100
AcDbLine
 10
96.7129348818168
 20
85.94229581638684
 30
0.0
 11
96.7129348818168
 21
59.21188425436027
 31
0.0
  0
LINE
  5
BEF
330
94C
100
AcDbEntity
  8
0
  6
Continuous
 62
     0
370
    -2
100
AcDbLine
 10
72.67533488181678
 20
62.38688425436027
 30
0.0
 11
74.76120793511839
 21
62.38688425436027
 31
0.0
  0
LINE
  5
BF0
330
94C
100
AcDbEntity
  8
0
  6
Continuous
 62
     0
370
    -2
100
AcDbLine
 10
92.75053488181679
 20
62.38688425436027
 30
0.0
 11
88.25395554766956
 21
62.38688425436027
 31
0.0
  0
SOLID
  5
BF1
330
94C
100
AcDbEntity
  8
0
  6
Continuous
 62
     0
100
AcDbTrace
 10
72.67533488181678
 20
63.04728425436027
 30
0.0
 11
72.67533488181678
 21
61.72648425436026
 31
0.0
 12
68.71293488181677
 22
62.38688425436027
 32
0.0
 13
68.71293488181677
 23
62.38688425436027
 33
0.0
  0
SOLID
  5
BF2
330
94C
100
AcDbEntity
  8
0
  6
Continuous
 62
     0
100
AcDbTrace
 10
92.75053488181679
 20
63.04728425436027
 30
0.0
 11
92.75053488181679
 21
61.72648425436026
 31
0.0
 12
96.7129348818168
 22
62.38688425436027
 32
0.0
 13
96.7129348818168
 23
62.38688425436027
 33
0.0
  0
MTEXT
  5
BF3
330
94C
100
AcDbEntity
  8
0
  6
Continuous
 62
     0
370
     0
100
AcDbMText
 10
76.28520793511839
 20
64.42917620524703
 30
0.0
 40
4.0
 41
0.0
 71
     1
 72
     1
  1
28.0
  7
Arial
 73
     1
 44
1.0
1001
ACAD
1000
MTEXTBEGIN
1070
    73
1070
     1
1070
    44
1040
1.0
1070
    74
1070
     0
1000
MTEXTEND
  0
POINT
  5
BF4
330
94C
100
AcDbEntity
  8
Defpoints
  6
Continuous
 62
     0
100
AcDbPoint
 10
68.71293488181677
 20
85.01519581638694
 30
0.0
  0
POINT
  5
BF5
330
94C
100
AcDbEntity
  8
Defpoints
  6
Continuous
 62
     0
100
AcDbPoint
 10
96.7129348818168
 20
87.21229581638684
 30
0.0
  0
POINT
  5
BF6
330
94C
100
AcDbEntity
  8
Defpoints
  6
Continuous
 62
     0
100
AcDbPoint
 10
96.7129348818168
 20
62.38688425436027
 30
0.0
  0
ENDBLK
  5
958
330
94C
100
AcDbEntity
  8
0
100
AcDbBlockEnd
  0
BLOCK
  5
964
330
959
100
AcDbEntity
  8
0
100
AcDbBlockBegin
  2
*D14
 70
     1
 10
0.0
 20
0.0
 30
0.0
  3
*D14
  1

  0
LINE
  5
BF7
330
959
100
AcDbEntity
  8
0
  6
Continuous
 62
     0
370
    -2
100
AcDbLine
 10
66.51168488181674
 20
79.81229581638695
 30
0.0
 11
42.39345203334098
 21
79.81229581638695
 31
0.0
  0
LINE
  5
BF8
330
959
100
AcDbEntity
  8
0
  6
Continuous
 62
     0
370
    -2
100
AcDbLine
 10
62.44293488181678
 20
92.21229581638693
 30
0.0
 11
42.39345203334099
 21
92.21229581638693
 31
0.0
  0
LINE
  5
BF9
330
959
100
AcDbEntity
  8
0
  6
Continuous
 62
     0
370
    -2
100
AcDbLine
 10
45.56845203334098
 20
75.84989581638694
 30
0.0
 11
45.56845203334098
 21
71.88749581638695
 31
0.0
  0
LINE
  5
BFA
330
959
100
AcDbEntity
  8
0
  6
Continuous
 62
     0
370
    -2
100
AcDbLine
 10
45.56845203334098
 20
96.17469581638694
 30
0.0
 11
45.56845203334098
 21
100.1370958163869
 31
0.0
  0
SOLID
  5
BFB
330
959
100
AcDbEntity
  8
0
  6
Continuous
 62
     0
100
AcDbTrace
 10
44.90805203334097
 20
75.84989581638694
 30
0.0
 11
46.22885203334099
 21
75.84989581638694
 31
0.0
 12
45.56845203334098
 22
79.81229581638695
 32
0.0
 13
45.56845203334098
 23
79.81229581638695
 33
0.0
  0
SOLID
  5
BFC
330
959
100
AcDbEntity
  8
0
  6
Continuous
 62
     0
100
AcDbTrace
 10
44.90805203334098
 20
96.17469581638694
 30
0.0
 11
46.22885203334099
 21
96.17469581638694
 31
0.0
 12
45.56845203334098
 22
92.21229581638693
 32
0.0
 13
45.56845203334098
 23
92.21229581638693
 33
0.0
  0
MTEXT
  5
BFD
330
959
100
AcDbEntity
  8
0
  6
Continuous
 62
     0
370
     0
100
AcDbMText
 10
40.56981628982119
 20
87.9413961536901
 30
0.0
 40
4.0
 41
0.0
 71
     1
 72
     1
  1
12.4
  7
Arial
 73
     1
 44
1.0
1001
ACAD
1000
MTEXTBEGIN
1070
    73
1070
     1
1070
    44
1040
1.0
1070
    74
1070
     0
1000
MTEXTEND
  0
POINT
  5
BFE
330
959
100
AcDbEntity
  8
Defpoints
  6
Continuous
 62
     0
100
AcDbPoint
 10
67.78168488181674
 20
79.81229581638695
 30
0.0
  0
POINT
  5
BFF
330
959
100
AcDbEntity
  8
Defpoints
  6
Continuous
 62
     0
100
AcDbPoint
 10
63.71293488181678
 20
92.21229581638693
 30
0.0
  0
POINT
  5
C00
330
959
100
AcDbEntity
  8
Defpoints
  6
Continuous
 62
     0
100
AcDbPoint
 10
45.56845203334098
 20
92.21229581638693
 30
0.0
  0
ENDBLK
  5
965
330
959
100
AcDbEntity
  8
0
100
AcDbBlockEnd
  0
BLOCK
  5
971
330
966
100
AcDbEntity
  8
0
100
AcDbBlockBegin
  2
*D15
 70
     1
 10
0.0
 20
0.0
 30
0.0
  3
*D15
  1

  0
LINE
  5
C01
330
966
100
AcDbEntity
  8
0
  6
Continuous
 62
     0
370
    -2
100
AcDbLine
 10
68.71293488181679
 20
85.94229581638693
 30
0.0
 11
68.71293488181679
 21
64.44358066333184
 31
0.0
  0
LINE
  5
C02
330
966
100
AcDbEntity
  8
0
  6
Continuous
 62
     0
370
    -2
100
AcDbLine
 10
63.81293488181674
 20
82.51104581638696
 30
0.0
 11
63.81293488181674
 21
64.44358066333184
 31
0.0
  0
LINE
  5
C03
330
966
100
AcDbEntity
  8
0
  6
Continuous
 62
     0
370
    -2
100
AcDbLine
 10
72.6753348818168
 20
67.61858066333184
 30
0.0
 11
76.63773488181679
 21
67.61858066333184
 31
0.0
  0
LINE
  5
C04
330
966
100
AcDbEntity
  8
0
  6
Continuous
 62
     0
370
    -2
100
AcDbLine
 10
59.85053488181674
 20
67.61858066333184
 30
0.0
 11
55.56923173018993
 21
67.61858066333184
 31
0.0
  0
SOLID
  5
C05
330
966
100
AcDbEntity
  8
0
  6
Continuous
 62
     0
100
AcDbTrace
 10
72.6753348818168
 20
68.27898066333183
 30
0.0
 11
72.6753348818168
 21
66.95818066333185
 31
0.0
 12
68.71293488181679
 22
67.61858066333184
 32
0.0
 13
68.71293488181679
 23
67.61858066333184
 33
0.0
  0
SOLID
  5
C06
330
966
100
AcDbEntity
  8
0
  6
Continuous
 62
     0
100
AcDbTrace
 10
59.85053488181674
 20
68.27898066333183
 30
0.0
 11
59.85053488181674
 21
66.95818066333185
 31
0.0
 12
63.81293488181674
 22
67.61858066333184
 32
0.0
 13
63.81293488181674
 23
67.61858066333184
 33
0.0
  0
MTEXT
  5
C07
330
966
100
AcDbEntity
  8
0
  6
Continuous
 62
     0
370
     0
100
AcDbMText
 10
46.59366283523768
 20
69.6608726142186
 30
0.0
 40
4.0
 41
0.0
 71
     1
 72
     1
  1
4.9
  7
Arial
 73
     1
 44
1.0
1001
ACAD
1000
MTEXTBEGIN
1070
    73
1070
     1
1070
    44
1040
1.0
1070
    74
1070
     0
1000
MTEXTEND
  0
POINT
  5
C08
330
966
100
AcDbEntity
  8
Defpoints
  6
Continuous
 62
     0
100
AcDbPoint
 10
68.71293488181679
 20
87.21229581638693
 30
0.0
  0
POINT
  5
C09
330
966
100
AcDbEntity
  8
Defpoints
  6
Continuous
 62
     0
100
AcDbPoint
 10
63.81293488181674
 20
83.78104581638694
 30
0.0
  0
POINT
  5
C0A
330
966
100
AcDbEntity
  8
Defpoints
  6
Continuous
 62
     0
100
AcDbPoint
 10
63.81293488181674
 20
67.61858066333184
 30
0.0
  0
ENDBLK
  5
972
330
966
100
AcDbEntity
  8
0
100
AcDbBlockEnd
  0
BLOCK
  5
97D
330
973
100
AcDbEntity
  8
0
100
AcDbBlockBegin
  2
*D16
 70
     1
 10
0.0
 20
0.0
 30
0.0
  3
*D16
  1

  0
LINE
  5
D40
330
973
100
AcDbEntity
  8
0
  6
Continuous
 62
     0
370
    -2
100
AcDbLine
 10
51.22728773727247
 20
114.2190159482367
 30
0.0
 11
56.69862785925832
 21
114.2190159482367
 31
0.0
  0
LINE
  5
D41
330
973
100
AcDbEntity
  8
0
  6
Continuous
 62
     0
370
    -2
100
AcDbLine
 10
56.69862785925832
 20
114.2190159482367
 30
0.0
 11
65.76143058225054
 21
97.6185942376399
 31
0.0
  0
MTEXT
  5
D42
330
973
100
AcDbEntity
  8
0
  6
Continuous
 62
     0
370
     0
100
AcDbMText
 10
9.635074913261529
 20
116.3731769305014
 30
0.0
 40
4.0
 41
0.0
 71
     1
 72
     1
  1
2X \U+22054.39 THRU
  7
Arial
 73
     1
 44
1.0
1001
ACAD
1000
MTEXTBEGIN
1070
    73
1070
     1
1070
    44
1040
1.0
1070
    74
1070
     0
1000
MTEXTEND
  0
SOLID
  5
D43
330
973
100
AcDbEntity
  8
0
  6
Continuous
 62
     0
100
AcDbTrace
 10
66.34107494906529
 20
97.9350441831604
 30
0.0
 11
65.18178621543579
 21
97.3021442921194
 31
0.0
 12
67.66013025537358
 22
94.14072803675143
 32
0.0
 13
67.66013025537358
 23
94.14072803675143
 33
0.0
  0
POINT
  5
D44
330
973
100
AcDbEntity
  8
Defpoints
  6
Continuous
 62
     0
100
AcDbPoint
 10
67.66013025537358
 20
94.14072803675143
 30
0.0
  0
POINT
  5
D45
330
973
100
AcDbEntity
  8
Defpoints
  6
Continuous
 62
     0
100
AcDbPoint
 10
69.76573950826007
 20
90.28386359602246
 30
0.0
  0
ENDBLK
  5
97E
330
973
100
AcDbEntity
  8
0
100
AcDbBlockEnd
  0
BLOCK
  5
98A
330
97F
100
AcDbEntity
  8
0
100
AcDbBlockBegin
  2
*D17
 70
     1
 10
0.0
 20
0.0
 30
0.0
  3
*D17
  1

  0
LINE
  5
C11
330
97F
100
AcDbEntity
  8
0
  6
Continuous
 62
     0
370
    -2
100
AcDbLine
 10
98.91418488181676
 20
79.81229581638683
 30
0.0
 11
117.5178914856656
 21
79.81229581638683
 31
0.0
  0
LINE
  5
C12
330
97F
100
AcDbEntity
  8
0
  6
Continuous
 62
     0
370
    -2
100
AcDbLine
 10
88.98293488181666
 20
95.75459581638687
 30
0.0
 11
117.5178914856656
 21
95.75459581638687
 31
0.0
  0
LINE
  5
C13
330
97F
100
AcDbEntity
  8
0
  6
Continuous
 62
     0
370
    -2
100
AcDbLine
 10
114.3428914856656
 20
75.84989581638684
 30
0.0
 11
114.3428914856656
 21
71.88749581638683
 31
0.0
  0
LINE
  5
C14
330
97F
100
AcDbEntity
  8
0
  6
Continuous
 62
     0
370
    -2
100
AcDbLine
 10
114.3428914856656
 20
99.71699581638688
 30
0.0
 11
114.3428914856656
 21
103.6793958163868
 31
0.0
  0
SOLID
  5
C15
330
97F
100
AcDbEntity
  8
0
  6
Continuous
 62
     0
100
AcDbTrace
 10
113.6824914856656
 20
75.84989581638684
 30
0.0
 11
115.0032914856656
 21
75.84989581638684
 31
0.0
 12
114.3428914856656
 22
79.81229581638683
 32
0.0
 13
114.3428914856656
 23
79.81229581638683
 33
0.0
  0
SOLID
  5
C16
330
97F
100
AcDbEntity
  8
0
  6
Continuous
 62
     0
100
AcDbTrace
 10
113.6824914856656
 20
99.71699581638688
 30
0.0
 11
115.0032914856657
 21
99.71699581638688
 31
0.0
 12
114.3428914856656
 22
95.75459581638687
 32
0.0
 13
114.3428914856656
 23
95.75459581638687
 33
0.0
  0
MTEXT
  5
C17
330
97F
100
AcDbEntity
  8
0
  6
Continuous
 62
     0
370
     0
100
AcDbMText
 10
109.3319774338239
 20
90.35070615946121
 30
0.0
 40
4.0
 41
0.0
 71
     1
 72
     1
  1
15.9
  7
Arial
 73
     1
 44
1.0
1001
ACAD
1000
MTEXTBEGIN
1070
    73
1070
     1
1070
    44
1040
1.0
1070
    74
1070
     0
1000
MTEXTEND
  0
POINT
  5
C18
330
97F
100
AcDbEntity
  8
Defpoints
  6
Continuous
 62
     0
100
AcDbPoint
 10
97.64418488181675
 20
79.81229581638683
 30
0.0
  0
POINT
  5
C19
330
97F
100
AcDbEntity
  8
Defpoints
  6
Continuous
 62
     0
100
AcDbPoint
 10
87.71293488181667
 20
95.75459581638687
 30
0.0
  0
POINT
  5
C1A
330
97F
100
AcDbEntity
  8
Defpoints
  6
Continuous
 62
     0
100
AcDbPoint
 10
114.3428914856656
 20
95.75459581638687
 30
0.0
  0
ENDBLK
  5
98B
330
97F
100
AcDbEntity
  8
0
100
AcDbBlockEnd
  0
BLOCK
  5
997
330
98C
100
AcDbEntity
  8
0
100
AcDbBlockBegin
  2
*D18
 70
     1
 10
0.0
 20
0.0
 30
0.0
  3
*D18
  1

  0
LINE
  5
C1B
330
98C
100
AcDbEntity
  8
0
  6
Continuous
 62
     0
370
    -2
100
AcDbLine
 10
373.1397190414699
 20
149.9891761185633
 30
0.0
 11
373.1397190414699
 21
120.346455770966
 31
0.0
  0
LINE
  5
C1C
330
98C
100
AcDbEntity
  8
0
  6
Continuous
 62
     0
370
    -2
100
AcDbLine
 10
151.1409690414697
 20
133.1786982934554
 30
0.0
 11
151.1409690414697
 21
120.346455770966
 31
0.0
  0
LINE
  5
C1D
330
98C
100
AcDbEntity
  8
0
  6
Continuous
 62
     0
370
    -2
100
AcDbLine
 10
369.1773190414699
 20
123.521455770966
 30
0.0
 11
274.7885636918907
 21
123.521455770966
 31
0.0
  0
LINE
  5
C1E
330
98C
100
AcDbEntity
  8
0
  6
Continuous
 62
     0
370
    -2
100
AcDbLine
 10
155.1033690414697
 20
123.521455770966
 30
0.0
 11
258.1880398174023
 21
123.521455770966
 31
0.0
  0
SOLID
  5
C1F
330
98C
100
AcDbEntity
  8
0
  6
Continuous
 62
     0
100
AcDbTrace
 10
369.1773190414699
 20
124.181855770966
 30
0.0
 11
369.1773190414699
 21
122.8610557709661
 31
0.0
 12
373.1397190414699
 22
123.521455770966
 32
0.0
 13
373.1397190414699
 23
123.521455770966
 33
0.0
  0
SOLID
  5
C20
330
98C
100
AcDbEntity
  8
0
  6
Continuous
 62
     0
100
AcDbTrace
 10
155.1033690414697
 20
124.181855770966
 30
0.0
 11
155.1033690414697
 21
122.8610557709661
 31
0.0
 12
151.1409690414697
 22
123.521455770966
 32
0.0
 13
151.1409690414697
 23
123.521455770966
 33
0.0
  0
MTEXT
  5
C21
330
98C
100
AcDbEntity
  8
0
  6
Continuous
 62
     0
370
     0
100
AcDbMText
 10
259.7120398174023
 20
125.5637477218528
 30
0.0
 40
4.0
 41
0.0
 71
     1
 72
     1
  1
222.0
  7
Arial
 73
     1
 44
1.0
1001
ACAD
1000
MTEXTBEGIN
1070
    73
1070
     1
1070
    44
1040
1.0
1070
    74
1070
     0
1000
MTEXTEND
  0
POINT
  5
C22
330
98C
100
AcDbEntity
  8
Defpoints
  6
Continuous
 62
     0
100
AcDbPoint
 10
373.1397190414699
 20
151.2591761185633
 30
0.0
  0
POINT
  5
C23
330
98C
100
AcDbEntity
  8
Defpoints
  6
Continuous
 62
     0
100
AcDbPoint
 10
151.1409690414697
 20
134.4486982934555
 30
0.0
  0
POINT
  5
C24
330
98C
100
AcDbEntity
  8
Defpoints
  6
Continuous
 62
     0
100
AcDbPoint
 10
151.1409690414697
 20
123.521455770966
 30
0.0
  0
ENDBLK
  5
998
330
98C
100
AcDbEntity
  8
0
100
AcDbBlockEnd
  0
BLOCK
  5
9A4
330
999
100
AcDbEntity
  8
0
100
AcDbBlockBegin
  2
*D19
 70
     1
 10
0.0
 20
0.0
 30
0.0
  3
*D19
  1

  0
LINE
  5
C25
330
999
100
AcDbEntity
  8
0
  6
Continuous
 62
     0
370
    -2
100
AcDbLine
 10
140.3459690414697
 20
134.4486982934555
 30
0.0
 11
116.9383552632295
 21
134.4486982934555
 31
0.0
  0
LINE
  5
C26
330
999
100
AcDbEntity
  8
0
  6
Continuous
 62
     0
370
    -2
100
AcDbLine
 10
140.3459690414697
 20
172.2486982934555
 30
0.0
 11
116.9383552632295
 21
172.2486982934555
 31
0.0
  0
LINE
  5
C27
330
999
100
AcDbEntity
  8
0
  6
Continuous
 62
     0
370
    -2
100
AcDbLine
 10
120.1133552632295
 20
138.4110982934555
 30
0.0
 11
120.1133552632295
 21
148.1132022857323
 31
0.0
  0
LINE
  5
C28
330
999
100
AcDbEntity
  8
0
  6
Continuous
 62
     0
370
    -2
100
AcDbLine
 10
120.1133552632295
 20
168.2862982934555
 30
0.0
 11
120.1133552632295
 21
156.4054041956914
 31
0.0
  0
SOLID
  5
C29
330
999
100
AcDbEntity
  8
0
  6
Continuous
 62
     0
100
AcDbTrace
 10
119.4529552632294
 20
138.4110982934555
 30
0.0
 11
120.7737552632295
 21
138.4110982934555
 31
0.0
 12
120.1133552632295
 22
134.4486982934555
 32
0.0
 13
120.1133552632295
 23
134.4486982934555
 33
0.0
  0
SOLID
  5
C2A
330
999
100
AcDbEntity
  8
0
  6
Continuous
 62
     0
100
AcDbTrace
 10
119.4529552632295
 20
168.2862982934555
 30
0.0
 11
120.7737552632295
 21
168.2862982934555
 31
0.0
 12
120.1133552632295
 22
172.2486982934555
 32
0.0
 13
120.1133552632295
 23
172.2486982934555
 33
0.0
  0
MTEXT
  5
C2B
330
999
100
AcDbEntity
  8
0
  6
Continuous
 62
     0
370
     0
100
AcDbMText
 10
113.0847058771449
 20
154.8814041956915
 30
0.0
 40
4.0
 41
0.0
 71
     1
 72
     1
  1
(37.8)
  7
Arial
 73
     1
 44
1.0
1001
ACAD
1000
MTEXTBEGIN
1070
    73
1070
     1
1070
    44
1040
1.0
1070
    74
1070
     0
1000
MTEXTEND
  0
POINT
  5
C2C
330
999
100
AcDbEntity
  8
Defpoints
  6
Continuous
 62
     0
100
AcDbPoint
 10
141.6159690414697
 20
134.4486982934555
 30
0.0
  0
POINT
  5
C2D
330
999
100
AcDbEntity
  8
Defpoints
  6
Continuous
 62
     0
100
AcDbPoint
 10
141.6159690414697
 20
172.2486982934555
 30
0.0
  0
POINT
  5
C2E
330
999
100
AcDbEntity
  8
Defpoints
  6
Continuous
 62
     0
100
AcDbPoint
 10
120.1133552632295
 20
172.2486982934555
 30
0.0
  0
ENDBLK
  5
9A5
330
999
100
AcDbEntity
  8
0
100
AcDbBlockEnd
  0
BLOCK
  5
9B1
330
9A6
100
AcDbEntity
  8
0
100
AcDbBlockBegin
  2
*D20
 70
     1
 10
0.0
 20
0.0
 30
0.0
  3
*D20
  1

  0
LINE
  5
CD1
330
9A6
100
AcDbEntity
  8
0
  6
Continuous
 62
     0
370
    -2
100
AcDbLine
 10
383.3922190414699
 20
143.8236982934556
 30
0.0
 11
404.5024177250327
 21
143.8236982934556
 31
0.0
  0
LINE
  5
CD2
330
9A6
100
AcDbEntity
  8
0
  6
Continuous
 62
     0
370
    -2
100
AcDbLine
 10
383.3922190414699
 20
162.8736982934555
 30
0.0
 11
404.5024177250327
 21
162.8736982934555
 31
0.0
  0
LINE
  5
CD3
330
9A6
100
AcDbEntity
  8
0
  6
Continuous
 62
     0
370
    -2
100
AcDbLine
 10
401.3274177250328
 20
147.7860982934556
 30
0.0
 11
401.3274177250328
 21
150.0539549052021
 31
0.0
  0
LINE
  5
CD4
330
9A6
100
AcDbEntity
  8
0
  6
Continuous
 62
     0
370
    -2
100
AcDbLine
 10
401.3274177250328
 20
158.9112982934555
 30
0.0
 11
401.3274177250328
 21
157.1865388069757
 31
0.0
  0
SOLID
  5
CD5
330
9A6
100
AcDbEntity
  8
0
  6
Continuous
 62
     0
100
AcDbTrace
 10
400.6670177250327
 20
147.7860982934556
 30
0.0
 11
401.9878177250327
 21
147.7860982934556
 31
0.0
 12
401.3274177250328
 22
143.8236982934556
 32
0.0
 13
401.3274177250328
 23
143.8236982934556
 33
0.0
  0
SOLID
  5
CD6
330
9A6
100
AcDbEntity
  8
0
  6
Continuous
 62
     0
100
AcDbTrace
 10
400.6670177250327
 20
158.9112982934555
 30
0.0
 11
401.9878177250327
 21
158.9112982934555
 31
0.0
 12
401.3274177250328
 22
162.8736982934555
 32
0.0
 13
401.3274177250328
 23
162.8736982934555
 33
0.0
  0
MTEXT
  5
CD7
330
9A6
100
AcDbEntity
  8
0
  6
Continuous
 62
     0
370
     0
100
AcDbMText
 10
394.7517014903806
 20
155.6625388069757
 30
0.0
 40
4.0
 41
0.0
 71
     1
 72
     1
  1
19.05
  7
Arial
 73
     1
 44
1.0
1001
ACAD
1000
MTEXTBEGIN
1070
    73
1070
     1
1070
    44
1040
1.0
1070
    74
1070
     0
1000
MTEXTEND
  0
POINT
  5
CD8
330
9A6
100
AcDbEntity
  8
Defpoints
  6
Continuous
 62
     0
100
AcDbPoint
 10
382.1222190414699
 20
143.8236982934556
 30
0.0
  0
POINT
  5
CD9
330
9A6
100
AcDbEntity
  8
Defpoints
  6
Continuous
 62
     0
100
AcDbPoint
 10
382.1222190414699
 20
162.8736982934555
 30
0.0
  0
POINT
  5
CDA
330
9A6
100
AcDbEntity
  8
Defpoints
  6
Continuous
 62
     0
100
AcDbPoint
 10
401.3274177250328
 20
162.8736982934555
 30
0.0
  0
ENDBLK
  5
9B2
330
9A6
100
AcDbEntity
  8
0
100
AcDbBlockEnd
  0
ENDSEC
  0
SECTION
  2
ENTITIES
  0
LINE
  5
7E6
330
1F
100
AcDbEntity
  8
0
  6
Continuous
 62
     7
370
     0
100
AcDbLine
 10
371.3846591346546
 20
85.1462958163869
 30
0.0
 11
374.8947789482853
 21
85.1462958163869
 31
0.0
  0
LINE
  5
7E7
330
1F
100
AcDbEntity
  8
0
  6
Continuous
 62
     7
370
     0
100
AcDbLine
 10
373.1397190414699
 20
86.90135572320219
 30
0.0
 11
373.1397190414699
 21
83.39123590957155
 31
0.0
  0
CIRCLE
  5
7E8
330
1F
100
AcDbEntity
  8
0
  6
Continuous
 62
     7
370
     0
100
AcDbCircle
 10
373.1397190414699
 20
85.1462958163869
 30
0.0
 40
1.755059906815356
  0
LINE
  5
7E9
330
1F
100
AcDbEntity
  8
0
  6
Continuous
 62
     7
370
    15
100
AcDbLine
 10
140.0635069820399
 20
102.7545958163869
 30
0.0
 11
138.331456174471
 21
101.7545958163869
 31
0.0
  0
LINE
  5
7EA
330
1F
100
AcDbEntity
  8
0
  6
Continuous
 62
     7
370
    15
100
AcDbLine
 10
138.331456174471
 20
89.75459581638688
 30
0.0
 11
140.0635069820399
 21
88.75459581638688
 31
0.0
  0
LINE
  5
7EB
330
1F
100
AcDbEntity
  8
0
  6
Continuous
 62
     7
370
    15
100
AcDbLine
 10
141.531456174471
 20
102.7545958163869
 30
0.0
 11
140.0635069820399
 21
102.7545958163869
 31
0.0
  0
LINE
  5
7EC
330
1F
100
AcDbEntity
  8
0
  6
Continuous
 62
     7
370
    15
100
AcDbLine
 10
140.0635069820399
 20
88.75459581638688
 30
0.0
 11
141.531456174471
 21
88.75459581638688
 31
0.0
  0
LINE
  5
7ED
330
1F
100
AcDbEntity
  8
0
  6
Continuous
 62
     7
370
    15
100
AcDbLine
 10
160.7036628576548
 20
102.0545965711724
 30
0.0
 11
151.6409690414698
 21
102.0545958163869
 31
0.0
  0
LINE
  5
7EE
330
1F
100
AcDbEntity
  8
0
  6
Continuous
 62
     7
370
    15
100
AcDbLine
 10
151.6409690414698
 20
102.0545958163869
 30
0.0
 11
151.1409618707927
 21
101.5545955578935
 31
0.0
  0
LINE
  5
7EF
330
1F
100
AcDbEntity
  8
0
  6
Continuous
 62
     7
370
    15
100
AcDbLine
 10
138.0409690414698
 20
101.2545958163869
 30
0.0
 11
137.5409690414698
 21
100.7545958163869
 31
0.0
  0
LINE
  5
7F0
330
1F
100
AcDbEntity
  8
0
  6
Continuous
 62
     7
370
    15
100
AcDbLine
 10
137.5409690414698
 20
90.75459581638687
 30
0.0
 11
138.0409690414698
 21
90.25459581638688
 31
0.0
  0
LINE
  5
7F1
330
1F
100
AcDbEntity
  8
0
  6
Continuous
 62
     7
370
    15
100
AcDbLine
 10
141.6159757229121
 20
101.2545960675132
 30
0.0
 11
141.5314563366206
 21
101.2545960675132
 31
0.0
  0
LINE
  5
7F2
330
1F
100
AcDbEntity
  8
0
  6
Continuous
 62
     7
370
    15
100
AcDbLine
 10
138.3314617725642
 20
101.2545960675132
 30
0.0
 11
138.0409690414698
 21
101.2545958163869
 31
0.0
  0
LINE
  5
7F3
330
1F
100
AcDbEntity
  8
0
  6
Continuous
 62
     7
370
    15
100
AcDbLine
 10
138.0409690414698
 20
90.25459581638688
 30
0.0
 11
138.3314617725642
 21
90.25459566145656
 31
0.0
  0
LINE
  5
7F4
330
1F
100
AcDbEntity
  8
0
  6
Continuous
 62
     7
370
    15
100
AcDbLine
 10
141.5314563366206
 20
90.25459566145656
 30
0.0
 11
141.6159757229121
 21
90.25459566145656
 31
0.0
  0
LINE
  5
7F5
330
1F
100
AcDbEntity
  8
0
  6
Continuous
 62
     7
370
    15
100
AcDbLine
 10
151.2743123623164
 20
88.0672957700815
 30
0.0
 11
151.2743123623164
 21
88.32129572510234
 31
0.0
  0
LINE
  5
7F6
330
1F
100
AcDbEntity
  8
0
  6
Continuous
 62
     7
370
    15
100
AcDbLine
 10
381.9698190414698
 20
88.32129581638685
 30
0.0
 11
151.2743123623164
 21
88.32129572510234
 31
0.0
  0
LINE
  5
7F7
330
1F
100
AcDbEntity
  8
0
  6
Continuous
 62
     7
370
    15
100
AcDbLine
 10
383.5573187845382
 20
88.0672957700815
 30
0.0
 11
383.5573190414699
 21
88.32129581638685
 31
0.0
  0
LINE
  5
7F8
330
1F
100
AcDbEntity
  8
0
  6
Continuous
 62
     7
370
    15
100
AcDbLine
 10
383.5573190414699
 20
88.32129581638685
 30
0.0
 11
381.9698190414698
 21
88.32129581638685
 31
0.0
  0
LINE
  5
7F9
330
1F
100
AcDbEntity
  8
0
  6
Continuous
 62
     7
370
    15
100
AcDbLine
 10
141.6159690414698
 20
104.6122958163868
 30
0.0
 11
151.1409690414698
 21
104.6122958163868
 31
0.0
  0
LINE
  5
7FE
330
1F
100
AcDbEntity
  8
0
  6
Continuous
 62
     7
370
    15
100
AcDbLine
 10
151.1409690414698
 20
79.81229581638683
 30
0.0
 11
141.6159690414698
 21
79.81229581638683
 31
0.0
  0
LINE
  5
7FF
330
1F
100
AcDbEntity
  8
0
  6
Continuous
 62
     7
370
    15
100
AcDbLine
 10
141.6159690414698
 20
79.81229581638683
 30
0.0
 11
141.6159690414698
 21
104.6122958163868
 31
0.0
  0
LINE
  5
800
330
1F
100
AcDbEntity
  8
0
  6
Continuous
 62
     7
370
    15
100
AcDbLine
 10
151.1409690414698
 20
79.81229581638683
 30
0.0
 11
151.1409690414698
 21
104.6122958163868
 31
0.0
  0
LINE
  5
801
330
1F
100
AcDbEntity
  8
0
  6
Continuous
 62
     7
370
    15
100
AcDbLine
 10
382.1222190414699
 20
88.06729581638686
 30
0.0
 11
151.1409618707927
 21
88.0672957700815
 31
0.0
  0
LINE
  5
802
330
1F
100
AcDbEntity
  8
0
  6
Continuous
 62
     7
370
    15
100
AcDbLine
 10
151.1409618707927
 20
82.98729585475735
 30
0.0
 11
382.1222190414699
 21
82.98729581638685
 31
0.0
  0
LINE
  5
803
330
1F
100
AcDbEntity
  8
0
  6
Continuous
 62
     7
370
    15
100
AcDbLine
 10
383.7097190414699
 20
88.06729581638689
 30
0.0
 11
383.7097190414699
 21
82.98729581638687
 31
0.0
  0
LINE
  5
804
330
1F
100
AcDbEntity
  8
0
  6
Continuous
 62
     7
370
    15
100
AcDbLine
 10
383.7097190414699
 20
82.98729581638687
 30
0.0
 11
382.1222190414699
 21
82.98729581638685
 31
0.0
  0
LINE
  5
805
330
1F
100
AcDbEntity
  8
0
  6
Continuous
 62
     7
370
    15
100
AcDbLine
 10
382.1222190414699
 20
88.06729581638686
 30
0.0
 11
383.7097190414699
 21
88.06729581638689
 31
0.0
  0
LINE
  5
807
330
1F
100
AcDbEntity
  8
0
  6
Continuous
 62
     7
370
    15
100
AcDbLine
 10
138.331456174471
 20
89.75459581638688
 30
0.0
 11
138.331456174471
 21
101.7545958163869
 31
0.0
  0
ARC
  5
808
330
1F
100
AcDbEntity
  8
0
  6
Continuous
 62
     7
370
    15
100
AcDbCircle
 10
144.2268906887002
 20
96.37277476403108
 30
0.0
 40
5.927750582572975
100
AcDbArc
 50
185.9860049979841
 51
224.9469752059007
  0
LINE
  5
809
330
1F
100
AcDbEntity
  8
0
  6
Continuous
 62
     7
370
    15
100
AcDbLine
 10
140.031456174471
 20
92.18510301981178
 30
0.0
 11
140.031456174471
 21
99.32408861296199
 31
0.0
  0
ARC
  5
80A
330
1F
100
AcDbEntity
  8
0
  6
Continuous
 62
     7
370
    15
100
AcDbCircle
 10
143.7361752363605
 20
95.37012346870175
 30
0.0
 40
5.418371233857414
100
AcDbArc
 50
133.1359775291911
 51
175.9310306602712
  0
LINE
  5
80B
330
1F
100
AcDbEntity
  8
0
  6
Continuous
 62
     7
370
    15
100
AcDbLine
 10
140.0635069820399
 20
102.7545958163869
 30
0.0
 11
140.0635069820399
 21
88.75459581638688
 31
0.0
  0
LINE
  5
80C
330
1F
100
AcDbEntity
  8
0
  6
Continuous
 62
     7
370
    15
100
AcDbLine
 10
141.531456174471
 20
102.7545958163869
 30
0.0
 11
141.531456174471
 21
88.75459581638688
 31
0.0
  0
LINE
  5
80E
330
1F
100
AcDbEntity
  8
0
  6
Continuous
 62
     7
370
    15
100
AcDbLine
 10
161.9934924694331
 20
99.82054742976538
 30
0.0
 11
151.6409690414698
 21
99.82054714252843
 31
0.0
  0
LINE
  5
80F
330
1F
100
AcDbEntity
  8
0
  6
Continuous
 62
     7
370
    15
100
AcDbLine
 10
151.6409690414698
 20
102.0545958163869
 30
0.0
 11
151.6409690414698
 21
99.82054714252843
 31
0.0
  0
LINE
  5
810
330
1F
100
AcDbEntity
  8
0
  6
Continuous
 62
     7
370
    15
100
AcDbLine
 10
151.1409618707927
 20
99.57855722859017
 30
0.0
 11
151.6409690414698
 21
99.82054714252843
 31
0.0
  0
LINE
  5
811
330
1F
100
AcDbEntity
  8
0
  6
Continuous
 62
     7
370
    15
100
AcDbLine
 10
163.8409682365687
 20
88.32129572510234
 30
0.0
 11
163.8409682365687
 21
96.62062085225693
 31
0.0
  0
LINE
  5
812
330
1F
100
AcDbEntity
  8
0
  6
Continuous
 62
     7
370
    15
100
AcDbLine
 10
151.6409690414698
 20
99.82054714252843
 30
0.0
 11
151.6409703346522
 21
88.32129572510234
 31
0.0
  0
LINE
  5
813
330
1F
100
AcDbEntity
  8
0
  6
Continuous
 62
     7
370
    15
100
AcDbLine
 10
163.8409682365687
 20
96.62062085225693
 30
0.0
 11
161.9934924694331
 21
99.82054742976538
 31
0.0
  0
LINE
  5
814
330
1F
100
AcDbEntity
  8
0
  6
Continuous
 62
     7
370
    15
100
AcDbLine
 10
164.3409617992671
 20
95.75459609731547
 30
0.0
 11
164.3409617992671
 21
88.32129572510234
 31
0.0
  0
LINE
  5
815
330
1F
100
AcDbEntity
  8
0
  6
Continuous
 62
     7
370
    15
100
AcDbLine
 10
163.8409682365687
 20
96.62062085225693
 30
0.0
 11
164.3409617992671
 21
95.75459609731547
 31
0.0
  0
LINE
  5
817
330
1F
100
AcDbEntity
  8
0
  6
Continuous
 62
     7
370
    15
100
AcDbLine
 10
137.5409690414698
 20
90.75459581638687
 30
0.0
 11
137.5409690414698
 21
100.7545958163869
 31
0.0
  0
LINE
  5
818
330
1F
100
AcDbEntity
  8
0
  6
Continuous
 62
     7
370
    15
100
AcDbLine
 10
138.0409690414698
 20
90.25459581638688
 30
0.0
 11
138.0409690414698
 21
101.2545958163869
 31
0.0
  0
DIMENSION
  5
81A
330
1F
100
AcDbEntity
  8
0
  6
Continuous
 62
     7
370
     0
100
AcDbDimension
  2
*D4
 10
399.6641855287279
 20
82.9872958163869
 30
0.0
 11
410.3784163609243
 21
93.07109581638696
 31
0.0
 70
   160
 42
2.158999999999991
  3
Arial
100
AcDbAlignedDimension
 13
374.8947789482853
 23
85.1462958163869
 33
0.0
 14
383.7097190414699
 24
82.9872958163869
 34
0.0
 50
90.00000000000019
100
AcDbRotatedDimension
1001
ACAD
1000
DSTYLE
1002
{
1070
   141
1040
0.0
1070
   179
1070
     2
1002
}
  0
DIMENSION
  5
81B
330
1F
100
AcDbEntity
  8
0
  6
Continuous
 62
     7
370
     0
100
AcDbDimension
  2
*D5
 10
383.7097190414699
 20
45.53203296948914
 30
0.0
 11
236.1548748628223
 21
45.53203296948914
 31
0.0
 70
   160
 42
246.1687500000001
  3
Arial
100
AcDbAlignedDimension
 13
137.5409690414698
 23
90.75459581638687
 33
0.0
 14
383.7097190414699
 24
82.9872958163869
 34
0.0
100
AcDbRotatedDimension
1001
ACAD
1000
DSTYLE
1002
{
1070
   141
1040
0.0
1070
   179
1070
     1
1070
   271
1070
     1
1070
   272
1070
     1
1002
}
  0
DIMENSION
  5
81C
330
1F
100
AcDbEntity
  8
0
  6
Continuous
 62
     7
370
     0
100
AcDbDimension
  2
*D6
 10
151.1409690414698
 20
63.05203967510738
 30
0.0
 11
165.7848577181411
 21
63.05203967510738
 31
0.0
 70
   160
 42
9.524999999999977
  3
Arial
100
AcDbAlignedDimension
 13
141.6159690414698
 23
79.81229581638683
 33
0.0
 14
151.1409690414698
 24
79.81229581638683
 34
0.0
100
AcDbRotatedDimension
1001
ACAD
1000
DSTYLE
1002
{
1070
   141
1040
0.0
1070
   179
1070
     2
1002
}
  0
DIMENSION
  5
81D
330
1F
100
AcDbEntity
  8
0
  6
Continuous
 62
     7
370
     0
100
AcDbDimension
  2
*D7
 10
383.7097190414699
 20
56.27012891152546
 30
0.0
 11
246.4936936091504
 21
56.27012891152546
 31
0.0
 70
   160
 42
232.5687500000001
  3
Arial
100
AcDbAlignedDimension
 13
151.1409690414698
 23
79.81229581638683
 33
0.0
 14
383.7097190414699
 24
82.9872958163869
 34
0.0
100
AcDbRotatedDimension
1001
ACAD
1000
DSTYLE
1002
{
1070
   141
1040
0.0
1070
   179
1070
     1
1070
   271
1070
     1
1070
   272
1070
     1
1002
}
  0
DIMENSION
  5
81E
330
1F
100
AcDbEntity
  8
0
  6
Continuous
 62
     7
370
     0
100
AcDbDimension
  2
*D8
 10
182.9122234254657
 20
82.98729581638689
 30
0.0
 11
172.228006235834
 21
71.15963197784359
 31
0.0
 70
   160
 42
3.175000000000011
  3
Arial
100
AcDbAlignedDimension
 13
151.1409690414699
 23
79.8122958163869
 33
0.0
 14
151.1409690414699
 24
82.9872958163869
 34
0.0
 50
90.00000000000019
100
AcDbRotatedDimension
1001
ACAD
1000
DSTYLE
1002
{
1070
   141
1040
0.0
1070
   179
1070
     2
1002
}
  0
DIMENSION
  5
81F
330
1F
100
AcDbEntity
  8
0
  6
Continuous
 62
     7
370
     0
100
AcDbDimension
  2
*D9
 10
390.5428398544724
 20
88.32129581638685
 30
0.0
 11
401.2243285311435
 21
101.9109071415287
 31
0.0
 70
   160
 42
5.333999999999946
  3
Arial
100
AcDbAlignedDimension
 13
383.7097190414699
 23
82.9872958163869
 33
0.0
 14
383.7097190414699
 24
88.32129581638685
 34
0.0
 50
90.00000000000019
100
AcDbRotatedDimension
1001
ACAD
1000
DSTYLE
1002
{
1070
   141
1040
0.0
1070
   179
1070
     2
1002
}
  0
HATCH
  5
820
330
1F
100
AcDbEntity
  8
0
  6
Continuous
 62
     7
100
AcDbHatch
 10
0.0
 20
0.0
 30
0.0
210
0.0
220
0.0
230
1.0
  2
SOLID
 70
     1
 71
     0
 91
        1
 92
        0
 93
        3
 72
     1
 10
373.1397190414699
 20
85.1462958163869
 11
374.8947789482853
 21
85.1462958163869
 72
     2
 10
373.1397190414699
 20
85.1462958163869
 40
1.755059906815349
 50
0.0
 51
90.0
 73
     1
 72
     1
 10
373.1397190414699
 20
86.90135572320219
 11
373.1397190414699
 21
85.14629581638686
 97
        0
 75
     0
 76
     1
 98
        1
 10
1.998750000000029
 20
0.0
  0
HATCH
  5
821
330
1F
100
AcDbEntity
  8
0
  6
Continuous
 62
     7
100
AcDbHatch
 10
0.0
 20
0.0
 30
0.0
210
0.0
220
0.0
230
1.0
  2
SOLID
 70
     1
 71
     0
 91
        1
 92
        0
 93
        3
 72
     1
 10
373.1397190414699
 20
85.1462958163869
 11
371.3846591346546
 21
85.1462958163869
 72
     2
 10
373.1397190414699
 20
85.1462958163869
 40
1.755059906815349
 50
180.0
 51
270.0000000000008
 73
     1
 72
     1
 10
373.1397190414699
 20
83.39123590957155
 11
373.1397190414699
 21
85.14629581638686
 97
        0
 75
     0
 76
     1
 98
        1
 10
1.998750000000029
 20
0.0
  0
ARC
  5
822
330
1F
100
AcDbEntity
  8
0
  6
Continuous
 62
     7
370
    15
100
AcDbCircle
 10
67.78168488181677
 20
83.78104581638694
 30
0.0
 40
3.96875
100
AcDbArc
 50
180.0
 51
270.0000000000006
  0
ARC
  5
823
330
1F
100
AcDbEntity
  8
0
  6
Continuous
 62
     7
370
    15
100
AcDbCircle
 10
67.78168488181683
 20
100.6435458163869
 30
0.0
 40
3.96875
100
AcDbArc
 50
89.9999999999998
 51
180.0
  0
ARC
  5
824
330
1F
100
AcDbEntity
  8
0
  6
Continuous
 62
     7
370
    15
100
AcDbCircle
 10
97.64418488181684
 20
100.6435458163868
 30
0.0
 40
3.96875
100
AcDbArc
 50
0.0
 51
89.9999999999998
  0
LINE
  5
825
330
1F
100
AcDbEntity
  8
0
  6
Continuous
 62
     7
370
    15
100
AcDbLine
 10
101.6129348818168
 20
100.6435458163868
 30
0.0
 11
101.6129348818167
 21
83.78104581638684
 31
0.0
  0
ARC
  5
826
330
1F
100
AcDbEntity
  8
0
  6
Continuous
 62
     7
370
    15
100
AcDbCircle
 10
97.64418488181673
 20
83.78104581638684
 30
0.0
 40
3.96875
100
AcDbArc
 50
270.0000000000008
 51
0.0
  0
CIRCLE
  5
827
330
1F
100
AcDbEntity
  8
0
  6
Continuous
 62
     7
370
    15
100
AcDbCircle
 10
68.71293488181675
 20
92.21229581638693
 30
0.0
 40
2.197099999999991
  0
CIRCLE
  5
828
330
1F
100
AcDbEntity
  8
0
  6
Continuous
 62
     7
370
    15
100
AcDbCircle
 10
96.71293488181682
 20
92.21229581638684
 30
0.0
 40
2.197099999999991
  0
LINE
  5
829
330
1F
100
AcDbEntity
  8
0
  6
Continuous
 62
     7
370
    15
100
AcDbLine
 10
97.64418488181673
 20
79.81229581638683
 30
0.0
 11
67.78168488181677
 21
79.81229581638695
 31
0.0
  0
LINE
  5
82A
330
1F
100
AcDbEntity
  8
0
  6
Continuous
 62
     7
370
    15
100
AcDbLine
 10
63.81293488181682
 20
100.6435458163869
 30
0.0
 11
63.81293488181677
 21
83.78104581638694
 31
0.0
  0
LINE
  5
82B
330
1F
100
AcDbEntity
  8
0
  6
Continuous
 62
     7
370
    15
100
AcDbLine
 10
97.64418488181684
 20
104.6122958163868
 30
0.0
 11
67.78168488181683
 21
104.6122958163869
 31
0.0
  0
ARC
  5
82E
330
1F
100
AcDbEntity
  8
0
  6
Continuous
 62
     7
370
    15
100
AcDbCircle
 10
82.71293488181669
 20
95.75459581638687
 30
0.0
 40
6.981495457622369
100
AcDbArc
 50
149.2509316471113
 51
210.7490683528889
  0
LINE
  5
82F
330
1F
100
AcDbEntity
  8
0
  6
Continuous
 62
     7
370
    15
100
AcDbLine
 10
76.71293488181664
 20
92.18510301981181
 30
0.0
 11
76.71293488181669
 21
99.32408861296204
 31
0.0
  0
LINE
  5
831
330
1F
100
AcDbEntity
  8
0
  6
Continuous
 62
     7
370
    15
100
AcDbLine
 10
88.71293488181663
 20
92.18510301981178
 30
0.0
 11
88.71293488181668
 21
99.32408861296199
 31
0.0
  0
ARC
  5
832
330
1F
100
AcDbEntity
  8
0
  6
Continuous
 62
     7
370
    15
100
AcDbCircle
 10
82.71293488181669
 20
95.75459581638687
 30
0.0
 40
6.981495457622356
100
AcDbArc
 50
329.2509316471129
 51
30.74906835288717
  0
CIRCLE
  5
834
330
1F
100
AcDbEntity
  8
0
  6
Continuous
 62
     7
370
    15
100
AcDbCircle
 10
82.71293488181669
 20
95.75459581638687
 30
0.0
 40
7.0
  0
CIRCLE
  5
835
330
1F
100
AcDbEntity
  8
0
  6
Continuous
 62
     7
370
    15
100
AcDbCircle
 10
82.71293488181669
 20
95.75459581638687
 30
0.0
 40
5.0
  0
CIRCLE
  5
836
330
1F
100
AcDbEntity
  8
0
  6
Continuous
 62
     7
370
    15
100
AcDbCircle
 10
82.71293488181669
 20
95.75459581638687
 30
0.0
 40
5.5
  0
CIRCLE
  5
837
330
1F
100
AcDbEntity
  8
0
  6
Continuous
 62
     7
370
    15
100
AcDbCircle
 10
82.71293488181669
 20
95.75459581638687
 30
0.0
 40
4.5
  0
CIRCLE
  5
838
330
1F
100
AcDbEntity
  8
0
  6
Continuous
 62
     7
370
    15
100
AcDbCircle
 10
82.71293488181669
 20
95.75459581638687
 30
0.0
 40
3.5
  0
CIRCLE
  5
839
330
1F
100
AcDbEntity
  8
0
  6
Continuous
 62
     7
370
    15
100
AcDbCircle
 10
81.73709212928571
 20
98.11048862429068
 30
0.0
 40
0.3500000000000085
  0
CIRCLE
  5
83A
330
1F
100
AcDbEntity
  8
0
  6
Continuous
 62
     7
370
    15
100
AcDbCircle
 10
83.68877763434767
 20
98.11048862429068
 30
0.0
 40
0.3499999999999968
  0
CIRCLE
  5
83B
330
1F
100
AcDbEntity
  8
0
  6
Continuous
 62
     7
370
    15
100
AcDbCircle
 10
85.06882768972047
 20
96.73043856891787
 30
0.0
 40
0.3500000000000085
  0
CIRCLE
  5
83C
330
1F
100
AcDbEntity
  8
0
  6
Continuous
 62
     7
370
    15
100
AcDbCircle
 10
83.68877763434761
 20
93.39870300848309
 30
0.0
 40
0.3499999999999943
  0
CIRCLE
  5
83D
330
1F
100
AcDbEntity
  8
0
  6
Continuous
 62
     7
370
    15
100
AcDbCircle
 10
81.73709212928566
 20
93.39870300848312
 30
0.0
 40
0.3499999999999968
  0
CIRCLE
  5
83E
330
1F
100
AcDbEntity
  8
0
  6
Continuous
 62
     7
370
    15
100
AcDbCircle
 10
80.3570420739129
 20
94.77875306385596
 30
0.0
 40
0.3499999999999943
  0
CIRCLE
  5
83F
330
1F
100
AcDbEntity
  8
0
  6
Continuous
 62
     7
370
    15
100
AcDbCircle
 10
80.3570420739129
 20
96.73043856891792
 30
0.0
 40
0.3499999999999968
  0
CIRCLE
  5
840
330
1F
100
AcDbEntity
  8
0
  6
Continuous
 62
     7
370
    15
100
AcDbCircle
 10
82.71293488181669
 20
96.75459581638689
 30
0.0
 40
0.3499999999999943
  0
CIRCLE
  5
841
330
1F
100
AcDbEntity
  8
0
  6
Continuous
 62
     7
370
    15
100
AcDbCircle
 10
85.06882768972047
 20
94.77875306385589
 30
0.0
 40
0.3500000000000068
  0
CIRCLE
  5
842
330
1F
100
AcDbEntity
  8
0
  6
Continuous
 62
     7
370
    15
100
AcDbCircle
 10
82.71293488181669
 20
94.75459581638688
 30
0.0
 40
0.3499999999999943
  0
DIMENSION
  5
843
330
1F
100
AcDbEntity
  8
0
  6
Continuous
 62
     7
370
     0
100
AcDbDimension
  2
*D10
 10
101.6129348818167
 20
54.77416219797465
 30
0.0
 11
81.50758174139397
 21
54.77416219797465
 31
0.0
 70
   160
 42
37.80000000000001
  3
Arial
100
AcDbAlignedDimension
 13
63.81293488181674
 23
83.78104581638694
 33
0.0
 14
101.6129348818167
 24
83.78104581638684
 34
0.0
100
AcDbRotatedDimension
1001
ACAD
1000
DSTYLE
1002
{
1070
   141
1040
0.0
1070
   179
1070
     1
1070
   271
1070
     1
1070
   272
1070
     1
1002
}
  0
DIMENSION
  5
844
330
1F
100
AcDbEntity
  8
0
  6
Continuous
 62
     7
370
     0
100
AcDbDimension
  2
*D11
 10
32.02283464150671
 20
104.6122958163869
 30
0.0
 11
32.0228346415067
 21
92.25426293452713
 31
0.0
 70
   160
 42
24.80000000000001
  3
Arial
100
AcDbAlignedDimension
 13
67.78168488181674
 23
79.81229581638695
 33
0.0
 14
67.78168488181683
 24
104.6122958163869
 34
0.0
 50
90.00000000000019
100
AcDbRotatedDimension
1001
ACAD
1000
DSTYLE
1002
{
1070
   141
1040
0.0
1070
   179
1070
     1
1070
   271
1070
     1
1070
   272
1070
     1
1002
}
  0
DIMENSION
  5
845
330
1F
100
AcDbEntity
  8
0
  6
Continuous
 62
     7
370
     0
100
AcDbDimension
  2
*D12
 10
97.64418488181682
 20
100.6435458163868
 30
0.0
 11
121.9163850487911
 21
114.2190159482367
 31
0.0
 70
   164
  1
<>
 42
3.968750000000028
  3
Arial
100
AcDbRadialDimension
 15
100.1458333421349
 25
103.7245734929078
 35
0.0
 40
0.0
1001
ACAD
1000
DSTYLE
1002
{
1070
   141
1040
0.0
1070
   179
1070
     1
1070
   271
1070
     1
1070
   272
1070
     1
1002
}
  0
DIMENSION
  5
846
330
1F
100
AcDbEntity
  8
0
  6
Continuous
 62
     7
370
     0
100
AcDbDimension
  2
*D13
 10
96.7129348818168
 20
62.38688425436027
 30
0.0
 11
81.50758174139397
 21
62.38688425436027
 31
0.0
 70
   160
 42
28.00000000000002
  3
Arial
100
AcDbAlignedDimension
 13
68.71293488181677
 23
85.01519581638694
 33
0.0
 14
96.7129348818168
 24
87.21229581638684
 34
0.0
100
AcDbRotatedDimension
1001
ACAD
1000
DSTYLE
1002
{
1070
   141
1040
0.0
1070
   179
1070
     1
1070
   271
1070
     1
1070
   272
1070
     1
1002
}
  0
DIMENSION
  5
847
330
1F
100
AcDbEntity
  8
0
  6
Continuous
 62
     7
370
     0
100
AcDbDimension
  2
*D14
 10
45.56845203334098
 20
92.21229581638693
 30
0.0
 11
45.56845203334098
 21
85.93321061480878
 31
0.0
 70
   160
 42
12.39999999999997
  3
Arial
100
AcDbAlignedDimension
 13
67.78168488181674
 23
79.81229581638695
 33
0.0
 14
63.71293488181678
 24
92.21229581638693
 34
0.0
 50
90.00000000000019
100
AcDbRotatedDimension
1001
ACAD
1000
DSTYLE
1002
{
1070
   141
1040
0.0
1070
   179
1070
     1
1070
   271
1070
     1
1070
   272
1070
     1
1002
}
  0
DIMENSION
  5
848
330
1F
100
AcDbEntity
  8
0
  6
Continuous
 62
     7
370
     0
100
AcDbDimension
  2
*D15
 10
63.81293488181674
 20
67.61858066333184
 30
0.0
 11
50.3194472827138
 21
67.61858066333184
 31
0.0
 70
   160
 42
4.900000000000048
  3
Arial
100
AcDbAlignedDimension
 13
68.71293488181679
 23
87.21229581638693
 33
0.0
 14
63.81293488181674
 24
83.78104581638694
 34
0.0
100
AcDbRotatedDimension
1001
ACAD
1000
DSTYLE
1002
{
1070
   141
1040
0.0
1070
   179
1070
     1
1070
   271
1070
     1
1070
   272
1070
     1
1002
}
  0
DIMENSION
  5
849
330
1F
100
AcDbEntity
  8
0
  6
Continuous
 62
     7
370
     0
100
AcDbDimension
  2
*D16
 10
69.76573950826007
 20
90.28386359602246
 30
0.0
 11
29.66918132526699
 21
114.2190159482367
 31
0.0
 70
   163
  1
2X <> THRU
 42
4.394200000000076
  3
Arial
100
AcDbDiametricDimension
 15
67.66013025537358
 25
94.14072803675143
 35
0.0
 40
0.0
1001
ACAD
1000
DSTYLE
1002
{
1070
   141
1040
0.0
1070
   179
1070
     2
1002
}
  0
DIMENSION
  5
84A
330
1F
100
AcDbEntity
  8
0
  6
Continuous
 62
     7
370
     0
100
AcDbDimension
  2
*D17
 10
114.3428914856656
 20
95.75459581638687
 30
0.0
 11
114.3428914856656
 21
88.30841420857444
 31
0.0
 70
   160
 42
15.94230000000003
  3
Arial
100
AcDbAlignedDimension
 13
97.64418488181675
 23
79.81229581638683
 33
0.0
 14
87.71293488181667
 24
95.75459581638687
 34
0.0
 50
90.00000000000019
100
AcDbRotatedDimension
1001
ACAD
1000
DSTYLE
1002
{
1070
   141
1040
0.0
1070
   179
1070
     1
1070
   271
1070
     1
1070
   272
1070
     1
1002
}
  0
INSERT
  5
84B
330
1F
100
AcDbEntity
  8
0
  6
Continuous
 62
     7
370
     0
100
AcDbBlockReference
  2
SW_CENTERMARKSYMBOL_0
 10
96.71293488181682
 20
92.21229581638684
 30
0.0
  0
INSERT
  5
84C
330
1F
100
AcDbEntity
  8
0
  6
Continuous
 62
     7
370
     0
100
AcDbBlockReference
  2
SW_CENTERMARKSYMBOL_1
 10
68.71293488181681
 20
92.21229581638693
 30
0.0
  0
INSERT
  5
84D
330
1F
100
AcDbEntity
  8
0
  6
Continuous
 62
     7
370
     0
100
AcDbBlockReference
  2
SW_CENTERMARKSYMBOL_2
 10
82.71293488181669
 20
95.75459581638687
 30
0.0
  0
LINE
  5
84E
330
1F
100
AcDbEntity
  8
0
  6
Continuous
 62
     7
370
     0
100
AcDbLine
 10
373.1397190414699
 20
155.4382204683477
 30
0.0
 11
373.1397190414699
 21
151.2591761185633
 31
0.0
  0
LINE
  5
84F
330
1F
100
AcDbEntity
  8
0
  6
Continuous
 62
     7
370
     0
100
AcDbLine
 10
371.0501968665776
 20
153.3486982934556
 30
0.0
 11
375.2292412163622
 21
153.3486982934556
 31
0.0
  0
CIRCLE
  5
850
330
1F
100
AcDbEntity
  8
0
  6
Continuous
 62
     7
370
     0
100
AcDbCircle
 10
373.1397190414699
 20
153.3486982934556
 30
0.0
 40
2.089522174892261
  0
LINE
  5
851
330
1F
100
AcDbEntity
  8
0
  6
Continuous
 62
     7
370
    15
100
AcDbLine
 10
140.0635069820399
 20
160.3486982934557
 30
0.0
 11
140.031456174471
 21
160.330193751078
 31
0.0
  0
LINE
  5
852
330
1F
100
AcDbEntity
  8
0
  6
Continuous
 62
     7
370
    15
100
AcDbLine
 10
140.031456174471
 20
146.3672028358333
 30
0.0
 11
140.0635069820399
 21
146.3486982934556
 31
0.0
  0
LINE
  5
853
330
1F
100
AcDbEntity
  8
0
  6
Continuous
 62
     7
370
    15
100
AcDbLine
 10
141.531456174471
 20
160.3486982934557
 30
0.0
 11
140.0635069820399
 21
160.3486982934557
 31
0.0
  0
LINE
  5
854
330
1F
100
AcDbEntity
  8
0
  6
Continuous
 62
     7
370
    15
100
AcDbLine
 10
140.0635069820399
 20
146.3486982934556
 30
0.0
 11
141.531456174471
 21
146.3486982934556
 31
0.0
  0
LINE
  5
855
330
1F
100
AcDbEntity
  8
0
  6
Continuous
 62
     7
370
    15
100
AcDbLine
 10
141.6159757229121
 20
158.8486982636532
 30
0.0
 11
141.5314563366206
 21
158.8486982636532
 31
0.0
  0
LINE
  5
856
330
1F
100
AcDbEntity
  8
0
  6
Continuous
 62
     7
370
    15
100
AcDbLine
 10
138.3314617725642
 20
158.8486982636532
 30
0.0
 11
138.0409690414698
 21
158.8486982934556
 31
0.0
  0
LINE
  5
857
330
1F
100
AcDbEntity
  8
0
  6
Continuous
 62
     7
370
    15
100
AcDbLine
 10
138.0409690414698
 20
147.8486982934557
 30
0.0
 11
138.3314617725642
 21
147.8486983232578
 31
0.0
  0
LINE
  5
858
330
1F
100
AcDbEntity
  8
0
  6
Continuous
 62
     7
370
    15
100
AcDbLine
 10
141.5314563366206
 20
147.8486983232578
 30
0.0
 11
141.6159757229121
 21
147.8486983232578
 31
0.0
  0
LINE
  5
859
330
1F
100
AcDbEntity
  8
0
  6
Continuous
 62
     7
370
    15
100
AcDbLine
 10
138.0409690414698
 20
158.8486982934556
 30
0.0
 11
137.5409690414698
 21
158.3486982934557
 31
0.0
  0
LINE
  5
85A
330
1F
100
AcDbEntity
  8
0
  6
Continuous
 62
     7
370
    15
100
AcDbLine
 10
137.5409690414698
 20
148.3486982934556
 30
0.0
 11
138.0409690414698
 21
147.8486982934557
 31
0.0
  0
LINE
  5
85B
330
1F
100
AcDbEntity
  8
0
  6
Continuous
 62
     7
370
    15
100
AcDbLine
 10
151.2743123623164
 20
162.7466986082873
 30
0.0
 11
381.9698190414698
 21
162.7466982934555
 31
0.0
  0
LINE
  5
85C
330
1F
100
AcDbEntity
  8
0
  6
Continuous
 62
     7
370
    15
100
AcDbLine
 10
383.55731904147
 20
161.1591982934555
 30
0.0
 11
383.5573190414699
 21
145.5381982934556
 31
0.0
  0
ARC
  5
85D
330
1F
100
AcDbEntity
  8
0
  6
Continuous
 62
     7
370
    15
100
AcDbCircle
 10
381.9698190414698
 20
145.5381982934556
 30
0.0
 40
1.587500000000034
100
AcDbArc
 50
270.0000000000008
 51
0.0
  0
LINE
  5
85E
330
1F
100
AcDbEntity
  8
0
  6
Continuous
 62
     7
370
    15
100
AcDbLine
 10
381.9698190414698
 20
143.9506982934556
 30
0.0
 11
151.2743123623164
 21
143.9506979786238
 31
0.0
  0
LINE
  5
85F
330
1F
100
AcDbEntity
  8
0
  6
Continuous
 62
     7
370
    15
100
AcDbLine
 10
151.2743123623164
 20
143.9506979786238
 30
0.0
 11
151.2743123623164
 21
146.9986983701965
 31
0.0
  0
LINE
  5
860
330
1F
100
AcDbEntity
  8
0
  6
Continuous
 62
     7
370
    15
100
AcDbLine
 10
151.2743123623164
 20
146.9986983701965
 30
0.0
 11
163.9743190414699
 21
146.9986982934556
 31
0.0
  0
ARC
  5
861
330
1F
100
AcDbEntity
  8
0
  6
Continuous
 62
     7
370
    15
100
AcDbCircle
 10
163.9743190414699
 20
148.0146982934556
 30
0.0
 40
1.016000000000019
100
AcDbArc
 50
270.0000000000008
 51
0.0
  0
LINE
  5
862
330
1F
100
AcDbEntity
  8
0
  6
Continuous
 62
     7
370
    15
100
AcDbLine
 10
164.9903190414699
 20
148.0146982934556
 30
0.0
 11
164.9903190414699
 21
158.6826982934555
 31
0.0
  0
ARC
  5
863
330
1F
100
AcDbEntity
  8
0
  6
Continuous
 62
     7
370
    15
100
AcDbCircle
 10
163.9743190414699
 20
158.6826982934555
 30
0.0
 40
1.016000000000019
100
AcDbArc
 50
0.0
 51
90.0
  0
LINE
  5
864
330
1F
100
AcDbEntity
  8
0
  6
Continuous
 62
     7
370
    15
100
AcDbLine
 10
163.9743190414699
 20
159.6986982934555
 30
0.0
 11
151.2743123623164
 21
159.6986982167146
 31
0.0
  0
LINE
  5
865
330
1F
100
AcDbEntity
  8
0
  6
Continuous
 62
     7
370
    15
100
AcDbLine
 10
151.2743123623164
 20
159.6986982167146
 30
0.0
 11
151.2743123623164
 21
162.7466986082873
 31
0.0
  0
ARC
  5
866
330
1F
100
AcDbEntity
  8
0
  6
Continuous
 62
     7
370
    15
100
AcDbCircle
 10
381.9698190414698
 20
161.1591982934555
 30
0.0
 40
1.58750000000009
100
AcDbArc
 50
0.0
 51
90.0
  0
LINE
  5
868
330
1F
100
AcDbEntity
  8
0
  6
Continuous
 62
     7
370
    15
100
AcDbLine
 10
141.6159690414698
 20
172.2486982934555
 30
0.0
 11
151.1409690414698
 21
172.2486982934555
 31
0.0
  0
LINE
  5
86C
330
1F
100
AcDbEntity
  8
0
  6
Continuous
 62
     7
370
    15
100
AcDbLine
 10
151.1409690414698
 20
134.4486982934555
 30
0.0
 11
141.6159690414698
 21
134.4486982934555
 31
0.0
  0
LINE
  5
86D
330
1F
100
AcDbEntity
  8
0
  6
Continuous
 62
     7
370
    15
100
AcDbLine
 10
141.6159690414698
 20
134.4486982934555
 30
0.0
 11
141.6159690414698
 21
172.2486982934555
 31
0.0
  0
LINE
  5
86E
330
1F
100
AcDbEntity
  8
0
  6
Continuous
 62
     7
370
    15
100
AcDbLine
 10
151.1409690414698
 20
134.4486982934555
 30
0.0
 11
151.1409690414698
 21
172.2486982934555
 31
0.0
  0
ARC
  5
86F
330
1F
100
AcDbEntity
  8
0
  6
Continuous
 62
     7
370
    15
100
AcDbCircle
 10
152.7284690414698
 20
146.9986982934556
 30
0.0
 40
1.587499999999957
100
AcDbArc
 50
180.0
 51
203.6518581754603
  0
ARC
  5
870
330
1F
100
AcDbEntity
  8
0
  6
Continuous
 62
     7
370
    15
100
AcDbCircle
 10
152.7284690414698
 20
159.6986982934556
 30
0.0
 40
1.587499999999948
100
AcDbArc
 50
156.3481418245414
 51
180.0
  0
LINE
  5
871
330
1F
100
AcDbEntity
  8
0
  6
Continuous
 62
     7
370
    15
100
AcDbLine
 10
383.7097190414699
 20
145.4111982934556
 30
0.0
 11
383.7097190414699
 21
161.2861982934555
 31
0.0
  0
ARC
  5
872
330
1F
100
AcDbEntity
  8
0
  6
Continuous
 62
     7
370
    15
100
AcDbCircle
 10
382.1222190414699
 20
145.4111982934556
 30
0.0
 40
1.587499999999977
100
AcDbArc
 50
270.0000000000008
 51
0.0
  0
LINE
  5
873
330
1F
100
AcDbEntity
  8
0
  6
Continuous
 62
     7
370
    15
100
AcDbLine
 10
382.1222190414699
 20
143.8236982934556
 30
0.0
 11
151.1409618707927
 21
143.8236981757364
 31
0.0
  0
ARC
  5
874
330
1F
100
AcDbEntity
  8
0
  6
Continuous
 62
     7
370
    15
100
AcDbCircle
 10
382.1222190414699
 20
161.2861982934555
 30
0.0
 40
1.587500000000034
100
AcDbArc
 50
0.0
 51
90.0
  0
LINE
  5
875
330
1F
100
AcDbEntity
  8
0
  6
Continuous
 62
     7
370
    15
100
AcDbLine
 10
151.1409618707927
 20
162.8736984111747
 30
0.0
 11
382.1222190414699
 21
162.8736982934555
 31
0.0
  0
LINE
  5
876
330
1F
100
AcDbEntity
  8
0
  6
Continuous
 62
     7
370
    15
100
AcDbLine
 10
153.0777253958018
 20
159.6986982167146
 30
0.0
 11
153.0777253958018
 21
159.6486983016512
 31
0.0
  0
LINE
  5
877
330
1F
100
AcDbEntity
  8
0
  6
Continuous
 62
     7
370
    15
100
AcDbLine
 10
153.0777253958018
 20
147.0486982852599
 30
0.0
 11
153.0777253958018
 21
146.9986983701965
 31
0.0
  0
LINE
  5
878
330
1F
100
AcDbEntity
  8
0
  6
Continuous
 62
     7
370
    15
100
AcDbLine
 10
153.1229653211863
 20
147.0486982852599
 30
0.0
 11
153.1729736181529
 21
146.9986983701965
 31
0.0
  0
LINE
  5
879
330
1F
100
AcDbEntity
  8
0
  6
Continuous
 62
     7
370
    15
100
AcDbLine
 10
153.1729736181529
 20
159.6986982167146
 30
0.0
 11
153.1229653211863
 21
159.6486983016512
 31
0.0
  0
LINE
  5
87A
330
1F
100
AcDbEntity
  8
0
  6
Continuous
 62
     7
370
    15
100
AcDbLine
 10
138.331456174471
 20
159.3486982934557
 30
0.0
 11
138.3314561744711
 21
147.3486982934556
 31
0.0
  0
LINE
  5
87B
330
1F
100
AcDbEntity
  8
0
  6
Continuous
 62
     7
370
    15
100
AcDbLine
 10
140.031456174471
 20
159.3486982934556
 30
0.0
 11
138.331456174471
 21
159.3486982934557
 31
0.0
  0
LINE
  5
87C
330
1F
100
AcDbEntity
  8
0
  6
Continuous
 62
     7
370
    15
100
AcDbLine
 10
140.031456174471
 20
159.3486982934556
 30
0.0
 11
140.031456174471
 21
160.330193751078
 31
0.0
  0
LINE
  5
87D
330
1F
100
AcDbEntity
  8
0
  6
Continuous
 62
     7
370
    15
100
AcDbLine
 10
140.031456174471
 20
146.3672028358333
 30
0.0
 11
140.031456174471
 21
147.3486982934556
 31
0.0
  0
LINE
  5
87E
330
1F
100
AcDbEntity
  8
0
  6
Continuous
 62
     7
370
    15
100
AcDbLine
 10
138.3314561744711
 20
147.3486982934556
 30
0.0
 11
140.031456174471
 21
147.3486982934556
 31
0.0
  0
LINE
  5
87F
330
1F
100
AcDbEntity
  8
0
  6
Continuous
 62
     7
370
    15
100
AcDbLine
 10
140.0635069820399
 20
160.3486982934557
 30
0.0
 11
140.0635069820399
 21
146.3486982934556
 31
0.0
  0
LINE
  5
880
330
1F
100
AcDbEntity
  8
0
  6
Continuous
 62
     7
370
    15
100
AcDbLine
 10
141.531456174471
 20
160.3486982934557
 30
0.0
 11
141.531456174471
 21
146.3486982934556
 31
0.0
  0
LINE
  5
881
330
1F
100
AcDbEntity
  8
0
  6
Continuous
 62
     7
370
    15
100
AcDbLine
 10
163.8409682365687
 20
147.0486982852599
 30
0.0
 11
164.3409617992671
 21
147.5486983672162
 31
0.0
  0
LINE
  5
882
330
1F
100
AcDbEntity
  8
0
  6
Continuous
 62
     7
370
    15
100
AcDbLine
 10
163.8409682365687
 20
147.0486982852599
 30
0.0
 11
161.9934924694331
 21
147.0486982852598
 31
0.0
  0
ELLIPSE
  5
883
330
1F
100
AcDbEntity
  8
0
  6
Continuous
 62
     7
370
    15
100
AcDbEllipse
 10
166.4771650374714
 20
153.3486982934557
 30
0.0
 11
0.0000000000000568
 21
10.0
 31
0.0
210
0.0
220
0.0
230
1.0
 40
0.5773502691896198
 41
0.8892431152317874
 42
2.252349538358024
  0
LINE
  5
884
330
1F
100
AcDbEntity
  8
0
  6
Continuous
 62
     7
370
    15
100
AcDbLine
 10
163.8409682365687
 20
159.6486983016511
 30
0.0
 11
161.9934924694331
 21
159.6486983016511
 31
0.0
  0
LINE
  5
885
330
1F
100
AcDbEntity
  8
0
  6
Continuous
 62
     7
370
    15
100
AcDbLine
 10
164.3409617992671
 20
159.1486982196947
 30
0.0
 11
163.8409682365687
 21
159.6486983016511
 31
0.0
  0
LINE
  5
886
330
1F
100
AcDbEntity
  8
0
  6
Continuous
 62
     7
370
    15
100
AcDbLine
 10
164.3409617992671
 20
147.5486983672162
 30
0.0
 11
164.3409617992671
 21
159.1486982196947
 31
0.0
  0
LINE
  5
887
330
1F
100
AcDbEntity
  8
0
  6
Continuous
 62
     7
370
    15
100
AcDbLine
 10
151.1409618707927
 20
159.1486982196947
 30
0.0
 11
151.6409690414698
 21
159.6486982934556
 31
0.0
  0
LINE
  5
888
330
1F
100
AcDbEntity
  8
0
  6
Continuous
 62
     7
370
    15
100
AcDbLine
 10
151.6409690414698
 20
159.6486982934556
 30
0.0
 11
151.6409690414698
 21
147.0486982934556
 31
0.0
  0
LINE
  5
889
330
1F
100
AcDbEntity
  8
0
  6
Continuous
 62
     7
370
    15
100
AcDbLine
 10
151.1409618707927
 20
147.5486983672162
 30
0.0
 11
151.6409690414698
 21
147.0486982934556
 31
0.0
  0
LINE
  5
88A
330
1F
100
AcDbEntity
  8
0
  6
Continuous
 62
     7
370
    15
100
AcDbLine
 10
161.9934924694331
 20
147.0486982852598
 30
0.0
 11
151.6409690414698
 21
147.0486982934556
 31
0.0
  0
LINE
  5
88B
330
1F
100
AcDbEntity
  8
0
  6
Continuous
 62
     7
370
    15
100
AcDbLine
 10
161.9934924694331
 20
159.6486983016511
 30
0.0
 11
151.6409690414698
 21
159.6486982934556
 31
0.0
  0
LINE
  5
88C
330
1F
100
AcDbEntity
  8
0
  6
Continuous
 62
     7
370
    15
100
AcDbLine
 10
138.0409690414698
 20
158.8486982934556
 30
0.0
 11
138.0409690414698
 21
147.8486982934557
 31
0.0
  0
LINE
  5
88D
330
1F
100
AcDbEntity
  8
0
  6
Continuous
 62
     7
370
    15
100
AcDbLine
 10
137.5409690414698
 20
148.3486982934556
 30
0.0
 11
137.5409690414698
 21
158.3486982934557
 31
0.0
  0
DIMENSION
  5
88E
330
1F
100
AcDbEntity
  8
0
  6
Continuous
 62
     7
370
     0
100
AcDbDimension
  2
*D18
 10
151.1409690414697
 20
123.521455770966
 30
0.0
 11
266.4883017546465
 21
123.521455770966
 31
0.0
 70
   160
 42
221.9987500000002
  3
Arial
100
AcDbAlignedDimension
 13
373.1397190414699
 23
151.2591761185633
 33
0.0
 14
151.1409690414697
 24
134.4486982934555
 34
0.0
100
AcDbRotatedDimension
1001
ACAD
1000
DSTYLE
1002
{
1070
   141
1040
0.0
1070
   179
1070
     1
1070
   271
1070
     1
1070
   272
1070
     1
1002
}
  0
DIMENSION
  5
88F
330
1F
100
AcDbEntity
  8
0
  6
Continuous
 62
     7
370
     0
100
AcDbDimension
  2
*D19
 10
120.1133552632295
 20
172.2486982934555
 30
0.0
 11
120.1133552632294
 21
152.2593032407119
 31
0.0
 70
   160
  1
(<>)
 42
37.80000000000001
  3
Arial
100
AcDbAlignedDimension
 13
141.6159690414697
 23
134.4486982934555
 33
0.0
 14
141.6159690414697
 24
172.2486982934555
 34
0.0
 50
90.00000000000019
100
AcDbRotatedDimension
1001
ACAD
1000
DSTYLE
1002
{
1070
   141
1040
0.0
1070
   179
1070
     1
1070
   271
1070
     1
1070
   272
1070
     1
1002
}
  0
DIMENSION
  5
890
330
1F
100
AcDbEntity
  8
0
  6
Continuous
 62
     7
370
     0
100
AcDbDimension
  2
*D20
 10
401.3274177250328
 20
162.8736982934555
 30
0.0
 11
401.3274177250327
 21
153.620246856089
 31
0.0
 70
   160
 42
19.04999999999992
  3
Arial
100
AcDbAlignedDimension
 13
382.1222190414699
 23
143.8236982934556
 33
0.0
 14
382.1222190414699
 24
162.8736982934555
 34
0.0
 50
90.00000000000019
100
AcDbRotatedDimension
1001
ACAD
1000
DSTYLE
1002
{
1070
   141
1040
0.0
1070
   179
1070
     2
1002
}
  0
HATCH
  5
891
330
1F
100
AcDbEntity
  8
0
  6
Continuous
 62
     7
100
AcDbHatch
 10
0.0
 20
0.0
 30
0.0
210
0.0
220
0.0
230
1.0
  2
SOLID
 70
     1
 71
     0
 91
        1
 92
        0
 93
        3
 72
     1
 10
373.1397190414699
 20
153.3486982934556
 11
373.1397190414699
 21
151.2591761185633
 72
     2
 10
373.1397190414699
 20
153.3486982934556
 40
2.089522174892238
 50
270.0000000000008
 51
360.0000000000008
 73
     1
 72
     1
 10
375.2292412163622
 20
153.3486982934556
 11
373.1397190414699
 21
153.3486982934556
 97
        0
 75
     0
 76
     1
 98
        1
 10
0.0
 20
0.0
  0
HATCH
  5
892
330
1F
100
AcDbEntity
  8
0
  6
Continuous
 62
     7
100
AcDbHatch
 10
0.0
 20
0.0
 30
0.0
210
0.0
220
0.0
230
1.0
  2
SOLID
 70
     1
 71
     0
 91
        1
 92
        0
 93
        3
 72
     1
 10
373.1397190414699
 20
153.3486982934556
 11
373.1397190414699
 21
155.4382204683477
 72
     2
 10
373.1397190414699
 20
153.3486982934556
 40
2.089522174892238
 50
90.0
 51
180.0
 73
     1
 72
     1
 10
371.0501968665776
 20
153.3486982934556
 11
373.1397190414699
 21
153.3486982934556
 97
        0
 75
     0
 76
     1
 98
        1
 10
0.0
 20
0.0
  0
LINE
  5
893
330
1F
100
AcDbEntity
  8
0
  6
Continuous
 62
     7
370
    15
100
AcDbLine
 10
307.8868843667797
 20
195.0801517498343
 30
0.0
 11
307.8868844574452
 21
195.218419179773
 31
0.0
  0
LINE
  5
894
330
1F
100
AcDbEntity
  8
0
  6
Continuous
 62
     7
370
    15
100
AcDbLine
 10
308.0185947898887
 20
192.3078879449011
 30
0.0
 11
308.0185946761309
 21
195.0732393821601
 31
0.0
  0
LINE
  5
895
330
1F
100
AcDbEntity
  8
0
  6
Continuous
 62
     7
370
    15
100
AcDbLine
 10
181.481286636501
 20
249.6755599884135
 30
0.0
 11
185.9714116075332
 21
247.0834663591841
 31
0.0
  0
LINE
  5
896
330
1F
100
AcDbEntity
  8
0
  6
Continuous
 62
     7
370
    15
100
AcDbLine
 10
202.694346841514
 20
268.9722496580048
 30
0.0
 11
198.2042224520562
 21
271.5643439252289
 31
0.0
  0
LINE
  5
897
330
1F
100
AcDbEntity
  8
0
  6
Continuous
 62
     7
370
    15
100
AcDbLine
 10
189.3423252222705
 20
267.0811304583616
 30
0.0
 11
189.3033548594473
 21
267.0758165905732
 31
0.0
  0
LINE
  5
898
330
1F
100
AcDbEntity
  8
0
  6
Continuous
 62
     7
370
    15
100
AcDbLine
 10
194.5678193098953
 20
263.2491056997194
 30
0.0
 11
194.3321547481376
 21
263.1130154353534
 31
0.0
  0
LINE
  5
899
330
1F
100
AcDbEntity
  8
0
  6
Continuous
 62
     7
370
    15
100
AcDbLine
 10
203.2895700999059
 20
255.8542327821143
 30
0.0
 11
307.5769057102021
 21
195.6504352864865
 31
0.0
  0
ARC
  5
89A
330
1F
100
AcDbEntity
  8
0
  6
Continuous
 62
     7
370
    15
100
AcDbCircle
 10
307.4129411100734
 20
195.2184194115144
 30
0.0
 40
0.4620846198020685
100
AcDbArc
 50
290.783421875974
 51
69.21654901104307
  0
LINE
  5
89B
330
1F
100
AcDbEntity
  8
0
  6
Continuous
 62
     7
370
    15
100
AcDbLine
 10
307.5769057102021
 20
194.7864033681408
 30
0.0
 11
300.2130956909254
 21
190.5353663298799
 31
0.0
  0
ARC
  5
89C
330
1F
100
AcDbEntity
  8
0
  6
Continuous
 62
     7
370
    15
100
AcDbCircle
 10
299.4647407321076
 20
191.9796861603339
 30
0.0
 40
1.62668210664834
100
AcDbArc
 50
242.6096859903054
 51
297.3903237119186
  0
LINE
  5
89D
330
1F
100
AcDbEntity
  8
0
  6
Continuous
 62
     7
370
    15
100
AcDbLine
 10
298.7163863374139
 20
190.5353663298799
 30
0.0
 11
189.9654814142704
 21
253.3159271991483
 31
0.0
  0
LINE
  5
89E
330
1F
100
AcDbEntity
  8
0
  6
Continuous
 62
     7
370
    15
100
AcDbLine
 10
189.9654814142704
 20
253.3159271991483
 30
0.0
 11
191.4023225782306
 21
254.1453979473212
 31
0.0
  0
LINE
  5
89F
330
1F
100
AcDbEntity
  8
0
  6
Continuous
 62
     7
370
    15
100
AcDbLine
 10
191.4023225782306
 20
254.1453979473212
 30
0.0
 11
197.3891631046838
 21
250.6892684851078
 31
0.0
  0
ARC
  5
8A0
330
1F
100
AcDbEntity
  8
0
  6
Continuous
 62
     7
370
    15
100
AcDbCircle
 10
197.868112918043
 20
251.6136446012312
 30
0.0
 40
1.041087955086386
100
AcDbArc
 50
242.6098265058285
 51
297.3899764182799
  0
LINE
  5
8A1
330
1F
100
AcDbEntity
  8
0
  6
Continuous
 62
     7
370
    15
100
AcDbLine
 10
198.3470570909312
 20
250.6892684851078
 30
0.0
 11
203.3760005187299
 21
253.5924157307492
 31
0.0
  0
ARC
  5
8A2
330
1F
100
AcDbEntity
  8
0
  6
Continuous
 62
     7
370
    15
100
AcDbCircle
 10
203.2710612125324
 20
253.8689046430351
 30
0.0
 40
0.2957360066658032
100
AcDbArc
 50
290.7842627043308
 51
69.21632865149951
  0
LINE
  5
8A3
330
1F
100
AcDbEntity
  8
0
  6
Continuous
 62
     7
370
    15
100
AcDbLine
 10
203.3760005187299
 20
254.1453961584905
 30
0.0
 11
203.28957119748
 21
254.1952906521523
 31
0.0
  0
ARC
  5
8A4
330
1F
100
AcDbEntity
  8
0
  6
Continuous
 62
     7
370
    15
100
AcDbCircle
 10
299.4647407321076
 20
191.8414186073395
 30
0.0
 40
1.626682106648365
100
AcDbArc
 50
242.6096859903059
 51
297.3903237119176
  0
LINE
  5
8A5
330
1F
100
AcDbEntity
  8
0
  6
Continuous
 62
     7
370
    15
100
AcDbLine
 10
307.5769057102021
 20
194.6481357906615
 30
0.0
 11
300.2130956909254
 21
190.3970987524006
 31
0.0
  0
LINE
  5
8A6
330
1F
100
AcDbEntity
  8
0
  6
Continuous
 62
     7
370
    15
100
AcDbLine
 10
189.9654814142704
 20
253.1776596461538
 30
0.0
 11
189.9654814142704
 21
253.3159271991483
 31
0.0
  0
LINE
  5
8A7
330
1F
100
AcDbEntity
  8
0
  6
Continuous
 62
     7
370
    15
100
AcDbLine
 10
298.7163863374139
 20
190.3970987524006
 30
0.0
 11
189.9654814142704
 21
253.1776596461538
 31
0.0
  0
ARC
  5
8A8
330
1F
100
AcDbEntity
  8
0
  6
Continuous
 62
     7
370
    15
100
AcDbCircle
 10
307.3572342937471
 20
195.1329693407746
 30
0.0
 40
0.5322771898337373
100
AcDbArc
 50
294.3746159395865
 51
354.3051842045463
  0
ARC
  5
8A9
330
1F
100
AcDbEntity
  8
0
  6
Continuous
 62
     7
370
    15
100
AcDbCircle
 10
203.2146584588478
 20
253.6724199898335
 30
0.0
 40
0.3715656983458868
100
AcDbArc
 50
20.04393757347657
 51
64.26422248516992
  0
LINE
  5
8AA
330
1F
100
AcDbEntity
  8
0
  6
Continuous
 62
     7
370
    15
100
AcDbLine
 10
203.3760005187299
 20
254.0071285810112
 30
0.0
 11
203.28957119748
 21
254.0570230991579
 31
0.0
  0
LINE
  5
8AB
330
1F
100
AcDbEntity
  8
0
  6
Continuous
 62
     7
370
    15
100
AcDbLine
 10
189.8427511084957
 20
253.1793878973932
 30
0.0
 11
189.9654814142704
 21
253.2502385948175
 31
0.0
  0
LWPOLYLINE
  5
8AC
330
1F
100
AcDbEntity
  8
0
  6
Continuous
 62
     7
370
    15
100
AcDbPolyline
 90
        9
 70
   128
 43
0.0
 10
307.7086164591344
 20
194.641223459889
 10
307.8402336035294
 20
194.7338066822113
 10
307.93803404841
 20
194.839434285644
 10
307.998259260754
 20
194.9540463117468
 10
308.0185946761309
 20
195.0732393821601
 10
307.998259260754
 20
195.1924324525733
 10
307.93803404841
 20
195.307044985569
 10
307.8402336035294
 20
195.4126720821088
 10
307.8234718896826
 20
195.4267249265835
  0
LINE
  5
8AD
330
1F
100
AcDbEntity
  8
0
  6
Continuous
 62
     7
370
    15
100
AcDbLine
 10
300.2250693657535
 20
190.3210639435862
 30
0.0
 11
307.7086161333111
 21
194.6412235353147
 31
0.0
  0
ARC
  5
8AE
330
1F
100
AcDbEntity
  8
0
  6
Continuous
 62
     7
370
    15
100
AcDbCircle
 10
299.4767148649718
 20
191.7653843807061
 30
0.0
 40
1.626682738050542
100
AcDbArc
 50
242.6096786060457
 51
297.3903019895136
  0
LINE
  5
8AF
330
1F
100
AcDbEntity
  8
0
  6
Continuous
 62
     7
370
    15
100
AcDbLine
 10
298.728360012242
 20
190.3210639435862
 30
0.0
 11
189.8427511084957
 21
253.1793878973932
 31
0.0
  0
ARC
  5
8B0
330
1F
100
AcDbEntity
  8
0
  6
Continuous
 62
     7
370
    15
100
AcDbCircle
 10
299.4767148649718
 20
189.000032877214
 30
0.0
 40
1.626682738050617
100
AcDbArc
 50
242.6096786060443
 51
297.3903019895098
  0
LINE
  5
8B1
330
1F
100
AcDbEntity
  8
0
  6
Continuous
 62
     7
370
    15
100
AcDbLine
 10
189.8427511084957
 20
250.414036393901
 30
0.0
 11
189.8427511084957
 21
253.1793878973932
 31
0.0
  0
LINE
  5
8B2
330
1F
100
AcDbEntity
  8
0
  6
Continuous
 62
     7
370
    15
100
AcDbLine
 10
189.8427511084957
 20
250.414036393901
 30
0.0
 11
298.728360012242
 21
187.5557123939998
 31
0.0
  0
LINE
  5
8B3
330
1F
100
AcDbEntity
  8
0
  6
Continuous
 62
     7
370
    15
100
AcDbLine
 10
300.2250693657535
 20
187.5557123939998
 30
0.0
 11
307.7086161333111
 21
191.8758719857283
 31
0.0
  0
ARC
  5
8B4
330
1F
100
AcDbEntity
  8
0
  6
Continuous
 62
     7
370
    15
100
AcDbCircle
 10
307.4889445792948
 20
192.3607050676162
 30
0.0
 40
0.5322770712016189
100
AcDbArc
 50
294.3746916482465
 51
354.3052397290339
  0
ARC
  5
8B5
330
1F
100
AcDbEntity
  8
0
  6
Continuous
 62
     7
370
    15
100
AcDbCircle
 10
184.9951347526627
 20
259.8813805672496
 30
0.0
 40
4.066125673693193
100
AcDbArc
 50
122.6054572463816
 51
177.3945426079916
  0
ARC
  5
8B6
330
1F
100
AcDbEntity
  8
0
  6
Continuous
 62
     7
370
    15
100
AcDbCircle
 10
189.4852562832457
 20
257.2892885818733
 30
0.0
 40
4.066125673693366
100
AcDbArc
 50
122.605457246383
 51
177.3945426079899
  0
LINE
  5
8B7
330
1F
100
AcDbEntity
  8
0
  6
Continuous
 62
     7
370
    15
100
AcDbLine
 10
187.2942238537521
 20
260.714595706822
 30
0.0
 11
201.3715413558744
 21
268.8412581199239
 31
0.0
  0
ARC
  5
8B8
330
1F
100
AcDbEntity
  8
0
  6
Continuous
 62
     7
370
    15
100
AcDbCircle
 10
202.1018741762631
 20
267.9458854494271
 30
0.0
 40
1.155459222012834
100
AcDbArc
 50
350.7859244506811
 51
129.2033237945605
  0
LINE
  5
8B9
330
1F
100
AcDbEntity
  8
0
  6
Continuous
 62
     7
370
    15
100
AcDbLine
 10
203.2424244595497
 20
258.8074054683436
 30
0.0
 11
203.2424280477638
 21
267.7608671197416
 31
0.0
  0
LINE
  5
8BA
330
1F
100
AcDbEntity
  8
0
  6
Continuous
 62
     7
370
    15
100
AcDbLine
 10
187.2942238537521
 20
247.2144542836443
 30
0.0
 11
191.3397037761149
 21
249.5498640768872
 31
0.0
  0
ARC
  5
8BB
330
1F
100
AcDbEntity
  8
0
  6
Continuous
 62
     7
370
    15
100
AcDbCircle
 10
186.5638845294349
 20
248.109831077312
 30
0.0
 40
1.155459454645076
100
AcDbArc
 50
170.7859328182891
 51
309.2032979619948
  0
LINE
  5
8BC
330
1F
100
AcDbEntity
  8
0
  6
Continuous
 62
     7
370
    15
100
AcDbLine
 10
185.4233371618627
 20
248.2948452838265
 30
0.0
 11
185.4233371618627
 21
257.4741249107755
 31
0.0
  0
LWPOLYLINE
  5
8BD
330
1F
100
AcDbEntity
  8
0
  6
Continuous
 62
     7
370
    15
100
AcDbPolyline
 90
       11
 70
   128
 43
0.0
 10
200.1790966793687
 20
262.2234545725648
 10
200.2001758110099
 20
262.2606863787233
 10
200.5361884875553
 20
262.713925714058
 10
200.9325427193079
 20
263.0337772380911
 10
201.3288965120306
 20
263.1715463158593
 10
201.6649091885761
 20
263.1062589590738
 10
201.8894254505936
 20
262.8478544015188
 10
201.96826552103
 20
262.4356728213377
 10
201.8894254505936
 20
261.9324644333908
 10
201.6649091885761
 20
261.4148389173836
 10
201.6433273679605
 20
261.3781719288344
  0
LWPOLYLINE
  5
8BE
330
1F
100
AcDbEntity
  8
0
  6
Continuous
 62
     7
370
    15
100
AcDbPolyline
 90
       17
 70
   128
 43
0.0
 10
186.6974929280173
 20
253.6200434493387
 10
186.7763329984536
 20
254.1232518372857
 10
187.0008492604712
 20
254.6408773532928
 10
187.3368619370165
 20
255.0941166886275
 10
187.7332157297393
 20
255.4139679592141
 10
188.1295699614919
 20
255.5517372904288
 10
188.4655826380373
 20
255.4864499336433
 10
188.6900989000548
 20
255.2280453760884
 10
188.7689389704912
 20
254.8158637959072
 10
188.6900989000548
 20
254.3126554079603
 10
188.4655826380373
 20
253.7950298919531
 10
188.1295699614919
 20
253.3417905566184
 10
187.7332157297394
 20
253.0219389058416
 10
187.3368619370166
 20
252.8841699548172
 10
187.0008492604712
 20
252.9494573116026
 10
186.7763329984536
 20
253.2078618691576
 10
186.6974929280173
 20
253.6200434493387
  0
LINE
  5
8BF
330
1F
100
AcDbEntity
  8
0
  6
Continuous
 62
     7
370
    15
100
AcDbLine
 10
180.9332091013281
 20
260.0662206658126
 30
0.0
 11
180.9332091013281
 21
250.8869410388637
 31
0.0
  0
LINE
  5
8C0
330
1F
100
AcDbEntity
  8
0
  6
Continuous
 62
     7
370
    15
100
AcDbLine
 10
182.8040957932176
 20
263.3066914618591
 30
0.0
 11
196.8814132953397
 21
271.433353874961
 31
0.0
  0
ARC
  5
8C1
330
1F
100
AcDbEntity
  8
0
  6
Continuous
 62
     7
370
    15
100
AcDbCircle
 10
182.2578238448647
 20
250.7565702446303
 30
0.0
 40
1.331011427751172
100
AcDbArc
 50
174.3790163896963
 51
234.3088122244222
  0
LWPOLYLINE
  5
8C2
330
1F
100
AcDbEntity
  8
0
  6
Continuous
 62
     7
370
    15
100
AcDbPolyline
 90
        6
 70
   128
 43
0.0
 10
196.881416616399
 20
271.4333518246918
 10
197.2464083245034
 20
271.6025449044885
 10
197.597373912647
 20
271.6822125390946
 10
197.9208255112472
 20
271.6692923426178
 10
198.2043333122304
 20
271.5642802892404
 10
198.2042253109312
 20
271.564341643381
  0
ARC
  5
8C3
330
1F
100
AcDbEntity
  8
0
  6
Continuous
 62
     7
370
    15
100
AcDbCircle
 10
190.094101462051
 20
263.3753835982812
 30
0.0
 40
3.783975495733598
100
AcDbArc
 50
102.0621007243387
 51
137.9819176992922
  0
LINE
  5
8C4
330
1F
100
AcDbEntity
  8
0
  6
Continuous
 62
     7
370
    15
100
AcDbLine
 10
197.3498711545783
 20
255.2569899129496
 30
0.0
 11
197.8212726794309
 21
254.7855619827326
 31
0.0
  0
LINE
  5
8C5
330
1F
100
AcDbEntity
  8
0
  6
Continuous
 62
     7
370
    15
100
AcDbLine
 10
197.3498711545783
 20
255.2569899129496
 30
0.0
 11
196.4789627258987
 21
257.5016684108937
 31
0.0
  0
ELLIPSE
  5
8C6
330
1F
100
AcDbEntity
  8
0
  6
Continuous
 62
     7
370
    15
100
AcDbEllipse
 10
201.5624347290657
 20
253.768478939215
 30
0.0
 11
-1.641938625401166
 21
7.436392276747369
 31
0.0
210
0.0
220
0.0
230
1.0
 40
0.6978875543208214
 41
5.818815012181386
 42
7.181921435307623
  0
LINE
  5
8C7
330
1F
100
AcDbEntity
  8
0
  6
Continuous
 62
     7
370
    15
100
AcDbLine
 10
203.2895681242723
 20
258.6859039870657
 30
0.0
 11
202.4186596955928
 21
260.9305824850098
 31
0.0
  0
LINE
  5
8C8
330
1F
100
AcDbEntity
  8
0
  6
Continuous
 62
     7
370
    15
100
AcDbLine
 10
203.2895650510647
 20
257.9423399749678
 30
0.0
 11
203.2895681242723
 21
258.6859039870657
 31
0.0
  0
LINE
  5
8C9
330
1F
100
AcDbEntity
  8
0
  6
Continuous
 62
     7
370
    15
100
AcDbLine
 10
197.8212726794309
 20
254.7855619827326
 30
0.0
 11
203.2895650510647
 21
257.9423399749678
 31
0.0
  0
LINE
  5
8CA
330
1F
100
AcDbEntity
  8
0
  6
Continuous
 62
     7
370
    15
100
AcDbLine
 10
196.4789627258987
 20
257.5016684108937
 30
0.0
 11
191.5987363842253
 21
260.3189629582383
 31
0.0
  0
LWPOLYLINE
  5
8CB
330
1F
100
AcDbEntity
  8
0
  6
Continuous
 62
     7
370
    15
100
AcDbPolyline
 90
        9
 70
   128
 43
0.0
 10
197.5384339596677
 20
263.7478768345629
 10
196.8746660961625
 20
263.8849918948665
 10
196.1441096364745
 20
263.8460458471997
 10
195.3679227375857
 20
263.6321659936204
 10
194.5685854748209
 20
263.2495479973164
 10
193.7692482120558
 20
262.7092708344077
 10
192.993061313167
 20
262.0269843699666
 10
192.262504853479
 20
261.2224478833081
 10
191.5987369899738
 20
260.3189627604469
  0
LINE
  5
8CC
330
1F
100
AcDbEntity
  8
0
  6
Continuous
 62
     7
370
    15
100
AcDbLine
 10
202.4186596955928
 20
260.9305824850098
 30
0.0
 11
197.5384333461923
 21
263.7478770278937
 31
0.0
  0
LINE
  5
8CD
330
1F
100
AcDbEntity
  8
0
  6
Continuous
 62
     7
370
    15
100
AcDbLine
 10
197.3498711545783
 20
250.7119512498694
 30
0.0
 11
197.3498711545783
 21
255.2569899129496
 31
0.0
  0
LINE
  5
8CE
330
1F
100
AcDbEntity
  8
0
  6
Continuous
 62
     7
370
    15
100
AcDbLine
 10
191.5987363842253
 20
260.3189629582383
 30
0.0
 11
191.5987369899738
 21
254.0320103336509
 31
0.0
  0
LINE
  5
8CF
330
1F
100
AcDbEntity
  8
0
  6
Continuous
 62
     7
370
    15
100
AcDbLine
 10
197.8212726794309
 20
254.7855619827326
 30
0.0
 11
197.821272679431
 21
250.5939856476492
 31
0.0
  0
LINE
  5
8D0
330
1F
100
AcDbEntity
  8
0
  6
Continuous
 62
     7
370
    15
100
AcDbLine
 10
197.821272679431
 20
250.5939856476492
 30
0.0
 11
197.6582484498759
 21
250.593985520926
 31
0.0
  0
LINE
  5
8D1
330
1F
100
AcDbEntity
  8
0
  6
Continuous
 62
     7
370
    15
100
AcDbLine
 10
203.2895650510647
 20
253.7507636398844
 30
0.0
 11
203.2895650510647
 21
257.9423399749678
 31
0.0
  0
LINE
  5
8D2
330
1F
100
AcDbEntity
  8
0
  6
Continuous
 62
     7
370
    15
100
AcDbLine
 10
197.821272679431
 20
250.5939856476492
 30
0.0
 11
203.2895650510647
 21
253.7507636398844
 31
0.0
  0
ARC
  5
8D3
330
1F
100
AcDbEntity
  8
0
  6
Continuous
 62
     7
370
    15
100
AcDbCircle
 10
198.9006994981012
 20
255.6725150363238
 30
0.0
 40
8.731134300172145
100
AcDbArc
 50
121.5503708751601
 51
146.7528691859219
  0
LINE
  5
8D4
330
1F
100
AcDbEntity
  8
0
  6
Continuous
 62
     7
370
    15
100
AcDbLine
 10
191.5987363842253
 20
260.4593694038361
 30
0.0
 11
191.5987363842253
 21
260.3189629582383
 31
0.0
  0
LINE
  5
8D5
330
1F
100
AcDbEntity
  8
0
  6
Continuous
 62
     7
370
    15
100
AcDbLine
 10
187.2354955317411
 20
265.8648840782478
 30
0.0
 11
187.2828562541557
 21
265.9082464096696
 31
0.0
  0
CIRCLE
  5
C9D
330
1F
100
AcDbEntity
  8
0
  6
Continuous
 62
     7
370
    15
100
AcDbCircle
 10
82.71293488181669
 20
95.75459581638687
 30
0.0
 40
6.000000000000014
  0
LWPOLYLINE
  5
C9E
330
1F
100
AcDbEntity
  8
0
  6
Continuous
 62
     7
370
    15
100
AcDbPolyline
 90
        6
 70
   128
 43
0.0
 10
161.9934924694331
 20
99.82054742976538
 10
161.4960321041377
 20
100.6821763421546
 10
161.1126103254588
 20
101.3462754617583
 10
160.8520188185008
 20
101.7976409475457
 10
160.7202031465801
 20
102.0259360502612
 10
160.7036628576549
 20
102.0545965711724
  0
ENDSEC
  0
SECTION
  2
OBJECTS
  0
DICTIONARY
  5
C
330
0
100
AcDbDictionary
281
     1
  3
ACAD_COLOR
350
27A
  3
ACAD_GROUP
350
D
  3
ACAD_LAYOUT
350
1A
  3
ACAD_MATERIAL
350
279
  3
ACAD_MLINESTYLE
350
17
  3
ACAD_PLOTSETTINGS
350
19
  3
ACAD_PLOTSTYLENAME
350
E
  3
ACAD_TABLESTYLE
350
27B
  3
ACDBHEADERROUNDTRIPXREC
350
DB0
  3
AcDbVariableDictionary
350
60A
  3
BNS_VARIABLES
350
C93
  0
DICTIONARY
  5
9B3
330
1F
100
AcDbDictionary
280
     1
281
     1
  3
ACAD_SORTENTS
360
9B4
  0
DICTIONARY
  5
27A
102
{ACAD_REACTORS
330
C
102
}
330
C
100
AcDbDictionary
281
     1
  0
DICTIONARY
  5
D
102
{ACAD_REACTORS
330
C
102
}
330
C
100
AcDbDictionary
281
     1
  0
DICTIONARY
  5
1A
102
{ACAD_REACTORS
330
C
102
}
330
C
100
AcDbDictionary
281
     1
  3
Layout1
350
1E
  3
Layout2
350
26
  3
Model
350
22
  0
DICTIONARY
  5
279
102
{ACAD_REACTORS
330
C
102
}
330
C
100
AcDbDictionary
281
     1
  0
DICTIONARY
  5
17
102
{ACAD_REACTORS
330
C
102
}
330
C
100
AcDbDictionary
281
     1
  3
Standard
350
18
  0
DICTIONARY
  5
19
102
{ACAD_REACTORS
330
C
102
}
330
C
100
AcDbDictionary
281
     1
  0
ACDBDICTIONARYWDFLT
  5
E
102
{ACAD_REACTORS
330
C
102
}
330
C
100
AcDbDictionary
281
     1
  3
Normal
350
F
100
AcDbDictionaryWithDefault
340
F
  0
DICTIONARY
  5
27B
102
{ACAD_REACTORS
330
C
102
}
330
C
100
AcDbDictionary
281
     1
  3
Standard
350
27C
  0
DICTIONARY
  5
DB0
102
{ACAD_REACTORS
330
C
102
}
330
C
100
AcDbDictionary
281
     1
  0
DICTIONARY
  5
60A
102
{ACAD_REACTORS
330
C
102
}
330
C
100
AcDbDictionary
281
     1
  3
CTABLESTYLE
350
60B
  3
DIMASSOC
350
60C
  3
PROJECTNAME
350
60D
  0
DICTIONARY
  5
C93
102
{ACAD_REACTORS
330
C
102
}
330
C
100
AcDbDictionary
281
     1
  3
ACET-OVERKILL-FUZZ
350
C94
  3
ACET-OVERKILL-NO-ENDTOEND
350
C97
  3
ACET-OVERKILL-NO-PARTIAL
350
C96
  3
ACET-OVERKILL-NO-PLINES
350
C95
  0
SORTENTSTABLE
  5
9B4
102
{ACAD_REACTORS
330
9B3
102
}
330
9B3
100
AcDbSortentsTable
330
1F
331
8D3
  5
C9B
331
826
  5
F7
331
85D
  5
1E3
331
7E7
  5
30
331
89C
  5
260
331
8A4
  5
268
331
82E
  5
FF
331
865
  5
1EB
331
7EF
  5
38
331
8AC
  5
270
331
7F7
  5
40
331
836
  5
107
331
86D
  5
1F3
331
875
  5
1FB
331
8B4
  5
7E7
331
7FF
  5
48
331
83E
  5
187
331
846
  5
1CC
331
87D
  5
241
331
807
  5
50
331
8BC
  5
7EF
331
8C4
  5
7F7
331
80F
  5
5E
331
84E
  5
1D4
331
885
  5
249
331
8CC
  5
7FF
331
817
  5
E8
331
856
  5
1DC
331
88D
  5
251
331
895
  5
259
331
81F
  5
F0
331
89D
  5
261
331
8D4
  5
C9C
331
7E8
  5
31
331
827
  5
F8
331
85E
  5
1E4
331
866
  5
1ED
331
8A5
  5
269
331
7F0
  5
39
331
82F
  5
101
331
837
  5
108
331
86E
  5
1F4
331
7F8
  5
41
331
8AD
  5
271
331
8B5
  5
7E8
331
83F
  5
19C
331
876
  5
1FC
331
800
  5
49
331
8BD
  5
7F0
331
808
  5
51
331
847
  5
1CD
331
87E
  5
242
331
886
  5
24A
331
8C5
  5
7F8
331
810
  5
5F
331
84F
  5
1D5
331
857
  5
1DD
331
88E
  5
252
331
818
  5
EA
331
8CD
  5
800
331
896
  5
25A
331
820
  5
F1
331
8D5
  5
C9D
331
828
  5
F9
331
85F
  5
1E5
331
7E9
  5
32
331
89E
  5
262
331
8A6
  5
26A
331
7F1
  5
3A
331
8AE
  5
272
331
7F9
  5
42
331
838
  5
109
331
86F
  5
1F5
331
877
  5
1FD
331
8B6
  5
7E9
331
801
  5
4A
331
840
  5
1B8
331
848
  5
1CE
331
87F
  5
243
331
809
  5
52
331
8BE
  5
7F1
331
8C6
  5
7F9
331
811
  5
60
331
850
  5
1D6
331
887
  5
24B
331
88F
  5
253
331
8CE
  5
801
331
897
  5
25B
331
821
  5
F2
331
858
  5
1DE
331
89F
  5
263
331
7EA
  5
33
331
829
  5
FA
331
860
  5
1E6
331
831
  5
102
331
868
  5
1F1
331
7F2
  5
3B
331
8A7
  5
26B
331
839
  5
11E
331
870
  5
1F6
331
8AF
  5
273
331
8B7
  5
7EA
331
841
  5
1C0
331
878
  5
1FE
331
802
  5
4B
331
880
  5
244
331
8BF
  5
7F2
331
80A
  5
53
331
849
  5
1CF
331
888
  5
24C
331
8C7
  5
7FA
331
812
  5
7A
331
851
  5
1D7
331
890
  5
254
331
81A
  5
EB
331
8CF
  5
802
331
822
  5
F3
331
859
  5
1DF
331
898
  5
25C
331
8A0
  5
264
331
82A
  5
FB
331
861
  5
1E7
331
7EB
  5
34
331
8A8
  5
26C
331
832
  5
104
331
7F3
  5
3C
331
8B0
  5
274
331
83A
  5
133
331
871
  5
1F7
331
842
  5
1C8
331
879
  5
213
331
803
  5
4C
331
8B8
  5
7EB
331
84A
  5
1D0
331
881
  5
245
331
80B
  5
54
331
8C0
  5
7F3
331
8C8
  5
7FB
331
813
  5
90
331
852
  5
1D8
331
889
  5
24D
331
891
  5
255
331
81B
  5
EC
331
899
  5
25D
331
8D0
  5
C98
331
823
  5
F4
331
85A
  5
1E0
331
8A1
  5
265
331
7EC
  5
35
331
82B
  5
FE
331
862
  5
1E8
331
7F4
  5
3D
331
8A9
  5
26D
331
8B1
  5
275
331
83B
  5
145
331
872
  5
1F8
331
8B9
  5
7EC
331
843
  5
1C9
331
87A
  5
22A
331
804
  5
4D
331
882
  5
246
331
8C1
  5
7F4
331
80C
  5
55
331
84B
  5
1D1
331
853
  5
1D9
331
88A
  5
24E
331
814
  5
A6
331
8C9
  5
7FC
331
892
  5
256
331
81C
  5
ED
331
824
  5
F5
331
85B
  5
1E1
331
89A
  5
25E
331
8D1
  5
C99
331
8A2
  5
266
331
863
  5
1E9
331
7ED
  5
36
331
8AA
  5
26E
331
7F5
  5
3E
331
834
  5
105
331
C9D
  5
C9E
331
8B2
  5
276
331
83C
  5
15B
331
873
  5
1F9
331
844
  5
1CA
331
87B
  5
23F
331
805
  5
4E
331
8BA
  5
7ED
331
8C2
  5
7F5
331
84C
  5
1D2
331
883
  5
247
331
8CA
  5
7FD
331
815
  5
D1
331
854
  5
1DA
331
88B
  5
24F
331
893
  5
257
331
81D
  5
EE
331
89B
  5
25F
331
8D2
  5
C9A
331
7E6
  5
2F
331
825
  5
F6
331
85C
  5
1E2
331
864
  5
1EA
331
7EE
  5
37
331
8A3
  5
267
331
835
  5
106
331
86C
  5
1F2
331
C9E
  5
58
331
7F6
  5
3F
331
8AB
  5
26F
331
8B3
  5
7E6
331
83D
  5
171
331
874
  5
1FA
331
7FE
  5
47
331
8BB
  5
7EE
331
845
  5
1CB
331
87C
  5
240
331
884
  5
248
331
8C3
  5
7F6
331
80E
  5
5D
331
84D
  5
1D3
331
855
  5
1DB
331
88C
  5
250
331
8CB
  5
7FE
331
894
  5
258
331
81E
  5
EF
  0
LAYOUT
  5
1E
102
{ACAD_XDICTIONARY
360
DB1
102
}
102
{ACAD_REACTORS
330
1A
102
}
330
1A
100
AcDbPlotSettings
  1

  2

  4

  6

 40
0.0
 41
0.0
 42
0.0
 43
0.0
 44
0.0
 45
0.0
 46
0.0
 47
0.0
 48
0.0
 49
0.0
140
0.0
141
0.0
142
1.0
143
1.0
 70
   688
 72
     0
 73
     0
 74
     5
  7
Dart1.ctb
 75
    16
147
1.0
148
0.0
149
0.0
100
AcDbLayout
  1
Layout1
 70
     1
 71
     1
 10
0.0
 20
0.0
 11
420.0
 21
297.0
 12
0.0
 22
0.0
 32
0.0
 14
1.000000000000000E+20
 24
1.000000000000000E+20
 34
1.000000000000000E+20
 15
-1.000000000000000E+20
 25
-1.000000000000000E+20
 35
-1.000000000000000E+20
146
0.0
 13
0.0
 23
0.0
 33
0.0
 16
1.0
 26
0.0
 36
0.0
 17
0.0
 27
1.0
 37
0.0
 76
     0
330
1B
  0
LAYOUT
  5
26
102
{ACAD_XDICTIONARY
360
DB5
102
}
102
{ACAD_REACTORS
330
1A
102
}
330
1A
100
AcDbPlotSettings
  1

  2

  4

  6

 40
0.0
 41
0.0
 42
0.0
 43
0.0
 44
0.0
 45
0.0
 46
0.0
 47
0.0
 48
0.0
 49
0.0
140
0.0
141
0.0
142
1.0
143
1.0
 70
   688
 72
     0
 73
     0
 74
     5
  7
Dart1.ctb
 75
    16
147
1.0
148
0.0
149
0.0
100
AcDbLayout
  1
Layout2
 70
     1
 71
     2
 10
0.0
 20
0.0
 11
0.0
 21
0.0
 12
0.0
 22
0.0
 32
0.0
 14
0.0
 24
0.0
 34
0.0
 15
0.0
 25
0.0
 35
0.0
146
0.0
 13
0.0
 23
0.0
 33
0.0
 16
1.0
 26
0.0
 36
0.0
 17
0.0
 27
1.0
 37
0.0
 76
     0
330
23
  0
LAYOUT
  5
22
102
{ACAD_XDICTIONARY
360
DB3
102
}
102
{ACAD_REACTORS
330
1A
102
}
330
1A
100
AcDbPlotSettings
  1

  2
HP Mobile Printing PS
  4
A4
  6

 40
5.027083396911621
 41
5.408084392547607
 42
5.027069091796875
 43
5.365753173828125
 44
209.8886566162109
 45
297.0530090332031
 46
0.0
 47
0.0
 48
0.0
 49
0.0
140
0.0
141
0.0
142
1.0
143
3.269518905556013
 70
 11952
 72
     1
 73
     1
 74
     0
  7
Dart1.ctb
 75
     0
147
0.3058553961259141
148
187.2871622368857
149
94.42285388724299
100
AcDbLayout
  1
Model
 70
     1
 71
     0
 10
0.0
 20
0.0
 11
0.0
 21
0.0
 12
0.0
 22
0.0
 32
0.0
 14
0.0
 24
0.0
 34
0.0
 15
420.0
 25
297.0
 35
0.0
146
0.0
 13
0.0
 23
0.0
 33
0.0
 16
1.0
 26
0.0
 36
0.0
 17
0.0
 27
1.0
 37
0.0
 76
     0
330
1F
1001
ACAD_PSEXT
1000
HP Mobile Printing PS
1000
HP Mobile Printing PS
1000
LPT1:
1000

1070
     0
  0
MLINESTYLE
  5
18
102
{ACAD_REACTORS
330
17
102
}
330
17
100
AcDbMlineStyle
  2
STANDARD
 70
     0
  3

 62
   256
 51
90.0
 52
90.0
 71
     2
 49
0.5
 62
   256
  6
BYLAYER
 49
-0.5
 62
   256
  6
BYLAYER
  0
ACDBPLACEHOLDER
  5
F
102
{ACAD_REACTORS
330
E
102
}
330
E
  0
TABLESTYLE
  5
27C
102
{ACAD_REACTORS
330
27B
102
}
330
27B
100
AcDbTableStyle
  3
Standard
 70
     0
 71
     0
 40
1.5
 41
1.5
280
     0
281
     0
  7
Standard
140
4.5
170
     2
 62
     0
 63
     7
283
     0
274
    -2
284
     1
 64
     0
275
    -2
285
     1
 65
     0
276
    -2
286
     1
 66
     0
277
    -2
287
     1
 67
     0
278
    -2
288
     1
 68
     0
279
    -2
289
     1
 69
     0
  7
Standard
140
6.0
170
     5
 62
     0
 63
     7
283
     0
274
    -2
284
     1
 64
     0
275
    -2
285
     1
 65
     0
276
    -2
286
     1
 66
     0
277
    -2
287
     1
 67
     0
278
    -2
288
     1
 68
     0
279
    -2
289
     1
 69
     0
  7
Standard
140
4.5
170
     5
 62
     0
 63
     7
283
     0
274
    -2
284
     1
 64
     0
275
    -2
285
     1
 65
     0
276
    -2
286
     1
 66
     0
277
    -2
287
     1
 67
     0
278
    -2
288
     1
 68
     0
279
    -2
289
     1
 69
     0
  0
DICTIONARYVAR
  5
60B
102
{ACAD_REACTORS
330
60A
102
}
330
60A
100
DictionaryVariables
280
     0
  1
STANDARD
  0
DICTIONARYVAR
  5
60C
102
{ACAD_REACTORS
330
60A
102
}
330
60A
100
DictionaryVariables
280
     0
  1
1
  0
DICTIONARYVAR
  5
60D
102
{ACAD_REACTORS
330
60A
102
}
330
60A
100
DictionaryVariables
280
     0
  1

  0
XRECORD
  5
C94
102
{ACAD_REACTORS
330
C93
102
}
330
C93
100
AcDbXrecord
280
     1
 40
0.000001
  0
XRECORD
  5
C97
102
{ACAD_REACTORS
330
C93
102
}
330
C93
100
AcDbXrecord
280
     1
 70
     0
  0
XRECORD
  5
C96
102
{ACAD_REACTORS
330
C93
102
}
330
C93
100
AcDbXrecord
280
     1
 70
     0
  0
XRECORD
  5
C95
102
{ACAD_REACTORS
330
C93
102
}
330
C93
100
AcDbXrecord
280
     1
 70
     0
  0
DICTIONARY
  5
DB1
330
1E
100
AcDbDictionary
280
     1
281
     1
  3
ACAD_XREC_ROUNDTRIP
360
DB2
  0
DICTIONARY
  5
DB5
330
26
100
AcDbDictionary
280
     1
281
     1
  3
ACAD_XREC_ROUNDTRIP
360
DB6
  0
DICTIONARY
  5
DB3
330
22
100
AcDbDictionary
280
     1
281
     1
  3
ACAD_XREC_ROUNDTRIP
360
DB4
  0
XRECORD
  5
DB2
102
{ACAD_REACTORS
330
DB1
102
}
330
DB1
100
AcDbXrecord
280
     1
102
SHADEPLOT
 70
     0
102
SHADEPLOTRESLEVEL
 70
     2
102
SHADEPLOTCUSTOMDPI
 70
   300
  0
XRECORD
  5
DB6
102
{ACAD_REACTORS
330
DB5
102
}
330
DB5
100
AcDbXrecord
280
     1
102
SHADEPLOT
 70
     0
102
SHADEPLOTRESLEVEL
 70
     2
102
SHADEPLOTCUSTOMDPI
 70
   300
  0
XRECORD
  5
DB4
102
{ACAD_REACTORS
330
DB3
102
}
330
DB3
100
AcDbXrecord
280
     1
102
SHADEPLOT
 70
     0
102
SHADEPLOTRESLEVEL
 70
     2
102
SHADEPLOTCUSTOMDPI
 70
   300
  0
ENDSEC
  0
EOF
