  0
SECTION
  2
HEADER
  9
$ACADVER
  1
AC1024
  9
$ACADMAINTVER
 70
     6
  9
$DWGCODEPAGE
  3
ANSI_1252
  9
$INSBASE
 10
0.0
 20
0.0
 30
0.0
  9
$EXTMIN
 10
34.32391096227461
 20
28.07059031421969
 30
0.0
  9
$EXTMAX
 10
228.7970422669534
 20
148.9204926071307
 30
0.0
  9
$LIMMIN
 10
-190.4069868852232
 20
-87.13733928313168
  9
$LIMMAX
 10
302.4111084134272
 20
293.6766434476436
  9
$ORTHOMODE
 70
     0
  9
$REGENMODE
 70
     1
  9
$FILLMODE
 70
     1
  9
$QTEXTMODE
 70
     0
  9
$MIRRTEXT
 70
     1
  9
$LTSCALE
 40
1.0
  9
$ATTMODE
 70
     1
  9
$TEXTSIZE
 40
3.9624
  9
$TRACEWID
 40
1.0
  9
$TEXTSTYLE
  7
Standard
  9
$CLAYER
  8
0
  9
$CELTYPE
  6
ByLayer
  9
$CECOLOR
 62
   256
  9
$CELTSCALE
 40
1.0
  9
$DISPSILH
 70
     0
  9
$DIMSCALE
 40
1.0
  9
$DIMASZ
 40
3.302
  9
$DIMEXO
 40
0.0625
  9
$DIMDLI
 40
0.38
  9
$DIMRND
 40
0.000000001
  9
$DIMDLE
 40
0.0
  9
$DIMEXE
 40
0.125
  9
$DIMTP
 40
0.0
  9
$DIMTM
 40
0.0
  9
$DIMTXT
 40
4.0
  9
$DIMCEN
 40
0.09
  9
$DIMTSZ
 40
0.0
  9
$DIMTOL
 70
     0
  9
$DIMLIM
 70
     0
  9
$DIMTIH
 70
     1
  9
$DIMTOH
 70
     1
  9
$DIMSE1
 70
     0
  9
$DIMSE2
 70
     0
  9
$DIMTAD
 70
     0
  9
$DIMZIN
 70
     4
  9
$DIMBLK
  1

  9
$DIMASO
 70
     1
  9
$DIMSHO
 70
     1
  9
$DIMPOST
  1

  9
$DIMAPOST
  1
^B2147483648l^B
  9
$DIMALT
 70
     0
  9
$DIMALTD
 70
     2
  9
$DIMALTF
 40
25.4
  9
$DIMLFAC
 40
1.0
  9
$DIMTOFL
 70
     0
  9
$DIMTVP
 40
0.0
  9
$DIMTIX
 70
     0
  9
$DIMSOXD
 70
     0
  9
$DIMSAH
 70
     0
  9
$DIMBLK1
  1

  9
$DIMBLK2
  1

  9
$DIMSTYLE
  2
Standard
  9
$DIMCLRD
 70
     0
  9
$DIMCLRE
 70
     0
  9
$DIMCLRT
 70
     0
  9
$DIMTFAC
 40
1.0
  9
$DIMGAP
 40
1.0
  9
$DIMJUST
 70
     0
  9
$DIMSD1
 70
     0
  9
$DIMSD2
 70
     0
  9
$DIMTOLJ
 70
     1
  9
$DIMTZIN
 70
    12
  9
$DIMALTZ
 70
     0
  9
$DIMALTTZ
 70
     0
  9
$DIMUPT
 70
     0
  9
$DIMDEC
 70
     1
  9
$DIMTDEC
 70
     3
  9
$DIMALTU
 70
     2
  9
$DIMALTTD
 70
     2
  9
$DIMTXSTY
  7
SLDTEXTSTYLE0
  9
$DIMAUNIT
 70
     0
  9
$DIMADEC
 70
     0
  9
$DIMALTRND
 40
0.0
  9
$DIMAZIN
 70
     1
  9
$DIMDSEP
 70
    46
  9
$DIMATFIT
 70
     3
  9
$DIMFRAC
 70
     2
  9
$DIMLDRBLK
  1

  9
$DIMLUNIT
 70
     2
  9
$DIMLWD
 70
    -2
  9
$DIMLWE
 70
    -2
  9
$DIMTMOVE
 70
     0
  9
$DIMFXL
 40
1.0
  9
$DIMFXLON
 70
     0
  9
$DIMJOGANG
 40
0.7853981633974483
  9
$DIMTFILL
 70
     0
  9
$DIMTFILLCLR
 70
     0
  9
$DIMARCSYM
 70
     0
  9
$DIMLTYPE
  6
ByBlock
  9
$DIMLTEX1
  6
ByBlock
  9
$DIMLTEX2
  6
ByBlock
  9
$DIMTXTDIRECTION
 70
     0
  9
$LUNITS
 70
     2
  9
$LUPREC
 70
     2
  9
$SKETCHINC
 40
1.0
  9
$FILLETRAD
 40
10.0
  9
$AUNITS
 70
     0
  9
$AUPREC
 70
     2
  9
$MENU
  1
.
  9
$ELEVATION
 40
0.0
  9
$PELEVATION
 40
0.0
  9
$THICKNESS
 40
0.0
  9
$LIMCHECK
 70
     0
  9
$CHAMFERA
 40
0.5
  9
$CHAMFERB
 40
0.5
  9
$CHAMFERC
 40
1.0
  9
$CHAMFERD
 40
0.0
  9
$SKPOLY
 70
     0
  9
$TDCREATE
 40
2458887.709971377
  9
$TDUCREATE
 40
2458887.918304711
  9
$TDUPDATE
 40
2458887.709972153
  9
$TDUUPDATE
 40
2458887.918305486
  9
$TDINDWG
 40
0.0
  9
$TDUSRTIMER
 40
0.0
  9
$USRTIMER
 70
     1
  9
$ANGBASE
 50
0.0
  9
$ANGDIR
 70
     0
  9
$PDMODE
 70
     0
  9
$PDSIZE
 40
-1.0
  9
$PLINEWID
 40
0.0
  9
$SPLFRAME
 70
     0
  9
$SPLINETYPE
 70
     6
  9
$SPLINESEGS
 70
     8
  9
$HANDSEED
  5
424
  9
$SURFTAB1
 70
     6
  9
$SURFTAB2
 70
     6
  9
$SURFTYPE
 70
     6
  9
$SURFU
 70
     6
  9
$SURFV
 70
     6
  9
$UCSBASE
  2

  9
$UCSNAME
  2

  9
$UCSORG
 10
0.0
 20
0.0
 30
0.0
  9
$UCSXDIR
 10
1.0
 20
0.0
 30
0.0
  9
$UCSYDIR
 10
0.0
 20
1.0
 30
0.0
  9
$UCSORTHOREF
  2

  9
$UCSORTHOVIEW
 70
     0
  9
$UCSORGTOP
 10
0.0
 20
0.0
 30
0.0
  9
$UCSORGBOTTOM
 10
0.0
 20
0.0
 30
0.0
  9
$UCSORGLEFT
 10
0.0
 20
0.0
 30
0.0
  9
$UCSORGRIGHT
 10
0.0
 20
0.0
 30
0.0
  9
$UCSORGFRONT
 10
0.0
 20
0.0
 30
0.0
  9
$UCSORGBACK
 10
0.0
 20
0.0
 30
0.0
  9
$PUCSBASE
  2

  9
$PUCSNAME
  2

  9
$PUCSORG
 10
0.0
 20
0.0
 30
0.0
  9
$PUCSXDIR
 10
1.0
 20
0.0
 30
0.0
  9
$PUCSYDIR
 10
0.0
 20
1.0
 30
0.0
  9
$PUCSORTHOREF
  2

  9
$PUCSORTHOVIEW
 70
     0
  9
$PUCSORGTOP
 10
0.0
 20
0.0
 30
0.0
  9
$PUCSORGBOTTOM
 10
0.0
 20
0.0
 30
0.0
  9
$PUCSORGLEFT
 10
0.0
 20
0.0
 30
0.0
  9
$PUCSORGRIGHT
 10
0.0
 20
0.0
 30
0.0
  9
$PUCSORGFRONT
 10
0.0
 20
0.0
 30
0.0
  9
$PUCSORGBACK
 10
0.0
 20
0.0
 30
0.0
  9
$USERI1
 70
     0
  9
$USERI2
 70
     0
  9
$USERI3
 70
     0
  9
$USERI4
 70
     0
  9
$USERI5
 70
     0
  9
$USERR1
 40
0.0
  9
$USERR2
 40
0.0
  9
$USERR3
 40
0.0
  9
$USERR4
 40
0.0
  9
$USERR5
 40
0.0
  9
$WORLDVIEW
 70
     1
  9
$SHADEDGE
 70
     3
  9
$SHADEDIF
 70
    70
  9
$TILEMODE
 70
     1
  9
$MAXACTVP
 70
    64
  9
$PINSBASE
 10
0.0
 20
0.0
 30
0.0
  9
$PLIMCHECK
 70
     0
  9
$PEXTMIN
 10
0.0
 20
0.0
 30
0.0
  9
$PEXTMAX
 10
0.0
 20
0.0
 30
0.0
  9
$PLIMMIN
 10
0.0
 20
0.0
  9
$PLIMMAX
 10
0.0
 20
0.0
  9
$UNITMODE
 70
     0
  9
$VISRETAIN
 70
     1
  9
$PLINEGEN
 70
     0
  9
$PSLTSCALE
 70
     1
  9
$TREEDEPTH
 70
  3020
  9
$CMLSTYLE
  2
Standard
  9
$CMLJUST
 70
     0
  9
$CMLSCALE
 40
1.0
  9
$PROXYGRAPHICS
 70
     1
  9
$MEASUREMENT
 70
     0
  9
$CELWEIGHT
370
    -1
  9
$ENDCAPS
280
     0
  9
$JOINSTYLE
280
     0
  9
$LWDISPLAY
290
     0
  9
$INSUNITS
 70
     4
  9
$HYPERLINKBASE
  1

  9
$STYLESHEET
  1

  9
$XEDIT
290
     1
  9
$CEPSNTYPE
380
     0
  9
$PSTYLEMODE
290
     1
  9
$FINGERPRINTGUID
  2
{647C8F56-B5FC-4BF5-BB67-9AD6C60CEFCA}
  9
$VERSIONGUID
  2
{FAEB1C32-E019-11D5-929B-00C0DF256EC4}
  9
$EXTNAMES
290
     1
  9
$PSVPSCALE
 40
0.0
  9
$OLESTARTUP
290
     0
  9
$SORTENTS
280
   127
  9
$INDEXCTL
280
     0
  9
$HIDETEXT
280
     1
  9
$XCLIPFRAME
280
     2
  9
$HALOGAP
280
     0
  9
$OBSCOLOR
 70
   257
  9
$OBSLTYPE
280
     0
  9
$INTERSECTIONDISPLAY
280
     0
  9
$INTERSECTIONCOLOR
 70
   257
  9
$DIMASSOC
280
     2
  9
$PROJECTNAME
  1

  9
$CAMERADISPLAY
290
     0
  9
$LENSLENGTH
 40
50.0
  9
$CAMERAHEIGHT
 40
0.0
  9
$STEPSPERSEC
 40
2.0
  9
$STEPSIZE
 40
6.0
  9
$3DDWFPREC
 40
2.0
  9
$PSOLWIDTH
 40
0.25
  9
$PSOLHEIGHT
 40
4.0
  9
$LOFTANG1
 40
1.570796326794897
  9
$LOFTANG2
 40
1.570796326794897
  9
$LOFTMAG1
 40
0.0
  9
$LOFTMAG2
 40
0.0
  9
$LOFTPARAM
 70
     7
  9
$LOFTNORMALS
280
     1
  9
$LATITUDE
 40
37.795
  9
$LONGITUDE
 40
-122.394
  9
$NORTHDIRECTION
 40
0.0
  9
$TIMEZONE
 70
 -8000
  9
$LIGHTGLYPHDISPLAY
280
     1
  9
$TILEMODELIGHTSYNCH
280
     1
  9
$CMATERIAL
347
3C
  9
$SOLIDHIST
280
     1
  9
$SHOWHIST
280
     1
  9
$DWFFRAME
280
     2
  9
$DGNFRAME
280
     2
  9
$REALWORLDSCALE
290
     1
  9
$INTERFERECOLOR
 62
   256
  9
$CSHADOW
280
     0
  9
$SHADOWPLANELOCATION
 40
0.0
  0
ENDSEC
  0
SECTION
  2
CLASSES
  0
CLASS
  1
ACDBDICTIONARYWDFLT
  2
AcDbDictionaryWithDefault
  3
ObjectDBX Classes
 90
        0
 91
        4
280
     0
281
     0
  0
CLASS
  1
VISUALSTYLE
  2
AcDbVisualStyle
  3
ObjectDBX Classes
 90
     4095
 91
        4
280
     0
281
     0
  0
CLASS
  1
MATERIAL
  2
AcDbMaterial
  3
ObjectDBX Classes
 90
     1153
 91
        4
280
     0
281
     0
  0
CLASS
  1
SUN
  2
AcDbSun
  3
SCENEOE
 90
     1024
 91
        4
280
     0
281
     0
  0
CLASS
  1
AEC_VARS_DWG_SETUP
  2
AecDbVarsDwgSetup
  3
AecBase60
 90
      129
 91
        4
280
     0
281
     0
  0
CLASS
  1
AEC_DISP_REP_2D_SECTION
  2
AecDbDispRep2dSection
  3
AecBase60
 90
      129
 91
        4
280
     0
281
     0
  0
CLASS
  1
AEC_DISP_PROPS_2D_SECTION
  2
AecDbDispProps2dSection
  3
AecBase60
 90
      129
 91
        4
280
     0
281
     0
  0
CLASS
  1
AEC_DISP_REP_CLIP_VOLUME_MODEL
  2
AecDbDispRepClipVolModel
  3
AecBase60
 90
      129
 91
        6
280
     0
281
     0
  0
CLASS
  1
AEC_DISP_PROPS_CLIP_VOLUME
  2
AecDbDispPropsClipVol
  3
AecBase60
 90
      129
 91
        4
280
     0
281
     0
  0
CLASS
  1
AEC_DISP_REP_CLIP_VOLUME_PLAN
  2
AecDbDispRepClipVolPlan
  3
AecBase60
 90
      129
 91
        4
280
     0
281
     0
  0
CLASS
  1
AEC_DISP_REP_CLIP_VOLUME_RESULT
  2
AecDbDispRepClipVolResult
  3
AecBase60
 90
      129
 91
        6
280
     0
281
     0
  0
CLASS
  1
AEC_DISP_REP_CLIP_VOLUME_RESULT_SUBDIV
  2
AecDbDispRepClipVolResSubDiv
  3
AecBase60
 90
      129
 91
        5
280
     0
281
     0
  0
CLASS
  1
AEC_DISP_PROPS_CLIP_VOLUME_RESULT
  2
AecDbDispPropsClipVolResSubDiv
  3
AecBase60
 90
      129
 91
        4
280
     0
281
     0
  0
CLASS
  1
AEC_DISP_REP_DISPLAYTHEME
  2
AecDbDispRepDisplayTheme
  3
AecBase60
 90
      129
 91
        4
280
     0
281
     0
  0
CLASS
  1
AEC_DISP_PROPS_DISPLAYTHEME
  2
AecDbDispPropsDisplayTheme
  3
AecBase60
 90
      129
 91
        4
280
     0
281
     0
  0
CLASS
  1
AEC_DISP_REP_ENT_REF
  2
AecDbDispRepEntRef
  3
AecBase60
 90
      129
 91
        4
280
     0
281
     0
  0
CLASS
  1
AEC_DISP_PROPS_ENT_REF
  2
AecDbDispPropsEntRef
  3
AecBase60
 90
      129
 91
        4
280
     0
281
     0
  0
CLASS
  1
AEC_DISP_REP_LAYOUT_CURVE
  2
AecDbDispRepLayoutCurve
  3
AecBase60
 90
      129
 91
        4
280
     0
281
     0
  0
CLASS
  1
AEC_DISP_PROPS_LAYOUT_CURVE
  2
AecDbDispPropsLayoutCurve
  3
AecBase60
 90
      129
 91
        4
280
     0
281
     0
  0
CLASS
  1
AEC_DISP_REP_LAYOUT_GRID2D
  2
AecDbDispRepLayoutGrid2d
  3
AecBase60
 90
      129
 91
        6
280
     0
281
     0
  0
CLASS
  1
AEC_DISP_PROPS_LAYOUT_GRID2D
  2
AecDbDispPropsLayoutGrid2d
  3
AecBase60
 90
      129
 91
        5
280
     0
281
     0
  0
CLASS
  1
AEC_DISP_REP_LAYOUT_GRID3D
  2
AecDbDispRepLayoutGrid3d
  3
AecBase60
 90
      129
 91
        4
280
     0
281
     0
  0
CLASS
  1
AEC_DISP_PROPS_LAYOUT_GRID3D
  2
AecDbDispPropsLayoutGrid3d
  3
AecBase60
 90
      129
 91
        4
280
     0
281
     0
  0
CLASS
  1
AEC_DISP_REP_MASKBLOCK_REF
  2
AecDbDispRepMaskBlockRef
  3
AecBase60
 90
      129
 91
        5
280
     0
281
     0
  0
CLASS
  1
AEC_DISP_PROPS_MASKBLOCK
  2
AecDbDispPropsMaskBlock
  3
AecBase60
 90
      129
 91
        4
280
     0
281
     0
  0
CLASS
  1
AEC_DISP_REP_MASKBLOCK_REF_RCP
  2
AecDbDispRepMaskBlockRefRcp
  3
AecArchBase60
 90
      129
 91
        4
280
     0
281
     0
  0
CLASS
  1
AEC_DISP_REP_MASS_ELEM_MODEL
  2
AecDbDispRepMassElemModel
  3
AecBase60
 90
      129
 91
        4
280
     0
281
     0
  0
CLASS
  1
AEC_DISP_PROPS_MASS_ELEM_MODEL
  2
AecDbDispPropsMassElem
  3
AecBase60
 90
      129
 91
        5
280
     0
281
     0
  0
CLASS
  1
AEC_DISP_REP_MASS_ELEM_SCHEM
  2
AecDbDispRepMassElemSchem
  3
AecBase60
 90
      129
 91
        5
280
     0
281
     0
  0
CLASS
  1
AEC_DISPREPAECDBDISPREPMASSELEMPLAN50
  2
AecDbDispRepMassElemPlan50
  3
AecArchDACHBase60
 90
      129
 91
        4
280
     0
281
     0
  0
CLASS
  1
AEC_DISPROPSMASSELEMPLANCOMMON
  2
AecDbDispPropsMassElemPlanCommon
  3
AecArchDACHBase60
 90
      129
 91
        4
280
     0
281
     0
  0
CLASS
  1
AEC_DISPREPAECDBDISPREPMASSELEMPLAN100
  2
AecDbDispRepMassElemPlan100
  3
AecArchDACHBase60
 90
      129
 91
        4
280
     0
281
     0
  0
CLASS
  1
AEC_DISP_REP_MASS_ELEM_RCP
  2
AecDbDispRepMassElemRcp
  3
AecArchBase60
 90
      129
 91
        4
280
     0
281
     0
  0
CLASS
  1
AEC_DISP_REP_MASS_GROUP_MODEL
  2
AecDbDispRepMassGroupModel
  3
AecBase60
 90
      129
 91
        4
280
     0
281
     0
  0
CLASS
  1
AEC_DISP_PROPS_MASS_GROUP
  2
AecDbDispPropsMassGroup
  3
AecBase60
 90
      129
 91
        5
280
     0
281
     0
  0
CLASS
  1
AEC_DISP_REP_MASS_GROUP_PLAN
  2
AecDbDispRepMassGroupPlan
  3
AecBase60
 90
      129
 91
        8
280
     0
281
     0
  0
CLASS
  1
AEC_DISPREPAECDBDISPREPMASSGROUPPLAN50
  2
AecDbDispRepMassGroupPlan50
  3
AecArchDACHBase60
 90
      129
 91
        4
280
     0
281
     0
  0
CLASS
  1
AEC_DISPROPSMASSGROUPPLANCOMMON
  2
AecDbDispPropsMassGroupPlanCommon
  3
AecArchDACHBase60
 90
      129
 91
        4
280
     0
281
     0
  0
CLASS
  1
AEC_DISPREPAECDBDISPREPMASSGROUPPLAN100
  2
AecDbDispRepMassGroupPlan100
  3
AecArchDACHBase60
 90
      129
 91
        4
280
     0
281
     0
  0
CLASS
  1
AEC_DISP_REP_MASS_GROUP_RCP
  2
AecDbDispRepMassGroupRcp
  3
AecArchBase60
 90
      129
 91
        4
280
     0
281
     0
  0
CLASS
  1
AEC_DISP_REP_MVBLOCK_REF
  2
AecDbDispRepMvBlockRef
  3
AecBase60
 90
      129
 91
        8
280
     0
281
     0
  0
CLASS
  1
AEC_DISP_REP_MVBLOCK_REF_MODEL
  2
AecDbDispRepMvBlockRefModel
  3
AecBase60
 90
      129
 91
        4
280
     0
281
     0
  0
CLASS
  1
AEC_AECDBDISPREPMVBLOCKREFPLAN100
  2
AecDbDispRepMvBlockRefPlan100
  3
AecBase60
 90
      129
 91
        4
280
     0
281
     0
  0
CLASS
  1
AEC_AECDBDISPREPMVBLOCKREFPLAN50
  2
AecDbDispRepMvBlockRefPlan50
  3
AecBase60
 90
      129
 91
        4
280
     0
281
     0
  0
CLASS
  1
AEC_DISP_REP_POLYGON_MODEL
  2
AecDbDispRepPolygonModel
  3
AecBase60
 90
      129
 91
        4
280
     0
281
     0
  0
CLASS
  1
AEC_DISP_PROPS_POLYGON_MODEL
  2
AecDbDispPropsPolygonModel
  3
AecBase60
 90
      129
 91
        4
280
     0
281
     0
  0
CLASS
  1
AEC_DISP_REP_POLYGON_TRUECOLOUR
  2
AecDbDispRepPolygonTrueColour
  3
AecBase60
 90
      129
 91
        4
280
     0
281
     0
  0
CLASS
  1
AEC_DISP_PROPS_POLYGON_TRUECOLOUR
  2
AecDbDispPropsPolygonTrueColour
  3
AecBase60
 90
      129
 91
        4
280
     0
281
     0
  0
CLASS
  1
AEC_DISP_REP_SLICE
  2
AecDbDispRepSlice
  3
AecBase60
 90
      129
 91
        4
280
     0
281
     0
  0
CLASS
  1
AEC_DISP_PROPS_SLICE
  2
AecDbDispPropsSlice
  3
AecBase60
 90
      129
 91
        4
280
     0
281
     0
  0
CLASS
  1
AEC_DISP_REP_ANCHOR
  2
AecDbDispRepAnchor
  3
AecBase60
 90
      129
 91
        4
280
     0
281
     0
  0
CLASS
  1
AEC_DISP_REP_ANCHOR_ENT_TO_NODE
  2
AecDbDispRepAnchorEntToNode
  3
AecBase60
 90
      129
 91
        5
280
     0
281
     0
  0
CLASS
  1
AEC_DISP_PROPS_ENT
  2
AecDbDispPropsEnt
  3
AecBase60
 90
      129
 91
        4
280
     0
281
     0
  0
CLASS
  1
AEC_DISP_REP_MATERIAL
  2
AecDbDispRepMaterial
  3
AecBase60
 90
      129
 91
        4
280
     0
281
     0
  0
CLASS
  1
AEC_DISP_PROPS_MATERIAL
  2
AecDbDispPropsMaterial
  3
AecBase60
 90
      129
 91
        4
280
     0
281
     0
  0
CLASS
  1
AEC_DISP_REP_EDITINPLACEPROFILE
  2
AecDbDispRepEditInPlaceProfile
  3
AecBase60
 90
      129
 91
        4
280
     0
281
     0
  0
CLASS
  1
AEC_DISP_PROPS_EDITINPLACEPROFILE_MODEL
  2
AecDbDispPropsEditInPlaceProfile
  3
AecBase60
 90
      129
 91
        4
280
     0
281
     0
  0
CLASS
  1
AEC_VARS_ARCHBASE
  2
AecDbVarsArchBase
  3
AecArchBase60
 90
      129
 91
        4
280
     0
281
     0
  0
CLASS
  1
AEC_DISP_REP_BDG_ELEVLINE_PLAN
  2
AecDbDispRepBdgElevLinePlan
  3
AecArchBase60
 90
      129
 91
        7
280
     0
281
     0
  0
CLASS
  1
AEC_DISP_REP_BDG_ELEVLINE_MODEL
  2
AecDbDispRepBdgElevLineModel
  3
AecArchBase60
 90
      129
 91
        4
280
     0
281
     0
  0
CLASS
  1
AEC_DISP_REP_BDG_ELEVLINE_RCP
  2
AecDbDispRepBdgElevLineRcp
  3
AecArchBase60
 90
      129
 91
        4
280
     0
281
     0
  0
CLASS
  1
AEC_AECDBDISPREPBDGELEVLINEPLAN100
  2
AecDbDispRepBdgElevLinePlan100
  3
AecBase60
 90
      129
 91
        4
280
     0
281
     0
  0
CLASS
  1
AEC_AECDBDISPREPBDGELEVLINEPLAN50
  2
AecDbDispRepBdgElevLinePlan50
  3
AecBase60
 90
      129
 91
        4
280
     0
281
     0
  0
CLASS
  1
AEC_DISP_REP_BDG_SECTIONLINE_MODEL
  2
AecDbDispRepBdgSectionLineModel
  3
AecArchBase60
 90
      129
 91
        4
280
     0
281
     0
  0
CLASS
  1
AEC_DISP_REP_BDG_SECTIONLINE_PLAN
  2
AecDbDispRepBdgSectionLinePlan
  3
AecArchBase60
 90
      129
 91
        7
280
     0
281
     0
  0
CLASS
  1
AEC_DISP_REP_BDG_SECTIONLINE_RCP
  2
AecDbDispRepBdgSectionLineRcp
  3
AecArchBase60
 90
      129
 91
        4
280
     0
281
     0
  0
CLASS
  1
AEC_AECDBDISPREPBDGSECTIONLINEPLAN100
  2
AecDbDispRepBdgSectionLinePlan100
  3
AecBase60
 90
      129
 91
        4
280
     0
281
     0
  0
CLASS
  1
AEC_AECDBDISPREPBDGSECTIONLINEPLAN50
  2
AecDbDispRepBdgSectionLinePlan50
  3
AecBase60
 90
      129
 91
        4
280
     0
281
     0
  0
CLASS
  1
AEC_DISP_REP_BDG_SECTION_SUBDIV
  2
AecDbDispRepBdgSectionSubDiv
  3
AecArchBase60
 90
      129
 91
        4
280
     0
281
     0
  0
CLASS
  1
AEC_DISP_REP_BDG_SECTION_MODEL
  2
AecDbDispRepBdgSectionModel
  3
AecArchBase60
 90
      129
 91
        4
280
     0
281
     0
  0
CLASS
  1
AEC_DISP_REP_CEILING_GRID
  2
AecDbDispRepCeilingGrid
  3
AecArchBase60
 90
      893
 91
        8
280
     0
281
     0
  0
CLASS
  1
AEC_DISP_REP_CEILING_GRID_MODEL
  2
AecDbDispRepCeilingGridModel
  3
AecArchBase60
 90
      129
 91
        4
280
     0
281
     0
  0
CLASS
  1
AEC_DISP_REP_CEILING_GRID_RCP
  2
AecDbDispRepCeilingGridRcp
  3
AecArchBase60
 90
      129
 91
        4
280
     0
281
     0
  0
CLASS
  1
AEC_AECDBDISPREPCEILINGGRIDPLAN100
  2
AecDbDispRepCeilingGridPlan100
  3
AecBase60
 90
      129
 91
        4
280
     0
281
     0
  0
CLASS
  1
AEC_AECDBDISPREPCEILINGGRIDPLAN50
  2
AecDbDispRepCeilingGridPlan50
  3
AecBase60
 90
      129
 91
        4
280
     0
281
     0
  0
CLASS
  1
AEC_DISP_REP_CURTAIN_WALL_LAYOUT_MODEL
  2
AecDbDispRepCurtainWallLayoutModel
  3
AecArchBase60
 90
      129
 91
        4
280
     0
281
     0
  0
CLASS
  1
AEC_DISP_PROPS_GRID_ASSEMBLY_MODEL
  2
AecDbDispPropsGridAssemblyModel
  3
AecArchBase60
 90
      129
 91
        4
280
     0
281
     0
  0
CLASS
  1
AEC_DISP_REP_CURTAIN_WALL_LAYOUT_PLAN
  2
AecDbDispRepCurtainWallLayoutPlan
  3
AecArchBase60
 90
      129
 91
        6
280
     0
281
     0
  0
CLASS
  1
AEC_DISP_PROPS_GRID_ASSEMBLY_PLAN
  2
AecDbDispPropsGridAssemblyPlan
  3
AecArchBase60
 90
      129
 91
        4
280
     0
281
     0
  0
CLASS
  1
AEC_AECDBDISPREPCURTAINWALLLAYOUTPLAN100
  2
AecDbDispRepCurtainWallLayoutPlan100
  3
AecBase60
 90
      129
 91
        4
280
     0
281
     0
  0
CLASS
  1
AEC_AECDBDISPREPCURTAINWALLLAYOUTPLAN50
  2
AecDbDispRepCurtainWallLayoutPlan50
  3
AecBase60
 90
      129
 91
        4
280
     0
281
     0
  0
CLASS
  1
AEC_DISP_REP_CURTAIN_WALL_UNIT_MODEL
  2
AecDbDispRepCurtainWallUnitModel
  3
AecArchBase60
 90
      129
 91
        4
280
     0
281
     0
  0
CLASS
  1
AEC_DISP_REP_CURTAIN_WALL_UNIT_PLAN
  2
AecDbDispRepCurtainWallUnitPlan
  3
AecArchBase60
 90
      129
 91
        6
280
     0
281
     0
  0
CLASS
  1
AEC_AECDBDISPREPCURTAINWALLUNITPLAN100
  2
AecDbDispRepCurtainWallUnitPlan100
  3
AecBase60
 90
      129
 91
        4
280
     0
281
     0
  0
CLASS
  1
AEC_AECDBDISPREPCURTAINWALLUNITPLAN50
  2
AecDbDispRepCurtainWallUnitPlan50
  3
AecBase60
 90
      129
 91
        4
280
     0
281
     0
  0
CLASS
  1
AEC_DISP_REP_DOOR_MODEL
  2
AecDbDispRepDoorModel
  3
AecArchBase60
 90
      129
 91
        5
280
     0
281
     0
  0
CLASS
  1
AEC_DISP_PROPS_DOOR
  2
AecDbDispPropsDoor
  3
AecArchBase60
 90
      129
 91
        5
280
     0
281
     0
  0
CLASS
  1
AEC_DISP_REP_DOOR_ELEV
  2
AecDbDispRepDoorElev
  3
AecArchBase60
 90
      129
 91
        4
280
     0
281
     0
  0
CLASS
  1
AEC_DISP_REP_DOOR_PLAN
  2
AecDbDispRepDoorPlan
  3
AecArchBase60
 90
      129
 91
        8
280
     0
281
     0
  0
CLASS
  1
AEC_DISP_REP_DOOR_NOMINAL
  2
AecDbDispRepDoorNominal
  3
AecArchBase60
 90
      129
 91
        4
280
     0
281
     0
  0
CLASS
  1
AEC_DISP_PROPS_DOOR_NOMINAL
  2
AecDbDispPropsDoorNominal
  3
AecArchBase60
 90
      129
 91
        4
280
     0
281
     0
  0
CLASS
  1
AEC_DISP_REP_DOOR_THRESHOLD_PLAN
  2
AecDbDispRepDoorThresholdPlan
  3
AecArchBase60
 90
      129
 91
        4
280
     0
281
     0
  0
CLASS
  1
AEC_DISP_PROPS_DOOR_THRESHOLD_PLAN
  2
AecDbDispPropsDoorThresholdPlan
  3
AecArchBase60
 90
      129
 91
        4
280
     0
281
     0
  0
CLASS
  1
AEC_DISP_REP_DOOR_PLAN_50
  2
AecDbDispRepDoorPlan50
  3
AecArchDACHBase60
 90
      129
 91
        4
280
     0
281
     0
  0
CLASS
  1
AEC_DISP_PROPS_DOOR_PLAN_50
  2
AecDbDispPropsDoorPlan50
  3
AecArchDACHBase60
 90
      129
 91
        4
280
     0
281
     0
  0
CLASS
  1
AEC_DISP_REP_DOOR_PLAN_HEKTO
  2
AecDbDispRepDoorPlanHekto
  3
AecArchDACHBase60
 90
      129
 91
        4
280
     0
281
     0
  0
CLASS
  1
AEC_DISP_PROPS_DOOR_PLAN_100
  2
AecDbDispPropsDoorPlan100
  3
AecArchDACHBase60
 90
      129
 91
        4
280
     0
281
     0
  0
CLASS
  1
AEC_DISP_REP_DOOR_RCP
  2
AecDbDispRepDoorRcp
  3
AecArchBase60
 90
      129
 91
        4
280
     0
281
     0
  0
CLASS
  1
AEC_DISP_REP_DOOR_THRESHOLD_SYMBOL_PLAN
  2
AecDbDispRepDoorThresholdSymbolPlan
  3
AecArchDACHBase60
 90
      129
 91
        4
280
     0
281
     0
  0
CLASS
  1
AEC_DISP_PROPS_DOOR_THRESHOLD_SYMBOL_PLAN
  2
AecDbDispPropsDoorThresholdSymbolPlan
  3
AecArchDACHBase60
 90
      129
 91
        4
280
     0
281
     0
  0
CLASS
  1
AEC_DISP_REP_OPENING
  2
AecDbDispRepOpening
  3
AecArchBase60
 90
      129
 91
        6
280
     0
281
     0
  0
CLASS
  1
AEC_DISP_PROPS_OPENING
  2
AecDbDispPropsOpening
  3
AecArchBase60
 90
      129
 91
        5
280
     0
281
     0
  0
CLASS
  1
AEC_DISP_REP_OPENING_MODEL
  2
AecDbDispRepOpeningModel
  3
AecArchBase60
 90
      129
 91
        4
280
     0
281
     0
  0
CLASS
  1
AEC_DISPREPAECDBDISPREPOPENINGPLAN100
  2
AecDbDispRepOpeningPlan100
  3
AecArchDACHBase60
 90
      129
 91
        4
280
     0
281
     0
  0
CLASS
  1
AEC_DISPROPSOPENINGPLANCOMMONHATCHED
  2
AecDbDispPropsOpeningPlanCommonHatched
  3
AecArchDACHBase60
 90
      129
 91
        4
280
     0
281
     0
  0
CLASS
  1
AEC_DISPREPAECDBDISPREPOPENINGPLAN50
  2
AecDbDispRepOpeningPlan50
  3
AecArchDACHBase60
 90
      129
 91
        4
280
     0
281
     0
  0
CLASS
  1
AEC_DISPREPAECDBDISPREPOPENINGPLANREFLECTED
  2
AecDbDispRepOpeningPlanReflected
  3
AecArchDACHBase60
 90
      129
 91
        4
280
     0
281
     0
  0
CLASS
  1
AEC_DISPROPSOPENINGPLANCOMMON
  2
AecDbDispPropsOpeningPlanCommon
  3
AecArchDACHBase60
 90
      129
 91
        5
280
     0
281
     0
  0
CLASS
  1
AEC_DISPREPAECDBDISPREPOPENINGSILLPLAN
  2
AecDbDispRepOpeningSillPlan
  3
AecArchDACHBase60
 90
      129
 91
        4
280
     0
281
     0
  0
CLASS
  1
AEC_DISPROPSOPENINGSILLPLAN
  2
AecDbDispPropsOpeningSillPlan
  3
AecArchDACHBase60
 90
      129
 91
        4
280
     0
281
     0
  0
CLASS
  1
AEC_DISP_REP_RAILING_MODEL
  2
AecDbDispRepRailingModel
  3
AecArchBase60
 90
      129
 91
        4
280
     0
281
     0
  0
CLASS
  1
AEC_DISP_PROPS_RAILING_MODEL
  2
AecDbDispPropsRailingModel
  3
AecArchBase60
 90
      129
 91
        4
280
     0
281
     0
  0
CLASS
  1
AEC_DISP_REP_RAILING_PLAN
  2
AecDbDispRepRailingPlan
  3
AecArchBase60
 90
      129
 91
        5
280
     0
281
     0
  0
CLASS
  1
AEC_DISP_PROPS_RAILING_PLAN
  2
AecDbDispPropsRailingPlan
  3
AecArchBase60
 90
      129
 91
        5
280
     0
281
     0
  0
CLASS
  1
AEC_DISP_REP_RAILING_PLAN_100
  2
AecDbDispRepRailingPlan100
  3
AecArchDACHBase60
 90
      129
 91
        4
280
     0
281
     0
  0
CLASS
  1
AEC_DISP_ROPS_RAILING_PLAN_100
  2
AecDbDispPropsRailingPlan100
  3
AecArchDACHBase60
 90
      129
 91
        4
280
     0
281
     0
  0
CLASS
  1
AEC_DISP_REP_RAILING_PLAN_50
  2
AecDbDispRepRailingPlan50
  3
AecArchDACHBase60
 90
      129
 91
        4
280
     0
281
     0
  0
CLASS
  1
AEC_DISP_ROPS_RAILING_PLAN_50
  2
AecDbDispPropsRailingPlan50
  3
AecArchDACHBase60
 90
      129
 91
        4
280
     0
281
     0
  0
CLASS
  1
AEC_DISP_REP_ROOF_MODEL
  2
AecDbDispRepRoofModel
  3
AecArchBase60
 90
      129
 91
        4
280
     0
281
     0
  0
CLASS
  1
AEC_DISP_PROPS_ROOF
  2
AecDbDispPropsRoof
  3
AecArchBase60
 90
      129
 91
        4
280
     0
281
     0
  0
CLASS
  1
AEC_DISP_REP_ROOF_PLAN
  2
AecDbDispRepRoofPlan
  3
AecArchBase60
 90
      129
 91
        8
280
     0
281
     0
  0
CLASS
  1
AEC_DISP_REP_ROOF_RCP
  2
AecDbDispRepRoofRcp
  3
AecArchBase60
 90
      129
 91
        4
280
     0
281
     0
  0
CLASS
  1
AEC_AECDBDISPREPROOFPLAN100
  2
AecDbDispRepRoofPlan100
  3
AecBase60
 90
      129
 91
        4
280
     0
281
     0
  0
CLASS
  1
AEC_AECDBDISPREPROOFPLAN50
  2
AecDbDispRepRoofPlan50
  3
AecBase60
 90
      129
 91
        4
280
     0
281
     0
  0
CLASS
  1
AEC_DISP_REP_ROOFSLAB_MODEL
  2
AecDbDispRepRoofSlabModel
  3
AecArchBase60
 90
      129
 91
        4
280
     0
281
     0
  0
CLASS
  1
AEC_DISP_PROPS_ROOFSLAB
  2
AecDbDispPropsRoofSlab
  3
AecArchBase60
 90
      129
 91
        4
280
     0
281
     0
  0
CLASS
  1
AEC_DISP_REP_ROOFSLAB_PLAN
  2
AecDbDispRepRoofSlabPlan
  3
AecArchBase60
 90
      129
 91
        6
280
     0
281
     0
  0
CLASS
  1
AEC_DISP_PROPS_ROOFSLAB_PLAN
  2
AecDbDispPropsRoofSlabPlan
  3
AecArchBase60
 90
      129
 91
        4
280
     0
281
     0
  0
CLASS
  1
AEC_AECDBDISPREPROOFSLABPLAN100
  2
AecDbDispRepRoofSlabPlan100
  3
AecBase60
 90
      129
 91
        4
280
     0
281
     0
  0
CLASS
  1
AEC_AECDBDISPREPROOFSLABPLAN50
  2
AecDbDispRepRoofSlabPlan50
  3
AecBase60
 90
      129
 91
        4
280
     0
281
     0
  0
CLASS
  1
AEC_DISP_REP_SLAB_MODEL
  2
AecDbDispRepSlabModel
  3
AecArchBase60
 90
      129
 91
        5
280
     0
281
     0
  0
CLASS
  1
AEC_DISP_PROPS_SLAB
  2
AecDbDispPropsSlab
  3
AecArchBase60
 90
      129
 91
        6
280
     0
281
     0
  0
CLASS
  1
AEC_DISP_REP_SLAB_PLAN
  2
AecDbDispRepSlabPlan
  3
AecArchBase60
 90
      129
 91
        7
280
     0
281
     0
  0
CLASS
  1
AEC_DISP_PROPS_SLAB_PLAN
  2
AecDbDispPropsSlabPlan
  3
AecArchBase60
 90
      129
 91
        5
280
     0
281
     0
  0
CLASS
  1
AEC_AECDBDISPREPSLABPLAN100
  2
AecDbDispRepSlabPlan100
  3
AecBase60
 90
      129
 91
        4
280
     0
281
     0
  0
CLASS
  1
AEC_AECDBDISPREPSLABPLAN50
  2
AecDbDispRepSlabPlan50
  3
AecBase60
 90
      129
 91
        4
280
     0
281
     0
  0
CLASS
  1
AEC_DISP_REP_SPACE_MODEL
  2
AecDbDispRepSpaceModel
  3
AecArchBase60
 90
      129
 91
        4
280
     0
281
     0
  0
CLASS
  1
AEC_DISP_PROPS_SPACE_MODEL
  2
AecDbDispPropsSpaceModel
  3
AecArchBase60
 90
      129
 91
        4
280
     0
281
     0
  0
CLASS
  1
AEC_DISP_REP_SPACE_PLAN
  2
AecDbDispRepSpacePlan
  3
AecArchBase60
 90
      129
 91
        7
280
     0
281
     0
  0
CLASS
  1
AEC_DISP_PROPS_SPACE_PLAN
  2
AecDbDispPropsSpacePlan
  3
AecArchBase60
 90
      129
 91
        4
280
     0
281
     0
  0
CLASS
  1
AEC_DISP_REP_SPACE_RCP
  2
AecDbDispRepSpaceRcp
  3
AecArchBase60
 90
      129
 91
        4
280
     0
281
     0
  0
CLASS
  1
AEC_DISP_REP_SPACE_VOLUME
  2
AecDbDispRepSpaceVolume
  3
AecArchBase60
 90
      129
 91
        4
280
     0
281
     0
  0
CLASS
  1
AEC_DISP_REP_SPACE_DECOMPOSED
  2
AecDbDispRepSpaceDecomposed
  3
AecArchBase60
 90
      129
 91
        4
280
     0
281
     0
  0
CLASS
  1
AEC_DISP_PROPS_SPACE_DECOMPOSED
  2
AecDbDispPropsSpaceDecomposed
  3
AecArchBase60
 90
      129
 91
        4
280
     0
281
     0
  0
CLASS
  1
AEC_AECDBDISPREPSPACEPLAN100
  2
AecDbDispRepSpacePlan100
  3
AecBase60
 90
      129
 91
        4
280
     0
281
     0
  0
CLASS
  1
AEC_AECDBDISPREPSPACEPLAN50
  2
AecDbDispRepSpacePlan50
  3
AecBase60
 90
      129
 91
        4
280
     0
281
     0
  0
CLASS
  1
AEC_DISP_REP_STAIR_MODEL
  2
AecDbDispRepStairModel
  3
AecArchBase60
 90
      129
 91
        4
280
     0
281
     0
  0
CLASS
  1
AEC_DISP_PROPS_STAIR_MODEL
  2
AecDbDispPropsStairModel
  3
AecArchBase60
 90
      129
 91
        4
280
     0
281
     0
  0
CLASS
  1
AEC_DISP_REP_STAIR_PLAN
  2
AecDbDispRepStairPlan
  3
AecArchBase60
 90
      129
 91
        7
280
     0
281
     0
  0
CLASS
  1
AEC_DISP_PROPS_STAIR_PLAN
  2
AecDbDispPropsStairPlan
  3
AecArchBase60
 90
      129
 91
        6
280
     0
281
     0
  0
CLASS
  1
AEC_DISP_REP_STAIR_RCP
  2
AecDbDispRepStairRcp
  3
AecArchBase60
 90
      129
 91
        4
280
     0
281
     0
  0
CLASS
  1
AEC_DISP_REP_STAIR_PLAN_100
  2
AecDbDispRepStairPlan100
  3
AecArchDACHBase60
 90
      129
 91
        4
280
     0
281
     0
  0
CLASS
  1
AEC_DISP_ROPS_STAIR_PLAN_100
  2
AecDbDispPropsStairPlan100
  3
AecArchDACHBase60
 90
      129
 91
        4
280
     0
281
     0
  0
CLASS
  1
AEC_DISP_REP_STAIR_PLAN_50
  2
AecDbDispRepStairPlan50
  3
AecArchDACHBase60
 90
      129
 91
        4
280
     0
281
     0
  0
CLASS
  1
AEC_DISP_ROPS_STAIR_PLAN_50
  2
AecDbDispPropsStairPlan50
  3
AecArchDACHBase60
 90
      129
 91
        4
280
     0
281
     0
  0
CLASS
  1
AEC_DISP_REP_STAIR_PLAN_OVERLAPPING
  2
AecDbDispRepStairPlanOverlapping
  3
AecArchBase60
 90
      129
 91
        4
280
     0
281
     0
  0
CLASS
  1
AEC_DISP_PROPS_STAIR_PLAN_OVERLAPPING
  2
AecDbDispPropsStairPlanOverlapping
  3
AecArchBase60
 90
      129
 91
        4
280
     0
281
     0
  0
CLASS
  1
AEC_DISP_REP_WALL_GRAPH
  2
AecDbDispRepWallGraph
  3
AecArchBase60
 90
      129
 91
        4
280
     0
281
     0
  0
CLASS
  1
AEC_DISP_PROPS_WALL_GRAPH
  2
AecDbDispPropsWallGraph
  3
AecArchBase60
 90
      129
 91
        4
280
     0
281
     0
  0
CLASS
  1
AEC_DISP_REP_WALL_MODEL
  2
AecDbDispRepWallModel
  3
AecArchBase60
 90
      129
 91
        4
280
     0
281
     0
  0
CLASS
  1
AEC_DISP_PROPS_WALL_MODEL
  2
AecDbDispPropsWallModel
  3
AecArchBase60
 90
      129
 91
        4
280
     0
281
     0
  0
CLASS
  1
AEC_DISP_REP_WALL_PLAN
  2
AecDbDispRepWallPlan
  3
AecArchBase60
 90
      129
 91
        7
280
     0
281
     0
  0
CLASS
  1
AEC_DISP_PROPS_WALL_PLAN
  2
AecDbDispPropsWallPlan
  3
AecArchBase60
 90
      129
 91
        4
280
     0
281
     0
  0
CLASS
  1
AEC_DISP_REP_WALL_RCP
  2
AecDbDispRepWallRcp
  3
AecArchBase60
 90
      129
 91
        4
280
     0
281
     0
  0
CLASS
  1
AEC_DISP_REP_WALL_SCHEM
  2
AecDbDispRepWallSchem
  3
AecArchBase60
 90
      129
 91
        4
280
     0
281
     0
  0
CLASS
  1
AEC_DISP_PROPS_WALL_SCHEM
  2
AecDbDispPropsWallSchem
  3
AecArchBase60
 90
      129
 91
        4
280
     0
281
     0
  0
CLASS
  1
AEC_AECDBDISPREPWALLPLAN100
  2
AecDbDispRepWallPlan100
  3
AecBase60
 90
      129
 91
        4
280
     0
281
     0
  0
CLASS
  1
AEC_AECDBDISPREPWALLPLAN50
  2
AecDbDispRepWallPlan50
  3
AecBase60
 90
      129
 91
        4
280
     0
281
     0
  0
CLASS
  1
AEC_DISP_REP_WINDOW_MODEL
  2
AecDbDispRepWindowModel
  3
AecArchBase60
 90
      129
 91
        5
280
     0
281
     0
  0
CLASS
  1
AEC_DISP_PROPS_WINDOW
  2
AecDbDispPropsWindow
  3
AecArchBase60
 90
      129
 91
        6
280
     0
281
     0
  0
CLASS
  1
AEC_DISP_REP_WINDOW_ELEV
  2
AecDbDispRepWindowElev
  3
AecArchBase60
 90
      129
 91
        4
280
     0
281
     0
  0
CLASS
  1
AEC_DISP_REP_WINDOW_PLAN
  2
AecDbDispRepWindowPlan
  3
AecArchBase60
 90
      129
 91
        8
280
     0
281
     0
  0
CLASS
  1
AEC_DISP_REP_WINDOW_NOMINAL
  2
AecDbDispRepWindowNominal
  3
AecArchBase60
 90
      129
 91
        4
280
     0
281
     0
  0
CLASS
  1
AEC_DISP_PROPS_WINDOW_NOMINAL
  2
AecDbDispPropsWindowNominal
  3
AecArchBase60
 90
      129
 91
        4
280
     0
281
     0
  0
CLASS
  1
AEC_DISP_REP_WINDOW_RCP
  2
AecDbDispRepWindowRcp
  3
AecArchBase60
 90
      129
 91
        4
280
     0
281
     0
  0
CLASS
  1
AEC_DISP_REP_WINDOW_SILL_PLAN
  2
AecDbDispRepWindowSillPlan
  3
AecArchBase60
 90
      129
 91
        4
280
     0
281
     0
  0
CLASS
  1
AEC_DISP_PROPS_WINDOW_SILL_PLAN
  2
AecDbDispPropsWindowSillPlan
  3
AecArchBase60
 90
      129
 91
        4
280
     0
281
     0
  0
CLASS
  1
AEC_DISP_REP_WINDOW_PLAN_100
  2
AecDbDispRepWindowPlan100
  3
AecArchDACHBase60
 90
      129
 91
        4
280
     0
281
     0
  0
CLASS
  1
AEC_DISP_PROPS_WINDOW_PLAN_100
  2
AecDbDispPropsWindowPlan100
  3
AecArchDACHBase60
 90
      129
 91
        4
280
     0
281
     0
  0
CLASS
  1
AEC_DISP_REP_WINDOW_PLAN_50
  2
AecDbDispRepWindowPlan50
  3
AecArchDACHBase60
 90
      129
 91
        4
280
     0
281
     0
  0
CLASS
  1
AEC_DISP_PROPS_WINDOW_PLAN_50
  2
AecDbDispPropsWindowPlan50
  3
AecArchDACHBase60
 90
      129
 91
        4
280
     0
281
     0
  0
CLASS
  1
AEC_DISP_REP_WINDOW_ASSEMBLY_MODEL
  2
AecDbDispRepWindowAssemblyModel
  3
AecArchBase60
 90
      129
 91
        4
280
     0
281
     0
  0
CLASS
  1
AEC_DISP_REP_WINDOW_ASSEMBLY_PLAN
  2
AecDbDispRepWindowAssemblyPlan
  3
AecArchBase60
 90
      129
 91
        6
280
     0
281
     0
  0
CLASS
  1
AEC_DISP_REP_WINDOWASSEMBLY_SILL_PLAN
  2
AecDbDispRepWindowAssemblySillPlan
  3
AecArchBase60
 90
      129
 91
        4
280
     0
281
     0
  0
CLASS
  1
AEC_DISP_PROPS_WINDOW_ASSEMBLY_SILL_PLAN
  2
AecDbDispPropsWindowAssemblySillPlan
  3
AecArchBase60
 90
      129
 91
        4
280
     0
281
     0
  0
CLASS
  1
AEC_AECDBDISPREPWINDOWASSEMBLYPLAN100
  2
AecDbDispRepWindowAssemblyPlan100
  3
AecBase60
 90
      129
 91
        4
280
     0
281
     0
  0
CLASS
  1
AEC_AECDBDISPREPWINDOWASSEMBLYPLAN50
  2
AecDbDispRepWindowAssemblyPlan50
  3
AecBase60
 90
      129
 91
        4
280
     0
281
     0
  0
CLASS
  1
AEC_DB_DISP_REP_DIM_GROUP_PLAN
  2
AecDbDispRepDimGroupPlan
  3
AecArchDACHBase60
 90
      129
 91
        4
280
     0
281
     0
  0
CLASS
  1
AEC_DISP_PROPS_DIM
  2
AecDbDispPropsDimGroup
  3
AecArchDACHBase60
 90
      129
 91
        4
280
     0
281
     0
  0
CLASS
  1
AEC_DB_DISP_REP_DIM_GROUP_PLAN100
  2
AecDbDispRepDimGroupPlan100
  3
AecArchDACHBase60
 90
      129
 91
        4
280
     0
281
     0
  0
CLASS
  1
AEC_DB_DISP_REP_DIM_GROUP_PLAN50
  2
AecDbDispRepDimGroupPlan50
  3
AecArchDACHBase60
 90
      129
 91
        4
280
     0
281
     0
  0
CLASS
  1
AEC_DISP_REP_SCHEDULE_TABLE
  2
AecDbDispRepScheduleTable
  3
AecSchedule50
 90
      129
 91
        4
280
     0
281
     0
  0
CLASS
  1
AEC_DISP_PROPS_SCHEDULE_TABLE
  2
AecDbDispPropsScheduleTable
  3
AecSchedule50
 90
      129
 91
        4
280
     0
281
     0
  0
CLASS
  1
AEC_DISP_REP_ANCHOR_TAG_TO_ENT
  2
AecDbDispRepAnchorTagToEnt
  3
AecScheduleData60
 90
      129
 91
        5
280
     0
281
     0
  0
CLASS
  1
AEC_DISP_REP_ANCHOR_EXT_TAG_TO_ENT
  2
AecDbDispRepAnchorExtendedTagToEnt
  3
AecScheduleData60
 90
      129
 91
        4
280
     0
281
     0
  0
CLASS
  1
AEC_DISP_REP_SET
  2
AecDbDispRepSet
  3
AecBase60
 90
      129
 91
        4
280
     0
281
     0
  0
CLASS
  1
AECS_DISP_REP_MEMBER_MODEL_DESIGN
  2
AecsDbDispRepMemberModelDesign
  3
AecStructureBase60
 90
      129
 91
        4
280
     0
281
     0
  0
CLASS
  1
AECS_DISP_PROPS_MEMBER
  2
AecsDbDispPropsMember
  3
AecStructureBase60
 90
      129
 91
        6
280
     0
281
     0
  0
CLASS
  1
AECS_DISP_REP_MEMBER_PLAN_DESIGN
  2
AecsDbDispRepMemberPlanDesign
  3
AecStructureBase60
 90
      129
 91
        4
280
     0
281
     0
  0
CLASS
  1
AECS_DISP_PROPS_MEMBER_PLAN
  2
AecsDbDispPropsMemberPlan
  3
AecStructureBase60
 90
      129
 91
        5
280
     0
281
     0
  0
CLASS
  1
AEC_DISP_REP_CONFIG
  2
AecDbDispRepConfig
  3
AecBase60
 90
      129
 91
        4
280
     0
281
     0
  0
CLASS
  1
MLEADERSTYLE
  2
AcDbMLeaderStyle
  3
ACDB_MLEADERSTYLE_CLASS
 90
     4095
 91
        4
280
     0
281
     0
  0
CLASS
  1
GEODATA
  2
AcDbGeoData
  3
ObjectDBX Classes
 90
     4095
 91
        4
280
     0
281
     0
  0
CLASS
  1
AEC_WALL_STYLE
  2
AecDbWallStyle
  3
AecArchBase60
 90
      129
 91
        4
280
     0
281
     0
  0
CLASS
  1
AEC_CLEANUP_GROUP_DEF
  2
AecDbCleanupGroupDef
  3
AecArchBase60
 90
      129
 91
        4
280
     0
281
     0
  0
CLASS
  1
AEC_ENDCAP_STYLE
  2
AecDbEndcapStyle
  3
AecArchBase60
 90
      129
 91
        4
280
     0
281
     0
  0
CLASS
  1
AEC_FRAME_DEF
  2
AecDbOpeningEndcapStyle
  3
AecArchBase60
 90
      129
 91
        4
280
     0
281
     0
  0
CLASS
  1
AEC_MATERIAL_DEF
  2
AecDbMaterialDef
  3
AecBase60
 90
      129
 91
        4
280
     0
281
     0
  0
CLASS
  1
TABLESTYLE
  2
AcDbTableStyle
  3
ObjectDBX Classes
 90
     4095
 91
        4
280
     0
281
     0
  0
CLASS
  1
TCOPTIONALDATA
  2
TcOptionalData
  3
ExTcadCustObjs|Description: TurboCAD extension data object
 90
     4095
 91
        4
280
     0
281
     0
  0
CLASS
  1
SCALE
  2
AcDbScale
  3
ObjectDBX Classes
 90
     1153
 91
        4
280
     0
281
     0
  0
CLASS
  1
DICTIONARYVAR
  2
AcDbDictionaryVar
  3
ObjectDBX Classes
 90
        0
 91
        4
280
     0
281
     0
  0
CLASS
  1
CELLSTYLEMAP
  2
AcDbCellStyleMap
  3
ObjectDBX Classes
 90
     1152
 91
        4
280
     0
281
     0
  0
ENDSEC
  0
SECTION
  2
TABLES
  0
TABLE
  2
VPORT
  5
8
330
0
100
AcDbSymbolTable
 70
     1
  0
VPORT
  5
29
330
8
100
AcDbSymbolTableRecord
100
AcDbViewportTableRecord
  2
*Active
 70
     0
 10
0.0
 20
0.0
 11
1.0
 21
1.0
 12
0.0
 22
0.0
 13
0.0
 23
0.0
 14
10.0
 24
10.0
 15
10.0
 25
10.0
 16
0.0
 26
0.0
 36
1.0
 17
129.2643736795105
 27
89.46535243300264
 37
0.0
 40
199.9771490840226
 41
1.792270531400966
 42
50.0
 43
0.0
 44
0.0
 50
0.0
 51
0.0
 71
     0
 72
   100
 73
     1
 74
     3
 75
     0
 76
     0
 77
     0
 78
     0
281
     0
 65
     1
110
0.0
120
0.0
130
0.0
111
1.0
121
0.0
131
0.0
112
0.0
122
1.0
132
0.0
 79
     0
146
0.0
 60
     3
 61
     5
292
     1
282
     1
141
0.0
142
0.0
 63
   250
361
3F
  0
ENDTAB
  0
TABLE
  2
LTYPE
  5
5
330
0
100
AcDbSymbolTable
 70
    14
  0
LTYPE
  5
14
330
5
100
AcDbSymbolTableRecord
100
AcDbLinetypeTableRecord
  2
ByBlock
 70
     0
  3

 72
    65
 73
     0
 40
0.0
  0
LTYPE
  5
15
330
5
100
AcDbSymbolTableRecord
100
AcDbLinetypeTableRecord
  2
ByLayer
 70
     0
  3

 72
    65
 73
     0
 40
0.0
  0
LTYPE
  5
16
330
5
100
AcDbSymbolTableRecord
100
AcDbLinetypeTableRecord
  2
Continuous
 70
     0
  3
Solid line
 72
    65
 73
     0
 40
0.0
  0
LTYPE
  5
155
330
5
100
AcDbSymbolTableRecord
100
AcDbLinetypeTableRecord
  2
BORDER
 70
     0
  3
BORDER
 72
    65
 73
     6
 40
1.75
 49
0.5
 74
     0
 49
-0.25
 74
     0
 49
0.5
 74
     0
 49
-0.25
 74
     0
 49
0.0
 74
     0
 49
-0.25
 74
     0
  0
LTYPE
  5
156
330
5
100
AcDbSymbolTableRecord
100
AcDbLinetypeTableRecord
  2
CENTER
 70
     0
  3
CENTER
 72
    65
 73
     4
 40
10.16
 49
6.35
 74
     0
 49
-1.27
 74
     0
 49
1.27
 74
     0
 49
-1.27
 74
     0
  0
LTYPE
  5
157
330
5
100
AcDbSymbolTableRecord
100
AcDbLinetypeTableRecord
  2
DASHDOT
 70
     0
  3
DASHDOT
 72
    65
 73
     4
 40
1.0
 49
0.5
 74
     0
 49
-0.25
 74
     0
 49
0.0
 74
     0
 49
-0.25
 74
     0
  0
LTYPE
  5
158
330
5
100
AcDbSymbolTableRecord
100
AcDbLinetypeTableRecord
  2
DASHED
 70
     0
  3
DASHED
 72
    65
 73
     2
 40
0.75
 49
0.5
 74
     0
 49
-0.25
 74
     0
  0
LTYPE
  5
159
330
5
100
AcDbSymbolTableRecord
100
AcDbLinetypeTableRecord
  2
DIVIDE
 70
     0
  3
DIVIDE
 72
    65
 73
     6
 40
1.25
 49
0.5
 74
     0
 49
-0.25
 74
     0
 49
0.0
 74
     0
 49
-0.25
 74
     0
 49
0.0
 74
     0
 49
-0.25
 74
     0
  0
LTYPE
  5
15A
330
5
100
AcDbSymbolTableRecord
100
AcDbLinetypeTableRecord
  2
DOT
 70
     0
  3
DOT
 72
    65
 73
     2
 40
0.25
 49
0.0
 74
     0
 49
-0.25
 74
     0
  0
LTYPE
  5
15B
330
5
100
AcDbSymbolTableRecord
100
AcDbLinetypeTableRecord
  2
HIDDEN
 70
     0
  3
HIDDEN
 72
    65
 73
     2
 40
0.375
 49
0.25
 74
     0
 49
-0.125
 74
     0
  0
LTYPE
  5
15C
330
5
100
AcDbSymbolTableRecord
100
AcDbLinetypeTableRecord
  2
PHANTOM
 70
     0
  3
PHANTOM
 72
    65
 73
     6
 40
2.5
 49
1.25
 74
     0
 49
-0.25
 74
     0
 49
0.25
 74
     0
 49
-0.25
 74
     0
 49
0.25
 74
     0
 49
-0.25
 74
     0
  0
LTYPE
  5
15D
330
5
100
AcDbSymbolTableRecord
100
AcDbLinetypeTableRecord
  2
$INVISIBLE
 70
     0
  3
$INVISIBLE
 72
    65
 73
     2
 40
200.0
 49
-100.0
 74
     0
 49
-100.0
 74
     0
  0
LTYPE
  5
15E
330
5
100
AcDbSymbolTableRecord
100
AcDbLinetypeTableRecord
  2
CENTERX2
 70
     0
  3
CENTERX2
 72
    65
 73
     4
 40
20.32
 49
12.7
 74
     0
 49
-2.54
 74
     0
 49
2.54
 74
     0
 49
-2.54
 74
     0
  0
LTYPE
  5
15F
330
5
100
AcDbSymbolTableRecord
100
AcDbLinetypeTableRecord
  2
$CONSTRUCTION
 70
     0
  3
$CONSTRUCTION
 72
    65
 73
     4
 40
0.3
 49
0.2
 74
     0
 49
-0.05
 74
     0
 49
0.0
 74
     0
 49
-0.05
 74
     0
  0
LTYPE
  5
160
330
5
100
AcDbSymbolTableRecord
100
AcDbLinetypeTableRecord
  2
$AUXILIARY
 70
     0
  3
$AUXILIARY
 72
    65
 73
     2
 40
0.1
 49
0.05
 74
     0
 49
-0.05
 74
     0
  0
LTYPE
  5
161
330
5
100
AcDbSymbolTableRecord
100
AcDbLinetypeTableRecord
  2
$SNAPEXT
 70
     0
  3
$SNAPEXT
 72
    65
 73
     2
 40
0.04
 49
0.02
 74
     0
 49
-0.02
 74
     0
  0
ENDTAB
  0
TABLE
  2
LAYER
  5
2
330
0
100
AcDbSymbolTable
 70
     3
  0
LAYER
  5
10
330
2
100
AcDbSymbolTableRecord
100
AcDbLayerTableRecord
  2
0
 70
     0
 62
     7
  6
Continuous
370
     0
390
F
347
3E
  0
LAYER
  5
162
330
2
100
AcDbSymbolTableRecord
100
AcDbLayerTableRecord
  2
SLD-0
 70
     0
 62
     7
  6
Continuous
370
     0
390
F
347
3E
  0
LAYER
  5
163
330
2
100
AcDbSymbolTableRecord
100
AcDbLayerTableRecord
  2
Defpoints
 70
     0
 62
     7
  6
Continuous
290
     0
370
     0
390
F
347
3E
  0
ENDTAB
  0
TABLE
  2
STYLE
  5
3
330
0
100
AcDbSymbolTable
 70
     2
  0
STYLE
  5
11
330
3
100
AcDbSymbolTableRecord
100
AcDbTextStyleTableRecord
  2
Standard
 70
     0
 40
0.0
 41
1.0
 50
0.0
 71
     0
 42
3.962400197982788
  3

  4

1001
ACAD
1000
Arial
1071
       34
  0
STYLE
  5
165
330
3
100
AcDbSymbolTableRecord
100
AcDbTextStyleTableRecord
  2
SLDTEXTSTYLE0
 70
     0
 40
0.0
 41
0.75
 50
0.0
 71
     0
 42
3.962400197982788
  3
TXT.SHX
  4

  0
ENDTAB
  0
TABLE
  2
VIEW
  5
6
330
0
100
AcDbSymbolTable
 70
     1
  0
VIEW
  5
164
330
6
100
AcDbSymbolTableRecord
100
AcDbViewTableRecord
  2
View_0
 70
     0
 40
8.267716535433072
 10
5.846456692913386
 20
4.133858267716536
 41
11.69291338582677
 11
0.0
 21
0.0
 31
1.0
 12
0.0
 22
0.0
 32
0.0
 42
50.0
 43
0.0
 44
0.0
 50
0.0
 71
     0
281
     0
 72
     0
 73
     0
  0
ENDTAB
  0
TABLE
  2
UCS
  5
7
330
0
100
AcDbSymbolTable
 70
     0
  0
ENDTAB
  0
TABLE
  2
APPID
  5
9
330
0
100
AcDbSymbolTable
 70
     6
  0
APPID
  5
12
330
9
100
AcDbSymbolTableRecord
100
AcDbRegAppTableRecord
  2
ACAD
 70
     0
  0
APPID
  5
40
330
9
100
AcDbSymbolTableRecord
100
AcDbRegAppTableRecord
  2
TCAD
 70
     0
  0
APPID
  5
16F
330
9
100
AcDbSymbolTableRecord
100
AcDbRegAppTableRecord
  2
ACAD_MLEADERVER
 70
     0
  0
ENDTAB
  0
TABLE
  2
DIMSTYLE
  5
A
330
0
100
AcDbSymbolTable
 70
     8
100
AcDbDimStyleTable
  0
DIMSTYLE
105
27
102
{ACAD_REACTORS
330
39D
330
3AE
330
3BE
330
3EA
102
}
330
A
100
AcDbSymbolTableRecord
100
AcDbDimStyleTableRecord
  2
Standard
 70
     0
  3
^B^B\X
  4
^B2147483648l^B
 41
3.302
 42
1.27
 43
3.75
 44
3.175
 78
     1
140
4.0
141
0.0
143
0.0393700787401575
147
1.524
171
     3
178
     0
179
     2
271
     1
272
     1
274
     3
283
     0
284
     1
340
11
345
14
346
14
347
14
  0
DIMSTYLE
105
166
102
{ACAD_REACTORS
330
2CF
330
2DB
330
2E7
330
3DA
102
}
330
A
100
AcDbSymbolTableRecord
100
AcDbDimStyleTableRecord
  2
DUAL_UNITS
 70
     0
  3
^B^B\X
  4
^B2147483648l^B
 41
3.302
 42
1.27
 43
3.75
 44
3.175
 78
     1
140
4.0
141
0.0
143
0.0393700787401575
147
1.524
170
     1
171
     3
178
     0
179
     2
271
     1
272
     1
274
     3
283
     0
284
     1
340
11
345
14
346
14
347
14
  0
DIMSTYLE
105
167
330
A
100
AcDbSymbolTableRecord
100
AcDbDimStyleTableRecord
  2
SLDDIMSTYLE0
 70
     0
  4
^B2147483648l^B
 41
3.302
 44
0.125
 45
0.000000001
 78
    12
 79
     3
140
4.0
141
0.0
143
0.0393700787401575
147
1.0
148
0.000000001
170
     1
171
     3
178
     0
271
     2
272
     2
274
     3
276
     2
284
    12
340
165
345
14
346
14
347
14
  0
DIMSTYLE
105
168
330
A
100
AcDbSymbolTableRecord
100
AcDbDimStyleTableRecord
  2
SLDDIMSTYLE1
 70
     0
  4
^B2147483648l^B
 41
3.302
 44
0.125
 45
0.000000001
 78
    12
 79
     3
140
4.0
141
0.0
143
0.0393700787401575
147
1.0
148
0.000000001
170
     1
178
     0
271
     2
272
     2
276
     2
284
    12
340
165
345
14
346
14
347
14
  0
DIMSTYLE
105
169
330
A
100
AcDbSymbolTableRecord
100
AcDbDimStyleTableRecord
  2
SLDDIMSTYLE2
 70
     0
  4
^B2147483648l^B
 41
3.302
 44
0.125
 45
0.000000001
 78
     8
 79
     2
140
4.0
147
1.0
172
     1
178
     0
271
     2
272
     2
276
     2
284
    12
289
     0
340
165
345
14
346
14
347
14
  0
DIMSTYLE
105
16A
330
A
100
AcDbSymbolTableRecord
100
AcDbDimStyleTableRecord
  2
SLDDIMSTYLE3
 70
     0
  4
^B2147483648l^B
 41
3.302
 44
0.125
 45
0.000000001
 78
     4
 79
     1
140
4.0
147
1.0
172
     1
178
     0
271
     1
272
     1
276
     2
284
    12
289
     0
340
165
345
14
346
14
347
14
  0
DIMSTYLE
105
16B
330
A
100
AcDbSymbolTableRecord
100
AcDbDimStyleTableRecord
  2
SLDDIMSTYLE4
 70
     0
  4
^B2147483648l^B
 41
3.302
 44
0.125
 45
0.000000001
 78
    12
 79
     3
140
4.0
147
1.0
178
     0
271
     1
272
     1
276
     2
284
    12
340
165
345
14
346
14
347
14
  0
DIMSTYLE
105
16C
330
A
100
AcDbSymbolTableRecord
100
AcDbDimStyleTableRecord
  2
SLDDIMSTYLE5
 70
     0
  4
^B2147483648l^B
 41
3.302
 44
0.125
 45
0.000000001
 78
     4
 79
     1
140
4.0
147
1.0
178
     0
271
     1
272
     3
276
     2
284
    12
340
165
345
14
346
14
347
14
  0
ENDTAB
  0
TABLE
  2
BLOCK_RECORD
  5
1
330
0
100
AcDbSymbolTable
 70
    20
  0
BLOCK_RECORD
  5
1F
102
{ACAD_XDICTIONARY
360
170
102
}
330
1
100
AcDbSymbolTableRecord
100
AcDbBlockTableRecord
  2
*Model_Space
340
22
 70
     0
280
     1
281
     0
  0
BLOCK_RECORD
  5
1B
330
1
100
AcDbSymbolTableRecord
100
AcDbBlockTableRecord
  2
*Paper_Space
340
1E
 70
     0
280
     1
281
     0
  0
BLOCK_RECORD
  5
151
330
1
100
AcDbSymbolTableRecord
100
AcDbBlockTableRecord
  2
*Paper_Space2
340
152
 70
     0
280
     1
281
     0
  0
BLOCK_RECORD
  5
17E
330
1
100
AcDbSymbolTableRecord
100
AcDbBlockTableRecord
  2
SW_CENTERMARKSYMBOL_0
340
0
102
{BLKREFS
331
2F3
102
}
 70
     0
280
     1
281
     0
  0
BLOCK_RECORD
  5
1DA
330
1
100
AcDbSymbolTableRecord
100
AcDbBlockTableRecord
  2
SW_CENTERMARKSYMBOL_1
340
0
102
{BLKREFS
331
2F4
102
}
 70
     0
280
     1
281
     0
  0
BLOCK_RECORD
  5
1E9
330
1
100
AcDbSymbolTableRecord
100
AcDbBlockTableRecord
  2
_D
340
0
 70
     0
280
     1
281
     0
  0
BLOCK_RECORD
  5
1F9
330
1
100
AcDbSymbolTableRecord
100
AcDbBlockTableRecord
  2
_D_1
340
0
 70
     0
280
     1
281
     0
  0
BLOCK_RECORD
  5
209
330
1
100
AcDbSymbolTableRecord
100
AcDbBlockTableRecord
  2
_D_2
340
0
 70
     0
280
     1
281
     0
  0
BLOCK_RECORD
  5
219
330
1
100
AcDbSymbolTableRecord
100
AcDbBlockTableRecord
  2
_D_3
340
0
 70
     0
280
     1
281
     0
  0
BLOCK_RECORD
  5
232
330
1
100
AcDbSymbolTableRecord
100
AcDbBlockTableRecord
  2
_D_4
340
0
 70
     0
280
     1
281
     0
  0
BLOCK_RECORD
  5
24B
330
1
100
AcDbSymbolTableRecord
100
AcDbBlockTableRecord
  2
_D_5
340
0
 70
     0
280
     1
281
     0
  0
BLOCK_RECORD
  5
264
330
1
100
AcDbSymbolTableRecord
100
AcDbBlockTableRecord
  2
_D_6
340
0
 70
     0
280
     1
281
     0
  0
BLOCK_RECORD
  5
2D2
330
1
100
AcDbSymbolTableRecord
100
AcDbBlockTableRecord
  2
*D12
340
0
 70
     0
280
     1
281
     0
  0
BLOCK_RECORD
  5
2DE
330
1
100
AcDbSymbolTableRecord
100
AcDbBlockTableRecord
  2
*D13
340
0
 70
     0
280
     1
281
     0
  0
BLOCK_RECORD
  5
2EA
330
1
100
AcDbSymbolTableRecord
100
AcDbBlockTableRecord
  2
*D14
340
0
 70
     0
280
     1
281
     0
  0
BLOCK_RECORD
  5
3A0
330
1
100
AcDbSymbolTableRecord
100
AcDbBlockTableRecord
  2
*D15
340
0
 70
     0
280
     1
281
     0
  0
BLOCK_RECORD
  5
3B1
330
1
100
AcDbSymbolTableRecord
100
AcDbBlockTableRecord
  2
*D16
340
0
 70
     0
280
     1
281
     0
  0
BLOCK_RECORD
  5
3C1
330
1
100
AcDbSymbolTableRecord
100
AcDbBlockTableRecord
  2
*D17
340
0
 70
     0
280
     1
281
     0
  0
BLOCK_RECORD
  5
3DD
330
1
100
AcDbSymbolTableRecord
100
AcDbBlockTableRecord
  2
*D18
340
0
 70
     0
280
     1
281
     0
  0
BLOCK_RECORD
  5
3ED
330
1
100
AcDbSymbolTableRecord
100
AcDbBlockTableRecord
  2
*D19
340
0
 70
     0
280
     1
281
     0
  0
ENDTAB
  0
ENDSEC
  0
SECTION
  2
BLOCKS
  0
BLOCK
  5
20
330
1F
100
AcDbEntity
  8
0
100
AcDbBlockBegin
  2
*Model_Space
 70
     0
 10
0.0
 20
0.0
 30
0.0
  3
*Model_Space
  1

  0
ENDBLK
  5
21
330
1F
100
AcDbEntity
  8
0
100
AcDbBlockEnd
  0
BLOCK
  5
1C
330
1B
100
AcDbEntity
 67
     1
  8
0
100
AcDbBlockBegin
  2
*Paper_Space
 70
     0
 10
0.0
 20
0.0
 30
0.0
  3
*Paper_Space
  1

  0
ENDBLK
  5
1D
330
1B
100
AcDbEntity
 67
     1
  8
0
100
AcDbBlockEnd
  0
BLOCK
  5
153
330
151
100
AcDbEntity
  8
0
100
AcDbBlockBegin
  2
*Paper_Space2
 70
     0
 10
0.0
 20
0.0
 30
0.0
  3
*Paper_Space2
  1

  0
VIEWPORT
  5
3FB
330
151
100
AcDbEntity
  8
0
100
AcDbViewport
 10
56.00206076410201
 20
103.269652082256
 30
0.0
 40
492.8180952986504
 41
380.8139827307753
 68
     1
 69
     1
 12
56.00206076410201
 22
103.269652082256
 13
0.0
 23
0.0
 14
0.5
 24
0.5
 15
0.5
 25
0.5
 16
0.0
 26
0.0
 36
1.0
 17
0.0
 27
0.0
 37
0.0
 42
50.0
 43
0.0
 44
0.0
 45
380.8139827307753
 50
0.0
 51
0.0
 72
  1000
 90
    32800
  1

281
     0
 71
     1
 74
     0
110
0.0
120
0.0
130
0.0
111
1.0
121
0.0
131
0.0
112
0.0
122
1.0
132
0.0
 79
     0
146
0.0
170
     0
 61
     5
292
     1
282
     1
141
0.0
142
0.0
 63
   256
  0
ENDBLK
  5
154
330
151
100
AcDbEntity
  8
0
100
AcDbBlockEnd
  0
BLOCK
  5
17F
330
17E
100
AcDbEntity
  8
0
100
AcDbBlockBegin
  2
SW_CENTERMARKSYMBOL_0
 70
     0
 10
0.0
 20
0.0
 30
0.0
  3
SW_CENTERMARKSYMBOL_0
  1

  0
ARC
  5
180
102
{ACAD_XDICTIONARY
360
181
102
}
330
17E
100
AcDbEntity
  8
SLD-0
 62
     0
100
AcDbCircle
 10
-25.43408357739427
 20
-14.68437499999994
 30
0.0
 40
29.36875000000001
100
AcDbArc
 50
29.99999999999986
 51
34.95531066059074
  0
ARC
  5
183
102
{ACAD_XDICTIONARY
360
184
102
}
330
17E
100
AcDbEntity
  8
SLD-0
 62
     0
100
AcDbCircle
 10
-25.43408357739427
 20
-14.68437499999994
 30
0.0
 40
29.36875000000001
100
AcDbArc
 50
25.04468933940895
 51
29.99999999999986
  0
ARC
  5
186
102
{ACAD_XDICTIONARY
360
187
102
}
330
17E
100
AcDbEntity
  8
SLD-0
 62
     0
100
AcDbCircle
 10
-25.43408357739427
 20
-14.68437499999994
 30
0.0
 40
29.36875000000001
100
AcDbArc
 50
90.0
 51
94.9553106605909
  0
ARC
  5
189
102
{ACAD_XDICTIONARY
360
18A
102
}
330
17E
100
AcDbEntity
  8
SLD-0
 62
     0
100
AcDbCircle
 10
-25.43408357739427
 20
-14.68437499999994
 30
0.0
 40
29.36875000000001
100
AcDbArc
 50
85.0446893394091
 51
90.0
  0
ARC
  5
18C
102
{ACAD_XDICTIONARY
360
18D
102
}
330
17E
100
AcDbEntity
  8
SLD-0
 62
     0
100
AcDbCircle
 10
-25.43408357739427
 20
-14.68437499999994
 30
0.0
 40
29.36875000000002
100
AcDbArc
 50
330.0000000000006
 51
334.9553106605915
  0
ARC
  5
18F
102
{ACAD_XDICTIONARY
360
190
102
}
330
17E
100
AcDbEntity
  8
SLD-0
 62
     0
100
AcDbCircle
 10
-25.43408357739427
 20
-14.68437499999994
 30
0.0
 40
29.36875000000003
100
AcDbArc
 50
325.0446893394097
 51
330.0000000000006
  0
ARC
  5
192
102
{ACAD_XDICTIONARY
360
193
102
}
330
17E
100
AcDbEntity
  8
SLD-0
 62
     0
100
AcDbCircle
 10
-25.43408357739427
 20
-14.68437499999994
 30
0.0
 40
29.36875000000001
100
AcDbArc
 50
270.0
 51
274.9553106605912
  0
ARC
  5
195
102
{ACAD_XDICTIONARY
360
196
102
}
330
17E
100
AcDbEntity
  8
SLD-0
 62
     0
100
AcDbCircle
 10
-25.43408357739427
 20
-14.68437499999994
 30
0.0
 40
29.36875
100
AcDbArc
 50
265.0446893394095
 51
270.0000000000004
  0
ARC
  5
198
102
{ACAD_XDICTIONARY
360
199
102
}
330
17E
100
AcDbEntity
  8
SLD-0
 62
     0
100
AcDbCircle
 10
-25.43408357739427
 20
-14.68437499999994
 30
0.0
 40
29.36875000000001
100
AcDbArc
 50
210.0000000000003
 51
214.9553106605912
  0
ARC
  5
19B
102
{ACAD_XDICTIONARY
360
19C
102
}
330
17E
100
AcDbEntity
  8
SLD-0
 62
     0
100
AcDbCircle
 10
-25.43408357739427
 20
-14.68437499999994
 30
0.0
 40
29.36875000000001
100
AcDbArc
 50
205.0446893394094
 51
210.0000000000003
  0
ARC
  5
19E
102
{ACAD_XDICTIONARY
360
19F
102
}
330
17E
100
AcDbEntity
  8
SLD-0
 62
     0
100
AcDbCircle
 10
-25.43408357739427
 20
-14.68437499999994
 30
0.0
 40
29.36875000000001
100
AcDbArc
 50
149.9999999999993
 51
154.9553106605902
  0
ARC
  5
1A1
102
{ACAD_XDICTIONARY
360
1A2
102
}
330
17E
100
AcDbEntity
  8
SLD-0
 62
     0
100
AcDbCircle
 10
-25.43408357739427
 20
-14.68437499999994
 30
0.0
 40
29.36875000000001
100
AcDbArc
 50
145.0446893394084
 51
149.9999999999993
  0
ARC
  5
1A4
102
{ACAD_XDICTIONARY
360
1A5
102
}
330
17E
100
AcDbEntity
  8
SLD-0
 62
     0
100
AcDbCircle
 10
-25.43408357739427
 20
-14.68437499999994
 30
0.0
 40
29.36875000000001
100
AcDbArc
 50
39.91062132118169
 51
80.08937867881818
  0
ARC
  5
1A7
102
{ACAD_XDICTIONARY
360
1A8
102
}
330
17E
100
AcDbEntity
  8
SLD-0
 62
     0
100
AcDbCircle
 10
-25.43408357739427
 20
-14.68437499999994
 30
0.0
 40
29.36875000000001
100
AcDbArc
 50
159.9106213211811
 51
200.0893786788185
  0
ARC
  5
1AA
102
{ACAD_XDICTIONARY
360
1AB
102
}
330
17E
100
AcDbEntity
  8
SLD-0
 62
     0
100
AcDbCircle
 10
-25.43408357739427
 20
-14.68437499999994
 30
0.0
 40
29.36875000000001
100
AcDbArc
 50
219.910621321182
 51
260.0893786788186
  0
ARC
  5
1AD
102
{ACAD_XDICTIONARY
360
1AE
102
}
330
17E
100
AcDbEntity
  8
SLD-0
 62
     0
100
AcDbCircle
 10
-25.43408357739427
 20
-14.68437499999994
 30
0.0
 40
29.36875000000001
100
AcDbArc
 50
279.9106213211822
 51
320.0893786788188
  0
ARC
  5
1B0
102
{ACAD_XDICTIONARY
360
1B1
102
}
330
17E
100
AcDbEntity
  8
SLD-0
 62
     0
100
AcDbCircle
 10
-25.43408357739427
 20
-14.68437499999994
 30
0.0
 40
29.36875000000002
100
AcDbArc
 50
339.9106213211824
 51
20.08937867881804
  0
ARC
  5
1B3
102
{ACAD_XDICTIONARY
360
1B4
102
}
330
17E
100
AcDbEntity
  8
SLD-0
 62
     0
100
AcDbCircle
 10
-25.43408357739427
 20
-14.68437499999994
 30
0.0
 40
29.36875000000001
100
AcDbArc
 50
99.91062132118182
 51
140.0893786788176
  0
LINE
  5
1B6
102
{ACAD_XDICTIONARY
360
1B7
102
}
330
17E
100
AcDbEntity
  8
SLD-0
 62
     0
100
AcDbLine
 10
0.0
 20
0.0
 30
0.0
 11
2.199704525612467
 21
1.269999999999993
 31
0.0
  0
LINE
  5
1B9
102
{ACAD_XDICTIONARY
360
1BA
102
}
330
17E
100
AcDbEntity
  8
SLD-0
 62
     0
100
AcDbLine
 10
0.0
 20
0.0
 30
0.0
 11
-2.199704525612467
 21
-1.269999999999993
 31
0.0
  0
LINE
  5
1BC
102
{ACAD_XDICTIONARY
360
1BD
102
}
330
17E
100
AcDbEntity
  8
SLD-0
 62
     0
100
AcDbLine
 10
-25.43408357739427
 20
14.68437500000005
 30
0.0
 11
-25.43408357739427
 21
17.22437500000007
 31
0.0
  0
LINE
  5
1BF
102
{ACAD_XDICTIONARY
360
1C0
102
}
330
17E
100
AcDbEntity
  8
SLD-0
 62
     0
100
AcDbLine
 10
-25.43408357739427
 20
14.68437500000005
 30
0.0
 11
-25.43408357739427
 21
12.14437500000007
 31
0.0
  0
LINE
  5
1C2
102
{ACAD_XDICTIONARY
360
1C3
102
}
330
17E
100
AcDbEntity
  8
SLD-0
 62
     0
100
AcDbLine
 10
-0.0000000000000833
 20
-29.36875000000006
 30
0.0
 11
2.199704525612383
 21
-30.63875000000008
 31
0.0
  0
LINE
  5
1C5
102
{ACAD_XDICTIONARY
360
1C6
102
}
330
17E
100
AcDbEntity
  8
SLD-0
 62
     0
100
AcDbLine
 10
-0.0000000000000833
 20
-29.36875000000006
 30
0.0
 11
-2.19970452561255
 21
-28.09875000000006
 31
0.0
  0
LINE
  5
1C8
102
{ACAD_XDICTIONARY
360
1C9
102
}
330
17E
100
AcDbEntity
  8
SLD-0
 62
     0
100
AcDbLine
 10
-25.43408357739446
 20
-44.05312499999994
 30
0.0
 11
-25.43408357739449
 21
-46.59312499999996
 31
0.0
  0
LINE
  5
1CB
102
{ACAD_XDICTIONARY
360
1CC
102
}
330
17E
100
AcDbEntity
  8
SLD-0
 62
     0
100
AcDbLine
 10
-25.43408357739446
 20
-44.05312499999994
 30
0.0
 11
-25.43408357739446
 21
-41.51312499999996
 31
0.0
  0
LINE
  5
1CE
102
{ACAD_XDICTIONARY
360
1CF
102
}
330
17E
100
AcDbEntity
  8
SLD-0
 62
     0
100
AcDbLine
 10
-50.86816715478864
 20
-29.36874999999972
 30
0.0
 11
-53.06787168040114
 21
-30.63874999999969
 31
0.0
  0
LINE
  5
1D1
102
{ACAD_XDICTIONARY
360
1D2
102
}
330
17E
100
AcDbEntity
  8
SLD-0
 62
     0
100
AcDbLine
 10
-50.86816715478864
 20
-29.36874999999972
 30
0.0
 11
-48.66846262917615
 21
-28.09874999999973
 31
0.0
  0
LINE
  5
1D4
102
{ACAD_XDICTIONARY
360
1D5
102
}
330
17E
100
AcDbEntity
  8
SLD-0
 62
     0
100
AcDbLine
 10
-50.86816715478834
 20
0.0000000000003608
 30
0.0
 11
-53.06787168040078
 21
1.270000000000382
 31
0.0
  0
LINE
  5
1D7
102
{ACAD_XDICTIONARY
360
1D8
102
}
330
17E
100
AcDbEntity
  8
SLD-0
 62
     0
100
AcDbLine
 10
-50.86816715478834
 20
0.0000000000003608
 30
0.0
 11
-48.66846262917587
 21
-1.26999999999966
 31
0.0
  0
ENDBLK
  5
1DC
330
17E
100
AcDbEntity
  8
0
100
AcDbBlockEnd
  0
BLOCK
  5
1DB
330
1DA
100
AcDbEntity
  8
0
100
AcDbBlockBegin
  2
SW_CENTERMARKSYMBOL_1
 70
     0
 10
0.0
 20
0.0
 30
0.0
  3
SW_CENTERMARKSYMBOL_1
  1

  0
LINE
  5
1DD
102
{ACAD_XDICTIONARY
360
1DE
102
}
330
1DA
100
AcDbEntity
  8
SLD-0
 62
     0
100
AcDbLine
 10
0.0
 20
0.0
 30
0.0
 11
0.0
 21
2.539999999999987
 31
0.0
  0
LINE
  5
1E0
102
{ACAD_XDICTIONARY
360
1E1
102
}
330
1DA
100
AcDbEntity
  8
SLD-0
 62
     0
100
AcDbLine
 10
0.0
 20
0.0
 30
0.0
 11
-2.539999999999987
 21
0.0
 31
0.0
  0
LINE
  5
1E3
102
{ACAD_XDICTIONARY
360
1E4
102
}
330
1DA
100
AcDbEntity
  8
SLD-0
 62
     0
100
AcDbLine
 10
0.0
 20
0.0
 30
0.0
 11
0.0
 21
-2.539999999999987
 31
0.0
  0
LINE
  5
1E6
102
{ACAD_XDICTIONARY
360
1E7
102
}
330
1DA
100
AcDbEntity
  8
SLD-0
 62
     0
100
AcDbLine
 10
0.0
 20
0.0
 30
0.0
 11
2.539999999999987
 21
0.0
 31
0.0
  0
ENDBLK
  5
1EB
330
1DA
100
AcDbEntity
  8
0
100
AcDbBlockEnd
  0
BLOCK
  5
1EA
330
1E9
100
AcDbEntity
  8
0
100
AcDbBlockBegin
  2
_D
 70
     0
 10
0.0
 20
0.0
 30
0.0
  3
_D
  1

  0
LINE
  5
1EC
102
{ACAD_XDICTIONARY
360
1ED
102
}
330
1E9
100
AcDbEntity
  8
SLD-0
 62
     0
370
    -2
100
AcDbLine
 10
101.9776971727542
 20
135.1163952209673
 30
0.0
 11
98.67569717275418
 21
135.1163952209673
 31
0.0
  0
LINE
  5
1EF
102
{ACAD_XDICTIONARY
360
1F0
102
}
330
1E9
100
AcDbEntity
  8
SLD-0
 62
     0
370
    -2
100
AcDbLine
 10
98.67569717275418
 20
135.1163952209673
 30
0.0
 11
88.25271988236996
 21
116.5324649459113
 31
0.0
  0
MTEXT
  5
1F2
102
{ACAD_XDICTIONARY
360
1F3
102
}
330
1E9
100
AcDbEntity
  8
SLD-0
 62
     0
100
AcDbMText
 10
103.5016971727542
 20
144.4938394780193
 30
0.0
 40
4.000000148349338
 41
0.0
 46
0.0
 71
     1
 72
     1
  1
6X\P∅6.70\P [∅0.264] THRU
 73
     1
 44
1.0
  0
LWPOLYLINE
  5
1F5
102
{ACAD_REACTORS
330
1F6
102
}
330
1E9
100
AcDbEntity
  8
SLD-0
 62
     0
100
AcDbPolyline
 90
        4
 70
   129
 43
0.0
 10
87.77272675466084
 20
116.8016737405852
 10
88.73271301007907
 20
116.2632561512373
 10
86.63746711432626
 20
113.6525061796566
 10
86.63746711432626
 20
113.6525061796566
  0
HATCH
  5
1F6
330
1E9
100
AcDbEntity
  8
SLD-0
  6
Continuous
 62
     0
370
     0
100
AcDbHatch
 10
0.0
 20
0.0
 30
0.0
210
0.0
220
0.0
230
1.0
  2
SOLID
 70
     1
 71
     1
 91
        1
 92
        3
 72
     0
 73
     1
 93
        3
 10
87.77272675466084
 20
116.8016737405852
 10
88.73271301007907
 20
116.2632561512373
 10
86.63746711432626
 20
113.6525061796566
 97
        1
330
1F5
 75
     0
 76
     1
 98
        0
  0
POINT
  5
1F7
330
1E9
100
AcDbEntity
  8
Defpoints
  6
Continuous
 62
     0
100
AcDbPoint
 10
86.63746711432626
 20
113.6525061796566
 30
0.0
  0
POINT
  5
1F8
330
1E9
100
AcDbEntity
  8
Defpoints
  6
Continuous
 62
     0
100
AcDbPoint
 10
83.36000086784145
 20
107.8088587738704
 30
0.0
  0
ENDBLK
  5
1FB
330
1E9
100
AcDbEntity
  8
0
100
AcDbBlockEnd
  0
BLOCK
  5
1FA
330
1F9
100
AcDbEntity
  8
0
100
AcDbBlockBegin
  2
_D_1
 70
     0
 10
0.0
 20
0.0
 30
0.0
  3
_D_1
  1

  0
LINE
  5
1FC
102
{ACAD_XDICTIONARY
360
1FD
102
}
330
1F9
100
AcDbEntity
  8
SLD-0
 62
     0
370
    -2
100
AcDbLine
 10
56.25579785530951
 20
123.5773926580579
 30
0.0
 11
60.62562669144931
 21
123.5773926580579
 31
0.0
  0
LINE
  5
1FF
102
{ACAD_XDICTIONARY
360
200
102
}
330
1F9
100
AcDbEntity
  8
SLD-0
 62
     0
370
    -2
100
AcDbLine
 10
60.62562669144931
 20
123.5773926580579
 30
0.0
 11
65.88523399108368
 21
114.4674855872311
 31
0.0
  0
MTEXT
  5
202
102
{ACAD_XDICTIONARY
360
203
102
}
330
1F9
100
AcDbEntity
  8
SLD-0
 62
     0
100
AcDbMText
 10
54.73179785530952
 20
129.6133180428952
 30
0.0
 40
4.000000148349338
 41
0.0
 46
0.0
 71
     3
 72
     1
  1
∅69.85\P [∅2.750]
 73
     1
 44
1.0
  0
LWPOLYLINE
  5
205
102
{ACAD_REACTORS
330
206
102
}
330
1F9
100
AcDbEntity
  8
SLD-0
 62
     0
100
AcDbPolyline
 90
        4
 70
   129
 43
0.0
 10
66.3618366382997
 20
114.7426522538978
 10
65.40863134386765
 20
114.1923189205644
 10
67.53623399108369
 20
111.6078697039349
 10
67.53623399108369
 20
111.6078697039349
  0
HATCH
  5
206
330
1F9
100
AcDbEntity
  8
SLD-0
  6
Continuous
 62
     0
370
     0
100
AcDbHatch
 10
0.0
 20
0.0
 30
0.0
210
0.0
220
0.0
230
1.0
  2
SOLID
 70
     1
 71
     1
 91
        1
 92
        3
 72
     0
 73
     1
 93
        3
 10
66.3618366382997
 20
114.7426522538978
 10
65.40863134386765
 20
114.1923189205644
 10
67.53623399108369
 20
111.6078697039349
 97
        1
330
205
 75
     0
 76
     1
 98
        0
  0
POINT
  5
207
330
1F9
100
AcDbEntity
  8
Defpoints
  6
Continuous
 62
     0
100
AcDbPoint
 10
67.53623399108369
 20
111.6078697039349
 30
0.0
  0
POINT
  5
208
330
1F9
100
AcDbEntity
  8
Defpoints
  6
Continuous
 62
     0
100
AcDbPoint
 10
102.461233991084
 20
51.11599524959203
 30
0.0
  0
ENDBLK
  5
20B
330
1F9
100
AcDbEntity
  8
0
100
AcDbBlockEnd
  0
BLOCK
  5
20A
330
209
100
AcDbEntity
  8
0
100
AcDbBlockBegin
  2
_D_2
 70
     0
 10
0.0
 20
0.0
 30
0.0
  3
_D_2
  1

  0
LINE
  5
20C
102
{ACAD_XDICTIONARY
360
20D
102
}
330
209
100
AcDbEntity
  8
SLD-0
 62
     0
370
    -2
100
AcDbLine
 10
115.4765826253722
 20
116.2195858619823
 30
0.0
 11
111.7251330129485
 21
116.2195858619823
 31
0.0
  0
LINE
  5
20F
102
{ACAD_XDICTIONARY
360
210
102
}
330
209
100
AcDbEntity
  8
SLD-0
 62
     0
370
    -2
100
AcDbLine
 10
111.7251330129485
 20
116.2195858619823
 30
0.0
 11
104.8776785268921
 21
107.2888580504747
 31
0.0
  0
MTEXT
  5
212
102
{ACAD_XDICTIONARY
360
213
102
}
330
209
100
AcDbEntity
  8
SLD-0
 62
     0
100
AcDbMText
 10
117.0005826253722
 20
122.2555112468196
 30
0.0
 40
4.000000148349338
 41
0.0
 46
0.0
 71
     1
 72
     1
  1
∅58.74\P [∅2.313]
 73
     1
 44
1.0
  0
LWPOLYLINE
  5
215
102
{ACAD_REACTORS
330
216
102
}
330
209
100
AcDbEntity
  8
SLD-0
 62
     0
100
AcDbPolyline
 90
        4
 70
   129
 43
0.0
 10
104.4409437909566
 20
107.6237155548032
 10
105.3144132628276
 20
106.9540005461462
 10
102.8685335009212
 20
104.6684496348615
 10
102.8685335009212
 20
104.6684496348615
  0
HATCH
  5
216
330
209
100
AcDbEntity
  8
SLD-0
  6
Continuous
 62
     0
370
     0
100
AcDbHatch
 10
0.0
 20
0.0
 30
0.0
210
0.0
220
0.0
230
1.0
  2
SOLID
 70
     1
 71
     1
 91
        1
 92
        3
 72
     0
 73
     1
 93
        3
 10
104.4409437909566
 20
107.6237155548032
 10
105.3144132628276
 20
106.9540005461462
 10
102.8685335009212
 20
104.6684496348615
 97
        1
330
215
 75
     0
 76
     1
 98
        0
  0
POINT
  5
217
330
209
100
AcDbEntity
  8
Defpoints
  6
Continuous
 62
     0
100
AcDbPoint
 10
102.8685335009212
 20
104.6684496348615
 30
0.0
  0
POINT
  5
218
330
209
100
AcDbEntity
  8
Defpoints
  6
Continuous
 62
     0
100
AcDbPoint
 10
67.1289344812465
 20
58.05541531866548
 30
0.0
  0
ENDBLK
  5
21B
330
209
100
AcDbEntity
  8
0
100
AcDbBlockEnd
  0
BLOCK
  5
21A
330
219
100
AcDbEntity
  8
0
100
AcDbBlockBegin
  2
_D_3
 70
     0
 10
0.0
 20
0.0
 30
0.0
  3
_D_3
  1

  0
LINE
  5
21C
102
{ACAD_XDICTIONARY
360
21D
102
}
330
219
100
AcDbEntity
  8
SLD-0
 62
     0
370
    -2
100
AcDbLine
 10
196.6007868139867
 20
66.63193247676345
 30
0.0
 11
196.6007868139867
 21
77.36158226545827
 31
0.0
  0
LINE
  5
21F
102
{ACAD_XDICTIONARY
360
220
102
}
330
219
100
AcDbEntity
  8
SLD-0
 62
     0
370
    -2
100
AcDbLine
 10
196.5507868139867
 20
66.63193247676345
 30
0.0
 11
196.5507868139867
 21
77.36158226545827
 31
0.0
  0
LINE
  5
222
102
{ACAD_XDICTIONARY
360
223
102
}
330
219
100
AcDbEntity
  8
SLD-0
 62
     0
370
    -2
100
AcDbLine
 10
199.9027868139867
 20
74.18658226545827
 30
0.0
 11
203.2047868139867
 21
74.18658226545827
 31
0.0
  0
LINE
  5
225
102
{ACAD_XDICTIONARY
360
226
102
}
330
219
100
AcDbEntity
  8
SLD-0
 62
     0
370
    -2
100
AcDbLine
 10
193.2487868139868
 20
74.18658226545827
 30
0.0
 11
184.2501112341777
 21
74.18658226545827
 31
0.0
  0
LWPOLYLINE
  5
228
102
{ACAD_REACTORS
330
229
102
}
330
219
100
AcDbEntity
  8
SLD-0
 62
     0
100
AcDbPolyline
 90
        4
 70
   129
 43
0.0
 10
199.9027868139867
 20
74.7369155987916
 10
199.9027868139867
 20
73.63624893212494
 10
196.6007868139867
 20
74.18658226545827
 10
196.6007868139867
 20
74.18658226545827
  0
HATCH
  5
229
330
219
100
AcDbEntity
  8
SLD-0
  6
Continuous
 62
     0
370
     0
100
AcDbHatch
 10
0.0
 20
0.0
 30
0.0
210
0.0
220
0.0
230
1.0
  2
SOLID
 70
     1
 71
     1
 91
        1
 92
        3
 72
     0
 73
     1
 93
        3
 10
199.9027868139867
 20
74.7369155987916
 10
199.9027868139867
 20
73.63624893212494
 10
196.6007868139867
 20
74.18658226545827
 97
        1
330
228
 75
     0
 76
     1
 98
        0
  0
LWPOLYLINE
  5
22A
102
{ACAD_REACTORS
330
22B
102
}
330
219
100
AcDbEntity
  8
SLD-0
 62
     0
100
AcDbPolyline
 90
        4
 70
   129
 43
0.0
 10
193.2487868139868
 20
74.7369155987916
 10
193.2487868139868
 20
73.63624893212494
 10
196.5507868139867
 20
74.18658226545827
 10
196.5507868139867
 20
74.18658226545827
  0
HATCH
  5
22B
330
219
100
AcDbEntity
  8
SLD-0
  6
Continuous
 62
     0
370
     0
100
AcDbHatch
 10
0.0
 20
0.0
 30
0.0
210
0.0
220
0.0
230
1.0
  2
SOLID
 70
     1
 71
     1
 91
        1
 92
        3
 72
     0
 73
     1
 93
        3
 10
193.2487868139868
 20
74.7369155987916
 10
193.2487868139868
 20
73.63624893212494
 10
196.5507868139867
 20
74.18658226545827
 97
        1
330
22A
 75
     0
 76
     1
 98
        0
  0
MTEXT
  5
22C
102
{ACAD_XDICTIONARY
360
22D
102
}
330
219
100
AcDbEntity
  8
SLD-0
 62
     0
100
AcDbMText
 10
182.7261112341777
 20
79.5976781823556
 30
0.0
 40
4.000000148349338
 41
0.0
 46
0.0
 71
     3
 72
     1
  1
0.050\PWINDOW
 73
     1
 44
1.0
  0
POINT
  5
22F
330
219
100
AcDbEntity
  8
Defpoints
  6
Continuous
 62
     0
100
AcDbPoint
 10
196.6007868139867
 20
65.36193247676346
 30
0.0
  0
POINT
  5
230
330
219
100
AcDbEntity
  8
Defpoints
  6
Continuous
 62
     0
100
AcDbPoint
 10
196.5507868139867
 20
65.36193247676346
 30
0.0
  0
POINT
  5
231
330
219
100
AcDbEntity
  8
Defpoints
  6
Continuous
 62
     0
100
AcDbPoint
 10
196.5507868139867
 20
74.18658226545827
 30
0.0
  0
ENDBLK
  5
234
330
219
100
AcDbEntity
  8
0
100
AcDbBlockEnd
  0
BLOCK
  5
233
330
232
100
AcDbEntity
  8
0
100
AcDbBlockBegin
  2
_D_4
 70
     0
 10
0.0
 20
0.0
 30
0.0
  3
_D_4
  1

  0
LINE
  5
235
102
{ACAD_XDICTIONARY
360
236
102
}
330
232
100
AcDbEntity
  8
SLD-0
 62
     0
370
    -2
100
AcDbLine
 10
196.5507868139867
 20
98.63193247676348
 30
0.0
 11
196.5507868139867
 21
129.4619324767636
 31
0.0
  0
LINE
  5
238
102
{ACAD_XDICTIONARY
360
239
102
}
330
232
100
AcDbEntity
  8
SLD-0
 62
     0
370
    -2
100
AcDbLine
 10
192.5323868139868
 20
116.7631824767785
 30
0.0
 11
192.5323868139868
 21
129.4619324767636
 31
0.0
  0
LINE
  5
23B
102
{ACAD_XDICTIONARY
360
23C
102
}
330
232
100
AcDbEntity
  8
SLD-0
 62
     0
370
    -2
100
AcDbLine
 10
199.8527868139867
 20
126.2869324767636
 30
0.0
 11
203.1547868139867
 21
126.2869324767636
 31
0.0
  0
LINE
  5
23E
102
{ACAD_XDICTIONARY
360
23F
102
}
330
232
100
AcDbEntity
  8
SLD-0
 62
     0
370
    -2
100
AcDbLine
 10
189.2303868139868
 20
126.2869324767636
 30
0.0
 11
179.917472762145
 21
126.2869324767636
 31
0.0
  0
LWPOLYLINE
  5
241
102
{ACAD_REACTORS
330
242
102
}
330
232
100
AcDbEntity
  8
SLD-0
 62
     0
100
AcDbPolyline
 90
        4
 70
   129
 43
0.0
 10
199.8527868139867
 20
126.837265810097
 10
199.8527868139867
 20
125.7365991434303
 10
196.5507868139867
 20
126.2869324767636
 10
196.5507868139867
 20
126.2869324767636
  0
HATCH
  5
242
330
232
100
AcDbEntity
  8
SLD-0
  6
Continuous
 62
     0
370
     0
100
AcDbHatch
 10
0.0
 20
0.0
 30
0.0
210
0.0
220
0.0
230
1.0
  2
SOLID
 70
     1
 71
     1
 91
        1
 92
        3
 72
     0
 73
     1
 93
        3
 10
199.8527868139867
 20
126.837265810097
 10
199.8527868139867
 20
125.7365991434303
 10
196.5507868139867
 20
126.2869324767636
 97
        1
330
241
 75
     0
 76
     1
 98
        0
  0
LWPOLYLINE
  5
243
102
{ACAD_REACTORS
330
244
102
}
330
232
100
AcDbEntity
  8
SLD-0
 62
     0
100
AcDbPolyline
 90
        4
 70
   129
 43
0.0
 10
189.2303868139868
 20
126.837265810097
 10
189.2303868139868
 20
125.7365991434303
 10
192.5323868139868
 20
126.2869324767636
 10
192.5323868139868
 20
126.2869324767636
  0
HATCH
  5
244
330
232
100
AcDbEntity
  8
SLD-0
  6
Continuous
 62
     0
370
     0
100
AcDbHatch
 10
0.0
 20
0.0
 30
0.0
210
0.0
220
0.0
230
1.0
  2
SOLID
 70
     1
 71
     1
 91
        1
 92
        3
 72
     0
 73
     1
 93
        3
 10
189.2303868139868
 20
126.837265810097
 10
189.2303868139868
 20
125.7365991434303
 10
192.5323868139868
 20
126.2869324767636
 97
        1
330
243
 75
     0
 76
     1
 98
        0
  0
MTEXT
  5
245
102
{ACAD_XDICTIONARY
360
246
102
}
330
232
100
AcDbEntity
  8
SLD-0
 62
     0
100
AcDbMText
 10
174.6786023665106
 20
128.329224391842
 30
0.0
 40
4.000000148349338
 41
0.0
 46
0.0
 71
     2
 72
     1
  1
4.0
 73
     1
 44
1.0
  0
POINT
  5
248
330
232
100
AcDbEntity
  8
Defpoints
  6
Continuous
 62
     0
100
AcDbPoint
 10
196.5507868139867
 20
97.36193247676349
 30
0.0
  0
POINT
  5
249
330
232
100
AcDbEntity
  8
Defpoints
  6
Continuous
 62
     0
100
AcDbPoint
 10
192.5323868139868
 20
115.4931824767785
 30
0.0
  0
POINT
  5
24A
330
232
100
AcDbEntity
  8
Defpoints
  6
Continuous
 62
     0
100
AcDbPoint
 10
192.5323868139868
 20
126.2869324767636
 30
0.0
  0
ENDBLK
  5
24D
330
232
100
AcDbEntity
  8
0
100
AcDbBlockEnd
  0
BLOCK
  5
24C
330
24B
100
AcDbEntity
  8
0
100
AcDbBlockBegin
  2
_D_5
 70
     0
 10
0.0
 20
0.0
 30
0.0
  3
_D_5
  1

  0
LINE
  5
24E
102
{ACAD_XDICTIONARY
360
24F
102
}
330
24B
100
AcDbEntity
  8
SLD-0
 62
     0
370
    -2
100
AcDbLine
 10
192.4307868139867
 20
97.46193247676348
 30
0.0
 11
147.8340420263339
 21
97.4619324767635
 31
0.0
  0
LINE
  5
251
102
{ACAD_XDICTIONARY
360
252
102
}
330
24B
100
AcDbEntity
  8
SLD-0
 62
     0
370
    -2
100
AcDbLine
 10
192.4307868139867
 20
65.26193247676346
 30
0.0
 11
147.8340420263339
 21
65.26193247676348
 31
0.0
  0
LINE
  5
254
102
{ACAD_XDICTIONARY
360
255
102
}
330
24B
100
AcDbEntity
  8
SLD-0
 62
     0
370
    -2
100
AcDbLine
 10
151.0090420263339
 20
94.15993247676349
 30
0.0
 11
151.0090420263339
 21
85.59322063032111
 31
0.0
  0
LINE
  5
257
102
{ACAD_XDICTIONARY
360
258
102
}
330
24B
100
AcDbEntity
  8
SLD-0
 62
     0
370
    -2
100
AcDbLine
 10
151.0090420263339
 20
68.56393247676348
 30
0.0
 11
151.0090420263339
 21
78.23689866579177
 31
0.0
  0
LWPOLYLINE
  5
25A
102
{ACAD_REACTORS
330
25B
102
}
330
24B
100
AcDbEntity
  8
SLD-0
 62
     0
100
AcDbPolyline
 90
        4
 70
   129
 43
0.0
 10
150.4587086930005
 20
94.15993247676349
 10
151.5593753596672
 20
94.15993247676349
 10
151.0090420263339
 20
97.4619324767635
 10
151.0090420263339
 20
97.4619324767635
  0
HATCH
  5
25B
330
24B
100
AcDbEntity
  8
SLD-0
  6
Continuous
 62
     0
370
     0
100
AcDbHatch
 10
0.0
 20
0.0
 30
0.0
210
0.0
220
0.0
230
1.0
  2
SOLID
 70
     1
 71
     1
 91
        1
 92
        3
 72
     0
 73
     1
 93
        3
 10
150.4587086930005
 20
94.15993247676349
 10
151.5593753596672
 20
94.15993247676349
 10
151.0090420263339
 20
97.4619324767635
 97
        1
330
25A
 75
     0
 76
     1
 98
        0
  0
LWPOLYLINE
  5
25C
102
{ACAD_REACTORS
330
25D
102
}
330
24B
100
AcDbEntity
  8
SLD-0
 62
     0
100
AcDbPolyline
 90
        4
 70
   129
 43
0.0
 10
150.4587086930005
 20
68.56393247676348
 10
151.5593753596672
 20
68.56393247676348
 10
151.0090420263339
 20
65.26193247676348
 10
151.0090420263339
 20
65.26193247676348
  0
HATCH
  5
25D
330
24B
100
AcDbEntity
  8
SLD-0
  6
Continuous
 62
     0
370
     0
100
AcDbHatch
 10
0.0
 20
0.0
 30
0.0
210
0.0
220
0.0
230
1.0
  2
SOLID
 70
     1
 71
     1
 91
        1
 92
        3
 72
     0
 73
     1
 93
        3
 10
150.4587086930005
 20
68.56393247676348
 10
151.5593753596672
 20
68.56393247676348
 10
151.0090420263339
 20
65.26193247676348
 97
        1
330
25C
 75
     0
 76
     1
 98
        0
  0
MTEXT
  5
25E
102
{ACAD_XDICTIONARY
360
25F
102
}
330
24B
100
AcDbEntity
  8
SLD-0
 62
     0
100
AcDbMText
 10
151.0090420263338
 20
84.06922059451267
 30
0.0
 40
4.000000148349338
 41
0.0
 46
0.0
 71
     2
 72
     1
  1
%%c32.2
 73
     1
 44
1.0
  0
POINT
  5
261
330
24B
100
AcDbEntity
  8
Defpoints
  6
Continuous
 62
     0
100
AcDbPoint
 10
193.7007868139867
 20
97.46193247676348
 30
0.0
  0
POINT
  5
262
330
24B
100
AcDbEntity
  8
Defpoints
  6
Continuous
 62
     0
100
AcDbPoint
 10
193.7007868139867
 20
65.26193247676346
 30
0.0
  0
POINT
  5
263
330
24B
100
AcDbEntity
  8
Defpoints
  6
Continuous
 62
     0
100
AcDbPoint
 10
151.0090420263339
 20
65.26193247676348
 30
0.0
  0
ENDBLK
  5
266
330
24B
100
AcDbEntity
  8
0
100
AcDbBlockEnd
  0
BLOCK
  5
265
330
264
100
AcDbEntity
  8
0
100
AcDbBlockBegin
  2
_D_6
 70
     0
 10
0.0
 20
0.0
 30
0.0
  3
_D_6
  1

  0
LINE
  5
267
102
{ACAD_XDICTIONARY
360
268
102
}
330
264
100
AcDbEntity
  8
SLD-0
 62
     0
370
    -2
100
AcDbLine
 10
206.5023868139868
 20
94.36193867676346
 30
0.0
 11
229.7644931557319
 21
94.36193867676344
 31
0.0
  0
LINE
  5
26A
102
{ACAD_XDICTIONARY
360
26B
102
}
330
264
100
AcDbEntity
  8
SLD-0
 62
     0
370
    -2
100
AcDbLine
 10
206.5023868139868
 20
68.36192627676348
 30
0.0
 11
229.7644931557319
 21
68.36192627676347
 31
0.0
  0
LINE
  5
26D
102
{ACAD_XDICTIONARY
360
26E
102
}
330
264
100
AcDbEntity
  8
SLD-0
 62
     0
370
    -2
100
AcDbLine
 10
226.5894931557318
 20
91.05993867676344
 30
0.0
 11
226.5894931557318
 21
84.60994277824086
 31
0.0
  0
LINE
  5
270
102
{ACAD_XDICTIONARY
360
271
102
}
330
264
100
AcDbEntity
  8
SLD-0
 62
     0
370
    -2
100
AcDbLine
 10
226.5894931557318
 20
71.66392627676348
 30
0.0
 11
226.5894931557318
 21
77.25362081371152
 31
0.0
  0
LWPOLYLINE
  5
273
102
{ACAD_REACTORS
330
274
102
}
330
264
100
AcDbEntity
  8
SLD-0
 62
     0
100
AcDbPolyline
 90
        4
 70
   129
 43
0.0
 10
226.0391598223985
 20
91.05993867676344
 10
227.1398264890652
 20
91.05993867676344
 10
226.5894931557318
 20
94.36193867676344
 10
226.5894931557318
 20
94.36193867676344
  0
HATCH
  5
274
330
264
100
AcDbEntity
  8
SLD-0
  6
Continuous
 62
     0
370
     0
100
AcDbHatch
 10
0.0
 20
0.0
 30
0.0
210
0.0
220
0.0
230
1.0
  2
SOLID
 70
     1
 71
     1
 91
        1
 92
        3
 72
     0
 73
     1
 93
        3
 10
226.0391598223985
 20
91.05993867676344
 10
227.1398264890652
 20
91.05993867676344
 10
226.5894931557318
 20
94.36193867676344
 97
        1
330
273
 75
     0
 76
     1
 98
        0
  0
LWPOLYLINE
  5
275
102
{ACAD_REACTORS
330
276
102
}
330
264
100
AcDbEntity
  8
SLD-0
 62
     0
100
AcDbPolyline
 90
        4
 70
   129
 43
0.0
 10
226.0391598223985
 20
71.66392627676348
 10
227.1398264890652
 20
71.66392627676348
 10
226.5894931557318
 20
68.36192627676347
 10
226.5894931557318
 20
68.36192627676347
  0
HATCH
  5
276
330
264
100
AcDbEntity
  8
SLD-0
  6
Continuous
 62
     0
370
     0
100
AcDbHatch
 10
0.0
 20
0.0
 30
0.0
210
0.0
220
0.0
230
1.0
  2
SOLID
 70
     1
 71
     1
 91
        1
 92
        3
 72
     0
 73
     1
 93
        3
 10
226.0391598223985
 20
71.66392627676348
 10
227.1398264890652
 20
71.66392627676348
 10
226.5894931557318
 20
68.36192627676347
 97
        1
330
275
 75
     0
 76
     1
 98
        0
  0
MTEXT
  5
277
102
{ACAD_XDICTIONARY
360
278
102
}
330
264
100
AcDbEntity
  8
SLD-0
 62
     0
100
AcDbMText
 10
226.5894931557318
 20
83.08594274243245
 30
0.0
 40
4.000000148349338
 41
0.0
 46
0.0
 71
     2
 72
     1
  1
%%c26.0
 73
     1
 44
1.0
  0
POINT
  5
27A
330
264
100
AcDbEntity
  8
Defpoints
  6
Continuous
 62
     0
100
AcDbPoint
 10
205.2323868139867
 20
94.36193867676346
 30
0.0
  0
POINT
  5
27B
330
264
100
AcDbEntity
  8
Defpoints
  6
Continuous
 62
     0
100
AcDbPoint
 10
205.2323868139867
 20
68.36192627676348
 30
0.0
  0
POINT
  5
27C
330
264
100
AcDbEntity
  8
Defpoints
  6
Continuous
 62
     0
100
AcDbPoint
 10
226.5894931557318
 20
68.36192627676347
 30
0.0
  0
ENDBLK
  5
27D
330
264
100
AcDbEntity
  8
0
100
AcDbBlockEnd
  0
BLOCK
  5
2D3
330
2D2
100
AcDbEntity
  8
0
100
AcDbBlockBegin
  2
*D12
 70
     1
 10
0.0
 20
0.0
 30
0.0
  3
*D12
  1

  0
LINE
  5
2D5
330
2D2
100
AcDbEntity
  8
SLD-0
  6
ByBlock
 62
     0
370
    -2
100
AcDbLine
 10
104.2551513532223
 20
139.1770439699101
 30
0.0
 11
100.9531513532223
 21
139.1770439699101
 31
0.0
  0
LINE
  5
2D6
330
2D2
100
AcDbEntity
  8
SLD-0
  6
ByBlock
 62
     0
370
    -2
100
AcDbLine
 10
100.9531513532223
 20
139.1770439699101
 30
0.0
 11
88.25271988237002
 21
116.5324649459114
 31
0.0
  0
MTEXT
  5
2D7
330
2D2
100
AcDbEntity
  8
SLD-0
 62
     0
100
AcDbMText
 10
125.5691513532223
 20
139.1770439699101
 30
0.0
 40
4.0
 41
0.0
 46
0.0
 71
     5
 72
     1
  1
6X\P%%c6.70\P [%%c0.264] THRU
 73
     1
 44
1.0
  0
SOLID
  5
2D8
330
2D2
100
AcDbEntity
  8
SLD-0
 62
     0
100
AcDbTrace
 10
87.77272675466091
 20
116.8016737405853
 30
0.0
 11
88.73271301007912
 21
116.2632561512374
 31
0.0
 12
86.63746711432633
 22
113.6525061796567
 32
0.0
 13
86.63746711432633
 23
113.6525061796567
 33
0.0
  0
POINT
  5
2D9
330
2D2
100
AcDbEntity
  8
Defpoints
 62
     0
100
AcDbPoint
 10
86.63746711432633
 20
113.6525061796567
 30
0.0
  0
POINT
  5
2DA
330
2D2
100
AcDbEntity
  8
Defpoints
 62
     0
100
AcDbPoint
 10
83.36000086784152
 20
107.8088587738703
 30
0.0
  0
ENDBLK
  5
2D4
330
2D2
100
AcDbEntity
  8
0
100
AcDbBlockEnd
  0
BLOCK
  5
2DF
330
2DE
100
AcDbEntity
  8
0
100
AcDbBlockBegin
  2
*D13
 70
     1
 10
0.0
 20
0.0
 30
0.0
  3
*D13
  1

  0
LINE
  5
2E1
330
2DE
100
AcDbEntity
  8
SLD-0
  6
ByBlock
 62
     0
370
    -2
100
AcDbLine
 10
57.1507808256171
 20
123.8767704795576
 30
0.0
 11
60.4527808256171
 21
123.8767704795576
 31
0.0
  0
LINE
  5
2E2
330
2DE
100
AcDbEntity
  8
SLD-0
  6
ByBlock
 62
     0
370
    -2
100
AcDbLine
 10
60.4527808256171
 20
123.8767704795576
 30
0.0
 11
65.88523399108374
 21
114.4674855872311
 31
0.0
  0
MTEXT
  5
2E3
330
2DE
100
AcDbEntity
  8
SLD-0
 62
     0
100
AcDbMText
 10
44.3247808256171
 20
123.8767704795576
 30
0.0
 40
4.0
 41
0.0
 46
0.0
 71
     5
 72
     1
  1
%%c69.85\P [%%c2.750]
 73
     1
 44
1.0
  0
SOLID
  5
2E4
330
2DE
100
AcDbEntity
  8
SLD-0
 62
     0
100
AcDbTrace
 10
65.4086313438677
 20
114.1923189205644
 30
0.0
 11
66.36183663829978
 21
114.7426522538978
 31
0.0
 12
67.53623399108375
 22
111.6078697039349
 32
0.0
 13
67.53623399108375
 23
111.6078697039349
 33
0.0
  0
POINT
  5
2E5
330
2DE
100
AcDbEntity
  8
Defpoints
 62
     0
100
AcDbPoint
 10
67.53623399108375
 20
111.6078697039349
 30
0.0
  0
POINT
  5
2E6
330
2DE
100
AcDbEntity
  8
Defpoints
 62
     0
100
AcDbPoint
 10
102.461233991084
 20
51.11599524959203
 30
0.0
  0
ENDBLK
  5
2E0
330
2DE
100
AcDbEntity
  8
0
100
AcDbBlockEnd
  0
BLOCK
  5
2EB
330
2EA
100
AcDbEntity
  8
0
100
AcDbBlockBegin
  2
*D14
 70
     1
 10
0.0
 20
0.0
 30
0.0
  3
*D14
  1

  0
LINE
  5
2ED
330
2EA
100
AcDbEntity
  8
SLD-0
  6
ByBlock
 62
     0
370
    -2
100
AcDbLine
 10
117.7041999166662
 20
119.7111250754201
 30
0.0
 11
114.4021999166662
 21
119.7111250754201
 31
0.0
  0
LINE
  5
2EE
330
2EA
100
AcDbEntity
  8
SLD-0
  6
ByBlock
 62
     0
370
    -2
100
AcDbLine
 10
114.4021999166662
 20
119.7111250754201
 30
0.0
 11
104.8776785268923
 21
107.2888580504747
 31
0.0
  0
MTEXT
  5
2EF
330
2EA
100
AcDbEntity
  8
SLD-0
 62
     0
100
AcDbMText
 10
130.5301999166662
 20
119.7111250754201
 30
0.0
 40
4.0
 41
0.0
 46
0.0
 71
     5
 72
     1
  1
%%c58.74\P [%%c2.313]
 73
     1
 44
1.0
  0
SOLID
  5
2F0
330
2EA
100
AcDbEntity
  8
SLD-0
 62
     0
100
AcDbTrace
 10
104.4409437909568
 20
107.6237155548032
 30
0.0
 11
105.3144132628278
 21
106.9540005461463
 31
0.0
 12
102.8685335009214
 22
104.6684496348616
 32
0.0
 13
102.8685335009214
 23
104.6684496348616
 33
0.0
  0
POINT
  5
2F1
330
2EA
100
AcDbEntity
  8
Defpoints
 62
     0
100
AcDbPoint
 10
102.8685335009214
 20
104.6684496348616
 30
0.0
  0
POINT
  5
2F2
330
2EA
100
AcDbEntity
  8
Defpoints
 62
     0
100
AcDbPoint
 10
67.12893448124672
 20
58.05541531866552
 30
0.0
  0
ENDBLK
  5
2EC
330
2EA
100
AcDbEntity
  8
0
100
AcDbBlockEnd
  0
BLOCK
  5
3A1
330
3A0
100
AcDbEntity
  8
0
100
AcDbBlockBegin
  2
*D15
 70
     1
 10
0.0
 20
0.0
 30
0.0
  3
*D15
  1

  0
LINE
  5
3A3
330
3A0
100
AcDbEntity
  8
SLD-0
  6
ByBlock
 62
     0
370
    -2
100
AcDbLine
 10
196.5507868139867
 20
100.6319324767635
 30
0.0
 11
196.5507868139867
 21
127.1667785151387
 31
0.0
  0
LINE
  5
3A4
330
3A0
100
AcDbEntity
  8
SLD-0
  6
ByBlock
 62
     0
370
    -2
100
AcDbLine
 10
192.5323868139868
 20
116.7631824767785
 30
0.0
 11
192.5323868139868
 21
127.1667785151387
 31
0.0
  0
LINE
  5
3A5
330
3A0
100
AcDbEntity
  8
SLD-0
  6
ByBlock
 62
     0
370
    -2
100
AcDbLine
 10
192.5323868139868
 20
123.9917785151387
 30
0.0
 11
180.940111424483
 21
123.9917785151387
 31
0.0
  0
LINE
  5
3A6
330
3A0
100
AcDbEntity
  8
SLD-0
  6
ByBlock
 62
     0
370
    -2
100
AcDbLine
 10
199.8527868139867
 20
123.9917785151387
 30
0.0
 11
203.1547868139867
 21
123.9917785151387
 31
0.0
  0
LINE
  5
3A7
330
3A0
100
AcDbEntity
  8
SLD-0
  6
ByBlock
 62
     0
370
    -2
100
AcDbLine
 10
189.2303868139868
 20
123.9917785151387
 30
0.0
 11
185.9283868139868
 21
123.9917785151387
 31
0.0
  0
SOLID
  5
3A8
330
3A0
100
AcDbEntity
  8
SLD-0
 62
     0
100
AcDbTrace
 10
199.8527868139867
 20
124.542111848472
 30
0.0
 11
199.8527868139867
 21
123.4414451818054
 31
0.0
 12
196.5507868139867
 22
123.9917785151387
 32
0.0
 13
196.5507868139867
 23
123.9917785151387
 33
0.0
  0
SOLID
  5
3A9
330
3A0
100
AcDbEntity
  8
SLD-0
 62
     0
100
AcDbTrace
 10
189.2303868139868
 20
123.4414451818054
 30
0.0
 11
189.2303868139868
 21
124.542111848472
 31
0.0
 12
192.5323868139868
 22
123.9917785151387
 32
0.0
 13
192.5323868139868
 23
123.9917785151387
 33
0.0
  0
MTEXT
  5
3AA
330
3A0
100
AcDbEntity
  8
SLD-0
 62
     0
100
AcDbMText
 10
175.706111424483
 20
123.9917785151387
 30
0.0
 40
4.0
 41
0.0
 46
0.0
 71
     5
 72
     1
  1
4.0\P
 73
     1
 44
1.0
  0
POINT
  5
3AB
330
3A0
100
AcDbEntity
  8
Defpoints
 62
     0
100
AcDbPoint
 10
196.5507868139867
 20
99.36193247676347
 30
0.0
  0
POINT
  5
3AC
330
3A0
100
AcDbEntity
  8
Defpoints
 62
     0
100
AcDbPoint
 10
192.5323868139868
 20
115.4931824767785
 30
0.0
  0
POINT
  5
3AD
330
3A0
100
AcDbEntity
  8
Defpoints
 62
     0
100
AcDbPoint
 10
192.5323868139868
 20
123.9917785151387
 30
0.0
  0
ENDBLK
  5
3A2
330
3A0
100
AcDbEntity
  8
0
100
AcDbBlockEnd
  0
BLOCK
  5
3B2
330
3B1
100
AcDbEntity
  8
0
100
AcDbBlockBegin
  2
*D16
 70
     1
 10
0.0
 20
0.0
 30
0.0
  3
*D16
  1

  0
LINE
  5
3B4
330
3B1
100
AcDbEntity
  8
SLD-0
  6
ByBlock
 62
     0
370
    -2
100
AcDbLine
 10
192.4307868139867
 20
99.46193247176346
 30
0.0
 11
147.8340420263339
 21
99.46193247176348
 31
0.0
  0
LINE
  5
3B5
330
3B1
100
AcDbEntity
  8
SLD-0
  6
ByBlock
 62
     0
370
    -2
100
AcDbLine
 10
192.4307868139867
 20
63.26193248176345
 30
0.0
 11
147.8340420263339
 21
63.26193248176346
 31
0.0
  0
LINE
  5
3B6
330
3B1
100
AcDbEntity
  8
SLD-0
  6
ByBlock
 62
     0
370
    -2
100
AcDbLine
 10
151.0090420263339
 20
96.15993247176348
 30
0.0
 11
151.0090420263339
 21
85.65977109773473
 31
0.0
  0
LINE
  5
3B7
330
3B1
100
AcDbEntity
  8
SLD-0
  6
ByBlock
 62
     0
370
    -2
100
AcDbLine
 10
151.0090420263339
 20
66.56393248176346
 30
0.0
 11
151.0090420263339
 21
78.30777109773473
 31
0.0
  0
SOLID
  5
3B8
330
3B1
100
AcDbEntity
  8
SLD-0
 62
     0
100
AcDbTrace
 10
151.5593753596672
 20
96.15993247176348
 30
0.0
 11
150.4587086930005
 21
96.15993247176348
 31
0.0
 12
151.0090420263339
 22
99.46193247176348
 32
0.0
 13
151.0090420263339
 23
99.46193247176348
 33
0.0
  0
SOLID
  5
3B9
330
3B1
100
AcDbEntity
  8
SLD-0
 62
     0
100
AcDbTrace
 10
150.4587086930005
 20
66.56393248176346
 30
0.0
 11
151.5593753596672
 21
66.56393248176346
 31
0.0
 12
151.0090420263339
 22
63.26193248176346
 32
0.0
 13
151.0090420263339
 23
63.26193248176346
 33
0.0
  0
MTEXT
  5
3BA
330
3B1
100
AcDbEntity
  8
SLD-0
 62
     0
100
AcDbMText
 10
151.0090420263339
 20
81.98377109773473
 30
0.0
 40
4.0
 41
0.0
 46
0.0
 71
     5
 72
     1
  1
%%c36.2\P
 73
     1
 44
1.0
  0
POINT
  5
3BB
330
3B1
100
AcDbEntity
  8
Defpoints
 62
     0
100
AcDbPoint
 10
193.7007868139867
 20
99.46193247176346
 30
0.0
  0
POINT
  5
3BC
330
3B1
100
AcDbEntity
  8
Defpoints
 62
     0
100
AcDbPoint
 10
193.7007868139867
 20
63.26193248176345
 30
0.0
  0
POINT
  5
3BD
330
3B1
100
AcDbEntity
  8
Defpoints
 62
     0
100
AcDbPoint
 10
151.0090420263339
 20
63.26193248176346
 30
0.0
  0
ENDBLK
  5
3B3
330
3B1
100
AcDbEntity
  8
0
100
AcDbBlockEnd
  0
BLOCK
  5
3C2
330
3C1
100
AcDbEntity
  8
0
100
AcDbBlockBegin
  2
*D17
 70
     1
 10
0.0
 20
0.0
 30
0.0
  3
*D17
  1

  0
LINE
  5
3C4
330
3C1
100
AcDbEntity
  8
SLD-0
  6
ByBlock
 62
     0
370
    -2
100
AcDbLine
 10
206.5023868139868
 20
96.36193867176347
 30
0.0
 11
224.4073868139868
 21
96.36193867176347
 31
0.0
  0
LINE
  5
3C5
330
3C1
100
AcDbEntity
  8
SLD-0
  6
ByBlock
 62
     0
370
    -2
100
AcDbLine
 10
206.5023868139868
 20
66.36192628176344
 30
0.0
 11
224.4073868139868
 21
66.36192628176344
 31
0.0
  0
LINE
  5
3C6
330
3C1
100
AcDbEntity
  8
SLD-0
  6
ByBlock
 62
     0
370
    -2
100
AcDbLine
 10
221.2323868139867
 20
93.05993867176346
 30
0.0
 11
221.2323868139867
 21
83.83309157893129
 31
0.0
  0
LINE
  5
3C7
330
3C1
100
AcDbEntity
  8
SLD-0
  6
ByBlock
 62
     0
370
    -2
100
AcDbLine
 10
221.2323868139867
 20
69.66392628176345
 30
0.0
 11
221.2323868139867
 21
76.48109157893128
 31
0.0
  0
SOLID
  5
3C8
330
3C1
100
AcDbEntity
  8
SLD-0
 62
     0
100
AcDbTrace
 10
221.7827201473201
 20
93.05993867176346
 30
0.0
 11
220.6820534806534
 21
93.05993867176346
 31
0.0
 12
221.2323868139867
 22
96.36193867176347
 32
0.0
 13
221.2323868139867
 23
96.36193867176347
 33
0.0
  0
SOLID
  5
3C9
330
3C1
100
AcDbEntity
  8
SLD-0
 62
     0
100
AcDbTrace
 10
220.6820534806534
 20
69.66392628176345
 30
0.0
 11
221.7827201473201
 21
69.66392628176345
 31
0.0
 12
221.2323868139867
 22
66.36192628176344
 32
0.0
 13
221.2323868139867
 23
66.36192628176344
 33
0.0
  0
MTEXT
  5
3CA
330
3C1
100
AcDbEntity
  8
SLD-0
 62
     0
100
AcDbMText
 10
221.2323868139867
 20
80.15709157893129
 30
0.0
 40
4.0
 41
0.0
 46
0.0
 71
     5
 72
     1
  1
%%c30.0\P
 73
     1
 44
1.0
  0
POINT
  5
3CB
330
3C1
100
AcDbEntity
  8
Defpoints
 62
     0
100
AcDbPoint
 10
205.2323868139867
 20
96.36193867176347
 30
0.0
  0
POINT
  5
3CC
330
3C1
100
AcDbEntity
  8
Defpoints
 62
     0
100
AcDbPoint
 10
205.2323868139867
 20
66.36192628176344
 30
0.0
  0
POINT
  5
3CD
330
3C1
100
AcDbEntity
  8
Defpoints
 62
     0
100
AcDbPoint
 10
221.2323868139867
 20
66.36192628176344
 30
0.0
  0
ENDBLK
  5
3C3
330
3C1
100
AcDbEntity
  8
0
100
AcDbBlockEnd
  0
BLOCK
  5
3DE
330
3DD
100
AcDbEntity
  8
0
100
AcDbBlockBegin
  2
*D18
 70
     1
 10
0.0
 20
0.0
 30
0.0
  3
*D18
  1

  0
LINE
  5
3E0
330
3DD
100
AcDbEntity
  8
SLD-0
  6
ByBlock
 62
     0
370
    -2
100
AcDbLine
 10
192.5323868139868
 20
116.7631824767785
 30
0.0
 11
192.5323868139868
 21
134.3663952783197
 31
0.0
  0
LINE
  5
3E1
330
3DD
100
AcDbEntity
  8
SLD-0
  6
ByBlock
 62
     0
370
    -2
100
AcDbLine
 10
205.2323868139867
 20
116.7631824767786
 30
0.0
 11
205.2323868139867
 21
134.3663952783197
 31
0.0
  0
LINE
  5
3E2
330
3DD
100
AcDbEntity
  8
SLD-0
  6
ByBlock
 62
     0
370
    -2
100
AcDbLine
 10
205.2323868139867
 20
131.1913952783197
 30
0.0
 11
208.5343868139867
 21
131.1913952783197
 31
0.0
  0
LINE
  5
3E3
330
3DD
100
AcDbEntity
  8
SLD-0
  6
ByBlock
 62
     0
370
    -2
100
AcDbLine
 10
195.8343868139868
 20
131.1913952783197
 30
0.0
 11
201.9303868139868
 21
131.1913952783197
 31
0.0
  0
SOLID
  5
3E4
330
3DD
100
AcDbEntity
  8
SLD-0
 62
     0
100
AcDbTrace
 10
195.8343868139868
 20
131.741728611653
 30
0.0
 11
195.8343868139868
 21
130.6410619449864
 31
0.0
 12
192.5323868139868
 22
131.1913952783197
 32
0.0
 13
192.5323868139868
 23
131.1913952783197
 33
0.0
  0
SOLID
  5
3E5
330
3DD
100
AcDbEntity
  8
SLD-0
 62
     0
100
AcDbTrace
 10
201.9303868139868
 20
130.6410619449864
 30
0.0
 11
201.9303868139868
 21
131.741728611653
 31
0.0
 12
205.2323868139867
 22
131.1913952783197
 32
0.0
 13
205.2323868139867
 23
131.1913952783197
 33
0.0
  0
MTEXT
  5
3E6
330
3DD
100
AcDbEntity
  8
SLD-0
 62
     0
100
AcDbMText
 10
219.1883868139867
 20
131.1913952783197
 30
0.0
 40
4.0
 41
0.0
 46
0.0
 71
     5
 72
     1
  1
12.7\P [0.500]
 73
     1
 44
1.0
  0
POINT
  5
3E7
330
3DD
100
AcDbEntity
  8
Defpoints
 62
     0
100
AcDbPoint
 10
192.5323868139868
 20
115.4931824767785
 30
0.0
  0
POINT
  5
3E8
330
3DD
100
AcDbEntity
  8
Defpoints
 62
     0
100
AcDbPoint
 10
205.2323868139867
 20
115.4931824767786
 30
0.0
  0
POINT
  5
3E9
330
3DD
100
AcDbEntity
  8
Defpoints
 62
     0
100
AcDbPoint
 10
205.2323868139867
 20
131.1913952783197
 30
0.0
  0
ENDBLK
  5
3DF
330
3DD
100
AcDbEntity
  8
0
100
AcDbBlockEnd
  0
BLOCK
  5
3EE
330
3ED
100
AcDbEntity
  8
0
100
AcDbBlockBegin
  2
*D19
 70
     1
 10
0.0
 20
0.0
 30
0.0
  3
*D19
  1

  0
LINE
  5
3F0
330
3ED
100
AcDbEntity
  8
SLD-0
  6
ByBlock
 62
     0
370
    -2
100
AcDbLine
 10
196.6007868139866
 20
64.63193247676344
 30
0.0
 11
196.6007868139866
 21
76.83315780069749
 31
0.0
  0
LINE
  5
3F1
330
3ED
100
AcDbEntity
  8
SLD-0
  6
ByBlock
 62
     0
370
    -2
100
AcDbLine
 10
196.5507868139867
 20
64.63193247676344
 30
0.0
 11
196.5507868139867
 21
76.83315780069749
 31
0.0
  0
LINE
  5
3F2
330
3ED
100
AcDbEntity
  8
SLD-0
  6
ByBlock
 62
     0
370
    -2
100
AcDbLine
 10
196.5507868139867
 20
73.6581578006975
 30
0.0
 11
183.6248593345592
 21
73.6581578006975
 31
0.0
  0
LINE
  5
3F3
330
3ED
100
AcDbEntity
  8
SLD-0
  6
ByBlock
 62
     0
370
    -2
100
AcDbLine
 10
199.9027868139866
 20
73.6581578006975
 30
0.0
 11
203.2047868139866
 21
73.6581578006975
 31
0.0
  0
LINE
  5
3F4
330
3ED
100
AcDbEntity
  8
SLD-0
  6
ByBlock
 62
     0
370
    -2
100
AcDbLine
 10
193.2487868139867
 20
73.6581578006975
 30
0.0
 11
189.9467868139867
 21
73.6581578006975
 31
0.0
  0
SOLID
  5
3F5
330
3ED
100
AcDbEntity
  8
SLD-0
 62
     0
100
AcDbTrace
 10
199.9027868139866
 20
74.20849113403082
 30
0.0
 11
199.9027868139866
 21
73.10782446736417
 31
0.0
 12
196.6007868139866
 22
73.6581578006975
 32
0.0
 13
196.6007868139866
 23
73.6581578006975
 33
0.0
  0
SOLID
  5
3F6
330
3ED
100
AcDbEntity
  8
SLD-0
 62
     0
100
AcDbTrace
 10
193.2487868139867
 20
73.10782446736417
 30
0.0
 11
193.2487868139867
 21
74.20849113403082
 31
0.0
 12
196.5507868139867
 22
73.6581578006975
 32
0.0
 13
196.5507868139867
 23
73.6581578006975
 33
0.0
  0
MTEXT
  5
3F7
330
3ED
100
AcDbEntity
  8
SLD-0
 62
     0
100
AcDbMText
 10
169.9148593345592
 20
73.6581578006975
 30
0.0
 40
4.0
 41
0.0
 46
0.0
 71
     5
 72
     1
  1
0.05\P\PWINDOW
 73
     1
 44
1.0
  0
POINT
  5
3F8
330
3ED
100
AcDbEntity
  8
Defpoints
 62
     0
100
AcDbPoint
 10
196.6007868139866
 20
63.36193247676344
 30
0.0
  0
POINT
  5
3F9
330
3ED
100
AcDbEntity
  8
Defpoints
 62
     0
100
AcDbPoint
 10
196.5507868139867
 20
63.36193247676344
 30
0.0
  0
POINT
  5
3FA
330
3ED
100
AcDbEntity
  8
Defpoints
 62
     0
100
AcDbPoint
 10
196.5507868139867
 20
73.6581578006975
 30
0.0
  0
ENDBLK
  5
3EF
330
3ED
100
AcDbEntity
  8
0
100
AcDbBlockEnd
  0
ENDSEC
  0
SECTION
  2
ENTITIES
  0
ARC
  5
27E
102
{ACAD_XDICTIONARY
360
27F
102
}
330
1F
100
AcDbEntity
  8
0
  6
Continuous
 62
     7
370
    25
100
AcDbCircle
 10
84.99873399108384
 20
81.36193247676344
 30
0.0
 40
24.18080000000003
100
AcDbArc
 50
1.881107999038994
 51
178.118892000961
  0
ARC
  5
281
102
{ACAD_XDICTIONARY
360
282
102
}
330
1F
100
AcDbEntity
  8
0
  6
Continuous
 62
     7
370
    25
100
AcDbCircle
 10
84.99873399108384
 20
81.36193247676344
 30
0.0
 40
34.13125000001509
100
AcDbArc
 50
1.33258012427909
 51
178.6674198757209
  0
LINE
  5
284
102
{ACAD_XDICTIONARY
360
285
102
}
330
1F
100
AcDbEntity
  8
0
  6
Continuous
 62
     7
370
    25
100
AcDbLine
 10
60.83096517438298
 20
82.15568247676346
 30
0.0
 11
50.87671489049387
 21
82.15568247676343
 31
0.0
  0
LINE
  5
287
102
{ACAD_XDICTIONARY
360
288
102
}
330
1F
100
AcDbEntity
  8
0
  6
Continuous
 62
     7
370
    25
100
AcDbLine
 10
119.1207530916739
 20
82.15568247676343
 30
0.0
 11
109.1665028077848
 21
82.15568247676343
 31
0.0
  0
CIRCLE
  5
28A
102
{ACAD_XDICTIONARY
360
28B
102
}
330
1F
100
AcDbEntity
  8
0
  6
Continuous
 62
     7
370
    25
100
AcDbCircle
 10
59.56465041368978
 20
96.04630747676377
 30
0.0
 40
3.350000000000023
  0
CIRCLE
  5
28D
102
{ACAD_XDICTIONARY
360
28E
102
}
330
1F
100
AcDbEntity
  8
0
  6
Continuous
 62
     7
370
    25
100
AcDbCircle
 10
110.4328175684781
 20
96.0463074767634
 30
0.0
 40
3.349999999999966
  0
CIRCLE
  5
290
102
{ACAD_XDICTIONARY
360
291
102
}
330
1F
100
AcDbEntity
  8
0
  6
Continuous
 62
     7
370
    25
100
AcDbCircle
 10
84.99873399108384
 20
110.7306824767634
 30
0.0
 40
3.349999999999994
  0
ARC
  5
293
102
{ACAD_XDICTIONARY
360
294
102
}
330
1F
100
AcDbEntity
  8
0
  6
Continuous
 62
     7
370
    25
100
AcDbCircle
 10
84.99873399108384
 20
81.36193247676344
 30
0.0
 40
34.13125000001509
100
AcDbArc
 50
181.3325801242799
 51
358.6674198757217
  0
ARC
  5
296
102
{ACAD_XDICTIONARY
360
297
102
}
330
1F
100
AcDbEntity
  8
0
  6
Continuous
 62
     7
370
    25
100
AcDbCircle
 10
84.99873399108384
 20
81.36193247676344
 30
0.0
 40
24.18080000000002
100
AcDbArc
 50
181.8811079990398
 51
358.1188920009618
  0
LINE
  5
299
102
{ACAD_XDICTIONARY
360
29A
102
}
330
1F
100
AcDbEntity
  8
0
  6
Continuous
 62
     7
370
    25
100
AcDbLine
 10
50.87671489049387
 20
80.56818247676348
 30
0.0
 11
60.83096517438298
 21
80.56818247676348
 31
0.0
  0
LINE
  5
29C
102
{ACAD_XDICTIONARY
360
29D
102
}
330
1F
100
AcDbEntity
  8
0
  6
Continuous
 62
     7
370
    25
100
AcDbLine
 10
109.1665028077848
 20
80.56818247676348
 30
0.0
 11
119.1207530916739
 21
80.56818247676348
 31
0.0
  0
CIRCLE
  5
29F
102
{ACAD_XDICTIONARY
360
2A0
102
}
330
1F
100
AcDbEntity
  8
0
  6
Continuous
 62
     7
370
    25
100
AcDbCircle
 10
59.56465041368949
 20
66.67755747676368
 30
0.0
 40
3.350000000000023
  0
CIRCLE
  5
2A2
102
{ACAD_XDICTIONARY
360
2A3
102
}
330
1F
100
AcDbEntity
  8
0
  6
Continuous
 62
     7
370
    25
100
AcDbCircle
 10
84.99873399108367
 20
51.99318247676347
 30
0.0
 40
3.349999999999966
  0
CIRCLE
  5
2A5
102
{ACAD_XDICTIONARY
360
2A6
102
}
330
1F
100
AcDbEntity
  8
0
  6
Continuous
 62
     7
370
    25
100
AcDbCircle
 10
110.432817568478
 20
66.67755747676334
 30
0.0
 40
3.350000000000023
  0
ARC
  5
2A8
102
{ACAD_XDICTIONARY
360
2A9
102
}
330
1F
100
AcDbEntity
  8
0
  6
Continuous
 62
     7
370
    25
100
AcDbCircle
 10
84.99873399108384
 20
81.36193247676344
 30
0.0
 40
34.92500000000003
100
AcDbArc
 50
1.302288935177776
 51
178.6977110648222
  0
LINE
  5
2AB
102
{ACAD_XDICTIONARY
360
2AC
102
}
330
1F
100
AcDbEntity
  8
0
  6
Continuous
 62
     7
370
    25
100
AcDbLine
 10
50.08275504250645
 20
82.15568247676343
 30
0.0
 11
50.87671489049387
 21
82.15568247676343
 31
0.0
  0
LINE
  5
2AE
102
{ACAD_XDICTIONARY
360
2AF
102
}
330
1F
100
AcDbEntity
  8
0
  6
Continuous
 62
     7
370
    25
100
AcDbLine
 10
119.1207530916739
 20
82.15568247676343
 30
0.0
 11
119.9147129396613
 21
82.15568247676343
 31
0.0
  0
ARC
  5
2B1
102
{ACAD_XDICTIONARY
360
2B2
102
}
330
1F
100
AcDbEntity
  8
0
  6
Continuous
 62
     7
370
    25
100
AcDbCircle
 10
84.99873399108384
 20
81.36193247676344
 30
0.0
 40
34.92500000000002
100
AcDbArc
 50
181.3022889351785
 51
358.697711064823
  0
LINE
  5
2B4
102
{ACAD_XDICTIONARY
360
2B5
102
}
330
1F
100
AcDbEntity
  8
0
  6
Continuous
 62
     7
370
    25
100
AcDbLine
 10
50.87671489049387
 20
80.56818247676348
 30
0.0
 11
50.08275504250645
 21
80.56818247676348
 31
0.0
  0
LINE
  5
2B7
102
{ACAD_XDICTIONARY
360
2B8
102
}
330
1F
100
AcDbEntity
  8
0
  6
Continuous
 62
     7
370
    25
100
AcDbLine
 10
119.9147129396613
 20
80.56818247676348
 30
0.0
 11
119.1207530916739
 21
80.56818247676348
 31
0.0
  0
CIRCLE
  5
2BA
102
{ACAD_XDICTIONARY
360
2BB
102
}
330
1F
100
AcDbEntity
  8
0
  6
Continuous
 62
     7
370
    25
100
AcDbCircle
 10
84.99873399108384
 20
81.36193247676344
 30
0.0
 40
21.51379999999992
  0
CIRCLE
  5
2BD
102
{ACAD_XDICTIONARY
360
2BE
102
}
330
1F
100
AcDbEntity
  8
0
  6
Continuous
 62
     7
370
    25
100
AcDbCircle
 10
84.99873399108384
 20
81.36193247676344
 30
0.0
 40
18.09999999500002
  0
ARC
  5
2C0
102
{ACAD_XDICTIONARY
360
2C1
102
}
330
1F
100
AcDbEntity
  8
0
  6
Continuous
 62
     7
370
    25
100
AcDbCircle
 10
84.99873399108384
 20
81.36193247676344
 30
0.0
 40
34.92500000000002
100
AcDbArc
 50
358.697711064823
 51
1.302288935177776
  0
ARC
  5
2C3
102
{ACAD_XDICTIONARY
360
2C4
102
}
330
1F
100
AcDbEntity
  8
0
  6
Continuous
 62
     7
370
    25
100
AcDbCircle
 10
84.99873399108384
 20
81.36193247676344
 30
0.0
 40
24.18080000000002
100
AcDbArc
 50
358.1188920009618
 51
1.881107999038994
  0
ARC
  5
2C6
102
{ACAD_XDICTIONARY
360
2C7
102
}
330
1F
100
AcDbEntity
  8
0
  6
Continuous
 62
     7
370
    25
100
AcDbCircle
 10
84.99873399108384
 20
81.36193247676344
 30
0.0
 40
34.925
100
AcDbArc
 50
178.6977110648222
 51
181.3022889351785
  0
ARC
  5
2C9
102
{ACAD_XDICTIONARY
360
2CA
102
}
330
1F
100
AcDbEntity
  8
0
  6
Continuous
 62
     7
370
    25
100
AcDbCircle
 10
84.99873399108384
 20
81.36193247676344
 30
0.0
 40
24.1808
100
AcDbArc
 50
178.118892000961
 51
181.8811079990398
  0
CIRCLE
  5
2CC
102
{ACAD_XDICTIONARY
360
2CD
102
}
330
1F
100
AcDbEntity
  8
0
  6
Continuous
 62
     7
370
    25
100
AcDbCircle
 10
84.99873399108384
 20
81.36193247676344
 30
0.0
 40
18.00000000000003
  0
DIMENSION
  5
2CF
102
{ACAD_XDICTIONARY
360
2D0
102
}
330
1F
100
AcDbEntity
  8
SLD-0
  6
Continuous
100
AcDbDimension
280
     0
  2
*D12
 10
83.36000086784152
 20
107.8088587738703
 30
0.0
 11
125.5691513532223
 21
139.1770439699101
 31
0.0
 70
   163
  1
6X\P<> THRU
 71
     5
 42
6.700000000000086
 73
     0
 74
     0
 75
     0
  3
DUAL_UNITS
100
AcDbDiametricDimension
 15
86.63746711432633
 25
113.6525061796567
 35
0.0
 40
0.0
1001
ACAD
1000
DSTYLE
1002
{
1070
   148
1040
0.0000001
1070
     4
1000

1070
   271
1070
     2
1070
     3
1000
\X
1070
    45
1040
0.0000001
1070
   272
1070
     2
1002
}
  0
DIMENSION
  5
2DB
102
{ACAD_XDICTIONARY
360
2DC
102
}
330
1F
100
AcDbEntity
  8
SLD-0
  6
Continuous
100
AcDbDimension
280
     0
  2
*D13
 10
102.461233991084
 20
51.11599524959203
 30
0.0
 11
44.3247808256171
 21
123.8767704795576
 31
0.0
 70
   163
  1
<>
 71
     5
 42
69.84999999999995
 73
     0
 74
     0
 75
     0
  3
DUAL_UNITS
100
AcDbDiametricDimension
 15
67.53623399108375
 25
111.6078697039349
 35
0.0
 40
0.0
1001
ACAD
1000
DSTYLE
1002
{
1070
   148
1040
0.0000001
1070
     4
1000

1070
   271
1070
     2
1070
     3
1000
\X
1070
    45
1040
0.0000001
1070
   272
1070
     2
1002
}
  0
DIMENSION
  5
2E7
102
{ACAD_XDICTIONARY
360
2E8
102
}
330
1F
100
AcDbEntity
  8
SLD-0
  6
Continuous
100
AcDbDimension
280
     0
  2
*D14
 10
67.12893448124672
 20
58.05541531866552
 30
0.0
 11
130.5301999166662
 21
119.7111250754201
 31
0.0
 70
   163
  1
<>
 71
     5
 42
58.7375
 73
     0
 74
     0
 75
     0
  3
DUAL_UNITS
100
AcDbDiametricDimension
 15
102.8685335009214
 25
104.6684496348616
 35
0.0
 40
0.0
1001
ACAD
1000
DSTYLE
1002
{
1070
   148
1040
0.0000001
1070
     4
1000

1070
   271
1070
     2
1070
     3
1000
\X
1070
    45
1040
0.0000001
1070
   272
1070
     2
1002
}
  0
INSERT
  5
2F3
330
1F
100
AcDbEntity
  8
SLD-0
100
AcDbBlockReference
  2
SW_CENTERMARKSYMBOL_0
 10
110.4328175684781
 20
96.0463074767634
 30
0.0
  0
INSERT
  5
2F4
330
1F
100
AcDbEntity
  8
SLD-0
100
AcDbBlockReference
  2
SW_CENTERMARKSYMBOL_1
 10
84.99873399108384
 20
81.36193247676344
 30
0.0
  0
LINE
  5
2F5
102
{ACAD_XDICTIONARY
360
2F6
102
}
330
1F
100
AcDbEntity
  8
0
  6
CENTER
 62
     7
370
    18
100
AcDbLine
 10
84.99873399108384
 20
134.6690434354896
 30
0.0
 11
84.99873399108384
 21
30.65447539925381
 31
0.0
  0
LINE
  5
2F8
102
{ACAD_XDICTIONARY
360
2F9
102
}
330
1F
100
AcDbEntity
  8
0
  6
Continuous
 62
     7
370
    18
100
AcDbLine
 10
84.99873399108384
 20
134.6690434354896
 30
0.0
 11
72.29873399108385
 21
134.6690434354896
 31
0.0
  0
LWPOLYLINE
  5
2FB
102
{ACAD_REACTORS
330
2FC
102
}
330
1F
100
AcDbEntity
  8
0
  6
Continuous
 62
     7
370
    18
100
AcDbPolyline
 90
        4
 70
   129
 43
0.0
 10
72.29873399108385
 20
134.6690434354896
 10
78.64873399108387
 20
133.6530434354897
 10
78.64873399108387
 20
135.6850434354897
 10
78.64873399108387
 20
135.6850434354897
  0
HATCH
  5
2FC
330
1F
100
AcDbEntity
  8
0
  6
Continuous
 62
     7
370
     0
100
AcDbHatch
 10
0.0
 20
0.0
 30
0.0
210
0.0
220
0.0
230
1.0
  2
SOLID
 70
     1
 71
     1
 91
        1
 92
        3
 72
     0
 73
     1
 93
        3
 10
72.29873399108385
 20
134.6690434354896
 10
78.64873399108387
 20
133.6530434354897
 10
78.64873399108387
 20
135.6850434354897
 97
        1
330
2FB
 75
     0
 76
     1
 98
        0
  0
LINE
  5
2FD
102
{ACAD_XDICTIONARY
360
2FE
102
}
330
1F
100
AcDbEntity
  8
0
  6
Continuous
 62
     7
370
    18
100
AcDbLine
 10
84.99873399108384
 20
30.65447539925381
 30
0.0
 11
72.29873399108385
 21
30.65447539925381
 31
0.0
  0
LWPOLYLINE
  5
300
102
{ACAD_REACTORS
330
301
102
}
330
1F
100
AcDbEntity
  8
0
  6
Continuous
 62
     7
370
    18
100
AcDbPolyline
 90
        4
 70
   129
 43
0.0
 10
72.29873399108385
 20
30.65447539925381
 10
78.64873399108387
 20
29.63847539925381
 10
78.64873399108387
 20
31.67047539925382
 10
78.64873399108387
 20
31.67047539925382
  0
HATCH
  5
301
330
1F
100
AcDbEntity
  8
0
  6
Continuous
 62
     7
370
     0
100
AcDbHatch
 10
0.0
 20
0.0
 30
0.0
210
0.0
220
0.0
230
1.0
  2
SOLID
 70
     1
 71
     1
 91
        1
 92
        3
 72
     0
 73
     1
 93
        3
 10
72.29873399108385
 20
30.65447539925381
 10
78.64873399108387
 20
29.63847539925381
 10
78.64873399108387
 20
31.67047539925382
 97
        1
330
300
 75
     0
 76
     1
 98
        0
  0
MTEXT
  5
302
102
{ACAD_XDICTIONARY
360
303
102
}
330
1F
100
AcDbEntity
  8
0
  6
Continuous
 62
     7
100
AcDbMText
 10
65.86699480118705
 20
138.6368825300413
 30
0.0
 40
5.000000031789144
 41
0.0
 46
0.0
 71
     1
 72
     1
  1
A
 73
     1
 44
1.0
  0
MTEXT
  5
305
102
{ACAD_XDICTIONARY
360
306
102
}
330
1F
100
AcDbEntity
  8
0
  6
Continuous
 62
     7
100
AcDbMText
 10
65.86699480118705
 20
34.62231449380547
 30
0.0
 40
5.000000031789144
 41
0.0
 46
0.0
 71
     1
 72
     1
  1
A
 73
     1
 44
1.0
  0
LINE
  5
308
102
{ACAD_XDICTIONARY
360
309
102
}
330
1F
100
AcDbEntity
  8
0
  6
Continuous
 62
     7
370
    25
100
AcDbLine
 10
196.6007868139866
 20
99.36193247676347
 30
0.0
 11
196.5507868139867
 21
99.36193247676347
 31
0.0
  0
LINE
  5
30B
102
{ACAD_XDICTIONARY
360
30C
102
}
330
1F
100
AcDbEntity
  8
0
  6
Continuous
 62
     7
370
    25
100
AcDbLine
 10
196.5507868139867
 20
63.36193247676344
 30
0.0
 11
196.6007868139866
 21
63.36193247676344
 31
0.0
  0
LINE
  5
30E
102
{ACAD_XDICTIONARY
360
30F
102
}
330
1F
100
AcDbEntity
  8
0
  6
Continuous
 62
     7
370
    25
100
AcDbLine
 10
196.6007868139866
 20
63.36193247676344
 30
0.0
 11
196.6007868139866
 21
99.36193247676347
 31
0.0
  0
LINE
  5
311
102
{ACAD_XDICTIONARY
360
312
102
}
330
1F
100
AcDbEntity
  8
0
  6
Continuous
 62
     7
370
    25
100
AcDbLine
 10
196.5507868139867
 20
63.36193247676344
 30
0.0
 11
196.5507868139867
 21
99.36193247676347
 31
0.0
  0
LINE
  5
314
102
{ACAD_XDICTIONARY
360
315
102
}
330
1F
100
AcDbEntity
  8
0
  6
Continuous
 62
     7
370
    25
100
AcDbLine
 10
193.3261368139716
 20
116.2869324767635
 30
0.0
 11
192.5323868139868
 21
115.4931824767785
 31
0.0
  0
LINE
  5
317
102
{ACAD_XDICTIONARY
360
318
102
}
330
1F
100
AcDbEntity
  8
0
  6
Continuous
 62
     7
370
    25
100
AcDbLine
 10
193.7007868139867
 20
59.84813247676355
 30
0.0
 11
193.1927868139868
 21
59.84813247676355
 31
0.0
  0
LINE
  5
31A
102
{ACAD_XDICTIONARY
360
31B
102
}
330
1F
100
AcDbEntity
  8
0
  6
Continuous
 62
     7
370
    25
100
AcDbLine
 10
193.1927868139868
 20
102.8757324767634
 30
0.0
 11
193.1927868139868
 21
59.84813247676355
 31
0.0
  0
LINE
  5
31D
102
{ACAD_XDICTIONARY
360
31E
102
}
330
1F
100
AcDbEntity
  8
0
  6
Continuous
 62
     7
370
    25
100
AcDbLine
 10
193.1927868139868
 20
102.8757324767634
 30
0.0
 11
193.7007868139867
 21
102.8757324767634
 31
0.0
  0
LINE
  5
320
102
{ACAD_XDICTIONARY
360
321
102
}
330
1F
100
AcDbEntity
  8
0
  6
Continuous
 62
     7
370
    25
100
AcDbLine
 10
196.7007868139867
 20
63.26193248176345
 30
0.0
 11
193.7007868139867
 21
63.26193248176345
 31
0.0
  0
LINE
  5
323
102
{ACAD_XDICTIONARY
360
324
102
}
330
1F
100
AcDbEntity
  8
0
  6
Continuous
 62
     7
370
    25
100
AcDbLine
 10
193.7007868139867
 20
99.46193247176346
 30
0.0
 11
196.7007868139867
 21
99.46193247176346
 31
0.0
  0
LINE
  5
326
102
{ACAD_XDICTIONARY
360
327
102
}
330
1F
100
AcDbEntity
  8
0
  6
Continuous
 62
     7
370
    25
100
AcDbLine
 10
193.7007868139867
 20
99.46193247176346
 30
0.0
 11
193.7007868139867
 21
63.26193248176345
 31
0.0
  0
LINE
  5
329
102
{ACAD_XDICTIONARY
360
32A
102
}
330
1F
100
AcDbEntity
  8
0
  6
Continuous
 62
     7
370
    25
100
AcDbLine
 10
205.2323868139867
 20
96.36193867176347
 30
0.0
 11
205.2323868139867
 21
66.36192628176344
 31
0.0
  0
LINE
  5
32C
102
{ACAD_XDICTIONARY
360
32D
102
}
330
1F
100
AcDbEntity
  8
0
  6
Continuous
 62
     7
370
    25
100
AcDbLine
 10
205.2323868139867
 20
66.36192628176344
 30
0.0
 11
196.7007868139867
 21
66.36192628176344
 31
0.0
  0
LINE
  5
32F
102
{ACAD_XDICTIONARY
360
330
102
}
330
1F
100
AcDbEntity
  8
0
  6
Continuous
 62
     7
370
    25
100
AcDbLine
 10
196.7007868139867
 20
96.36193867176347
 30
0.0
 11
205.2323868139867
 21
96.36193867176347
 31
0.0
  0
LINE
  5
332
102
{ACAD_XDICTIONARY
360
333
102
}
330
1F
100
AcDbEntity
  8
0
  6
Continuous
 62
     7
370
    25
100
AcDbLine
 10
196.7007868139867
 20
96.36193867176347
 30
0.0
 11
196.7007868139867
 21
66.36192628176344
 31
0.0
  0
LINE
  5
335
102
{ACAD_XDICTIONARY
360
336
102
}
330
1F
100
AcDbEntity
  8
0
  6
Continuous
 62
     7
370
    25
100
AcDbLine
 10
204.4386368140018
 20
46.43693247676343
 30
0.0
 11
205.2323868139867
 21
47.23068247674833
 31
0.0
  0
LINE
  5
338
102
{ACAD_XDICTIONARY
360
339
102
}
330
1F
100
AcDbEntity
  8
0
  6
Continuous
 62
     7
370
    25
100
AcDbLine
 10
205.2323868139867
 20
115.4931824767786
 30
0.0
 11
204.4386368140018
 21
116.2869324767635
 31
0.0
  0
LINE
  5
33B
102
{ACAD_XDICTIONARY
360
33C
102
}
330
1F
100
AcDbEntity
  8
0
  6
Continuous
 62
     7
370
    25
100
AcDbLine
 10
193.3261368139716
 20
46.43693247676343
 30
0.0
 11
204.4386368140018
 21
46.43693247676343
 31
0.0
  0
LINE
  5
33E
102
{ACAD_XDICTIONARY
360
33F
102
}
330
1F
100
AcDbEntity
  8
0
  6
Continuous
 62
     7
370
    25
100
AcDbLine
 10
204.4386368140018
 20
116.2869324767635
 30
0.0
 11
193.3261368139716
 21
116.2869324767635
 31
0.0
  0
LINE
  5
341
102
{ACAD_XDICTIONARY
360
342
102
}
330
1F
100
AcDbEntity
  8
0
  6
Continuous
 62
     7
370
    25
100
AcDbLine
 10
192.5323868139868
 20
47.23068247674838
 30
0.0
 11
193.3261368139716
 21
46.43693247676343
 31
0.0
  0
LINE
  5
344
102
{ACAD_XDICTIONARY
360
345
102
}
330
1F
100
AcDbEntity
  8
0
  6
Continuous
 62
     7
370
    25
100
AcDbLine
 10
194.1634954287748
 20
57.18113247676347
 30
0.0
 11
192.5323868139868
 21
57.18113247676347
 31
0.0
  0
LINE
  5
347
102
{ACAD_XDICTIONARY
360
348
102
}
330
1F
100
AcDbEntity
  8
0
  6
Continuous
 62
     7
370
    25
100
AcDbLine
 10
193.1927868139868
 20
80.56818247676348
 30
0.0
 11
192.5323868139868
 21
80.56818247676348
 31
0.0
  0
LINE
  5
34A
102
{ACAD_XDICTIONARY
360
34B
102
}
330
1F
100
AcDbEntity
  8
0
  6
Continuous
 62
     7
370
    25
100
AcDbLine
 10
193.1927868139868
 20
82.15568247676346
 30
0.0
 11
192.5323868139868
 21
82.15568247676346
 31
0.0
  0
LINE
  5
34D
102
{ACAD_XDICTIONARY
360
34E
102
}
330
1F
100
AcDbEntity
  8
0
  6
Continuous
 62
     7
370
    25
100
AcDbLine
 10
192.5323868139868
 20
105.5427324767634
 30
0.0
 11
194.1634954287748
 21
105.5427324767634
 31
0.0
  0
LINE
  5
350
102
{ACAD_XDICTIONARY
360
351
102
}
330
1F
100
AcDbEntity
  8
0
  6
Continuous
 62
     7
370
    25
100
AcDbLine
 10
192.5323868139868
 20
80.56818247676348
 30
0.0
 11
192.5323868139868
 21
57.18113247676347
 31
0.0
  0
LINE
  5
353
102
{ACAD_XDICTIONARY
360
354
102
}
330
1F
100
AcDbEntity
  8
0
  6
Continuous
 62
     7
370
    25
100
AcDbLine
 10
192.5323868139868
 20
105.5427324767634
 30
0.0
 11
192.5323868139868
 21
82.15568247676346
 31
0.0
  0
LINE
  5
356
102
{ACAD_XDICTIONARY
360
357
102
}
330
1F
100
AcDbEntity
  8
0
  6
Continuous
 62
     7
370
    25
100
AcDbLine
 10
194.1634954287748
 20
105.5427324767634
 30
0.0
 11
193.1927868139868
 21
102.8757324767634
 31
0.0
  0
LINE
  5
359
102
{ACAD_XDICTIONARY
360
35A
102
}
330
1F
100
AcDbEntity
  8
0
  6
Continuous
 62
     7
370
    25
100
AcDbLine
 10
193.1927868139868
 20
59.84813247676355
 30
0.0
 11
194.1634954287748
 21
57.18113247676347
 31
0.0
  0
LINE
  5
35C
102
{ACAD_XDICTIONARY
360
35D
102
}
330
1F
100
AcDbEntity
  8
0
  6
Continuous
 62
     7
370
    25
100
AcDbLine
 10
205.2323868139867
 20
107.3806824767635
 30
0.0
 11
192.5323868139868
 21
107.3806824767635
 31
0.0
  0
LINE
  5
35F
102
{ACAD_XDICTIONARY
360
360
102
}
330
1F
100
AcDbEntity
  8
0
  6
Continuous
 62
     7
370
    25
100
AcDbLine
 10
192.5323868139868
 20
114.0806824767634
 30
0.0
 11
205.2323868139867
 21
114.0806824767634
 31
0.0
  0
LINE
  5
362
102
{ACAD_XDICTIONARY
360
363
102
}
330
1F
100
AcDbEntity
  8
0
  6
Continuous
 62
     7
370
    25
100
AcDbLine
 10
205.2323868139867
 20
114.0806824767634
 30
0.0
 11
205.2323868139867
 21
107.3806824767635
 31
0.0
  0
LINE
  5
365
102
{ACAD_XDICTIONARY
360
366
102
}
330
1F
100
AcDbEntity
  8
0
  6
Continuous
 62
     7
370
    25
100
AcDbLine
 10
192.5323868139868
 20
114.0806824767634
 30
0.0
 11
192.5323868139868
 21
107.3806824767635
 31
0.0
  0
LINE
  5
368
102
{ACAD_XDICTIONARY
360
369
102
}
330
1F
100
AcDbEntity
  8
0
  6
Continuous
 62
     7
370
    25
100
AcDbLine
 10
205.2323868139867
 20
48.64318247676347
 30
0.0
 11
192.5323868139868
 21
48.64318247676347
 31
0.0
  0
LINE
  5
36B
102
{ACAD_XDICTIONARY
360
36C
102
}
330
1F
100
AcDbEntity
  8
0
  6
Continuous
 62
     7
370
    25
100
AcDbLine
 10
192.5323868139868
 20
55.34318247676346
 30
0.0
 11
205.2323868139867
 21
55.34318247676346
 31
0.0
  0
LINE
  5
36E
102
{ACAD_XDICTIONARY
360
36F
102
}
330
1F
100
AcDbEntity
  8
0
  6
Continuous
 62
     7
370
    25
100
AcDbLine
 10
205.2323868139867
 20
55.34318247676346
 30
0.0
 11
205.2323868139867
 21
48.64318247676347
 31
0.0
  0
LINE
  5
371
102
{ACAD_XDICTIONARY
360
372
102
}
330
1F
100
AcDbEntity
  8
0
  6
Continuous
 62
     7
370
    25
100
AcDbLine
 10
192.5323868139868
 20
55.34318247676346
 30
0.0
 11
192.5323868139868
 21
48.64318247676347
 31
0.0
  0
LINE
  5
374
102
{ACAD_XDICTIONARY
360
375
102
}
330
1F
100
AcDbEntity
  8
0
  6
Continuous
 62
     7
370
    25
100
AcDbLine
 10
205.2323868139867
 20
96.36193867176347
 30
0.0
 11
205.2323868139867
 21
107.3806824767635
 31
0.0
  0
LINE
  5
377
102
{ACAD_XDICTIONARY
360
378
102
}
330
1F
100
AcDbEntity
  8
0
  6
Continuous
 62
     7
370
    25
100
AcDbLine
 10
196.7007868139867
 20
99.46193247176346
 30
0.0
 11
196.7007868139867
 21
96.36193867176347
 31
0.0
  0
LINE
  5
37A
102
{ACAD_XDICTIONARY
360
37B
102
}
330
1F
100
AcDbEntity
  8
0
  6
Continuous
 62
     7
370
    25
100
AcDbLine
 10
193.7007868139867
 20
102.8757324767634
 30
0.0
 11
193.7007868139867
 21
99.46193247176346
 31
0.0
  0
LINE
  5
37D
102
{ACAD_XDICTIONARY
360
37E
102
}
330
1F
100
AcDbEntity
  8
0
  6
Continuous
 62
     7
370
    25
100
AcDbLine
 10
192.5323868139868
 20
107.3806824767635
 30
0.0
 11
192.5323868139868
 21
105.5427324767634
 31
0.0
  0
LINE
  5
380
102
{ACAD_XDICTIONARY
360
381
102
}
330
1F
100
AcDbEntity
  8
0
  6
Continuous
 62
     7
370
    25
100
AcDbLine
 10
205.2323868139867
 20
114.0806824767634
 30
0.0
 11
205.2323868139867
 21
115.4931824767786
 31
0.0
  0
LINE
  5
383
102
{ACAD_XDICTIONARY
360
384
102
}
330
1F
100
AcDbEntity
  8
0
  6
Continuous
 62
     7
370
    25
100
AcDbLine
 10
192.5323868139868
 20
115.4931824767785
 30
0.0
 11
192.5323868139868
 21
114.0806824767634
 31
0.0
  0
LINE
  5
386
102
{ACAD_XDICTIONARY
360
387
102
}
330
1F
100
AcDbEntity
  8
0
  6
Continuous
 62
     7
370
    25
100
AcDbLine
 10
205.2323868139867
 20
47.23068247674833
 30
0.0
 11
205.2323868139867
 21
48.64318247676347
 31
0.0
  0
LINE
  5
389
102
{ACAD_XDICTIONARY
360
38A
102
}
330
1F
100
AcDbEntity
  8
0
  6
Continuous
 62
     7
370
    25
100
AcDbLine
 10
192.5323868139868
 20
48.64318247676347
 30
0.0
 11
192.5323868139868
 21
47.23068247674838
 31
0.0
  0
LINE
  5
38C
102
{ACAD_XDICTIONARY
360
38D
102
}
330
1F
100
AcDbEntity
  8
0
  6
Continuous
 62
     7
370
    25
100
AcDbLine
 10
205.2323868139867
 20
55.34318247676346
 30
0.0
 11
205.2323868139867
 21
66.36192628176344
 31
0.0
  0
LINE
  5
38F
102
{ACAD_XDICTIONARY
360
390
102
}
330
1F
100
AcDbEntity
  8
0
  6
Continuous
 62
     7
370
    25
100
AcDbLine
 10
196.7007868139867
 20
66.36192628176344
 30
0.0
 11
196.7007868139867
 21
63.26193248176345
 31
0.0
  0
LINE
  5
392
102
{ACAD_XDICTIONARY
360
393
102
}
330
1F
100
AcDbEntity
  8
0
  6
Continuous
 62
     7
370
    25
100
AcDbLine
 10
193.7007868139867
 20
63.26193248176345
 30
0.0
 11
193.7007868139867
 21
59.84813247676355
 31
0.0
  0
LINE
  5
395
102
{ACAD_XDICTIONARY
360
396
102
}
330
1F
100
AcDbEntity
  8
0
  6
Continuous
 62
     7
370
    25
100
AcDbLine
 10
192.5323868139868
 20
57.18113247676347
 30
0.0
 11
192.5323868139868
 21
55.34318247676346
 31
0.0
  0
HATCH
  5
398
330
1F
100
AcDbEntity
  8
0
  6
Continuous
 62
     7
370
     0
100
AcDbHatch
 10
0.0
 20
0.0
 30
0.0
210
0.0
220
0.0
230
1.0
  2
ANSI31
 70
     0
 71
     0
 91
        1
 92
        3
 72
     0
 73
     1
 93
        6
 10
192.5323868139868
 20
47.23068247674838
 10
193.3261368139716
 20
46.43693247676343
 10
204.4386368140018
 20
46.43693247676343
 10
205.2323868139867
 20
47.23068247674833
 10
205.2323868139867
 20
48.64318247676347
 10
192.5323868139868
 20
48.64318247676347
 97
        0
 75
     0
 76
     1
 52
0.0
 41
1.0
 77
     0
 78
     1
 53
45.0
 43
-71.29541800015807
 44
-87.55358124219565
 45
-2.245064030267288
 46
2.245064030267288
 79
     1
 49
1.0
 98
        0
  0
HATCH
  5
399
330
1F
100
AcDbEntity
  8
0
  6
Continuous
 62
     7
370
     0
100
AcDbHatch
 10
0.0
 20
0.0
 30
0.0
210
0.0
220
0.0
230
1.0
  2
ANSI31
 70
     0
 71
     0
 91
        1
 92
        3
 72
     0
 73
     1
 93
       10
 10
193.7007868139867
 20
59.84813247676355
 10
193.1927868139868
 20
59.84813247676355
 10
194.1634954287748
 20
57.18113247676347
 10
192.5323868139868
 20
57.18113247676347
 10
192.5323868139868
 20
55.34318247676346
 10
205.2323868139867
 20
55.34318247676346
 10
205.2323868139867
 20
66.36192628176344
 10
196.7007868139867
 20
66.36192628176344
 10
196.7007868139867
 20
63.26193248176345
 10
193.7007868139867
 20
63.26193248176345
 97
        0
 75
     0
 76
     1
 52
0.0
 41
1.0
 77
     0
 78
     1
 53
45.0
 43
-71.29541800015807
 44
-87.55358124219565
 45
-2.245064030267288
 46
2.245064030267288
 79
     1
 49
1.0
 98
        0
  0
HATCH
  5
39A
330
1F
100
AcDbEntity
  8
0
  6
Continuous
 62
     7
370
     0
100
AcDbHatch
 10
0.0
 20
0.0
 30
0.0
210
0.0
220
0.0
230
1.0
  2
ANSI31
 70
     0
 71
     0
 91
        1
 92
        3
 72
     0
 73
     1
 93
       10
 10
205.2323868139867
 20
107.3806824767635
 10
192.5323868139868
 20
107.3806824767635
 10
192.5323868139868
 20
105.5427324767634
 10
194.1634954287748
 20
105.5427324767634
 10
193.1927868139868
 20
102.8757324767634
 10
193.7007868139867
 20
102.8757324767634
 10
193.7007868139867
 20
99.46193247176346
 10
196.7007868139867
 20
99.46193247176346
 10
196.7007868139867
 20
96.36193867176347
 10
205.2323868139867
 20
96.36193867176347
 97
        0
 75
     0
 76
     1
 52
0.0
 41
1.0
 77
     0
 78
     1
 53
45.0
 43
-71.29541800015807
 44
-87.55358124219565
 45
-2.245064030267288
 46
2.245064030267288
 79
     1
 49
1.0
 98
        0
  0
HATCH
  5
39B
330
1F
100
AcDbEntity
  8
0
  6
Continuous
 62
     7
370
     0
100
AcDbHatch
 10
0.0
 20
0.0
 30
0.0
210
0.0
220
0.0
230
1.0
  2
ANSI31
 70
     0
 71
     0
 91
        1
 92
        3
 72
     0
 73
     1
 93
        6
 10
205.2323868139867
 20
114.0806824767634
 10
205.2323868139867
 20
115.4931824767786
 10
204.4386368140018
 20
116.2869324767635
 10
193.3261368139716
 20
116.2869324767635
 10
192.5323868139868
 20
115.4931824767785
 10
192.5323868139868
 20
114.0806824767634
 97
        0
 75
     0
 76
     1
 52
0.0
 41
1.0
 77
     0
 78
     1
 53
45.0
 43
-71.29541800015807
 44
-87.55358124219565
 45
-2.245064030267288
 46
2.245064030267288
 79
     1
 49
1.0
 98
        0
  0
HATCH
  5
39C
330
1F
100
AcDbEntity
  8
0
  6
Continuous
 62
     7
370
     0
100
AcDbHatch
 10
0.0
 20
0.0
 30
0.0
210
0.0
220
0.0
230
1.0
  2
ANSI32
 70
     0
 71
     0
 91
        1
 92
        3
 72
     0
 73
     1
 93
        4
 10
196.6007868139867
 20
99.36193247676347
 10
196.5507868139867
 20
99.36193247676347
 10
196.5507868139867
 20
63.36193247676344
 10
196.6007868139867
 20
63.36193247676344
 97
        0
 75
     0
 76
     1
 52
0.0
 41
1.0
 77
     0
 78
     2
 53
45.0
 43
-71.29541800015807
 44
-87.55358124219565
 45
-6.735192090801865
 46
6.735192090801866
 79
     1
 49
1.0
 53
45.0
 43
-66.80528800015807
 44
-87.55358124219565
 45
-6.735192090801865
 46
6.735192090801866
 79
     1
 49
1.0
 98
        0
  0
DIMENSION
  5
39D
102
{ACAD_XDICTIONARY
360
39E
102
}
330
1F
100
AcDbEntity
  8
SLD-0
100
AcDbDimension
280
     0
  2
*D15
 10
192.5323868139868
 20
123.9917785151387
 30
0.0
 11
175.706111424483
 21
123.9917785151387
 31
0.0
 70
   160
  1
<>
 71
     5
 42
4.018399999999986
 73
     0
 74
     0
 75
     0
  3
Standard
100
AcDbAlignedDimension
 13
196.5507868139867
 23
99.36193247676347
 33
0.0
 14
192.5323868139868
 24
115.4931824767785
 34
0.0
100
AcDbRotatedDimension
1001
ACAD
1000
DSTYLE
1002
{
1070
   179
1070
     1
1070
   148
1040
0.0000001
1070
     4
1000

1070
   141
1040
2.5
1070
     3
1000
\X
1070
    45
1040
0.0000001
1002
}
  0
DIMENSION
  5
3AE
102
{ACAD_XDICTIONARY
360
3AF
102
}
330
1F
100
AcDbEntity
  8
SLD-0
100
AcDbDimension
280
     0
  2
*D16
 10
151.0090420263339
 20
63.26193248176346
 30
0.0
 11
151.0090420263339
 21
81.98377109773473
 31
0.0
 70
   160
  1
%%c<>
 71
     5
 42
36.19999999000001
 73
     0
 74
     0
 75
     0
  3
Standard
100
AcDbAlignedDimension
 13
193.7007868139867
 23
99.46193247176346
 33
0.0
 14
193.7007868139867
 24
63.26193248176345
 34
0.0
 50
90.0
100
AcDbRotatedDimension
1001
ACAD
1000
DSTYLE
1002
{
1070
   179
1070
     1
1070
   148
1040
0.0000001
1070
     4
1000

1070
   141
1040
2.5
1070
     3
1000
\X
1070
    45
1040
0.0000001
1002
}
  0
DIMENSION
  5
3BE
102
{ACAD_XDICTIONARY
360
3BF
102
}
330
1F
100
AcDbEntity
  8
SLD-0
100
AcDbDimension
280
     0
  2
*D17
 10
221.2323868139867
 20
66.36192628176344
 30
0.0
 11
221.2323868139867
 21
80.15709157893129
 31
0.0
 70
   160
  1
%%c<>
 71
     5
 42
30.00001239000002
 73
     0
 74
     0
 75
     0
  3
Standard
100
AcDbAlignedDimension
 13
205.2323868139867
 23
96.36193867176347
 33
0.0
 14
205.2323868139867
 24
66.36192628176344
 34
0.0
 50
90.0
100
AcDbRotatedDimension
1001
ACAD
1000
DSTYLE
1002
{
1070
   179
1070
     1
1070
   148
1040
0.0000001
1070
     4
1000

1070
   141
1040
2.5
1070
     3
1000
\X
1070
    45
1040
0.0000001
1002
}
  0
MTEXT
  5
3CE
102
{ACAD_XDICTIONARY
360
3CF
102
}
330
1F
100
AcDbEntity
  8
SLD-0
100
AcDbMText
 10
198.5476636841183
 20
35.52718101299721
 30
0.0
 40
4.000000148349338
 41
0.0
 46
0.0
 71
     2
 72
     1
  1
SECTION A-A
 73
     1
 44
1.0
  0
LINE
  5
3D1
102
{ACAD_XDICTIONARY
360
3D2
102
}
330
1F
100
AcDbEntity
  8
SLD-0
  6
CENTERX2
370
    18
100
AcDbLine
 10
186.1823868139867
 20
81.36193247676344
 30
0.0
 11
211.5823868139868
 21
81.36193247676344
 31
0.0
  0
LINE
  5
3D4
102
{ACAD_XDICTIONARY
360
3D5
102
}
330
1F
100
AcDbEntity
  8
SLD-0
  6
CENTERX2
370
    18
100
AcDbLine
 10
211.5823868139868
 20
110.7306824767634
 30
0.0
 11
186.1823868139867
 21
110.7306824767634
 31
0.0
  0
LINE
  5
3D7
102
{ACAD_XDICTIONARY
360
3D8
102
}
330
1F
100
AcDbEntity
  8
SLD-0
  6
CENTERX2
370
    18
100
AcDbLine
 10
211.5823868139868
 20
51.99318247676347
 30
0.0
 11
186.1823868139867
 21
51.99318247676347
 31
0.0
  0
DIMENSION
  5
3DA
102
{ACAD_XDICTIONARY
360
3DB
102
}
330
1F
100
AcDbEntity
  8
SLD-0
100
AcDbDimension
280
     0
  2
*D18
 10
205.2323868139867
 20
131.1913952783197
 30
0.0
 11
219.1883868139867
 21
131.1913952783197
 31
0.0
 70
   160
  1
<>
 71
     5
 42
12.69999999999999
 73
     0
 74
     0
 75
     0
  3
DUAL_UNITS
100
AcDbAlignedDimension
 13
192.5323868139868
 23
115.4931824767785
 33
0.0
 14
205.2323868139867
 24
115.4931824767786
 34
0.0
100
AcDbRotatedDimension
1001
ACAD
1000
DSTYLE
1002
{
1070
   179
1070
     1
1070
   148
1040
0.0000001
1070
     4
1000

1070
   141
1040
2.5
1070
     3
1000
\X
1070
    45
1040
0.0000001
1002
}
  0
DIMENSION
  5
3EA
102
{ACAD_XDICTIONARY
360
3EB
102
}
330
1F
100
AcDbEntity
  8
SLD-0
100
AcDbDimension
280
     0
  2
*D19
 10
196.5507868139867
 20
73.6581578006975
 30
0.0
 11
169.9148593345592
 21
73.6581578006975
 31
0.0
 70
   160
  1
<>\PWINDOW
 71
     5
 42
0.0499999999999545
 73
     0
 74
     0
 75
     0
  3
Standard
100
AcDbAlignedDimension
 13
196.6007868139866
 23
63.36193247676344
 33
0.0
 14
196.5507868139867
 24
63.36193247676344
 34
0.0
100
AcDbRotatedDimension
1001
ACAD
1000
DSTYLE
1002
{
1070
   148
1040
0.0000001
1070
     4
1000

1070
   141
1040
2.5
1070
   271
1070
     2
1070
     3
1000
\X
1070
    45
1040
0.0000001
1070
   272
1070
     2
1002
}
  0
VIEWPORT
  5
3FC
330
1B
100
AcDbEntity
 67
     1
  8
0
100
AcDbViewport
 10
56.00206076410201
 20
103.269652082256
 30
0.0
 40
492.8180952986504
 41
380.8139827307753
 68
     1
 69
     1
 12
56.00206076410201
 22
103.269652082256
 13
0.0
 23
0.0
 14
0.5
 24
0.5
 15
0.5
 25
0.5
 16
0.0
 26
0.0
 36
1.0
 17
0.0
 27
0.0
 37
0.0
 42
50.0
 43
0.0
 44
0.0
 45
380.8139827307753
 50
0.0
 51
0.0
 72
  1000
 90
    32800
  1

281
     0
 71
     1
 74
     0
110
0.0
120
0.0
130
0.0
111
1.0
121
0.0
131
0.0
112
0.0
122
1.0
132
0.0
 79
     0
146
0.0
170
     0
 61
     5
292
     1
282
     1
141
0.0
142
0.0
 63
   256
  0
ENDSEC
  0
SECTION
  2
OBJECTS
  0
DICTIONARY
  5
C
330
0
100
AcDbDictionary
281
     1
  3
ACAD_GROUP
350
D
  3
ACAD_LAYOUT
350
1A
  3
ACAD_MATERIAL
350
3B
  3
ACAD_MLEADERSTYLE
350
16D
  3
ACAD_MLINESTYLE
350
17
  3
ACAD_PLOTSETTINGS
350
19
  3
ACAD_PLOTSTYLENAME
350
E
  3
ACAD_SCALELIST
350
3FD
  3
ACAD_TABLESTYLE
350
17C
  3
ACAD_VISUALSTYLE
350
2A
  3
ACDB_RECOMPOSE_DATA
350
423
  3
AcDbVariableDictionary
350
41F
  0
SUN
  5
3F
330
29
100
AcDbSun
 90
        1
290
     0
 63
     7
421
 16777215
 40
1.0
291
     1
 91
  2455826
 92
 54000000
292
     0
 70
     2
 71
   256
280
     1
  0
DICTIONARY
  5
170
330
1F
100
AcDbDictionary
280
     1
281
     1
  3
ACAD_GEOGRAPHICDATA
360
171
  0
DICTIONARY
  5
181
330
180
100
AcDbDictionary
280
     1
281
     1
  3
TC_EXTENDED_DATA
360
182
  0
DICTIONARY
  5
184
330
183
100
AcDbDictionary
280
     1
281
     1
  3
TC_EXTENDED_DATA
360
185
  0
DICTIONARY
  5
187
330
186
100
AcDbDictionary
280
     1
281
     1
  3
TC_EXTENDED_DATA
360
188
  0
DICTIONARY
  5
18A
330
189
100
AcDbDictionary
280
     1
281
     1
  3
TC_EXTENDED_DATA
360
18B
  0
DICTIONARY
  5
18D
330
18C
100
AcDbDictionary
280
     1
281
     1
  3
TC_EXTENDED_DATA
360
18E
  0
DICTIONARY
  5
190
330
18F
100
AcDbDictionary
280
     1
281
     1
  3
TC_EXTENDED_DATA
360
191
  0
DICTIONARY
  5
193
330
192
100
AcDbDictionary
280
     1
281
     1
  3
TC_EXTENDED_DATA
360
194
  0
DICTIONARY
  5
196
330
195
100
AcDbDictionary
280
     1
281
     1
  3
TC_EXTENDED_DATA
360
197
  0
DICTIONARY
  5
199
330
198
100
AcDbDictionary
280
     1
281
     1
  3
TC_EXTENDED_DATA
360
19A
  0
DICTIONARY
  5
19C
330
19B
100
AcDbDictionary
280
     1
281
     1
  3
TC_EXTENDED_DATA
360
19D
  0
DICTIONARY
  5
19F
330
19E
100
AcDbDictionary
280
     1
281
     1
  3
TC_EXTENDED_DATA
360
1A0
  0
DICTIONARY
  5
1A2
330
1A1
100
AcDbDictionary
280
     1
281
     1
  3
TC_EXTENDED_DATA
360
1A3
  0
DICTIONARY
  5
1A5
330
1A4
100
AcDbDictionary
280
     1
281
     1
  3
TC_EXTENDED_DATA
360
1A6
  0
DICTIONARY
  5
1A8
330
1A7
100
AcDbDictionary
280
     1
281
     1
  3
TC_EXTENDED_DATA
360
1A9
  0
DICTIONARY
  5
1AB
330
1AA
100
AcDbDictionary
280
     1
281
     1
  3
TC_EXTENDED_DATA
360
1AC
  0
DICTIONARY
  5
1AE
330
1AD
100
AcDbDictionary
280
     1
281
     1
  3
TC_EXTENDED_DATA
360
1AF
  0
DICTIONARY
  5
1B1
330
1B0
100
AcDbDictionary
280
     1
281
     1
  3
TC_EXTENDED_DATA
360
1B2
  0
DICTIONARY
  5
1B4
330
1B3
100
AcDbDictionary
280
     1
281
     1
  3
TC_EXTENDED_DATA
360
1B5
  0
DICTIONARY
  5
1B7
330
1B6
100
AcDbDictionary
280
     1
281
     1
  3
TC_EXTENDED_DATA
360
1B8
  0
DICTIONARY
  5
1BA
330
1B9
100
AcDbDictionary
280
     1
281
     1
  3
TC_EXTENDED_DATA
360
1BB
  0
DICTIONARY
  5
1BD
330
1BC
100
AcDbDictionary
280
     1
281
     1
  3
TC_EXTENDED_DATA
360
1BE
  0
DICTIONARY
  5
1C0
330
1BF
100
AcDbDictionary
280
     1
281
     1
  3
TC_EXTENDED_DATA
360
1C1
  0
DICTIONARY
  5
1C3
330
1C2
100
AcDbDictionary
280
     1
281
     1
  3
TC_EXTENDED_DATA
360
1C4
  0
DICTIONARY
  5
1C6
330
1C5
100
AcDbDictionary
280
     1
281
     1
  3
TC_EXTENDED_DATA
360
1C7
  0
DICTIONARY
  5
1C9
330
1C8
100
AcDbDictionary
280
     1
281
     1
  3
TC_EXTENDED_DATA
360
1CA
  0
DICTIONARY
  5
1CC
330
1CB
100
AcDbDictionary
280
     1
281
     1
  3
TC_EXTENDED_DATA
360
1CD
  0
DICTIONARY
  5
1CF
330
1CE
100
AcDbDictionary
280
     1
281
     1
  3
TC_EXTENDED_DATA
360
1D0
  0
DICTIONARY
  5
1D2
330
1D1
100
AcDbDictionary
280
     1
281
     1
  3
TC_EXTENDED_DATA
360
1D3
  0
DICTIONARY
  5
1D5
330
1D4
100
AcDbDictionary
280
     1
281
     1
  3
TC_EXTENDED_DATA
360
1D6
  0
DICTIONARY
  5
1D8
330
1D7
100
AcDbDictionary
280
     1
281
     1
  3
TC_EXTENDED_DATA
360
1D9
  0
DICTIONARY
  5
1DE
330
1DD
100
AcDbDictionary
280
     1
281
     1
  3
TC_EXTENDED_DATA
360
1DF
  0
DICTIONARY
  5
1E1
330
1E0
100
AcDbDictionary
280
     1
281
     1
  3
TC_EXTENDED_DATA
360
1E2
  0
DICTIONARY
  5
1E4
330
1E3
100
AcDbDictionary
280
     1
281
     1
  3
TC_EXTENDED_DATA
360
1E5
  0
DICTIONARY
  5
1E7
330
1E6
100
AcDbDictionary
280
     1
281
     1
  3
TC_EXTENDED_DATA
360
1E8
  0
DICTIONARY
  5
1ED
330
1EC
100
AcDbDictionary
280
     1
281
     1
  3
TC_EXTENDED_DATA
360
1EE
  0
DICTIONARY
  5
1F0
330
1EF
100
AcDbDictionary
280
     1
281
     1
  3
TC_EXTENDED_DATA
360
1F1
  0
DICTIONARY
  5
1F3
330
1F2
100
AcDbDictionary
280
     1
281
     1
  3
TC_EXTENDED_DATA
360
1F4
  0
DICTIONARY
  5
1FD
330
1FC
100
AcDbDictionary
280
     1
281
     1
  3
TC_EXTENDED_DATA
360
1FE
  0
DICTIONARY
  5
200
330
1FF
100
AcDbDictionary
280
     1
281
     1
  3
TC_EXTENDED_DATA
360
201
  0
DICTIONARY
  5
203
330
202
100
AcDbDictionary
280
     1
281
     1
  3
TC_EXTENDED_DATA
360
204
  0
DICTIONARY
  5
20D
330
20C
100
AcDbDictionary
280
     1
281
     1
  3
TC_EXTENDED_DATA
360
20E
  0
DICTIONARY
  5
210
330
20F
100
AcDbDictionary
280
     1
281
     1
  3
TC_EXTENDED_DATA
360
211
  0
DICTIONARY
  5
213
330
212
100
AcDbDictionary
280
     1
281
     1
  3
TC_EXTENDED_DATA
360
214
  0
DICTIONARY
  5
21D
330
21C
100
AcDbDictionary
280
     1
281
     1
  3
TC_EXTENDED_DATA
360
21E
  0
DICTIONARY
  5
220
330
21F
100
AcDbDictionary
280
     1
281
     1
  3
TC_EXTENDED_DATA
360
221
  0
DICTIONARY
  5
223
330
222
100
AcDbDictionary
280
     1
281
     1
  3
TC_EXTENDED_DATA
360
224
  0
DICTIONARY
  5
226
330
225
100
AcDbDictionary
280
     1
281
     1
  3
TC_EXTENDED_DATA
360
227
  0
DICTIONARY
  5
22D
330
22C
100
AcDbDictionary
280
     1
281
     1
  3
TC_EXTENDED_DATA
360
22E
  0
DICTIONARY
  5
236
330
235
100
AcDbDictionary
280
     1
281
     1
  3
TC_EXTENDED_DATA
360
237
  0
DICTIONARY
  5
239
330
238
100
AcDbDictionary
280
     1
281
     1
  3
TC_EXTENDED_DATA
360
23A
  0
DICTIONARY
  5
23C
330
23B
100
AcDbDictionary
280
     1
281
     1
  3
TC_EXTENDED_DATA
360
23D
  0
DICTIONARY
  5
23F
330
23E
100
AcDbDictionary
280
     1
281
     1
  3
TC_EXTENDED_DATA
360
240
  0
DICTIONARY
  5
246
330
245
100
AcDbDictionary
280
     1
281
     1
  3
TC_EXTENDED_DATA
360
247
  0
DICTIONARY
  5
24F
330
24E
100
AcDbDictionary
280
     1
281
     1
  3
TC_EXTENDED_DATA
360
250
  0
DICTIONARY
  5
252
330
251
100
AcDbDictionary
280
     1
281
     1
  3
TC_EXTENDED_DATA
360
253
  0
DICTIONARY
  5
255
330
254
100
AcDbDictionary
280
     1
281
     1
  3
TC_EXTENDED_DATA
360
256
  0
DICTIONARY
  5
258
330
257
100
AcDbDictionary
280
     1
281
     1
  3
TC_EXTENDED_DATA
360
259
  0
DICTIONARY
  5
25F
330
25E
100
AcDbDictionary
280
     1
281
     1
  3
TC_EXTENDED_DATA
360
260
  0
DICTIONARY
  5
268
330
267
100
AcDbDictionary
280
     1
281
     1
  3
TC_EXTENDED_DATA
360
269
  0
DICTIONARY
  5
26B
330
26A
100
AcDbDictionary
280
     1
281
     1
  3
TC_EXTENDED_DATA
360
26C
  0
DICTIONARY
  5
26E
330
26D
100
AcDbDictionary
280
     1
281
     1
  3
TC_EXTENDED_DATA
360
26F
  0
DICTIONARY
  5
271
330
270
100
AcDbDictionary
280
     1
281
     1
  3
TC_EXTENDED_DATA
360
272
  0
DICTIONARY
  5
278
330
277
100
AcDbDictionary
280
     1
281
     1
  3
TC_EXTENDED_DATA
360
279
  0
DICTIONARY
  5
27F
330
27E
100
AcDbDictionary
280
     1
281
     1
  3
TC_EXTENDED_DATA
360
280
  0
DICTIONARY
  5
282
330
281
100
AcDbDictionary
280
     1
281
     1
  3
TC_EXTENDED_DATA
360
283
  0
DICTIONARY
  5
285
330
284
100
AcDbDictionary
280
     1
281
     1
  3
TC_EXTENDED_DATA
360
286
  0
DICTIONARY
  5
288
330
287
100
AcDbDictionary
280
     1
281
     1
  3
TC_EXTENDED_DATA
360
289
  0
DICTIONARY
  5
28B
330
28A
100
AcDbDictionary
280
     1
281
     1
  3
TC_EXTENDED_DATA
360
28C
  0
DICTIONARY
  5
28E
330
28D
100
AcDbDictionary
280
     1
281
     1
  3
TC_EXTENDED_DATA
360
28F
  0
DICTIONARY
  5
291
330
290
100
AcDbDictionary
280
     1
281
     1
  3
TC_EXTENDED_DATA
360
292
  0
DICTIONARY
  5
294
330
293
100
AcDbDictionary
280
     1
281
     1
  3
TC_EXTENDED_DATA
360
295
  0
DICTIONARY
  5
297
330
296
100
AcDbDictionary
280
     1
281
     1
  3
TC_EXTENDED_DATA
360
298
  0
DICTIONARY
  5
29A
330
299
100
AcDbDictionary
280
     1
281
     1
  3
TC_EXTENDED_DATA
360
29B
  0
DICTIONARY
  5
29D
330
29C
100
AcDbDictionary
280
     1
281
     1
  3
TC_EXTENDED_DATA
360
29E
  0
DICTIONARY
  5
2A0
330
29F
100
AcDbDictionary
280
     1
281
     1
  3
TC_EXTENDED_DATA
360
2A1
  0
DICTIONARY
  5
2A3
330
2A2
100
AcDbDictionary
280
     1
281
     1
  3
TC_EXTENDED_DATA
360
2A4
  0
DICTIONARY
  5
2A6
330
2A5
100
AcDbDictionary
280
     1
281
     1
  3
TC_EXTENDED_DATA
360
2A7
  0
DICTIONARY
  5
2A9
330
2A8
100
AcDbDictionary
280
     1
281
     1
  3
TC_EXTENDED_DATA
360
2AA
  0
DICTIONARY
  5
2AC
330
2AB
100
AcDbDictionary
280
     1
281
     1
  3
TC_EXTENDED_DATA
360
2AD
  0
DICTIONARY
  5
2AF
330
2AE
100
AcDbDictionary
280
     1
281
     1
  3
TC_EXTENDED_DATA
360
2B0
  0
DICTIONARY
  5
2B2
330
2B1
100
AcDbDictionary
280
     1
281
     1
  3
TC_EXTENDED_DATA
360
2B3
  0
DICTIONARY
  5
2B5
330
2B4
100
AcDbDictionary
280
     1
281
     1
  3
TC_EXTENDED_DATA
360
2B6
  0
DICTIONARY
  5
2B8
330
2B7
100
AcDbDictionary
280
     1
281
     1
  3
TC_EXTENDED_DATA
360
2B9
  0
DICTIONARY
  5
2BB
330
2BA
100
AcDbDictionary
280
     1
281
     1
  3
TC_EXTENDED_DATA
360
2BC
  0
DICTIONARY
  5
2BE
330
2BD
100
AcDbDictionary
280
     1
281
     1
  3
TC_EXTENDED_DATA
360
2BF
  0
DICTIONARY
  5
2C1
330
2C0
100
AcDbDictionary
280
     1
281
     1
  3
TC_EXTENDED_DATA
360
2C2
  0
DICTIONARY
  5
2C4
330
2C3
100
AcDbDictionary
280
     1
281
     1
  3
TC_EXTENDED_DATA
360
2C5
  0
DICTIONARY
  5
2C7
330
2C6
100
AcDbDictionary
280
     1
281
     1
  3
TC_EXTENDED_DATA
360
2C8
  0
DICTIONARY
  5
2CA
330
2C9
100
AcDbDictionary
280
     1
281
     1
  3
TC_EXTENDED_DATA
360
2CB
  0
DICTIONARY
  5
2CD
330
2CC
100
AcDbDictionary
280
     1
281
     1
  3
TC_EXTENDED_DATA
360
2CE
  0
DICTIONARY
  5
2D0
330
2CF
100
AcDbDictionary
280
     1
281
     1
  3
TC_EXTENDED_DATA
360
2D1
  0
DICTIONARY
  5
2DC
330
2DB
100
AcDbDictionary
280
     1
281
     1
  3
TC_EXTENDED_DATA
360
2DD
  0
DICTIONARY
  5
2E8
330
2E7
100
AcDbDictionary
280
     1
281
     1
  3
TC_EXTENDED_DATA
360
2E9
  0
DICTIONARY
  5
2F6
330
2F5
100
AcDbDictionary
280
     1
281
     1
  3
TC_EXTENDED_DATA
360
2F7
  0
DICTIONARY
  5
2F9
330
2F8
100
AcDbDictionary
280
     1
281
     1
  3
TC_EXTENDED_DATA
360
2FA
  0
DICTIONARY
  5
2FE
330
2FD
100
AcDbDictionary
280
     1
281
     1
  3
TC_EXTENDED_DATA
360
2FF
  0
DICTIONARY
  5
303
330
302
100
AcDbDictionary
280
     1
281
     1
  3
TC_EXTENDED_DATA
360
304
  0
DICTIONARY
  5
306
330
305
100
AcDbDictionary
280
     1
281
     1
  3
TC_EXTENDED_DATA
360
307
  0
DICTIONARY
  5
309
330
308
100
AcDbDictionary
280
     1
281
     1
  3
TC_EXTENDED_DATA
360
30A
  0
DICTIONARY
  5
30C
330
30B
100
AcDbDictionary
280
     1
281
     1
  3
TC_EXTENDED_DATA
360
30D
  0
DICTIONARY
  5
30F
330
30E
100
AcDbDictionary
280
     1
281
     1
  3
TC_EXTENDED_DATA
360
310
  0
DICTIONARY
  5
312
330
311
100
AcDbDictionary
280
     1
281
     1
  3
TC_EXTENDED_DATA
360
313
  0
DICTIONARY
  5
315
330
314
100
AcDbDictionary
280
     1
281
     1
  3
TC_EXTENDED_DATA
360
316
  0
DICTIONARY
  5
318
330
317
100
AcDbDictionary
280
     1
281
     1
  3
TC_EXTENDED_DATA
360
319
  0
DICTIONARY
  5
31B
330
31A
100
AcDbDictionary
280
     1
281
     1
  3
TC_EXTENDED_DATA
360
31C
  0
DICTIONARY
  5
31E
330
31D
100
AcDbDictionary
280
     1
281
     1
  3
TC_EXTENDED_DATA
360
31F
  0
DICTIONARY
  5
321
330
320
100
AcDbDictionary
280
     1
281
     1
  3
TC_EXTENDED_DATA
360
322
  0
DICTIONARY
  5
324
330
323
100
AcDbDictionary
280
     1
281
     1
  3
TC_EXTENDED_DATA
360
325
  0
DICTIONARY
  5
327
330
326
100
AcDbDictionary
280
     1
281
     1
  3
TC_EXTENDED_DATA
360
328
  0
DICTIONARY
  5
32A
330
329
100
AcDbDictionary
280
     1
281
     1
  3
TC_EXTENDED_DATA
360
32B
  0
DICTIONARY
  5
32D
330
32C
100
AcDbDictionary
280
     1
281
     1
  3
TC_EXTENDED_DATA
360
32E
  0
DICTIONARY
  5
330
330
32F
100
AcDbDictionary
280
     1
281
     1
  3
TC_EXTENDED_DATA
360
331
  0
DICTIONARY
  5
333
330
332
100
AcDbDictionary
280
     1
281
     1
  3
TC_EXTENDED_DATA
360
334
  0
DICTIONARY
  5
336
330
335
100
AcDbDictionary
280
     1
281
     1
  3
TC_EXTENDED_DATA
360
337
  0
DICTIONARY
  5
339
330
338
100
AcDbDictionary
280
     1
281
     1
  3
TC_EXTENDED_DATA
360
33A
  0
DICTIONARY
  5
33C
330
33B
100
AcDbDictionary
280
     1
281
     1
  3
TC_EXTENDED_DATA
360
33D
  0
DICTIONARY
  5
33F
330
33E
100
AcDbDictionary
280
     1
281
     1
  3
TC_EXTENDED_DATA
360
340
  0
DICTIONARY
  5
342
330
341
100
AcDbDictionary
280
     1
281
     1
  3
TC_EXTENDED_DATA
360
343
  0
DICTIONARY
  5
345
330
344
100
AcDbDictionary
280
     1
281
     1
  3
TC_EXTENDED_DATA
360
346
  0
DICTIONARY
  5
348
330
347
100
AcDbDictionary
280
     1
281
     1
  3
TC_EXTENDED_DATA
360
349
  0
DICTIONARY
  5
34B
330
34A
100
AcDbDictionary
280
     1
281
     1
  3
TC_EXTENDED_DATA
360
34C
  0
DICTIONARY
  5
34E
330
34D
100
AcDbDictionary
280
     1
281
     1
  3
TC_EXTENDED_DATA
360
34F
  0
DICTIONARY
  5
351
330
350
100
AcDbDictionary
280
     1
281
     1
  3
TC_EXTENDED_DATA
360
352
  0
DICTIONARY
  5
354
330
353
100
AcDbDictionary
280
     1
281
     1
  3
TC_EXTENDED_DATA
360
355
  0
DICTIONARY
  5
357
330
356
100
AcDbDictionary
280
     1
281
     1
  3
TC_EXTENDED_DATA
360
358
  0
DICTIONARY
  5
35A
330
359
100
AcDbDictionary
280
     1
281
     1
  3
TC_EXTENDED_DATA
360
35B
  0
DICTIONARY
  5
35D
330
35C
100
AcDbDictionary
280
     1
281
     1
  3
TC_EXTENDED_DATA
360
35E
  0
DICTIONARY
  5
360
330
35F
100
AcDbDictionary
280
     1
281
     1
  3
TC_EXTENDED_DATA
360
361
  0
DICTIONARY
  5
363
330
362
100
AcDbDictionary
280
     1
281
     1
  3
TC_EXTENDED_DATA
360
364
  0
DICTIONARY
  5
366
330
365
100
AcDbDictionary
280
     1
281
     1
  3
TC_EXTENDED_DATA
360
367
  0
DICTIONARY
  5
369
330
368
100
AcDbDictionary
280
     1
281
     1
  3
TC_EXTENDED_DATA
360
36A
  0
DICTIONARY
  5
36C
330
36B
100
AcDbDictionary
280
     1
281
     1
  3
TC_EXTENDED_DATA
360
36D
  0
DICTIONARY
  5
36F
330
36E
100
AcDbDictionary
280
     1
281
     1
  3
TC_EXTENDED_DATA
360
370
  0
DICTIONARY
  5
372
330
371
100
AcDbDictionary
280
     1
281
     1
  3
TC_EXTENDED_DATA
360
373
  0
DICTIONARY
  5
375
330
374
100
AcDbDictionary
280
     1
281
     1
  3
TC_EXTENDED_DATA
360
376
  0
DICTIONARY
  5
378
330
377
100
AcDbDictionary
280
     1
281
     1
  3
TC_EXTENDED_DATA
360
379
  0
DICTIONARY
  5
37B
330
37A
100
AcDbDictionary
280
     1
281
     1
  3
TC_EXTENDED_DATA
360
37C
  0
DICTIONARY
  5
37E
330
37D
100
AcDbDictionary
280
     1
281
     1
  3
TC_EXTENDED_DATA
360
37F
  0
DICTIONARY
  5
381
330
380
100
AcDbDictionary
280
     1
281
     1
  3
TC_EXTENDED_DATA
360
382
  0
DICTIONARY
  5
384
330
383
100
AcDbDictionary
280
     1
281
     1
  3
TC_EXTENDED_DATA
360
385
  0
DICTIONARY
  5
387
330
386
100
AcDbDictionary
280
     1
281
     1
  3
TC_EXTENDED_DATA
360
388
  0
DICTIONARY
  5
38A
330
389
100
AcDbDictionary
280
     1
281
     1
  3
TC_EXTENDED_DATA
360
38B
  0
DICTIONARY
  5
38D
330
38C
100
AcDbDictionary
280
     1
281
     1
  3
TC_EXTENDED_DATA
360
38E
  0
DICTIONARY
  5
390
330
38F
100
AcDbDictionary
280
     1
281
     1
  3
TC_EXTENDED_DATA
360
391
  0
DICTIONARY
  5
393
330
392
100
AcDbDictionary
280
     1
281
     1
  3
TC_EXTENDED_DATA
360
394
  0
DICTIONARY
  5
396
330
395
100
AcDbDictionary
280
     1
281
     1
  3
TC_EXTENDED_DATA
360
397
  0
DICTIONARY
  5
39E
330
39D
100
AcDbDictionary
280
     1
281
     1
  3
TC_EXTENDED_DATA
360
39F
  0
DICTIONARY
  5
3AF
330
3AE
100
AcDbDictionary
280
     1
281
     1
  3
TC_EXTENDED_DATA
360
3B0
  0
DICTIONARY
  5
3BF
330
3BE
100
AcDbDictionary
280
     1
281
     1
  3
TC_EXTENDED_DATA
360
3C0
  0
DICTIONARY
  5
3CF
330
3CE
100
AcDbDictionary
280
     1
281
     1
  3
TC_EXTENDED_DATA
360
3D0
  0
DICTIONARY
  5
3D2
330
3D1
100
AcDbDictionary
280
     1
281
     1
  3
TC_EXTENDED_DATA
360
3D3
  0
DICTIONARY
  5
3D5
330
3D4
100
AcDbDictionary
280
     1
281
     1
  3
TC_EXTENDED_DATA
360
3D6
  0
DICTIONARY
  5
3D8
330
3D7
100
AcDbDictionary
280
     1
281
     1
  3
TC_EXTENDED_DATA
360
3D9
  0
DICTIONARY
  5
3DB
330
3DA
100
AcDbDictionary
280
     1
281
     1
  3
TC_EXTENDED_DATA
360
3DC
  0
DICTIONARY
  5
3EB
330
3EA
100
AcDbDictionary
280
     1
281
     1
  3
TC_EXTENDED_DATA
360
3EC
  0
DICTIONARY
  5
D
102
{ACAD_REACTORS
330
C
102
}
330
C
100
AcDbDictionary
281
     1
  0
DICTIONARY
  5
1A
102
{ACAD_REACTORS
330
C
102
}
330
C
100
AcDbDictionary
281
     1
  3
Layout1
350
152
  3
Layout2
350
1E
  3
Model
350
22
  0
DICTIONARY
  5
3B
102
{ACAD_REACTORS
330
C
102
}
330
C
100
AcDbDictionary
281
     1
  3
ByBlock
350
3D
  3
ByLayer
350
3C
  3
Global
350
3E
  0
DICTIONARY
  5
16D
102
{ACAD_REACTORS
330
C
102
}
330
C
100
AcDbDictionary
281
     1
  3
Standard
350
16E
  0
DICTIONARY
  5
17
102
{ACAD_REACTORS
330
C
102
}
330
C
100
AcDbDictionary
281
     1
  3
Standard
350
18
  0
DICTIONARY
  5
19
102
{ACAD_REACTORS
330
C
102
}
330
C
100
AcDbDictionary
281
     1
  0
ACDBDICTIONARYWDFLT
  5
E
102
{ACAD_REACTORS
330
C
102
}
330
C
100
AcDbDictionary
281
     1
  3
Normal
350
F
100
AcDbDictionaryWithDefault
340
F
  0
DICTIONARY
  5
3FD
102
{ACAD_REACTORS
330
C
102
}
330
C
100
AcDbDictionary
281
     1
  3
A0
350
3FE
  3
A1
350
3FF
  3
A2
350
400
  3
A3
350
401
  3
A4
350
402
  3
A5
350
403
  3
A6
350
404
  3
A7
350
405
  3
A8
350
406
  3
A9
350
407
  3
B0
350
408
  3
B1
350
409
  3
B2
350
40A
  3
B3
350
40B
  3
B4
350
40C
  3
B5
350
40D
  3
B6
350
40E
  3
B7
350
40F
  3
B8
350
410
  3
B9
350
411
  3
C0
350
412
  3
C1
350
413
  3
C2
350
414
  3
C3
350
415
  3
C4
350
416
  3
C5
350
417
  3
C6
350
418
  3
C7
350
419
  3
C8
350
41A
  3
C9
350
41B
  3
D0
350
41C
  3
D1
350
41D
  3
D2
350
41E
  0
DICTIONARY
  5
17C
102
{ACAD_REACTORS
330
C
102
}
330
C
100
AcDbDictionary
281
     1
  3
Standard
350
17D
  0
DICTIONARY
  5
2A
102
{ACAD_REACTORS
330
C
102
}
330
C
100
AcDbDictionary
281
     1
  3
2dWireframe
350
2F
  3
3D Hidden
350
31
  3
3dWireframe
350
30
  3
Basic
350
32
  3
Brighten
350
36
  3
ColorChange
350
3A
  3
Conceptual
350
34
  3
Dim
350
35
  3
Facepattern
350
39
  3
Flat
350
2B
  3
FlatWithEdges
350
2C
  3
Gouraud
350
2D
  3
GouraudWithEdges
350
2E
  3
Linepattern
350
38
  3
Realistic
350
33
  3
Thicken
350
37
  0
XRECORD
  5
423
102
{ACAD_REACTORS
330
C
102
}
330
C
100
AcDbXrecord
280
     1
 90
        1
330
17D
  0
DICTIONARY
  5
41F
102
{ACAD_REACTORS
330
C
102
}
330
C
100
AcDbDictionary
281
     1
  3
CANNOSCALE
350
420
  0
GEODATA
  5
171
102
{ACAD_REACTORS
330
170
102
}
330
170
100
AcDbGeoData
 90
        2
330
1F
 70
     1
 10
0.0
 20
0.0
 30
0.0
 11
-122.394
 21
37.795
 31
0.0
 40
1.0
 91
        6
 41
1.0
 92
        6
210
0.0
220
0.0
230
1.0
 12
0.0
 22
1.0
 95
        3
141
1.0
294
     0
142
0.0
143
0.0
301

302
<georss:point>37.7950 -122.3940</georss:point>
305

306

307

 93
        0
 96
        0
  0
TCOPTIONALDATA
  5
182
102
{ACAD_REACTORS
330
181
102
}
330
181
100
TcOptionalData
 70
     2
 70
    32
 40
3.0
  0
TCOPTIONALDATA
  5
185
102
{ACAD_REACTORS
330
184
102
}
330
184
100
TcOptionalData
 70
     2
 70
    32
 40
3.0
  0
TCOPTIONALDATA
  5
188
102
{ACAD_REACTORS
330
187
102
}
330
187
100
TcOptionalData
 70
     2
 70
    32
 40
3.0
  0
TCOPTIONALDATA
  5
18B
102
{ACAD_REACTORS
330
18A
102
}
330
18A
100
TcOptionalData
 70
     2
 70
    32
 40
3.0
  0
TCOPTIONALDATA
  5
18E
102
{ACAD_REACTORS
330
18D
102
}
330
18D
100
TcOptionalData
 70
     2
 70
    32
 40
3.0
  0
TCOPTIONALDATA
  5
191
102
{ACAD_REACTORS
330
190
102
}
330
190
100
TcOptionalData
 70
     2
 70
    32
 40
3.0
  0
TCOPTIONALDATA
  5
194
102
{ACAD_REACTORS
330
193
102
}
330
193
100
TcOptionalData
 70
     2
 70
    32
 40
3.0
  0
TCOPTIONALDATA
  5
197
102
{ACAD_REACTORS
330
196
102
}
330
196
100
TcOptionalData
 70
     2
 70
    32
 40
3.0
  0
TCOPTIONALDATA
  5
19A
102
{ACAD_REACTORS
330
199
102
}
330
199
100
TcOptionalData
 70
     2
 70
    32
 40
3.0
  0
TCOPTIONALDATA
  5
19D
102
{ACAD_REACTORS
330
19C
102
}
330
19C
100
TcOptionalData
 70
     2
 70
    32
 40
3.0
  0
TCOPTIONALDATA
  5
1A0
102
{ACAD_REACTORS
330
19F
102
}
330
19F
100
TcOptionalData
 70
     2
 70
    32
 40
3.0
  0
TCOPTIONALDATA
  5
1A3
102
{ACAD_REACTORS
330
1A2
102
}
330
1A2
100
TcOptionalData
 70
     2
 70
    32
 40
3.0
  0
TCOPTIONALDATA
  5
1A6
102
{ACAD_REACTORS
330
1A5
102
}
330
1A5
100
TcOptionalData
 70
     2
 70
    32
 40
3.0
  0
TCOPTIONALDATA
  5
1A9
102
{ACAD_REACTORS
330
1A8
102
}
330
1A8
100
TcOptionalData
 70
     2
 70
    32
 40
3.0
  0
TCOPTIONALDATA
  5
1AC
102
{ACAD_REACTORS
330
1AB
102
}
330
1AB
100
TcOptionalData
 70
     2
 70
    32
 40
3.0
  0
TCOPTIONALDATA
  5
1AF
102
{ACAD_REACTORS
330
1AE
102
}
330
1AE
100
TcOptionalData
 70
     2
 70
    32
 40
3.0
  0
TCOPTIONALDATA
  5
1B2
102
{ACAD_REACTORS
330
1B1
102
}
330
1B1
100
TcOptionalData
 70
     2
 70
    32
 40
3.0
  0
TCOPTIONALDATA
  5
1B5
102
{ACAD_REACTORS
330
1B4
102
}
330
1B4
100
TcOptionalData
 70
     2
 70
    32
 40
3.0
  0
TCOPTIONALDATA
  5
1B8
102
{ACAD_REACTORS
330
1B7
102
}
330
1B7
100
TcOptionalData
 70
     2
 70
    32
 40
3.0
  0
TCOPTIONALDATA
  5
1BB
102
{ACAD_REACTORS
330
1BA
102
}
330
1BA
100
TcOptionalData
 70
     2
 70
    32
 40
3.0
  0
TCOPTIONALDATA
  5
1BE
102
{ACAD_REACTORS
330
1BD
102
}
330
1BD
100
TcOptionalData
 70
     2
 70
    32
 40
3.0
  0
TCOPTIONALDATA
  5
1C1
102
{ACAD_REACTORS
330
1C0
102
}
330
1C0
100
TcOptionalData
 70
     2
 70
    32
 40
3.0
  0
TCOPTIONALDATA
  5
1C4
102
{ACAD_REACTORS
330
1C3
102
}
330
1C3
100
TcOptionalData
 70
     2
 70
    32
 40
3.0
  0
TCOPTIONALDATA
  5
1C7
102
{ACAD_REACTORS
330
1C6
102
}
330
1C6
100
TcOptionalData
 70
     2
 70
    32
 40
3.0
  0
TCOPTIONALDATA
  5
1CA
102
{ACAD_REACTORS
330
1C9
102
}
330
1C9
100
TcOptionalData
 70
     2
 70
    32
 40
3.0
  0
TCOPTIONALDATA
  5
1CD
102
{ACAD_REACTORS
330
1CC
102
}
330
1CC
100
TcOptionalData
 70
     2
 70
    32
 40
3.0
  0
TCOPTIONALDATA
  5
1D0
102
{ACAD_REACTORS
330
1CF
102
}
330
1CF
100
TcOptionalData
 70
     2
 70
    32
 40
3.0
  0
TCOPTIONALDATA
  5
1D3
102
{ACAD_REACTORS
330
1D2
102
}
330
1D2
100
TcOptionalData
 70
     2
 70
    32
 40
3.0
  0
TCOPTIONALDATA
  5
1D6
102
{ACAD_REACTORS
330
1D5
102
}
330
1D5
100
TcOptionalData
 70
     2
 70
    32
 40
3.0
  0
TCOPTIONALDATA
  5
1D9
102
{ACAD_REACTORS
330
1D8
102
}
330
1D8
100
TcOptionalData
 70
     2
 70
    32
 40
3.0
  0
TCOPTIONALDATA
  5
1DF
102
{ACAD_REACTORS
330
1DE
102
}
330
1DE
100
TcOptionalData
 70
     2
 70
    32
 40
3.0
  0
TCOPTIONALDATA
  5
1E2
102
{ACAD_REACTORS
330
1E1
102
}
330
1E1
100
TcOptionalData
 70
     2
 70
    32
 40
3.0
  0
TCOPTIONALDATA
  5
1E5
102
{ACAD_REACTORS
330
1E4
102
}
330
1E4
100
TcOptionalData
 70
     2
 70
    32
 40
3.0
  0
TCOPTIONALDATA
  5
1E8
102
{ACAD_REACTORS
330
1E7
102
}
330
1E7
100
TcOptionalData
 70
     2
 70
    32
 40
3.0
  0
TCOPTIONALDATA
  5
1EE
102
{ACAD_REACTORS
330
1ED
102
}
330
1ED
100
TcOptionalData
 70
     2
 70
    32
 40
4.0
  0
TCOPTIONALDATA
  5
1F1
102
{ACAD_REACTORS
330
1F0
102
}
330
1F0
100
TcOptionalData
 70
     2
 70
    32
 40
4.0
  0
TCOPTIONALDATA
  5
1F4
102
{ACAD_REACTORS
330
1F3
102
}
330
1F3
100
TcOptionalData
 70
     2
 70
     2
 10
103.5016971727542
 20
145.459356755207
 30
0.0
  0
TCOPTIONALDATA
  5
1FE
102
{ACAD_REACTORS
330
1FD
102
}
330
1FD
100
TcOptionalData
 70
     2
 70
    32
 40
4.0
  0
TCOPTIONALDATA
  5
201
102
{ACAD_REACTORS
330
200
102
}
330
200
100
TcOptionalData
 70
     2
 70
    32
 40
4.0
  0
TCOPTIONALDATA
  5
204
102
{ACAD_REACTORS
330
203
102
}
330
203
100
TcOptionalData
 70
     2
 70
     2
 10
54.73179785530952
 20
130.5788353200829
 30
0.0
  0
TCOPTIONALDATA
  5
20E
102
{ACAD_REACTORS
330
20D
102
}
330
20D
100
TcOptionalData
 70
     2
 70
    32
 40
4.0
  0
TCOPTIONALDATA
  5
211
102
{ACAD_REACTORS
330
210
102
}
330
210
100
TcOptionalData
 70
     2
 70
    32
 40
4.0
  0
TCOPTIONALDATA
  5
214
102
{ACAD_REACTORS
330
213
102
}
330
213
100
TcOptionalData
 70
     2
 70
     2
 10
117.0005826253722
 20
123.2210285240073
 30
0.0
  0
TCOPTIONALDATA
  5
21E
102
{ACAD_REACTORS
330
21D
102
}
330
21D
100
TcOptionalData
 70
     2
 70
    32
 40
4.0
  0
TCOPTIONALDATA
  5
221
102
{ACAD_REACTORS
330
220
102
}
330
220
100
TcOptionalData
 70
     2
 70
    32
 40
4.0
  0
TCOPTIONALDATA
  5
224
102
{ACAD_REACTORS
330
223
102
}
330
223
100
TcOptionalData
 70
     2
 70
    32
 40
4.0
  0
TCOPTIONALDATA
  5
227
102
{ACAD_REACTORS
330
226
102
}
330
226
100
TcOptionalData
 70
     2
 70
    32
 40
4.0
  0
TCOPTIONALDATA
  5
22E
102
{ACAD_REACTORS
330
22D
102
}
330
22D
100
TcOptionalData
 70
     2
 70
     2
 10
182.7261112341777
 20
80.56319545954337
 30
0.0
  0
TCOPTIONALDATA
  5
237
102
{ACAD_REACTORS
330
236
102
}
330
236
100
TcOptionalData
 70
     2
 70
    32
 40
4.0
  0
TCOPTIONALDATA
  5
23A
102
{ACAD_REACTORS
330
239
102
}
330
239
100
TcOptionalData
 70
     2
 70
    32
 40
4.0
  0
TCOPTIONALDATA
  5
23D
102
{ACAD_REACTORS
330
23C
102
}
330
23C
100
TcOptionalData
 70
     2
 70
    32
 40
4.0
  0
TCOPTIONALDATA
  5
240
102
{ACAD_REACTORS
330
23F
102
}
330
23F
100
TcOptionalData
 70
     2
 70
    32
 40
4.0
  0
TCOPTIONALDATA
  5
247
102
{ACAD_REACTORS
330
246
102
}
330
246
100
TcOptionalData
 70
     2
 70
     2
 10
174.6786023665106
 20
129.2947416690297
 30
0.0
  0
TCOPTIONALDATA
  5
250
102
{ACAD_REACTORS
330
24F
102
}
330
24F
100
TcOptionalData
 70
     2
 70
    32
 40
4.0
  0
TCOPTIONALDATA
  5
253
102
{ACAD_REACTORS
330
252
102
}
330
252
100
TcOptionalData
 70
     2
 70
    32
 40
4.0
  0
TCOPTIONALDATA
  5
256
102
{ACAD_REACTORS
330
255
102
}
330
255
100
TcOptionalData
 70
     2
 70
    32
 40
4.0
  0
TCOPTIONALDATA
  5
259
102
{ACAD_REACTORS
330
258
102
}
330
258
100
TcOptionalData
 70
     2
 70
    32
 40
4.0
  0
TCOPTIONALDATA
  5
260
102
{ACAD_REACTORS
330
25F
102
}
330
25F
100
TcOptionalData
 70
     2
 70
     2
 10
151.0090420263338
 20
85.03473787170044
 30
0.0
  0
TCOPTIONALDATA
  5
269
102
{ACAD_REACTORS
330
268
102
}
330
268
100
TcOptionalData
 70
     2
 70
    32
 40
4.0
  0
TCOPTIONALDATA
  5
26C
102
{ACAD_REACTORS
330
26B
102
}
330
26B
100
TcOptionalData
 70
     2
 70
    32
 40
4.0
  0
TCOPTIONALDATA
  5
26F
102
{ACAD_REACTORS
330
26E
102
}
330
26E
100
TcOptionalData
 70
     2
 70
    32
 40
4.0
  0
TCOPTIONALDATA
  5
272
102
{ACAD_REACTORS
330
271
102
}
330
271
100
TcOptionalData
 70
     2
 70
    32
 40
4.0
  0
TCOPTIONALDATA
  5
279
102
{ACAD_REACTORS
330
278
102
}
330
278
100
TcOptionalData
 70
     2
 70
     2
 10
226.5894931557318
 20
84.05146001962022
 30
0.0
  0
TCOPTIONALDATA
  5
280
102
{ACAD_REACTORS
330
27F
102
}
330
27F
100
TcOptionalData
 70
     2
 70
    32
 40
-0.0098425196483731
  0
TCOPTIONALDATA
  5
283
102
{ACAD_REACTORS
330
282
102
}
330
282
100
TcOptionalData
 70
     2
 70
    32
 40
-0.0098425196483731
  0
TCOPTIONALDATA
  5
286
102
{ACAD_REACTORS
330
285
102
}
330
285
100
TcOptionalData
 70
     2
 70
    32
 40
-0.0098425196483731
  0
TCOPTIONALDATA
  5
289
102
{ACAD_REACTORS
330
288
102
}
330
288
100
TcOptionalData
 70
     2
 70
    32
 40
-0.0098425196483731
  0
TCOPTIONALDATA
  5
28C
102
{ACAD_REACTORS
330
28B
102
}
330
28B
100
TcOptionalData
 70
     2
 70
    32
 40
-0.0098425196483731
  0
TCOPTIONALDATA
  5
28F
102
{ACAD_REACTORS
330
28E
102
}
330
28E
100
TcOptionalData
 70
     2
 70
    32
 40
-0.0098425196483731
  0
TCOPTIONALDATA
  5
292
102
{ACAD_REACTORS
330
291
102
}
330
291
100
TcOptionalData
 70
     2
 70
    32
 40
-0.0098425196483731
  0
TCOPTIONALDATA
  5
295
102
{ACAD_REACTORS
330
294
102
}
330
294
100
TcOptionalData
 70
     2
 70
    32
 40
-0.0098425196483731
  0
TCOPTIONALDATA
  5
298
102
{ACAD_REACTORS
330
297
102
}
330
297
100
TcOptionalData
 70
     2
 70
    32
 40
-0.0098425196483731
  0
TCOPTIONALDATA
  5
29B
102
{ACAD_REACTORS
330
29A
102
}
330
29A
100
TcOptionalData
 70
     2
 70
    32
 40
-0.0098425196483731
  0
TCOPTIONALDATA
  5
29E
102
{ACAD_REACTORS
330
29D
102
}
330
29D
100
TcOptionalData
 70
     2
 70
    32
 40
-0.0098425196483731
  0
TCOPTIONALDATA
  5
2A1
102
{ACAD_REACTORS
330
2A0
102
}
330
2A0
100
TcOptionalData
 70
     2
 70
    32
 40
-0.0098425196483731
  0
TCOPTIONALDATA
  5
2A4
102
{ACAD_REACTORS
330
2A3
102
}
330
2A3
100
TcOptionalData
 70
     2
 70
    32
 40
-0.0098425196483731
  0
TCOPTIONALDATA
  5
2A7
102
{ACAD_REACTORS
330
2A6
102
}
330
2A6
100
TcOptionalData
 70
     2
 70
    32
 40
-0.0098425196483731
  0
TCOPTIONALDATA
  5
2AA
102
{ACAD_REACTORS
330
2A9
102
}
330
2A9
100
TcOptionalData
 70
     2
 70
    32
 40
-0.0098425196483731
  0
TCOPTIONALDATA
  5
2AD
102
{ACAD_REACTORS
330
2AC
102
}
330
2AC
100
TcOptionalData
 70
     2
 70
    32
 40
-0.0098425196483731
  0
TCOPTIONALDATA
  5
2B0
102
{ACAD_REACTORS
330
2AF
102
}
330
2AF
100
TcOptionalData
 70
     2
 70
    32
 40
-0.0098425196483731
  0
TCOPTIONALDATA
  5
2B3
102
{ACAD_REACTORS
330
2B2
102
}
330
2B2
100
TcOptionalData
 70
     2
 70
    32
 40
-0.0098425196483731
  0
TCOPTIONALDATA
  5
2B6
102
{ACAD_REACTORS
330
2B5
102
}
330
2B5
100
TcOptionalData
 70
     2
 70
    32
 40
-0.0098425196483731
  0
TCOPTIONALDATA
  5
2B9
102
{ACAD_REACTORS
330
2B8
102
}
330
2B8
100
TcOptionalData
 70
     2
 70
    32
 40
-0.0098425196483731
  0
TCOPTIONALDATA
  5
2BC
102
{ACAD_REACTORS
330
2BB
102
}
330
2BB
100
TcOptionalData
 70
     2
 70
    32
 40
-0.0098425196483731
  0
TCOPTIONALDATA
  5
2BF
102
{ACAD_REACTORS
330
2BE
102
}
330
2BE
100
TcOptionalData
 70
     2
 70
    32
 40
-0.0098425196483731
  0
TCOPTIONALDATA
  5
2C2
102
{ACAD_REACTORS
330
2C1
102
}
330
2C1
100
TcOptionalData
 70
     2
 70
    32
 40
-0.0098425196483731
  0
TCOPTIONALDATA
  5
2C5
102
{ACAD_REACTORS
330
2C4
102
}
330
2C4
100
TcOptionalData
 70
     2
 70
    32
 40
-0.0098425196483731
  0
TCOPTIONALDATA
  5
2C8
102
{ACAD_REACTORS
330
2C7
102
}
330
2C7
100
TcOptionalData
 70
     2
 70
    32
 40
-0.0098425196483731
  0
TCOPTIONALDATA
  5
2CB
102
{ACAD_REACTORS
330
2CA
102
}
330
2CA
100
TcOptionalData
 70
     2
 70
    32
 40
-0.0098425196483731
  0
TCOPTIONALDATA
  5
2CE
102
{ACAD_REACTORS
330
2CD
102
}
330
2CD
100
TcOptionalData
 70
     2
 70
    32
 40
-0.0098425196483731
  0
TCOPTIONALDATA
  5
2D1
102
{ACAD_REACTORS
330
2D0
102
}
330
2D0
100
TcOptionalData
 70
     2
 70
    32
 40
3.0
  0
TCOPTIONALDATA
  5
2DD
102
{ACAD_REACTORS
330
2DC
102
}
330
2DC
100
TcOptionalData
 70
     2
 70
    32
 40
3.0
  0
TCOPTIONALDATA
  5
2E9
102
{ACAD_REACTORS
330
2E8
102
}
330
2E8
100
TcOptionalData
 70
     2
 70
    32
 40
3.0
  0
TCOPTIONALDATA
  5
2F7
102
{ACAD_REACTORS
330
2F6
102
}
330
2F6
100
TcOptionalData
 70
     2
 70
    32
 40
-0.0070866141468287
  0
TCOPTIONALDATA
  5
2FA
102
{ACAD_REACTORS
330
2F9
102
}
330
2F9
100
TcOptionalData
 70
     2
 70
    32
 40
-0.0070866141468287
  0
TCOPTIONALDATA
  5
2FF
102
{ACAD_REACTORS
330
2FE
102
}
330
2FE
100
TcOptionalData
 70
     2
 70
    32
 40
-0.0070866141468287
  0
TCOPTIONALDATA
  5
304
102
{ACAD_REACTORS
330
303
102
}
330
303
100
TcOptionalData
 70
     2
 70
     2
 10
65.86699480118705
 20
139.8437790894387
 30
0.0
  0
TCOPTIONALDATA
  5
307
102
{ACAD_REACTORS
330
306
102
}
330
306
100
TcOptionalData
 70
     2
 70
     2
 10
65.86699480118705
 20
35.82921105320285
 30
0.0
  0
TCOPTIONALDATA
  5
30A
102
{ACAD_REACTORS
330
309
102
}
330
309
100
TcOptionalData
 70
     2
 70
    32
 40
-0.0098425196483731
  0
TCOPTIONALDATA
  5
30D
102
{ACAD_REACTORS
330
30C
102
}
330
30C
100
TcOptionalData
 70
     2
 70
    32
 40
-0.0098425196483731
  0
TCOPTIONALDATA
  5
310
102
{ACAD_REACTORS
330
30F
102
}
330
30F
100
TcOptionalData
 70
     2
 70
    32
 40
-0.0098425196483731
  0
TCOPTIONALDATA
  5
313
102
{ACAD_REACTORS
330
312
102
}
330
312
100
TcOptionalData
 70
     2
 70
    32
 40
-0.0098425196483731
  0
TCOPTIONALDATA
  5
316
102
{ACAD_REACTORS
330
315
102
}
330
315
100
TcOptionalData
 70
     2
 70
    32
 40
-0.0098425196483731
  0
TCOPTIONALDATA
  5
319
102
{ACAD_REACTORS
330
318
102
}
330
318
100
TcOptionalData
 70
     2
 70
    32
 40
-0.0098425196483731
  0
TCOPTIONALDATA
  5
31C
102
{ACAD_REACTORS
330
31B
102
}
330
31B
100
TcOptionalData
 70
     2
 70
    32
 40
-0.0098425196483731
  0
TCOPTIONALDATA
  5
31F
102
{ACAD_REACTORS
330
31E
102
}
330
31E
100
TcOptionalData
 70
     2
 70
    32
 40
-0.0098425196483731
  0
TCOPTIONALDATA
  5
322
102
{ACAD_REACTORS
330
321
102
}
330
321
100
TcOptionalData
 70
     2
 70
    32
 40
-0.0098425196483731
  0
TCOPTIONALDATA
  5
325
102
{ACAD_REACTORS
330
324
102
}
330
324
100
TcOptionalData
 70
     2
 70
    32
 40
-0.0098425196483731
  0
TCOPTIONALDATA
  5
328
102
{ACAD_REACTORS
330
327
102
}
330
327
100
TcOptionalData
 70
     2
 70
    32
 40
-0.0098425196483731
  0
TCOPTIONALDATA
  5
32B
102
{ACAD_REACTORS
330
32A
102
}
330
32A
100
TcOptionalData
 70
     2
 70
    32
 40
-0.0098425196483731
  0
TCOPTIONALDATA
  5
32E
102
{ACAD_REACTORS
330
32D
102
}
330
32D
100
TcOptionalData
 70
     2
 70
    32
 40
-0.0098425196483731
  0
TCOPTIONALDATA
  5
331
102
{ACAD_REACTORS
330
330
102
}
330
330
100
TcOptionalData
 70
     2
 70
    32
 40
-0.0098425196483731
  0
TCOPTIONALDATA
  5
334
102
{ACAD_REACTORS
330
333
102
}
330
333
100
TcOptionalData
 70
     2
 70
    32
 40
-0.0098425196483731
  0
TCOPTIONALDATA
  5
337
102
{ACAD_REACTORS
330
336
102
}
330
336
100
TcOptionalData
 70
     2
 70
    32
 40
-0.0098425196483731
  0
TCOPTIONALDATA
  5
33A
102
{ACAD_REACTORS
330
339
102
}
330
339
100
TcOptionalData
 70
     2
 70
    32
 40
-0.0098425196483731
  0
TCOPTIONALDATA
  5
33D
102
{ACAD_REACTORS
330
33C
102
}
330
33C
100
TcOptionalData
 70
     2
 70
    32
 40
-0.0098425196483731
  0
TCOPTIONALDATA
  5
340
102
{ACAD_REACTORS
330
33F
102
}
330
33F
100
TcOptionalData
 70
     2
 70
    32
 40
-0.0098425196483731
  0
TCOPTIONALDATA
  5
343
102
{ACAD_REACTORS
330
342
102
}
330
342
100
TcOptionalData
 70
     2
 70
    32
 40
-0.0098425196483731
  0
TCOPTIONALDATA
  5
346
102
{ACAD_REACTORS
330
345
102
}
330
345
100
TcOptionalData
 70
     2
 70
    32
 40
-0.0098425196483731
  0
TCOPTIONALDATA
  5
349
102
{ACAD_REACTORS
330
348
102
}
330
348
100
TcOptionalData
 70
     2
 70
    32
 40
-0.0098425196483731
  0
TCOPTIONALDATA
  5
34C
102
{ACAD_REACTORS
330
34B
102
}
330
34B
100
TcOptionalData
 70
     2
 70
    32
 40
-0.0098425196483731
  0
TCOPTIONALDATA
  5
34F
102
{ACAD_REACTORS
330
34E
102
}
330
34E
100
TcOptionalData
 70
     2
 70
    32
 40
-0.0098425196483731
  0
TCOPTIONALDATA
  5
352
102
{ACAD_REACTORS
330
351
102
}
330
351
100
TcOptionalData
 70
     2
 70
    32
 40
-0.0098425196483731
  0
TCOPTIONALDATA
  5
355
102
{ACAD_REACTORS
330
354
102
}
330
354
100
TcOptionalData
 70
     2
 70
    32
 40
-0.0098425196483731
  0
TCOPTIONALDATA
  5
358
102
{ACAD_REACTORS
330
357
102
}
330
357
100
TcOptionalData
 70
     2
 70
    32
 40
-0.0098425196483731
  0
TCOPTIONALDATA
  5
35B
102
{ACAD_REACTORS
330
35A
102
}
330
35A
100
TcOptionalData
 70
     2
 70
    32
 40
-0.0098425196483731
  0
TCOPTIONALDATA
  5
35E
102
{ACAD_REACTORS
330
35D
102
}
330
35D
100
TcOptionalData
 70
     2
 70
    32
 40
-0.0098425196483731
  0
TCOPTIONALDATA
  5
361
102
{ACAD_REACTORS
330
360
102
}
330
360
100
TcOptionalData
 70
     2
 70
    32
 40
-0.0098425196483731
  0
TCOPTIONALDATA
  5
364
102
{ACAD_REACTORS
330
363
102
}
330
363
100
TcOptionalData
 70
     2
 70
    32
 40
-0.0098425196483731
  0
TCOPTIONALDATA
  5
367
102
{ACAD_REACTORS
330
366
102
}
330
366
100
TcOptionalData
 70
     2
 70
    32
 40
-0.0098425196483731
  0
TCOPTIONALDATA
  5
36A
102
{ACAD_REACTORS
330
369
102
}
330
369
100
TcOptionalData
 70
     2
 70
    32
 40
-0.0098425196483731
  0
TCOPTIONALDATA
  5
36D
102
{ACAD_REACTORS
330
36C
102
}
330
36C
100
TcOptionalData
 70
     2
 70
    32
 40
-0.0098425196483731
  0
TCOPTIONALDATA
  5
370
102
{ACAD_REACTORS
330
36F
102
}
330
36F
100
TcOptionalData
 70
     2
 70
    32
 40
-0.0098425196483731
  0
TCOPTIONALDATA
  5
373
102
{ACAD_REACTORS
330
372
102
}
330
372
100
TcOptionalData
 70
     2
 70
    32
 40
-0.0098425196483731
  0
TCOPTIONALDATA
  5
376
102
{ACAD_REACTORS
330
375
102
}
330
375
100
TcOptionalData
 70
     2
 70
    32
 40
-0.0098425196483731
  0
TCOPTIONALDATA
  5
379
102
{ACAD_REACTORS
330
378
102
}
330
378
100
TcOptionalData
 70
     2
 70
    32
 40
-0.0098425196483731
  0
TCOPTIONALDATA
  5
37C
102
{ACAD_REACTORS
330
37B
102
}
330
37B
100
TcOptionalData
 70
     2
 70
    32
 40
-0.0098425196483731
  0
TCOPTIONALDATA
  5
37F
102
{ACAD_REACTORS
330
37E
102
}
330
37E
100
TcOptionalData
 70
     2
 70
    32
 40
-0.0098425196483731
  0
TCOPTIONALDATA
  5
382
102
{ACAD_REACTORS
330
381
102
}
330
381
100
TcOptionalData
 70
     2
 70
    32
 40
-0.0098425196483731
  0
TCOPTIONALDATA
  5
385
102
{ACAD_REACTORS
330
384
102
}
330
384
100
TcOptionalData
 70
     2
 70
    32
 40
-0.0098425196483731
  0
TCOPTIONALDATA
  5
388
102
{ACAD_REACTORS
330
387
102
}
330
387
100
TcOptionalData
 70
     2
 70
    32
 40
-0.0098425196483731
  0
TCOPTIONALDATA
  5
38B
102
{ACAD_REACTORS
330
38A
102
}
330
38A
100
TcOptionalData
 70
     2
 70
    32
 40
-0.0098425196483731
  0
TCOPTIONALDATA
  5
38E
102
{ACAD_REACTORS
330
38D
102
}
330
38D
100
TcOptionalData
 70
     2
 70
    32
 40
-0.0098425196483731
  0
TCOPTIONALDATA
  5
391
102
{ACAD_REACTORS
330
390
102
}
330
390
100
TcOptionalData
 70
     2
 70
    32
 40
-0.0098425196483731
  0
TCOPTIONALDATA
  5
394
102
{ACAD_REACTORS
330
393
102
}
330
393
100
TcOptionalData
 70
     2
 70
    32
 40
-0.0098425196483731
  0
TCOPTIONALDATA
  5
397
102
{ACAD_REACTORS
330
396
102
}
330
396
100
TcOptionalData
 70
     2
 70
    32
 40
-0.0098425196483731
  0
TCOPTIONALDATA
  5
39F
102
{ACAD_REACTORS
330
39E
102
}
330
39E
100
TcOptionalData
 70
     2
 70
    32
 40
3.0
  0
TCOPTIONALDATA
  5
3B0
102
{ACAD_REACTORS
330
3AF
102
}
330
3AF
100
TcOptionalData
 70
     2
 70
    32
 40
3.0
  0
TCOPTIONALDATA
  5
3C0
102
{ACAD_REACTORS
330
3BF
102
}
330
3BF
100
TcOptionalData
 70
     2
 70
    32
 40
3.0
  0
TCOPTIONALDATA
  5
3D0
102
{ACAD_REACTORS
330
3CF
102
}
330
3CF
100
TcOptionalData
 70
     2
 70
     2
 10
198.5476636841183
 20
36.49269829018498
 30
0.0
  0
TCOPTIONALDATA
  5
3D3
102
{ACAD_REACTORS
330
3D2
102
}
330
3D2
100
TcOptionalData
 70
     2
 70
    32
 40
-0.0070866141468287
  0
TCOPTIONALDATA
  5
3D6
102
{ACAD_REACTORS
330
3D5
102
}
330
3D5
100
TcOptionalData
 70
     2
 70
    32
 40
-0.0070866141468287
  0
TCOPTIONALDATA
  5
3D9
102
{ACAD_REACTORS
330
3D8
102
}
330
3D8
100
TcOptionalData
 70
     2
 70
    32
 40
-0.0070866141468287
  0
TCOPTIONALDATA
  5
3DC
102
{ACAD_REACTORS
330
3DB
102
}
330
3DB
100
TcOptionalData
 70
     2
 70
    32
 40
3.0
  0
TCOPTIONALDATA
  5
3EC
102
{ACAD_REACTORS
330
3EB
102
}
330
3EB
100
TcOptionalData
 70
     2
 70
    32
 40
3.0
  0
LAYOUT
  5
152
102
{ACAD_REACTORS
330
1A
102
}
330
1A
100
AcDbPlotSettings
  1

  2
TCAD_Plot
  4
420.00 x 297.00 Inches
  6

 40
6.35
 41
6.35
 42
6.35000508
 43
6.35000508
 44
10668.0
 45
7543.799999999999
 46
0.0
 47
0.0
 48
0.0
 49
0.0
140
0.0
141
0.0
142
1.0
143
1.0
 70
   672
 72
     0
 73
     0
 74
     5
  7

 75
    16
 76
     0
 77
     2
 78
   300
147
1.0
148
-6.35
149
-6.35
100
AcDbLayout
  1
Layout1
 70
     1
 71
     1
 10
0.0
 20
0.0
 11
420.0
 21
297.0
 12
0.0
 22
0.0
 32
0.0
 14
0.0
 24
0.0
 34
0.0
 15
0.0
 25
0.0
 35
0.0
146
0.0
 13
0.0
 23
0.0
 33
0.0
 16
1.0
 26
0.0
 36
0.0
 17
0.0
 27
1.0
 37
0.0
 76
     0
330
151
331
3FB
  0
LAYOUT
  5
1E
102
{ACAD_REACTORS
330
1A
102
}
330
1A
100
AcDbPlotSettings
  1

  2
TCAD_Plot
  4
279.40 x 215.90 Inches
  6

 40
0.0
 41
0.0
 42
0.0
 43
0.0
 44
7096.761176490507
 45
5483.8609091063
 46
0.0
 47
0.0
 48
0.0
 49
0.0
140
0.0
141
0.0
142
1.0
143
1.0
 70
   672
 72
     0
 73
     0
 74
     5
  7

 75
    16
 76
     0
 77
     2
 78
   300
147
1.0
148
0.0
149
0.0
100
AcDbLayout
  1
Layout2
 70
     1
 71
     2
 10
0.0
 20
0.0
 11
0.0
 21
0.0
 12
0.0
 22
0.0
 32
0.0
 14
0.0
 24
0.0
 34
0.0
 15
0.0
 25
0.0
 35
0.0
146
0.0
 13
0.0
 23
0.0
 33
0.0
 16
1.0
 26
0.0
 36
0.0
 17
0.0
 27
1.0
 37
0.0
 76
     0
330
1B
331
3FC
  0
LAYOUT
  5
22
102
{ACAD_REACTORS
330
1A
102
}
330
1A
100
AcDbPlotSettings
  1

  2
TCAD_Plot
  4
279.40 x 215.90 Inches
  6

 40
0.0
 41
0.0
 42
0.0
 43
0.0
 44
7096.761176490507
 45
5483.8609091063
 46
0.0
 47
0.0
 48
-246.4090476493252
 49
-190.4069913653877
140
246.4090476493252
141
190.4069913653877
142
1.0
143
1.763844
 70
  1696
 72
     0
 73
     0
 74
     4
  7

 75
     0
 76
     0
 77
     2
 78
   300
147
0.7795474171043476
148
6258.78981029286
149
4836.337580680847
100
AcDbLayout
  1
Model
 70
     1
 71
     0
 10
-190.4069868852232
 20
-87.13733928313168
 11
302.4111084134272
 21
293.6766434476436
 12
0.0
 22
0.0
 32
0.0
 14
34.32391096227461
 24
28.07059031421969
 34
0.0
 15
228.7970422669534
 25
148.9204926071307
 35
0.0
146
0.0
 13
0.0
 23
0.0
 33
0.0
 16
1.0
 26
0.0
 36
0.0
 17
0.0
 27
1.0
 37
0.0
 76
     0
330
1F
331
29
  0
MATERIAL
  5
3D
102
{ACAD_REACTORS
330
3B
102
}
330
3B
100
AcDbMaterial
  1
ByBlock
 72
     1
 94
      127
  0
MATERIAL
  5
3C
102
{ACAD_REACTORS
330
3B
102
}
330
3B
100
AcDbMaterial
  1
ByLayer
 72
     1
 94
      127
  0
MATERIAL
  5
3E
102
{ACAD_REACTORS
330
3B
102
}
330
3B
100
AcDbMaterial
  1
Global
 72
     1
 94
      127
  0
MLEADERSTYLE
  5
16E
102
{ACAD_REACTORS
330
16D
102
}
330
16D
100
AcDbMLeaderStyle
179
     2
170
     2
171
     1
172
     0
 90
        2
 40
0.0
 41
0.0
173
     1
 91
-1056964608
340
14
 92
       -2
290
     1
 42
0.25
291
     1
 43
0.25
  3

341
0
 44
0.25
300

342
11
174
     1
178
     1
175
     1
176
     0
 93
-1056964608
 45
0.1611111111111111
292
     0
297
     0
 46
0.18
343
0
 94
-1056964608
 47
1.0
 49
1.0
140
1.0
293
     1
141
0.0
294
     1
177
     0
142
1.0
295
     0
296
     0
143
0.125
271
     0
272
     9
273
     9
1001
ACAD_MLEADERVER
1070
     2
  0
MLINESTYLE
  5
18
102
{ACAD_REACTORS
330
17
102
}
330
17
100
AcDbMlineStyle
  2
Standard
 70
     0
  3

 62
     0
 51
90.0
 52
90.0
 71
     2
 49
0.5
 62
   256
  6
BYLAYER
 49
-0.5
 62
   256
  6
BYLAYER
  0
ACDBPLACEHOLDER
  5
F
102
{ACAD_REACTORS
330
E
102
}
330
E
  0
SCALE
  5
3FE
102
{ACAD_REACTORS
330
3FD
102
}
330
3FD
100
AcDbScale
 70
     0
300
1:1
140
1.0
141
1.0
290
     1
  0
SCALE
  5
3FF
102
{ACAD_REACTORS
330
3FD
102
}
330
3FD
100
AcDbScale
 70
     0
300
1:2
140
1.0
141
2.0
290
     0
  0
SCALE
  5
400
102
{ACAD_REACTORS
330
3FD
102
}
330
3FD
100
AcDbScale
 70
     0
300
1:4
140
1.0
141
4.0
290
     0
  0
SCALE
  5
401
102
{ACAD_REACTORS
330
3FD
102
}
330
3FD
100
AcDbScale
 70
     0
300
1:5
140
1.0
141
5.0
290
     0
  0
SCALE
  5
402
102
{ACAD_REACTORS
330
3FD
102
}
330
3FD
100
AcDbScale
 70
     0
300
1:8
140
1.0
141
8.0
290
     0
  0
SCALE
  5
403
102
{ACAD_REACTORS
330
3FD
102
}
330
3FD
100
AcDbScale
 70
     0
300
1:10
140
1.0
141
10.0
290
     0
  0
SCALE
  5
404
102
{ACAD_REACTORS
330
3FD
102
}
330
3FD
100
AcDbScale
 70
     0
300
1:16
140
1.0
141
16.0
290
     0
  0
SCALE
  5
405
102
{ACAD_REACTORS
330
3FD
102
}
330
3FD
100
AcDbScale
 70
     0
300
1:20
140
1.0
141
20.0
290
     0
  0
SCALE
  5
406
102
{ACAD_REACTORS
330
3FD
102
}
330
3FD
100
AcDbScale
 70
     0
300
1:30
140
1.0
141
30.0
290
     0
  0
SCALE
  5
407
102
{ACAD_REACTORS
330
3FD
102
}
330
3FD
100
AcDbScale
 70
     0
300
1:40
140
1.0
141
40.0
290
     0
  0
SCALE
  5
408
102
{ACAD_REACTORS
330
3FD
102
}
330
3FD
100
AcDbScale
 70
     0
300
1:50
140
1.0
141
50.0
290
     0
  0
SCALE
  5
409
102
{ACAD_REACTORS
330
3FD
102
}
330
3FD
100
AcDbScale
 70
     0
300
1:100
140
1.0
141
100.0
290
     0
  0
SCALE
  5
40A
102
{ACAD_REACTORS
330
3FD
102
}
330
3FD
100
AcDbScale
 70
     0
300
2:1
140
2.0
141
1.0
290
     0
  0
SCALE
  5
40B
102
{ACAD_REACTORS
330
3FD
102
}
330
3FD
100
AcDbScale
 70
     0
300
4:1
140
4.0
141
1.0
290
     0
  0
SCALE
  5
40C
102
{ACAD_REACTORS
330
3FD
102
}
330
3FD
100
AcDbScale
 70
     0
300
8:1
140
8.0
141
1.0
290
     0
  0
SCALE
  5
40D
102
{ACAD_REACTORS
330
3FD
102
}
330
3FD
100
AcDbScale
 70
     0
300
10:1
140
10.0
141
1.0
290
     0
  0
SCALE
  5
40E
102
{ACAD_REACTORS
330
3FD
102
}
330
3FD
100
AcDbScale
 70
     0
300
100:1
140
100.0
141
1.0
290
     0
  0
SCALE
  5
40F
102
{ACAD_REACTORS
330
3FD
102
}
330
3FD
100
AcDbScale
 70
     0
300
1/128" = 1'-0"
140
0.0078125
141
12.0
290
     0
  0
SCALE
  5
410
102
{ACAD_REACTORS
330
3FD
102
}
330
3FD
100
AcDbScale
 70
     0
300
1/64" = 1'-0"
140
0.015625
141
12.0
290
     0
  0
SCALE
  5
411
102
{ACAD_REACTORS
330
3FD
102
}
330
3FD
100
AcDbScale
 70
     0
300
1/32" = 1'-0"
140
0.03125
141
12.0
290
     0
  0
SCALE
  5
412
102
{ACAD_REACTORS
330
3FD
102
}
330
3FD
100
AcDbScale
 70
     0
300
1/16" = 1'-0"
140
0.0625
141
12.0
290
     0
  0
SCALE
  5
413
102
{ACAD_REACTORS
330
3FD
102
}
330
3FD
100
AcDbScale
 70
     0
300
3/32" = 1'-0"
140
0.09375
141
12.0
290
     0
  0
SCALE
  5
414
102
{ACAD_REACTORS
330
3FD
102
}
330
3FD
100
AcDbScale
 70
     0
300
1/8" = 1'-0"
140
0.125
141
12.0
290
     0
  0
SCALE
  5
415
102
{ACAD_REACTORS
330
3FD
102
}
330
3FD
100
AcDbScale
 70
     0
300
3/16" = 1'-0"
140
0.1875
141
12.0
290
     0
  0
SCALE
  5
416
102
{ACAD_REACTORS
330
3FD
102
}
330
3FD
100
AcDbScale
 70
     0
300
1/4" = 1'-0"
140
0.25
141
12.0
290
     0
  0
SCALE
  5
417
102
{ACAD_REACTORS
330
3FD
102
}
330
3FD
100
AcDbScale
 70
     0
300
3/8" = 1'-0"
140
0.375
141
12.0
290
     0
  0
SCALE
  5
418
102
{ACAD_REACTORS
330
3FD
102
}
330
3FD
100
AcDbScale
 70
     0
300
1/2" = 1'-0"
140
0.5
141
12.0
290
     0
  0
SCALE
  5
419
102
{ACAD_REACTORS
330
3FD
102
}
330
3FD
100
AcDbScale
 70
     0
300
3/4" = 1'-0"
140
0.75
141
12.0
290
     0
  0
SCALE
  5
41A
102
{ACAD_REACTORS
330
3FD
102
}
330
3FD
100
AcDbScale
 70
     0
300
1" = 1'-0"
140
1.0
141
12.0
290
     0
  0
SCALE
  5
41B
102
{ACAD_REACTORS
330
3FD
102
}
330
3FD
100
AcDbScale
 70
     0
300
1-1/2" = 1'-0"
140
1.5
141
12.0
290
     0
  0
SCALE
  5
41C
102
{ACAD_REACTORS
330
3FD
102
}
330
3FD
100
AcDbScale
 70
     0
300
3" = 1'-0"
140
3.0
141
12.0
290
     0
  0
SCALE
  5
41D
102
{ACAD_REACTORS
330
3FD
102
}
330
3FD
100
AcDbScale
 70
     0
300
6" = 1'-0"
140
6.0
141
12.0
290
     0
  0
SCALE
  5
41E
102
{ACAD_REACTORS
330
3FD
102
}
330
3FD
100
AcDbScale
 70
     0
300
1'-0" = 1'-0"
140
12.0
141
12.0
290
     0
  0
TABLESTYLE
  5
17D
102
{ACAD_REACTORS
330
17C
102
}
102
{ACAD_XDICTIONARY
360
421
102
}
330
17C
100
AcDbTableStyle
  3

 70
     0
 71
     0
 40
1.5
 41
1.5
280
     0
281
     0
  7
Standard
140
4.5
170
     2
 62
     0
 63
   257
283
     0
 90
        4
 91
        0
  1

274
    -2
284
     1
 64
     0
275
    -2
285
     1
 65
     0
276
    -2
286
     1
 66
     0
277
    -2
287
     1
 67
     0
278
    -2
288
     1
 68
     0
279
    -2
289
     1
 69
     0
  7
Standard
140
6.0
170
     5
 62
     0
 63
   257
283
     0
 90
        4
 91
        0
  1

274
    -2
284
     1
 64
     0
275
    -2
285
     1
 65
     0
276
    -2
286
     1
 66
     0
277
    -2
287
     1
 67
     0
278
    -2
288
     1
 68
     0
279
    -2
289
     1
 69
     0
  7
Standard
140
4.5
170
     5
 62
     0
 63
   257
283
     0
 90
        4
 91
        0
  1

274
    -2
284
     1
 64
     0
275
    -2
285
     1
 65
     0
276
    -2
286
     1
 66
     0
277
    -2
287
     1
 67
     0
278
    -2
288
     1
 68
     0
279
    -2
289
     1
 69
     0
  0
VISUALSTYLE
  5
2F
102
{ACAD_REACTORS
330
2A
102
}
330
2A
100
AcDbVisualStyle
  2
2dWireframe
 70
     4
177
     2
291
     0
 71
     0
176
     1
 72
     2
176
     1
 73
     0
176
     1
 90
        0
176
     1
 40
-0.6
176
     1
 41
-30.0
176
     1
 62
     5
 63
     7
421
 16777215
176
     1
 74
     1
176
     1
 91
        4
176
     1
 64
     7
176
     1
 65
   257
176
     1
 75
     1
176
     1
175
     1
176
     1
 42
1.0
176
     1
 92
        0
176
     1
 66
   257
176
     1
 43
1.0
176
     1
 76
     1
176
     1
 77
     6
176
     1
 78
     2
176
     1
 67
     7
176
     1
 79
     5
176
     1
170
     0
176
     1
171
     0
176
     1
290
     0
176
     1
 93
        1
176
     1
 44
0.0
176
     1
173
     0
176
     1
  0
VISUALSTYLE
  5
31
102
{ACAD_REACTORS
330
2A
102
}
330
2A
100
AcDbVisualStyle
  2
3D Hidden
 70
     6
177
     2
291
     0
 71
     1
176
     1
 72
     2
176
     1
 73
     2
176
     1
 90
        0
176
     1
 40
-0.6
176
     1
 41
-30.0
176
     1
 62
     5
 63
     7
421
 16777215
176
     1
 74
     2
176
     1
 91
        2
176
     1
 64
     7
176
     1
 65
   257
176
     1
 75
     2
176
     1
175
     1
176
     1
 42
40.0
176
     1
 92
        0
176
     1
 66
   257
176
     1
 43
1.0
176
     1
 76
     1
176
     1
 77
     6
176
     1
 78
     2
176
     1
 67
     7
176
     1
 79
     3
176
     1
170
     0
176
     1
171
     0
176
     1
290
     0
176
     1
 93
        1
176
     1
 44
0.0
176
     1
173
     0
176
     1
  0
VISUALSTYLE
  5
30
102
{ACAD_REACTORS
330
2A
102
}
330
2A
100
AcDbVisualStyle
  2
3dWireframe
 70
     5
177
     2
291
     0
 71
     0
176
     1
 72
     2
176
     1
 73
     0
176
     1
 90
        0
176
     1
 40
-0.6
176
     1
 41
-30.0
176
     1
 62
     5
 63
     7
421
 16777215
176
     1
 74
     1
176
     1
 91
        4
176
     1
 64
     7
176
     1
 65
   257
176
     1
 75
     1
176
     1
175
     1
176
     1
 42
1.0
176
     1
 92
        0
176
     1
 66
   257
176
     1
 43
1.0
176
     1
 76
     1
176
     1
 77
     6
176
     1
 78
     2
176
     1
 67
     7
176
     1
 79
     5
176
     1
170
     0
176
     1
171
     0
176
     1
290
     0
176
     1
 93
        1
176
     1
 44
0.0
176
     1
173
     0
176
     1
  0
VISUALSTYLE
  5
32
102
{ACAD_REACTORS
330
2A
102
}
330
2A
100
AcDbVisualStyle
  2
Basic
 70
     7
177
     2
291
     1
 71
     1
176
     1
 72
     0
176
     1
 73
     1
176
     1
 90
        0
176
     1
 40
-0.6
176
     1
 41
-30.0
176
     1
 62
     5
 63
     7
421
 16777215
176
     1
 74
     0
176
     1
 91
        4
176
     1
 64
     7
176
     1
 65
   257
176
     1
 75
     1
176
     1
175
     1
176
     1
 42
1.0
176
     1
 92
        8
176
     1
 66
     7
176
     1
 43
1.0
176
     1
 76
     1
176
     1
 77
     6
176
     1
 78
     2
176
     1
 67
     7
176
     1
 79
     5
176
     1
170
     0
176
     1
171
     0
176
     1
290
     0
176
     1
 93
        1
176
     1
 44
0.0
176
     1
173
     0
176
     1
  0
VISUALSTYLE
  5
36
102
{ACAD_REACTORS
330
2A
102
}
330
2A
100
AcDbVisualStyle
  2
Brighten
 70
    12
177
     2
291
     1
 71
     2
176
     1
 72
     2
176
     1
 73
     0
176
     1
 90
        0
176
     1
 40
-0.6
176
     1
 41
-30.0
176
     1
 62
     5
 63
     7
421
 16777215
176
     1
 74
     1
176
     1
 91
        4
176
     1
 64
     7
176
     1
 65
   257
176
     1
 75
     1
176
     1
175
     1
176
     1
 42
1.0
176
     1
 92
        8
176
     1
 66
     7
176
     1
 43
1.0
176
     1
 76
     1
176
     1
 77
     6
176
     1
 78
     2
176
     1
 67
     7
176
     1
 79
     5
176
     1
170
     0
176
     1
171
     0
176
     1
290
     0
176
     1
 93
        1
176
     1
 44
50.0
176
     1
173
     0
176
     1
  0
VISUALSTYLE
  5
3A
102
{ACAD_REACTORS
330
2A
102
}
330
2A
100
AcDbVisualStyle
  2
ColorChange
 70
    16
177
     2
291
     1
 71
     2
176
     1
 72
     2
176
     1
 73
     3
176
     1
 90
        0
176
     1
 40
-0.6
176
     1
 41
-30.0
176
     1
 62
     5
 63
     8
421
  8421504
176
     1
 74
     1
176
     1
 91
        4
176
     1
 64
     7
176
     1
 65
   257
176
     1
 75
     1
176
     1
175
     1
176
     1
 42
1.0
176
     1
 92
        8
176
     1
 66
     8
424
  8421504
176
     1
 43
1.0
176
     1
 76
     1
176
     1
 77
     6
176
     1
 78
     2
176
     1
 67
     7
176
     1
 79
     5
176
     1
170
     0
176
     1
171
     0
176
     1
290
     0
176
     1
 93
        1
176
     1
 44
0.0
176
     1
173
     0
176
     1
  0
VISUALSTYLE
  5
34
102
{ACAD_REACTORS
330
2A
102
}
330
2A
100
AcDbVisualStyle
  2
Conceptual
 70
     9
177
     2
291
     0
 71
     3
176
     1
 72
     2
176
     1
 73
     0
176
     1
 90
        0
176
     1
 40
-0.6
176
     1
 41
-30.0
176
     1
 62
     5
 63
     7
421
 16777215
176
     1
 74
     2
176
     1
 91
        2
176
     1
 64
     7
176
     1
 65
   257
176
     1
 75
     1
176
     1
175
     1
176
     1
 42
40.0
176
     1
 92
        8
176
     1
 66
     7
176
     1
 43
1.0
176
     1
 76
     1
176
     1
 77
     6
176
     1
 78
     2
176
     1
 67
     7
176
     1
 79
     3
176
     1
170
     0
176
     1
171
     0
176
     1
290
     0
176
     1
 93
        1
176
     1
 44
0.0
176
     1
173
     0
176
     1
  0
VISUALSTYLE
  5
35
102
{ACAD_REACTORS
330
2A
102
}
330
2A
100
AcDbVisualStyle
  2
Dim
 70
    11
177
     2
291
     1
 71
     2
176
     1
 72
     2
176
     1
 73
     0
176
     1
 90
        0
176
     1
 40
-0.6
176
     1
 41
-30.0
176
     1
 62
     5
 63
     7
421
 16777215
176
     1
 74
     1
176
     1
 91
        4
176
     1
 64
     7
176
     1
 65
   257
176
     1
 75
     1
176
     1
175
     1
176
     1
 42
1.0
176
     1
 92
        8
176
     1
 66
     7
176
     1
 43
1.0
176
     1
 76
     1
176
     1
 77
     6
176
     1
 78
     2
176
     1
 67
     7
176
     1
 79
     5
176
     1
170
     0
176
     1
171
     0
176
     1
290
     0
176
     1
 93
        1
176
     1
 44
-50.0
176
     1
173
     0
176
     1
  0
VISUALSTYLE
  5
39
102
{ACAD_REACTORS
330
2A
102
}
330
2A
100
AcDbVisualStyle
  2
Facepattern
 70
    15
177
     2
291
     1
 71
     2
176
     1
 72
     2
176
     1
 73
     0
176
     1
 90
        0
176
     1
 40
-0.6
176
     1
 41
-30.0
176
     1
 62
     5
 63
     7
421
 16777215
176
     1
 74
     1
176
     1
 91
        4
176
     1
 64
     7
176
     1
 65
   257
176
     1
 75
     1
176
     1
175
     1
176
     1
 42
1.0
176
     1
 92
        8
176
     1
 66
     7
176
     1
 43
1.0
176
     1
 76
     1
176
     1
 77
     6
176
     1
 78
     2
176
     1
 67
     7
176
     1
 79
     5
176
     1
170
     0
176
     1
171
     0
176
     1
290
     0
176
     1
 93
        1
176
     1
 44
0.0
176
     1
173
     0
176
     1
  0
VISUALSTYLE
  5
2B
102
{ACAD_REACTORS
330
2A
102
}
330
2A
100
AcDbVisualStyle
  2
Flat
 70
     0
177
     2
291
     1
 71
     2
176
     1
 72
     1
176
     1
 73
     1
176
     1
 90
        2
176
     1
 40
-0.6
176
     1
 41
30.0
176
     1
 62
     5
 63
     7
421
 16777215
176
     1
 74
     0
176
     1
 91
        4
176
     1
 64
     7
176
     1
 65
   257
176
     1
 75
     1
176
     1
175
     1
176
     1
 42
1.0
176
     1
 92
        8
176
     1
 66
     7
176
     1
 43
1.0
176
     1
 76
     1
176
     1
 77
     6
176
     1
 78
     2
176
     1
 67
     7
176
     1
 79
     5
176
     1
170
     0
176
     1
171
     0
176
     1
290
     0
176
     1
 93
       13
176
     1
 44
0.0
176
     1
173
     0
176
     1
  0
VISUALSTYLE
  5
2C
102
{ACAD_REACTORS
330
2A
102
}
330
2A
100
AcDbVisualStyle
  2
FlatWithEdges
 70
     1
177
     2
291
     1
 71
     2
176
     1
 72
     1
176
     1
 73
     1
176
     1
 90
        2
176
     1
 40
-0.6
176
     1
 41
30.0
176
     1
 62
     5
 63
     7
421
 16777215
176
     1
 74
     1
176
     1
 91
        4
176
     1
 64
     7
176
     1
 65
   257
176
     1
 75
     1
176
     1
175
     1
176
     1
 42
1.0
176
     1
 92
        0
176
     1
 66
   257
176
     1
 43
1.0
176
     1
 76
     1
176
     1
 77
     6
176
     1
 78
     2
176
     1
 67
     7
176
     1
 79
     5
176
     1
170
     0
176
     1
171
     0
176
     1
290
     0
176
     1
 93
       13
176
     1
 44
0.0
176
     1
173
     0
176
     1
  0
VISUALSTYLE
  5
2D
102
{ACAD_REACTORS
330
2A
102
}
330
2A
100
AcDbVisualStyle
  2
Gouraud
 70
     2
177
     2
291
     1
 71
     2
176
     1
 72
     2
176
     1
 73
     1
176
     1
 90
        2
176
     1
 40
-0.6
176
     1
 41
30.0
176
     1
 62
     5
 63
     7
421
 16777215
176
     1
 74
     0
176
     1
 91
        4
176
     1
 64
     7
176
     1
 65
   257
176
     1
 75
     1
176
     1
175
     1
176
     1
 42
1.0
176
     1
 92
        0
176
     1
 66
     7
176
     1
 43
1.0
176
     1
 76
     1
176
     1
 77
     6
176
     1
 78
     2
176
     1
 67
     7
176
     1
 79
     5
176
     1
170
     0
176
     1
171
     0
176
     1
290
     0
176
     1
 93
       13
176
     1
 44
0.0
176
     1
173
     0
176
     1
  0
VISUALSTYLE
  5
2E
102
{ACAD_REACTORS
330
2A
102
}
330
2A
100
AcDbVisualStyle
  2
GouraudWithEdges
 70
     3
177
     2
291
     1
 71
     2
176
     1
 72
     2
176
     1
 73
     1
176
     1
 90
        2
176
     1
 40
-0.6
176
     1
 41
30.0
176
     1
 62
     5
 63
     7
421
 16777215
176
     1
 74
     1
176
     1
 91
        4
176
     1
 64
     7
176
     1
 65
   257
176
     1
 75
     1
176
     1
175
     1
176
     1
 42
1.0
176
     1
 92
        0
176
     1
 66
   257
176
     1
 43
1.0
176
     1
 76
     1
176
     1
 77
     6
176
     1
 78
     2
176
     1
 67
     7
176
     1
 79
     5
176
     1
170
     0
176
     1
171
     0
176
     1
290
     0
176
     1
 93
       13
176
     1
 44
0.0
176
     1
173
     0
176
     1
  0
VISUALSTYLE
  5
38
102
{ACAD_REACTORS
330
2A
102
}
330
2A
100
AcDbVisualStyle
  2
Linepattern
 70
    14
177
     2
291
     1
 71
     2
176
     1
 72
     2
176
     1
 73
     0
176
     1
 90
        0
176
     1
 40
-0.6
176
     1
 41
-30.0
176
     1
 62
     5
 63
     7
421
 16777215
176
     1
 74
     1
176
     1
 91
        4
176
     1
 64
     7
176
     1
 65
   257
176
     1
 75
     7
176
     1
175
     7
176
     1
 42
1.0
176
     1
 92
        8
176
     1
 66
     7
176
     1
 43
1.0
176
     1
 76
     1
176
     1
 77
     6
176
     1
 78
     2
176
     1
 67
     7
176
     1
 79
     5
176
     1
170
     0
176
     1
171
     0
176
     1
290
     0
176
     1
 93
        1
176
     1
 44
0.0
176
     1
173
     0
176
     1
  0
VISUALSTYLE
  5
33
102
{ACAD_REACTORS
330
2A
102
}
330
2A
100
AcDbVisualStyle
  2
Realistic
 70
     8
177
     2
291
     0
 71
     2
176
     1
 72
     2
176
     1
 73
     0
176
     1
 90
        0
176
     1
 40
-0.6
176
     1
 41
-30.0
176
     1
 62
     5
 63
     7
421
 16777215
176
     1
 74
     1
176
     1
 91
        0
176
     1
 64
     7
176
     1
 65
   257
176
     1
 75
     1
176
     1
175
     1
176
     1
 42
1.0
176
     1
 92
        8
176
     1
 66
     8
424
  7895160
176
     1
 43
1.0
176
     1
 76
     1
176
     1
 77
     6
176
     1
 78
     2
176
     1
 67
     7
176
     1
 79
     5
176
     1
170
     0
176
     1
171
     0
176
     1
290
     0
176
     1
 93
       13
176
     1
 44
0.0
176
     1
173
     0
176
     1
  0
VISUALSTYLE
  5
37
102
{ACAD_REACTORS
330
2A
102
}
330
2A
100
AcDbVisualStyle
  2
Thicken
 70
    13
177
     2
291
     1
 71
     2
176
     1
 72
     2
176
     1
 73
     0
176
     1
 90
        0
176
     1
 40
-0.6
176
     1
 41
-30.0
176
     1
 62
     5
 63
     7
421
 16777215
176
     1
 74
     1
176
     1
 91
        4
176
     1
 64
     7
176
     1
 65
   257
176
     1
 75
     1
176
     1
175
     1
176
     1
 42
1.0
176
     1
 92
       12
176
     1
 66
     7
176
     1
 43
1.0
176
     1
 76
     1
176
     1
 77
     6
176
     1
 78
     2
176
     1
 67
     7
176
     1
 79
     5
176
     1
170
     0
176
     1
171
     0
176
     1
290
     0
176
     1
 93
        1
176
     1
 44
0.0
176
     1
173
     0
176
     1
  0
DICTIONARYVAR
  5
420
102
{ACAD_REACTORS
330
41F
102
}
330
41F
100
DictionaryVariables
280
     0
  1
1:1
  0
DICTIONARY
  5
421
330
17D
100
AcDbDictionary
280
     1
281
     1
  3
ACAD_ROUNDTRIP_2008_TABLESTYLE_CELLSTYLEMAP
360
422
  0
CELLSTYLEMAP
  5
422
102
{ACAD_REACTORS
330
421
102
}
330
421
100
AcDbCellStyleMap
 90
        3
300
CELLSTYLE
  1
TABLEFORMAT_BEGIN
 90
        5
170
     1
 91
        0
 92
        0
 62
   257
 93
        1
300
CONTENTFORMAT
  1
CONTENTFORMAT_BEGIN
 90
        0
 91
        0
 92
        4
 93
        0
300

 40
0.0
140
1.0
 94
        5
 62
     0
340
11
144
6.0
309
CONTENTFORMAT_END
171
     0
 94
        6
 95
        1
302
GRIDFORMAT
  1
GRIDFORMAT_BEGIN
 90
        0
 91
        1
 62
     0
 92
       -2
340
0
 93
        0
 40
0.045
309
GRIDFORMAT_END
 95
        2
302
GRIDFORMAT
  1
GRIDFORMAT_BEGIN
 90
        0
 91
        1
 62
     0
 92
       -2
340
0
 93
        0
 40
0.045
309
GRIDFORMAT_END
 95
        4
302
GRIDFORMAT
  1
GRIDFORMAT_BEGIN
 90
        0
 91
        1
 62
     0
 92
       -2
340
0
 93
        0
 40
0.045
309
GRIDFORMAT_END
 95
        8
302
GRIDFORMAT
  1
GRIDFORMAT_BEGIN
 90
        0
 91
        1
 62
     0
 92
       -2
340
0
 93
        0
 40
0.045
309
GRIDFORMAT_END
 95
       16
302
GRIDFORMAT
  1
GRIDFORMAT_BEGIN
 90
        0
 91
        1
 62
     0
 92
       -2
340
0
 93
        0
 40
0.045
309
GRIDFORMAT_END
 95
       32
302
GRIDFORMAT
  1
GRIDFORMAT_BEGIN
 90
        0
 91
        1
 62
     0
 92
       -2
340
0
 93
        0
 40
0.045
309
GRIDFORMAT_END
309
TABLEFORMAT_END
  1
CELLSTYLE_BEGIN
 90
        1
 91
        1
300
_TITLE
309
CELLSTYLE_END
300
CELLSTYLE
  1
TABLEFORMAT_BEGIN
 90
        5
170
     1
 91
        0
 92
        0
 62
   257
 93
        1
300
CONTENTFORMAT
  1
CONTENTFORMAT_BEGIN
 90
        0
 91
        0
 92
        4
 93
        0
300

 40
0.0
140
1.0
 94
        5
 62
     0
340
11
144
4.5
309
CONTENTFORMAT_END
171
     0
 94
        6
 95
        1
302
GRIDFORMAT
  1
GRIDFORMAT_BEGIN
 90
        0
 91
        1
 62
     0
 92
       -2
340
0
 93
        0
 40
0.045
309
GRIDFORMAT_END
 95
        2
302
GRIDFORMAT
  1
GRIDFORMAT_BEGIN
 90
        0
 91
        1
 62
     0
 92
       -2
340
0
 93
        0
 40
0.045
309
GRIDFORMAT_END
 95
        4
302
GRIDFORMAT
  1
GRIDFORMAT_BEGIN
 90
        0
 91
        1
 62
     0
 92
       -2
340
0
 93
        0
 40
0.045
309
GRIDFORMAT_END
 95
        8
302
GRIDFORMAT
  1
GRIDFORMAT_BEGIN
 90
        0
 91
        1
 62
     0
 92
       -2
340
0
 93
        0
 40
0.045
309
GRIDFORMAT_END
 95
       16
302
GRIDFORMAT
  1
GRIDFORMAT_BEGIN
 90
        0
 91
        1
 62
     0
 92
       -2
340
0
 93
        0
 40
0.045
309
GRIDFORMAT_END
 95
       32
302
GRIDFORMAT
  1
GRIDFORMAT_BEGIN
 90
        0
 91
        1
 62
     0
 92
       -2
340
0
 93
        0
 40
0.045
309
GRIDFORMAT_END
309
TABLEFORMAT_END
  1
CELLSTYLE_BEGIN
 90
        2
 91
        1
300
_HEADER
309
CELLSTYLE_END
300
CELLSTYLE
  1
TABLEFORMAT_BEGIN
 90
        5
170
     1
 91
        0
 92
        0
 62
   257
 93
        1
300
CONTENTFORMAT
  1
CONTENTFORMAT_BEGIN
 90
        0
 91
        0
 92
        4
 93
        0
300

 40
0.0
140
1.0
 94
        2
 62
     0
340
11
144
4.5
309
CONTENTFORMAT_END
171
     0
 94
        6
 95
        1
302
GRIDFORMAT
  1
GRIDFORMAT_BEGIN
 90
        0
 91
        1
 62
     0
 92
       -2
340
0
 93
        0
 40
0.045
309
GRIDFORMAT_END
 95
        2
302
GRIDFORMAT
  1
GRIDFORMAT_BEGIN
 90
        0
 91
        1
 62
     0
 92
       -2
340
0
 93
        0
 40
0.045
309
GRIDFORMAT_END
 95
        4
302
GRIDFORMAT
  1
GRIDFORMAT_BEGIN
 90
        0
 91
        1
 62
     0
 92
       -2
340
0
 93
        0
 40
0.045
309
GRIDFORMAT_END
 95
        8
302
GRIDFORMAT
  1
GRIDFORMAT_BEGIN
 90
        0
 91
        1
 62
     0
 92
       -2
340
0
 93
        0
 40
0.045
309
GRIDFORMAT_END
 95
       16
302
GRIDFORMAT
  1
GRIDFORMAT_BEGIN
 90
        0
 91
        1
 62
     0
 92
       -2
340
0
 93
        0
 40
0.045
309
GRIDFORMAT_END
 95
       32
302
GRIDFORMAT
  1
GRIDFORMAT_BEGIN
 90
        0
 91
        1
 62
     0
 92
       -2
340
0
 93
        0
 40
0.045
309
GRIDFORMAT_END
309
TABLEFORMAT_END
  1
CELLSTYLE_BEGIN
 90
        3
 91
        2
300
_DATA
309
CELLSTYLE_END
  0
ENDSEC
  0
SECTION
  2
THUMBNAILIMAGE
 90
    16364
310
28000000B40000005500000001000800000000000000000000000000000000000000000000000000FFFFFF000000FF0000FFFF0000FF0000FFFF0000FF000000FF00FF000000000080808000C0C0C0000000FF007F7FFF000000A5005252A50000007F003F3F7F0000004C0026264C000000260013132600003FFF007F9FFF
310
000029A5005267A500001F7F003F4F7F0000134C00262F4C000009260013172600007FFF007FBFFF000052A500527CA500003F7F003F5F7F0000264C0026394C0000132600131C260000BFFF007FDFFF00007CA5005291A500005F7F003F6F7F0000394C0026424C00001C26001321260000FFFF007FFFFF0000A5A50052A5
310
A500007F7F003F7F7F00004C4C00264C4C00002626001326260000FFBF007FFFDF0000A57C0052A59100007F5F003F7F6F00004C3900264C420000261C001326210000FF7F007FFFBF0000A5520052A57C00007F3F003F7F5F00004C2600264C39000026130013261C0000FF3F007FFF9F0000A5290052A56700007F1F003F
310
7F4F00004C1300264C2F00002609001326170000FF00007FFF7F0000A5000052A55200007F00003F7F3F00004C0000264C260000260000132613003FFF00009FFF7F0029A5000067A552001F7F00004F7F3F00134C00002F4C260009260000172613007FFF0000BFFF7F0052A500007CA552003F7F00005F7F3F00264C0000
310
394C2600132600001C261300BFFF0000DFFF7F007CA5000091A552005F7F00006F7F3F00394C0000424C26001C26000021261300FFFF0000FFFF7F00A5A50000A5A552007F7F00007F7F3F004C4C00004C4C26002626000026261300FFBF0000FFDF7F00A57C0000A59152007F5F00007F6F3F004C3900004C422600261C00
310
0026211300FF7F0000FFBF7F00A5520000A57C52007F3F00007F5F3F004C2600004C39260026130000261C1300FF3F0000FF9F7F00A5290000A56752007F1F00007F4F3F004C1300004C2F26002609000026171300FF000000FF7F7F00A5000000A55252007F0000007F3F3F004C0000004C2626002600000026131300FF00
310
3F00FF7F9F00A5002900A55267007F001F007F3F4F004C0013004C262F002600090026131700FF007F00FF7FBF00A5005200A5527C007F003F007F3F5F004C0026004C2639002600130026131C00FF00BF00FF7FDF00A5007C00A55291007F005F007F3F6F004C0039004C26420026001C0026132100FF00FF00FF7FFF00A5
310
00A500A552A5007F007F007F3F7F004C004C004C264C002600260026132600BF00FF00DF7FFF007C00A5009152A5005F007F006F3F7F0039004C0042264C001C002600211326007F00FF00BF7FFF005200A5007C52A5003F007F005F3F7F0026004C0039264C00130026001C1326003F00FF009F7FFF002900A5006752A500
310
1F007F004F3F7F0013004C002F264C000900260017132600000000002D2D2D005B5B5B0089898900B7B7B700B3B3B30000000000000000000000000000000000000000000000000000000000000000000000000000000000000000000000000000000000000000000000000000000000000000000000000000000000000000
310
00000000000000000000000000000000000000000000000000000000000000000000000000000000000000000000000000000000000000000000000000000000000000000000000000000000000000000000000000000000000000000000000000000000000000000000000000000000000000000000000000000000000000
310
00000000000000000000000000000000000000000000000000000000000000000000000000000000000000000000000000000000000000000000000000000000000000000000000000000000000000000000000000000000000000000000000000000000000000000000000000000000000000000000000000000000000000
310
00000000000000000000000000000000000000000000000000000000000000000000000000000000000000000000000000000000000000000000000000000000000000000000000000000000000000000000000000000000000000000000000000000000000000000000000000000000000000000000000000000000000000
310
00000000000000000000000000000000000000000000000000000000000000000000000000000000000000000000000000000000000000000000000000000000000000000000000000000000000000000000000000000000000000000000000000000000000000000000000000000000000000000000000000000000000000
310
00000000000000000000000000000000000000000000000000000000000000000000000000000000000000000000000000000000000000000000000000000000000000000000000000000000000000000000000000000000000000000000000000000000000000000000000000000000000000000000000000000000000000
310
00000000000000000000000000000000000000000000000000000000000000000000000000000000000000000000000000000000000000000000000000000000000000000000000000000000000000000000000000000000000000000000000000000000000000000000000000000000000000000000000000000000000000
310
00000000000000000000000000000000000000000000000000000000000000000000000000000000000000000000000000000000000000000000000000000000000000000000000000000000000000000000000000000000000000000000000000000000000000000000000000000000000000000000000000000000000000
310
00000000000000000000000000000000000000000000000000000000000000000000000000000000000000000000000000000000000000000000000000000000000000000000000000000000000000000000000000000000000000000000000000000000000000000000000000000000000000000000000000000000000000
310
00000000000000000000000000000000000000000000000000000000000000000000000000000000000000000000000000000000000000000000000000000000000000000000000000000000000000000000000000000000000000000000000000000000000000000000000000000000000000000000000000000000000000
310
00000000000000000000000000000000000000000000000000000000000000000000000000000000000000000000000000000000000000000000000000000000000000000000000000000000000000000000000000000000000000000000000000000000000000000000000000000000000000000000000000000000000000
310
00000000000000000000000000000000000000000000000000000000000000000000000000000000000000000000000000000000000000000000000000000000000000000000000000000000000000000000000000000000000000000000000000000000000000000000000000000000000000000000000000000000000000
310
00000000000000000000000000000000000000000000000000000000000000000000000000000000000000000000000000000000000000000000000000000000000000000000000000000000000000000000000000000000000000000000000000000000000000000000000000000000000000000000000000000000000000
310
00000000000000000000000000000000000000000000000000000000000000000000000000000000000000000000000000000000000000000000000000000000000000000000000000000000000000000000000000000000000000000000000000000000000000000000000000000000000000000000000000000000000000
310
00000000000000000000000000000000000000000000000000000000000000000000000000000000000000000000000000000000000000000000000000000000000000000000000000000000000000000000000000000000000000000000000000000000000000000000000000000000000000000000000000000000000000
310
00000000000000000000000000000000000000000000000000000000000000000000000000000000000000000000000000000000000000000000000000000000000000000000000000000000000000000000000000000000000000000000000000000000000000000000000000000000000000000000000000000000000000
310
00000000000000000000000000000000000000000000000000000000000000000000000000000000000000000000000000000000000000000000000000000000000000000000000000000000000000000000000000000000000000000000000000000000000000000000000000000000000000000000000000000000000000
310
00000000000000000000000000000000000000000000000000000000000000000000000000000000000000000000000000000000000000000000000000000000000000000000000000000000000000000000000000000000000000000000000000000000000000000000000000000000000000000000000000000000000000
310
00000000000000000000000000000000000000000000000000000000000000000000000000000000000000000000000000000000000000000000000000000000000000000000000000000000000000000000000000000000000000000000000000000000000000000000000000000000000000000000000000000000000000
310
00000000000000000000000000000000000000000000000000000000000000000000000000000000000000000000000000000000000000000000000000000000000000000000000000000000000000000000000000000000000000000000000000000000000000000000000000000000000000000000000000000000000000
310
00000000000000000000000000000000000000000000000000000000000000000000000000000000000000000000000000000000000000000000000000000000000000000000000000000000000000000000000000000000000000000000000000000000000000000000000000000000000000000000000000000000000000
310
00000000000000000000000000000000000000000000000000000000000000000000000000000000000000000000000000000000000000000000000000000000000000000000000000000000000000000000000000000000000000000000000000000000000000000000000000000000000000000000000000000000000000
310
00000000000000000000000000000000000000000000000000000000000000000000000000000000000000000000000000000000000000000000000000000000000000000000000000000000000000000000000000000000000000000000000000000000000000000000000000000000000000000000000000000000000000
310
00000000000000000000000000000000000000000000000000000000000000000000000000000000000000000000000000000000000000000000000000000000000000000000070007000007000000000000000000000000000000000000000000000000000000000000000000000000000000000000000000000000000000
310
00000000000000000000000000000000000000000000000000000000000000000000000000000000000000000000000000000000000000000000000000000000000000000000000000000000000000000000000000000000000000000000000000000000000000000000000000000000000000000000000000000007070007
310
07070707070000000000000000000000000000000000000000000000000000000000000000000000000000000007070707070707070707070707070707000000000000000000000000000000000000000000000000000000000000000000000000000000000000000000000000000000000000000000000000000000000000
310
00000000000000000000000000000000000000000000000000000000000000000000000000000000000000000000000000000700000000000007000000000000000000000000000000000000000000000000000000000000000000000000000000000707070707070707070707070707070000000000000000000000000000
310
00000000000000000000000000000000000000000000000000000000000000000000000000000000000000000000000000000000000000000000000000000000000000000000000000000000000000000000000000000000000000000000000000000000000000000000000000000700000000000000000000000000000000
310
00000000000000000000000000000000000000000000000007070707070707070707070007000700000000000000000000000000000000000000000000000000000000000000000000000000000000000000000000000000000000000000000000000000000000000000000000000000000000000000000000000000000000
310
00000000000000000000000000000000000000000000000000000000000000000000000007000000000000000000000000000000000000000000000000000000000000000000000000000000000000000000000000000000000000000000000000000000000000000000000000000000000000000000000000000000000000
310
00000000000000000000000000000000000000000000000000000000000000000000000000000000000000000000000000000000000000000000000000000000000000000000000000000000000000000000000000000000000700000000000000000000000000000000000000000000000000000000000000000000000000
310
00000000000000000000000000000000000000000000000000000000000000000000000000000000000000000000000000000000000000000000000000000000000000000000000000000000000000000000000000000000000000000000000000000000000000000000000000000000000000000000000000000000000000
310
00000000000000000000000000000007000000000000000000000000000000000000000000000000000000000000000000000000000000000000000000000000000000000000000000000000000000000000000000000000000000000000000000000000000000000000000000000000000000000000000000000000000000
310
00000000000000000000000000000000000000000000000000000000000000000000000000000000000000000000000000000000000000000000000000000000000000070707000000000000000000000000000000000000000000000000000000000000000000000000000000000000000007070707070700000000000000
310
00000000000000000000000000000000000000000000000000000000000000000000000000000000000000000000000000000000000000000000000000000000000000000000000000000000000000000000000000000000000000000000000000000000000000000000000000000000000000000707070707070707070707
310
00000000000000000000000000000000000000000000000000000000000000000000000000000000070707070707000000000000000000000000000000000000000000000000000000000000000000000000000000000000000000000000000000000000000000000000000000000000000000000000000000000000000000
310
00000000000000000000000000000000000000000000000000000000000000000000000000000000070707070000070707000007070707070000000000000000000000000000000000000000000000000000000000000000000000000007000000000700000000000000000000000000000000000000000000000000000000
310
00000000000000000000000000000000000000000000000000000000000000000000000000000000000000000000000000000000000000000000000000000000000000000000000000000000000000000000000000000000000000000700000000070707070707070000000007070000000000000000000000000000000000
310
00000000000000000000000000000000070707070707070707070707000000000000000000000000000000000000000000000000000000000000000000000000000000000000000000000000000000000000000000000000000000000000000000000000000000000000000000000000000000000000000000000000000000
310
00000000000000000000000000000000000700000707070000070707000007070700000707000000000000000000000000000000000000000000000000000000000000000000000007070707070700000000000000000000000000000000000000000000000000000000000000000000000000000000000000000000000000
310
00000000000000000000000000000000000000000000000000000000000000000000000000000000000000000000000000000000000000000000000000000000000000000707000007000000070707070707070000000700000707000000000000000000000000000000000000000000000000000000000000000000000707
310
00070707000000000000000000000000000000000000000000000000000000000000000000000000000000000000000000000000000000000000000000000000000000000000000000000000000000000000000000000000000000000000000000000000000000000000000000000000000000000000000007000700070000
310
00070707070707070707000000070700070700000000000000000000000000000000000000000000000000000000000000000007000707070700000000000000000000000000000000000000000000000000000000000000000000000000000000000000000000000000000000000000000000000000000000000000000000
310
00000000000000000000000000000000000000000000000000000000000000000000000000000000000000000007000700070000070707000007070700000707070000000707070700000000000000000000000000070707070707070707070707070707070707070707070700070000000000000000000000000000000000
310
00000000000000000000000000000000000000000000000000000000000000000000000000000000000000000000000000000000000000000000000000000000000000000000000000000000000000000000000000000000000000000000000000000707000700000700070007070707070707070707070000070007070000
310
00000000000000000000000007000000070707070707070707070000000007000700070700000000000000000000000000000000000000000000000000000000000000000000000000000000000000000000000000000000000000000000000000000000000000000000000000000000000000000000000000000000000000
310
00000000000000000000000000000000000000000000000700070707070700070707070000070000000007000707000707070700000000000000000000000000000700000707070707070707070707000000000700070707070707070707070707000000000000000000000000000000000000000000000000000000000000
310
00000000000000000000000000000000000000000000000000000000000000000000000000000000000000000000000000000000000000000000000000000000000000000000000000000000070707070700070707070000000007000000000700000700070707000700000000000000000000000000070000070707070707
310
07070707070000000007000700000700000000000007000000000000000000000000000000000000000000000000000000000000000000000000000000000000000000000000000000000000000000000000000000000000000000000000000000000000000000000000000000000000000000000000000000000000000000
310
00000707070000070007070000000000070000000000070007070000070007000000000000000000000000000700000000000000000000000000000000000700070000070000000000000700000000000000000000000000000000000000000000000000000000000000000000000000000000000000000000000000000000
310
00000000000000000000000000000000000000000000000000000000000000000000000000000000000000000000000000000000000000070707000007070707000000000007000000000000070707000007000700000000000000000000000000070000000000000000000000000007070707070707070707000000000000
310
07000000000000000000000000000000000000000000000000000000000000000000000000000000000000000000000000000000000000000000000000000000000000000000000000000000000000000000000000000000000000000000000000000000000000000000000700070700000707070000000000000700000000
310
00000700070000070007000000000000000000000000000700000000000000000000000000000000000700070000070000000000000700000000000000000000000000000000000000000000000000000000000000000000000000000000000000000000000000000000000000000000000000000000000000000000000000
310
00000000000000000000000000000000000000000000000000000000000000000007070007000707070700000000000007000000000000070007070000070007000000000000000000070707070707070000070707070700000000000000070007000007000000070707070707070000000000000000000000000000000000
310
00000000000000000000000000000000000000000000000000000000000000000000000000000000000000000000000000000000000000000000000000000000000000000000000000000000000000000000000000000707070707070707070000000000070707000000000007000707070707070700000000000000000007
310
07070707070700000707070707000000000707070707070707070707070707070707070700000000000000000000000000000000000000000000000000000000000000000000000000000000000000000000000000000000000000000000000000000000000000000000000000000000000000000000000000000000000000
310
00000000000000000000000007070007000707070700000000000007000000000000070007070000070007000000000000000000070707070707070000000000000000000000000000070007000007000000000000070000000000000000000000000000000000000000000000000000000000000000000000000000000000
310
00000000000000000000000000000000000000000000000000000000000000000000000000000000000000000000000000000000000000000000000000000000000707000700000707070000000000000700000000000007000700000700070000000000000000000000000007000000000000000000000000000000000007
310
00070000070000000000000700000000000000000000000000000000000000000000000000000000000000000000000000000000000000000000000000000000000000000000000000000000000000000000000000000000000000000000000000000000000000000000000000000000000000000000000707070000070707
310
07000000000007000000000000070707000007000700000000000000000000000000070000000000000000000000000000000000070007000007000000000000070000000000000000000000000000000000000000000000000000000000000000000000000000000000000000000000000000000000000000000000000000
310
00000000000000000000000000000000000000000000000000000000000000000000000000000000000000000007070700000700070700000000000700000000000700070700000700070000000000000000000000000007000000000000000000000000000000000007000700000700000000000007000000000000000000
310
00000000000000000000000000000000000000000000000000000000000000000000000000000000000000000000000000000000000000000000000000000000000000000000000000000000000000000000000000000000000000000000000000000707070707000707070000000000070000000007000007000707070007
310
00000000000000000000000000070000000000000000000000000000000000070007000007000000000000070000000000000000000000000000000000000000000000000000000000000000000000000000000000000000000000000000000000000000000000000000000000000000000000000000000000000000000000
310
00000000000000000000000000000000000000000000000007070707070707000707070000000700000000070007070007070707000000000000000000000000000007000000000000000000000000000000000007000707070707070707070707070000000000000000000000000000000000000000000000000000000000
310
00000000000000000000000000000000000000000000000000000000000000000000000000000000000000000000000000000000000000000000000000000000000000000000000000000000000007070007000007000700070700070007070707070700000700070700000000000000000000000000000700000000000000
310
00000000000000000000070007070707000000000000000000000000000000000000000000000000000000000000000000000000000000000000000000000000000000000000000000000000000000000000000000000000000000000000000000000000000000000000000000000000000000000000000000000000000000
310
00000000070707000700000707070000070707000007070700000007070007000000000000000000000000000707070707070707070707070707070707070707070707070700000000000000000000000000000000000000000000000000000000000000000000000000000000000000000000000000000000000000000000
310
00000000000000000000000000000000000000000000000000000000000000000000000000000000000000000000000000000000000000000000070700000700000007070707070707070700000000070000070000000000000000000000000000000000000000000000000000000000000000000707070707070000000000
310
00000000000000000000000000000000000000000000000000000000000000000000000000000000000000000000000000000000000000000000000000000000000000000000000000000000000000000000000000000000000000000000000000000000000000000000000000000000070700000700000007070707070707
310
00000007070000070000000000000000000000000000000000000000000000000000000000000000000007070700070700000000000000000000000000000000000000000000000000000000000000000000000000000000000000000000000000000000000000000000000000000000000000000000000000000000000000
310
00000000000000000000000000000000000000000000000000000000000000000000000000000007070000070700000007070000000007070007070700000000000000000000000000000000000000000000000000000000000000000000000707070707070000000000000000000000000000000000000000000000000000
310
00000000000000000000000000000000000000000000000000000000000000000000000000000000000000000000000000000000000000000000000000000000000000000000000000000000000000000000000000000000000000000000070000000707070707070707070000000707070000000000000000000000000000
310
00000000000000000000000000000000000000000007000700000700000000000000000000000000000000000000000000000000000000000000000000000000000000000000000000000000000000000000000000000000000000000000000000000000000000000000000000000000000000000000000000000000000000
310
00000000000000000000000000000000000000000007070000000007070007000000070707000007000000000000000000000000000000000000000000000000000000000000000707070707070707070707070000000000000000000000000000000000000000000000000000000000000000000000000000000000000000
310
00000000000000000000000000000000000000000000000000000000000000000000000000000000000000000000000000000000000000000000000000000000000000000000000000070000070707070707070707070707000000000700000000070707070707070707000000000000000000000000000000000000000000
310
07070707070700000000000000000000000000000000000000000000000000000000000000000000000000000000000000000000000000000000000000000000000000000000000000000000000000000000000000000000000000000000000000000000000000000000000000000000000000000000000000000000000700
310
00000000000007070707000000000000000000070000000707070707070707070000000000000000000000000000000000000000000707070707070000000000000000000000000000000000000000000000000000000000000000000000000000000000000000000000000000000000000000000000000000000000000000
310
00000000000000000000000000000000000000000000000000000000000000000000000000000007070707000707070707000007000000000000000007000700000000000000000000070700070707070707070707000000000000000000000000000000000000000000070007000007000000000000000000000000000000
310
00000000000000000000000000000000000000000000000000000000000000000000000000000000000000000000000000000000000000000000000000000000000000000000000000000000000000000000000000000000000000000707070700070707070700070000000000000000000700000700000000000000000000
310
00000707070707070007000000000000000000000000000007070700000000000700070000070000000000000000000000000000000000000000000000000000000000000000000000000000000000000000000000000000000000000000000000000000000000000000000000000000000000000000000000000000000000
310
00000000000000000000000000000000000007070707070707070707070700000000000000000007000007000000000000000000000000070707070707070700000000000000000000000000070707070707070707070007070707000000000000000000000000000000000000000000000000000000000000000000000000
310
00000000000000000000000000000000000000000000000000000000000000000000000000000000000000000000000000000000000000000000000000000000000000000000000707070707070707070000000000000000000000000700000007000000000000000000000007070707070707070000000000000000000000
310
00000007070700000000000700070000070000070707070707070700000000000000000000000000000000000000000000000000000000000000000000000000000000000000000000000000000000000000000000000000000000000000000000000000000000000000000000000000000000000000000000000000070707
310
07070707070700000000000000000000000007000000070000000000000000000000000000000000000000000000000000000000000000000000000000000000070007000007000007070707070707070000000000000000000000000000000000000000000000000000000000000000000000000000000000000000000000
310
00000000000000000000000000000000000000000000000000000000000000000000000000000000000000000000000000000007070707070707070000000000000000000000000700000000070000000007070707070707070707070707070707070000000000000000000000000000000000000007070707070707070707
310
07070707070700000000000000000000000000000000000000000000000000000000000000000000000000000000000000000000000000000000000000000000000000000000000000000000000000000000000000000000000000000000000000000000000000000000000000000000000000000700070000070000070000
310
00000700000000070707070707070707070707070707070700000000000000000000000000000000000000070000000007000000000707070700000000000000000000000000000000000000000000000000000000000000000000000000000000000000000000000000000000000000000000000000000000000000000000
310
00000000000000000000000000000000000000000000000000000000000000000000000000000000000007070007070707070700000000000700000007070707070707070707070707070707070000000000000000000000000000000000000007000000000700000007070700070000000000000000000000000000000000
310
00000000000000000000000000000000000000000000000000000000000000000000000000000000000000000000000000000000000000000000000000000000000000000000000000000000000000000000000000000000000000000000000007000000000000000000000000070000000000000007070707070707070000
310
00000000000000000000000000000000000000000000000000000000000000070707070700000000000000000000000000000000000000000000000000000000000000000000000000000000000000000000000000000000000000000000000000000000000000000000000000000000000000000000000000000000000000
310
00000000000000000000000000000000000000000000000000000000000000000000000007070000000000070707070707070700000000000000000000000000000000000000000000000000000000000000000000000000000000000000000000000000000000000000000000000000000000000000000000000000000000
310
00000000000000000000000000000000000000000000000000000000000000000000000000000000000000000000000000000000000000000000000000000000000000000000000000000000000000000000000000000000000000000000000000070707070707000000000000000000000000000000000000000000000000
310
00000000000000000000000000000000000000000000000000000000000000000000000000000000000000000000000000000000000000000000000000000000000000000000000000000000000000000000000000000000000000000000000000000000000000000000000000000000000000000000000000000000000000
310
00000000000000000000000000000000000000000000000007070707000000000000000000000000000000000000000000000000000000000000000000000000000000000000000000000000000000000000000000000000000000000000000000000000000000000000000000000000000000000000000000000000000000
310
00000000000000000000000000000000000000000000000000000000000000000000000000000000000000000000000000000000000000000000000000000000000000000000000000000000000707070000000000000000000000000000000000000000000000000000000000000000000000000000000000000000000000
310
00000000000000000000000000000000000000000000000000000000000000000000000000000000000000000000000000000000000000000000000000000000000000000000000000000000000000000000000000000000000000000000000000000000000000000000000000000000000000000000000000000000000000
310
00000007070707000000000000000000000000000000000000000000000000000000000000000000000000000000000000000000000000000000000000000000000000000000000000000000000000000000000000000000000000000000000000000000000000000000000000000000000000000000000000000000000000
310
00000000000000000000000000000000000000000000000000000000000000000000000000000000000000000000000000000000000000000000000000000000000000000000000000000000000000000000000000000000000000000000000000000000000000000000000000000000000000000000000000000000000000
310
00000000000000000000000000000000000000000000000000000000000000000000000000000000000000000000000000000000000000000000000000000000000000000000000000000000000000000000000000000000000000000000000000000000000000000000000000000000000000000000000000000000000000
310
00000000000000000000000000000000000000000000000000000000000000000000000000000000000000000000000000000000000000000000000000000000000000000000000000000000000000000000000000000000000000000000000000000000000000000000000000000000000000000000000000000000000000
310
00000000000000000000000000000000000000000000000000000000000000000000000000000000000000000000000000000000000000000000000000000000000000000000000000000000000000000000000000000000000000000000000000000000000000000000000000000000000000000000000000000000000000
310
00000000000000000000000000000000000000000000000000000000000000000000000000000000000000000000000000000000000000000000000000000000000000000000000000000000000000000000000000000000000000000000000000000000000000000000000000000000000000000000000000000000000000
310
00000000000000000000000000000000000000000000000000000000000000000000000000000000000000000000000000000000000000000000000000000000000000000000000000000000000000000000000000000000000000000000000000000000000000000000000000000000000000000000000000000000000000
310
00000000000000000000000000000000000000000000000000000000000000000000000000000000000000000000000000000000000000000000000000000000000000000000000000000000000000000000000000000000000000000000000000000000000000000000000000000000000000000000000000000000000000
310
00000000000000000000000000000000000000000000000000000000000000000000000000000000000000000000000000000000000000000000000000000000000000000000000000000000000000000000000000000000000000000000000000000000000000000000000000000000000000000000000000000000000000
310
00000000000000000000000000000000000000000000000000000000000000000000000000000000000000000000000000000000000000000000000000000000000000000000000000000000000000000000000000000000000000000000000000000000000000000000000000000000000000000000000000000000000000
310
00000000000000000000000000000000000000000000000000000000000000000000000000000000000000000000000000000000000000000000000000000000000000000000000000000000000000000000000000000000000000000000000000000000000000000000000000000000000000000000000000000000000000
310
00000000000000000000000000000000000000000000000000000000000000000000000000000000000000000000000000000000000000000000000000000000000000000000000000000000000000000000000000000000000000000000000000000000000000000000000000000000000000000000000000000000000000
310
00000000000000000000000000000000000000000000000000000000000000000000000000000000000000000000000000000000000000000000000000000000000000000000000000000000000000000000000000000000000000000000000000000000000000000000000000000000000000000000000000000000000000
310
00000000000000000000000000000000000000000000000000000000000000000000000000000000000000000000000000000000000000000000000000000000000000000000000000000000000000000000000000000000000000000000000000000000000000000000000000000000000000000000000000000000000000
310
00000000000000000000000000000000000000000000000000000000000000000000000000000000000000000000000000000000000000000000000000000000000000000000000000000000000000000000000000000000000000000000000000000000000000000000000000000000000000000000000000000000000000
310
00000000000000000000000000000000000000000000000000000000000000000000000000000000000000000000000000000000000000000000000000000000000000000000000000000000000000000000000000000000000000000000000000000000000000000000000000000000000000000000000000000000000000
310
00000000000000000000000000000000000000000000000000000000000000000000000000000000000000000000000000000000000000000000000000000000000000000000000000000000000000000000000000000000000000000000000000000000000000000000000000000000000000000000000000000000000000
310
00000000000000000000000000000000000000000000000000000000000000000000000000000000000000000000000000000000000000000000000000000000000000000000000000000000000000000000000000000000000000000000000000000000000000000000000000000000000000000000000000000000000000
310
00000000000000000000000000000000000000000000000000000000000000000000000000000000000000000000000000000000000000000000000000000000000000000000000000000000000000000000000000000000000000000000000000000000000000000000000000000000000000000000000000000000000000
310
00000000000000000000000000000000000000000000000000000000000000000000000000000000000000000000000000000000000000000000000000000000000000000000000000000000000000000000000000000000000000000000000000000000000000000000000000000000000000000000000000000000000000
310
00000000000000000000000000000000000000000000000000000000000000000000000000000000000000000000000000000000000000000000000000000000000000000000000000000000000000000000000000000000000000000000000000000000000000000000000000000000000000000000000000000000000000
310
00000000000000000000000000000000000000000000000000000000000000000000000000000000000000000000000000000000000000000000000000000000000000000000000000000000000000000000000000000000000000000000000000000000000000000000000000000000000000000000000000000000000000
310
00000000000000000000000000000000000000000000000000000000000000000000000000000000000000000000000000000000000000000000000000000000000000000000000000000000000000000000000000000000000000000000000000000000000000000000000000000000000000000000000000000000000000
310
00000000000000000000000000000000000000000000000000000000000000000000000000000000000000000000000000000000000000000000000000000000000000000000000000000000000000000000000000000000000000000000000000000000000000000000000000000000000000000000000000000000000000
310
000000000000000000000000000000000000000000000000000000000000000000000000000000000000000000000000000000000000000000000000000000000000000000000000000000000000000000000000000000000000000000000000000000000000000000000000
  0
ENDSEC
  0
EOF
