  0
SECTION
  2
HEADER
  9
$ACADVER
  1
AC1015
  9
$ACADMAINTVER
 70
    20
  9
$DWGCODEPAGE
  3
ANSI_1252
  9
$INSBASE
 10
0.0
 20
0.0
 30
0.0
  9
$EXTMIN
 10
40.16139411246567
 20
68.2728794134625
 30
0.0
  9
$EXTMAX
 10
648.9533670241487
 20
741.3353001467084
 30
0.0
  9
$LIMMIN
 10
0.0
 20
0.0
  9
$LIMMAX
 10
36.05
 20
26.9
  9
$ORTHOMODE
 70
     0
  9
$REGENMODE
 70
     1
  9
$FILLMODE
 70
     1
  9
$QTEXTMODE
 70
     0
  9
$MIRRTEXT
 70
     0
  9
$LTSCALE
 40
12.0
  9
$ATTMODE
 70
     1
  9
$TEXTSIZE
 40
0.2
  9
$TRACEWID
 40
0.05
  9
$TEXTSTYLE
  7
Standard
  9
$CLAYER
  8
Front Panel
  9
$CELTYPE
  6
ByLayer
  9
$CECOLOR
 62
   256
  9
$CELTSCALE
 40
1.0
  9
$DISPSILH
 70
     0
  9
$DIMSCALE
 40
1.0
  9
$DIMASZ
 40
5.0
  9
$DIMEXO
 40
1.6
  9
$DIMDLI
 40
10.0
  9
$DIMRND
 40
0.0
  9
$DIMDLE
 40
0.0
  9
$DIMEXE
 40
1.6
  9
$DIMTP
 40
0.0
  9
$DIMTM
 40
0.0
  9
$DIMTXT
 40
5.0
  9
$DIMCEN
 40
0.0
  9
$DIMTSZ
 40
0.0
  9
$DIMTOL
 70
     0
  9
$DIMLIM
 70
     0
  9
$DIMTIH
 70
     1
  9
$DIMTOH
 70
     1
  9
$DIMSE1
 70
     0
  9
$DIMSE2
 70
     0
  9
$DIMTAD
 70
     0
  9
$DIMZIN
 70
     0
  9
$DIMBLK
  1

  9
$DIMASO
 70
     1
  9
$DIMSHO
 70
     1
  9
$DIMPOST
  1

  9
$DIMAPOST
  1

  9
$DIMALT
 70
     0
  9
$DIMALTD
 70
     2
  9
$DIMALTF
 40
25.4
  9
$DIMLFAC
 40
1.0
  9
$DIMTOFL
 70
     0
  9
$DIMTVP
 40
0.0
  9
$DIMTIX
 70
     0
  9
$DIMSOXD
 70
     0
  9
$DIMSAH
 70
     0
  9
$DIMBLK1
  1

  9
$DIMBLK2
  1

  9
$DIMSTYLE
  2
METRIC
  9
$DIMCLRD
 70
     0
  9
$DIMCLRE
 70
     0
  9
$DIMCLRT
 70
   256
  9
$DIMTFAC
 40
1.0
  9
$DIMGAP
 40
2.5
  9
$DIMJUST
 70
     0
  9
$DIMSD1
 70
     0
  9
$DIMSD2
 70
     0
  9
$DIMTOLJ
 70
     1
  9
$DIMTZIN
 70
     0
  9
$DIMALTZ
 70
     0
  9
$DIMALTTZ
 70
     0
  9
$DIMUPT
 70
     0
  9
$DIMDEC
 70
     1
  9
$DIMTDEC
 70
     1
  9
$DIMALTU
 70
     2
  9
$DIMALTTD
 70
     2
  9
$DIMTXSTY
  7
ARIAL
  9
$DIMAUNIT
 70
     0
  9
$DIMADEC
 70
     1
  9
$DIMALTRND
 40
0.0
  9
$DIMAZIN
 70
     0
  9
$DIMDSEP
 70
    46
  9
$DIMATFIT
 70
     3
  9
$DIMFRAC
 70
     0
  9
$DIMLDRBLK
  1

  9
$DIMLUNIT
 70
     2
  9
$DIMLWD
 70
    -2
  9
$DIMLWE
 70
    -2
  9
$DIMTMOVE
 70
     0
  9
$LUNITS
 70
     2
  9
$LUPREC
 70
     4
  9
$SKETCHINC
 40
0.1
  9
$FILLETRAD
 40
0.08
  9
$AUNITS
 70
     0
  9
$AUPREC
 70
     0
  9
$MENU
  1
.
  9
$ELEVATION
 40
0.0
  9
$PELEVATION
 40
0.0
  9
$THICKNESS
 40
0.0
  9
$LIMCHECK
 70
     0
  9
$CHAMFERA
 40
0.0
  9
$CHAMFERB
 40
0.0
  9
$CHAMFERC
 40
1.0
  9
$CHAMFERD
 40
0.0
  9
$SKPOLY
 70
     0
  9
$TDCREATE
 40
2451534.924419676
  9
$TDUCREATE
 40
2451535.091086343
  9
$TDUPDATE
 40
2454656.660099456
  9
$TDUUPDATE
 40
2454656.826766123
  9
$TDINDWG
 40
6.4378098727
  9
$TDUSRTIMER
 40
6.4378098727
  9
$USRTIMER
 70
     1
  9
$ANGBASE
 50
0.0
  9
$ANGDIR
 70
     0
  9
$PDMODE
 70
     0
  9
$PDSIZE
 40
0.0
  9
$PLINEWID
 40
0.0
  9
$SPLFRAME
 70
     0
  9
$SPLINETYPE
 70
     6
  9
$SPLINESEGS
 70
 32767
  9
$HANDSEED
  5
1052F
  9
$SURFTAB1
 70
     6
  9
$SURFTAB2
 70
     6
  9
$SURFTYPE
 70
     6
  9
$SURFU
 70
     6
  9
$SURFV
 70
     6
  9
$UCSBASE
  2

  9
$UCSNAME
  2

  9
$UCSORG
 10
0.0
 20
0.0
 30
0.0
  9
$UCSXDIR
 10
1.0
 20
0.0
 30
0.0
  9
$UCSYDIR
 10
0.0
 20
1.0
 30
0.0
  9
$UCSORTHOREF
  2

  9
$UCSORTHOVIEW
 70
     0
  9
$UCSORGTOP
 10
0.0
 20
0.0
 30
0.0
  9
$UCSORGBOTTOM
 10
0.0
 20
0.0
 30
0.0
  9
$UCSORGLEFT
 10
0.0
 20
0.0
 30
0.0
  9
$UCSORGRIGHT
 10
0.0
 20
0.0
 30
0.0
  9
$UCSORGFRONT
 10
0.0
 20
0.0
 30
0.0
  9
$UCSORGBACK
 10
0.0
 20
0.0
 30
0.0
  9
$PUCSBASE
  2

  9
$PUCSNAME
  2

  9
$PUCSORG
 10
0.0
 20
0.0
 30
0.0
  9
$PUCSXDIR
 10
1.0
 20
0.0
 30
0.0
  9
$PUCSYDIR
 10
0.0
 20
1.0
 30
0.0
  9
$PUCSORTHOREF
  2

  9
$PUCSORTHOVIEW
 70
     0
  9
$PUCSORGTOP
 10
0.0
 20
0.0
 30
0.0
  9
$PUCSORGBOTTOM
 10
0.0
 20
0.0
 30
0.0
  9
$PUCSORGLEFT
 10
0.0
 20
0.0
 30
0.0
  9
$PUCSORGRIGHT
 10
0.0
 20
0.0
 30
0.0
  9
$PUCSORGFRONT
 10
0.0
 20
0.0
 30
0.0
  9
$PUCSORGBACK
 10
0.0
 20
0.0
 30
0.0
  9
$USERI1
 70
     0
  9
$USERI2
 70
     0
  9
$USERI3
 70
     0
  9
$USERI4
 70
     0
  9
$USERI5
 70
     0
  9
$USERR1
 40
0.0
  9
$USERR2
 40
0.0
  9
$USERR3
 40
0.0
  9
$USERR4
 40
0.0
  9
$USERR5
 40
0.0
  9
$WORLDVIEW
 70
     1
  9
$SHADEDGE
 70
     3
  9
$SHADEDIF
 70
    70
  9
$TILEMODE
 70
     1
  9
$MAXACTVP
 70
    64
  9
$PINSBASE
 10
0.0
 20
0.0
 30
0.0
  9
$PLIMCHECK
 70
     0
  9
$PEXTMIN
 10
0.0
 20
0.0
 30
0.0
  9
$PEXTMAX
 10
0.0
 20
0.0
 30
0.0
  9
$PLIMMIN
 10
0.0
 20
0.0
  9
$PLIMMAX
 10
12.0
 20
9.0
  9
$UNITMODE
 70
     0
  9
$VISRETAIN
 70
     1
  9
$PLINEGEN
 70
     0
  9
$PSLTSCALE
 70
     1
  9
$TREEDEPTH
 70
  3020
  9
$CMLSTYLE
  2
Standard
  9
$CMLJUST
 70
     0
  9
$CMLSCALE
 40
1.0
  9
$PROXYGRAPHICS
 70
     1
  9
$MEASUREMENT
 70
     0
  9
$CELWEIGHT
370
    -1
  9
$ENDCAPS
280
     0
  9
$JOINSTYLE
280
     0
  9
$LWDISPLAY
290
     0
  9
$INSUNITS
 70
     1
  9
$HYPERLINKBASE
  1

  9
$STYLESHEET
  1
Dart1.ctb
  9
$XEDIT
290
     1
  9
$CEPSNTYPE
380
     0
  9
$PSTYLEMODE
290
     1
  9
$FINGERPRINTGUID
  2
{FDEAD576-A652-11D2-9A35-0060089B3A3F}
  9
$VERSIONGUID
  2
{B2741B27-CDCC-4777-8480-E1FC65681D74}
  9
$EXTNAMES
290
     1
  9
$PSVPSCALE
 40
0.0
  9
$OLESTARTUP
290
     0
  0
ENDSEC
  0
SECTION
  2
CLASSES
  0
CLASS
  1
ACDBDICTIONARYWDFLT
  2
AcDbDictionaryWithDefault
  3
ObjectDBX Classes
 90
        0
280
     0
281
     0
  0
CLASS
  1
ACDBPLACEHOLDER
  2
AcDbPlaceHolder
  3
ObjectDBX Classes
 90
        0
280
     0
281
     0
  0
CLASS
  1
LAYOUT
  2
AcDbLayout
  3
ObjectDBX Classes
 90
        0
280
     0
281
     0
  0
CLASS
  1
TABLESTYLE
  2
AcDbTableStyle
  3
ObjectDBX Classes
 90
     2047
280
     0
281
     0
  0
CLASS
  1
DICTIONARYVAR
  2
AcDbDictionaryVar
  3
ObjectDBX Classes
 90
        0
280
     0
281
     0
  0
CLASS
  1
SORTENTSTABLE
  2
AcDbSortentsTable
  3
ObjectDBX Classes
 90
        0
280
     0
281
     0
  0
ENDSEC
  0
SECTION
  2
TABLES
  0
TABLE
  2
VPORT
  5
8
330
0
100
AcDbSymbolTable
 70
     2
  0
VPORT
  5
10528
330
8
100
AcDbSymbolTableRecord
100
AcDbViewportTableRecord
  2
*Active
 70
     0
 10
0.0
 20
0.0
 11
1.0
 21
1.0
 12
329.9385254542398
 22
370.6733079115175
 13
0.0
 23
0.0
 14
0.05
 24
0.05
 15
0.5
 25
0.5
 16
0.0
 26
0.0
 36
1.0
 17
0.0
 27
0.0
 37
0.0
 40
747.2381121077212
 41
1.571609632446134
 42
50.0
 43
0.0
 44
0.0
 50
0.0
 51
0.0
 71
     0
 72
 20000
 73
     1
 74
     3
 75
     0
 76
     0
 77
     0
 78
     0
281
     0
 65
     1
110
0.0
120
0.0
130
0.0
111
1.0
121
0.0
131
0.0
112
0.0
122
1.0
132
0.0
 79
     0
146
0.0
  0
ENDTAB
  0
TABLE
  2
LTYPE
  5
5
330
0
100
AcDbSymbolTable
 70
     3
  0
LTYPE
  5
14
330
5
100
AcDbSymbolTableRecord
100
AcDbLinetypeTableRecord
  2
ByBlock
 70
     0
  3

 72
    65
 73
     0
 40
0.0
  0
LTYPE
  5
15
330
5
100
AcDbSymbolTableRecord
100
AcDbLinetypeTableRecord
  2
ByLayer
 70
     0
  3

 72
    65
 73
     0
 40
0.0
  0
LTYPE
  5
16
330
5
100
AcDbSymbolTableRecord
100
AcDbLinetypeTableRecord
  2
Continuous
 70
     0
  3
Solid line
 72
    65
 73
     0
 40
0.0
  0
LTYPE
  5
3184
330
5
100
AcDbSymbolTableRecord
100
AcDbLinetypeTableRecord
  2
HIDDEN
 70
     0
  3
Hidden __ __ __ __ __ __ __ __ __ __ __ __ __ _
 72
    65
 73
     2
 40
0.375
 49
0.25
 74
     0
 49
-0.125
 74
     0
  0
LTYPE
  5
5233
330
5
100
AcDbSymbolTableRecord
100
AcDbLinetypeTableRecord
  2
CENTER
 70
     0
  3
____ _ ____ _ ____ _ ____ _ ____ _ ____ _ ____
 72
    65
 73
     4
 40
2.0
 49
1.25
 74
     0
 49
-0.25
 74
     0
 49
0.25
 74
     0
 49
-0.25
 74
     0
  0
ENDTAB
  0
TABLE
  2
LAYER
  5
2
102
{ACAD_XDICTIONARY
360
5031
102
}
330
0
100
AcDbSymbolTable
 70
    18
  0
LAYER
  5
10
330
2
100
AcDbSymbolTableRecord
100
AcDbLayerTableRecord
  2
0
 70
     0
 62
     7
  6
Continuous
370
    -3
390
F
  0
LAYER
  5
6FD
330
2
100
AcDbSymbolTableRecord
100
AcDbLayerTableRecord
  2
DEFPOINTS
 70
     0
 62
     7
  6
Continuous
290
     0
370
    -3
390
F
  0
LAYER
  5
1A71
330
2
100
AcDbSymbolTableRecord
100
AcDbLayerTableRecord
  2
Front Panel
 70
     0
 62
     7
  6
Continuous
370
    -3
390
F
  0
LAYER
  5
1AB5
330
2
100
AcDbSymbolTableRecord
100
AcDbLayerTableRecord
  2
Rear Panel
 70
     0
 62
     7
  6
Continuous
370
    -3
390
F
  0
LAYER
  5
4ACC
330
2
100
AcDbSymbolTableRecord
100
AcDbLayerTableRecord
  2
Hidden
 70
     0
 62
     7
  6
HIDDEN
370
    -3
390
F
  0
LAYER
  5
5234
330
2
100
AcDbSymbolTableRecord
100
AcDbLayerTableRecord
  2
CENTER
 70
     0
 62
     7
  6
CENTER
370
    -3
390
F
  0
LAYER
  5
5235
330
2
100
AcDbSymbolTableRecord
100
AcDbLayerTableRecord
  2
CONNECT
 70
     0
 62
     7
  6
Continuous
370
    -3
390
F
  0
LAYER
  5
5238
330
2
100
AcDbSymbolTableRecord
100
AcDbLayerTableRecord
  2
PCB
 70
     0
 62
     7
  6
Continuous
370
    -3
390
F
1001
AcAecLayerStandard
1000

1000

  0
LAYER
  5
5239
330
2
100
AcDbSymbolTableRecord
100
AcDbLayerTableRecord
  2
SWITCH
 70
     0
 62
     7
  6
Continuous
370
    -3
390
F
  0
LAYER
  5
55CC
330
2
100
AcDbSymbolTableRecord
100
AcDbLayerTableRecord
  2
DIM
 70
     0
 62
     7
  6
Continuous
370
    -3
390
F
  0
LAYER
  5
857F
330
2
100
AcDbSymbolTableRecord
100
AcDbLayerTableRecord
  2
FASTENER
 70
     0
 62
     7
  6
Continuous
370
    -3
390
F
  0
LAYER
  5
AAD1
330
2
100
AcDbSymbolTableRecord
100
AcDbLayerTableRecord
  2
MOTOR
 70
     0
 62
     7
  6
Continuous
370
    -3
390
F
  0
LAYER
  5
AD13
330
2
100
AcDbSymbolTableRecord
100
AcDbLayerTableRecord
  2
PART
 70
     0
 62
     7
  6
Continuous
370
    -3
390
F
  0
LAYER
  5
B076
330
2
100
AcDbSymbolTableRecord
100
AcDbLayerTableRecord
  2
VENT
 70
     0
 62
     7
  6
Continuous
370
    -3
390
F
  0
LAYER
  5
C19C
330
2
100
AcDbSymbolTableRecord
100
AcDbLayerTableRecord
  2
Base
 70
     0
 62
     7
  6
Continuous
370
    -3
390
F
1001
AcAecLayerStandard
1000

1000

  0
LAYER
  5
C19F
330
2
100
AcDbSymbolTableRecord
100
AcDbLayerTableRecord
  2
Top Panel
 70
     0
 62
     7
  6
Continuous
370
    -3
390
F
1001
AcAecLayerStandard
1000

1000

  0
LAYER
  5
E3D8
330
2
100
AcDbSymbolTableRecord
100
AcDbLayerTableRecord
  2
PANEL
 70
     0
 62
     7
  6
Continuous
370
    -3
390
F
  0
LAYER
  5
E3D9
330
2
100
AcDbSymbolTableRecord
100
AcDbLayerTableRecord
  2
CONNECTOR
 70
     0
 62
     7
  6
Continuous
370
    -3
390
F
  0
ENDTAB
  0
TABLE
  2
STYLE
  5
3
330
0
100
AcDbSymbolTable
 70
     4
  0
STYLE
  5
11
330
3
100
AcDbSymbolTableRecord
100
AcDbTextStyleTableRecord
  2
Standard
 70
     0
 40
0.0
 41
1.0
 50
0.0
 71
     0
 42
0.2
  3
romans.shx
  4

  0
STYLE
  5
523F
330
3
100
AcDbSymbolTableRecord
100
AcDbTextStyleTableRecord
  2
TEXT2
 70
     0
 40
0.0
 41
1.0
 50
0.0
 71
     0
 42
1.0
  3
ROMANT.SHX
  4

  0
STYLE
  5
EE93
330
3
100
AcDbSymbolTableRecord
100
AcDbTextStyleTableRecord
  2
THIN
 70
     0
 40
0.0
 41
0.8
 50
0.0
 71
     0
 42
3.5
  3
romans.shx
  4

  0
STYLE
  5
EE94
330
3
100
AcDbSymbolTableRecord
100
AcDbTextStyleTableRecord
  2
ARIAL
 70
     0
 40
0.0
 41
1.0
 50
0.0
 71
     0
 42
3.5
  3
ARIAL.TTF
  4

1001
ACAD
1000
Arial
1071
       34
  0
ENDTAB
  0
TABLE
  2
VIEW
  5
6
330
0
100
AcDbSymbolTable
 70
     0
  0
ENDTAB
  0
TABLE
  2
UCS
  5
7
330
0
100
AcDbSymbolTable
 70
     6
  0
UCS
  5
96E6
330
7
100
AcDbSymbolTableRecord
100
AcDbUCSTableRecord
  2
TOP
 70
     0
 10
4.048409592529651
 20
10.77986676717617
 30
0.0
 11
1.0
 21
0.0
 31
0.0
 12
0.0
 22
1.0
 32
0.0
 79
     0
146
0.0
  0
UCS
  5
AD9D
330
7
100
AcDbSymbolTableRecord
100
AcDbUCSTableRecord
  2
PCB TOP
 70
     0
 10
20.54840959252969
 20
10.82986676717617
 30
0.0
 11
1.0
 21
0.0
 31
0.0
 12
0.0
 22
1.0
 32
0.0
 79
     0
146
0.0
  0
UCS
  5
C2DB
330
7
100
AcDbSymbolTableRecord
100
AcDbUCSTableRecord
  2
FRONT PANEL
 70
     0
 10
21.89840959252965
 20
3.940614798672223
 30
0.0
 11
1.0
 21
0.0
 31
0.0
 12
0.0
 22
1.0
 32
0.0
 79
     0
146
0.0
  0
UCS
  5
D271
330
7
100
AcDbSymbolTableRecord
100
AcDbUCSTableRecord
  2
REAR PANEL
 70
     0
 10
21.15825211221469
 20
24.92247319142812
 30
0.0
 11
1.0
 21
0.0
 31
0.0
 12
0.0
 22
1.0
 32
0.0
 79
     0
146
0.0
  0
UCS
  5
D579
330
7
100
AcDbSymbolTableRecord
100
AcDbUCSTableRecord
  2
PCB 2
 70
     0
 10
54.84840959252968
 20
10.82986676717617
 30
0.0
 11
1.0
 21
0.0
 31
0.0
 12
0.0
 22
1.0
 32
0.0
 79
     0
146
0.0
  0
UCS
  5
D57A
330
7
100
AcDbSymbolTableRecord
100
AcDbUCSTableRecord
  2
REAR PANEL 2
 70
     0
 10
55.45825211221469
 20
24.92247319142812
 30
0.0
 11
1.0
 21
0.0
 31
0.0
 12
0.0
 22
1.0
 32
0.0
 79
     0
146
0.0
  0
ENDTAB
  0
TABLE
  2
APPID
  5
9
330
0
100
AcDbSymbolTable
 70
     6
  0
APPID
  5
12
330
9
100
AcDbSymbolTableRecord
100
AcDbRegAppTableRecord
  2
ACAD
 70
     0
  0
APPID
  5
5240
330
9
100
AcDbSymbolTableRecord
100
AcDbRegAppTableRecord
  2
PHOENIX7010
 70
     0
  0
APPID
  5
5241
330
9
100
AcDbSymbolTableRecord
100
AcDbRegAppTableRecord
  2
AcAecLayerStandard
 70
     0
  0
APPID
  5
5242
330
9
100
AcDbSymbolTableRecord
100
AcDbRegAppTableRecord
  2
ACAD_PSEXT
 70
     0
  0
APPID
  5
55E7
330
9
100
AcDbSymbolTableRecord
100
AcDbRegAppTableRecord
  2
ACAD_DSTYLE_DIMTEXT_FILL
 70
     0
  0
APPID
  5
5A7B
330
9
100
AcDbSymbolTableRecord
100
AcDbRegAppTableRecord
  2
DCO15
 70
     0
  0
ENDTAB
  0
TABLE
  2
DIMSTYLE
  5
A
330
0
100
AcDbSymbolTable
 70
     2
100
AcDbDimStyleTable
 71
     2
340
EE95
340
27
  0
DIMSTYLE
105
27
330
A
100
AcDbSymbolTableRecord
100
AcDbDimStyleTableRecord
  2
Standard
 70
     0
  3
\X
  4
mm
 40
0.0
 73
     0
140
0.156
141
0.0
178
     3
271
     2
272
     2
340
11
  0
DIMSTYLE
105
EE95
102
{ACAD_REACTORS
330
F98E
330
F99C
330
FA48
330
FAA4
330
FAB3
330
FA26
330
FB14
330
FB2C
330
FC81
330
FFE5
102
}
330
A
100
AcDbSymbolTableRecord
100
AcDbDimStyleTableRecord
  2
METRIC
 70
     0
 41
5.0
 42
1.6
 43
10.0
 44
1.6
140
5.0
141
2.5
147
2.5
178
   256
271
     1
272
     1
340
EE94
  0
ENDTAB
  0
TABLE
  2
BLOCK_RECORD
  5
1
330
0
100
AcDbSymbolTable
 70
    21
  0
BLOCK_RECORD
  5
1F
102
{ACAD_XDICTIONARY
360
54D8
102
}
330
1
100
AcDbSymbolTableRecord
100
AcDbBlockTableRecord
  2
*Model_Space
340
22
  0
BLOCK_RECORD
  5
F8D6
330
1
100
AcDbSymbolTableRecord
100
AcDbBlockTableRecord
  2
*Paper_Space
340
F8D7
  0
BLOCK_RECORD
  5
ACC9
330
1
100
AcDbSymbolTableRecord
100
AcDbBlockTableRecord
  2
m4nute
340
0
102
{BLKREFS
331
D3C5
331
D3C9
102
}
  0
BLOCK_RECORD
  5
ACDB
330
1
100
AcDbSymbolTableRecord
100
AcDbBlockTableRecord
  2
M4NUTT
340
0
102
{BLKREFS
331
D3B0
102
}
  0
BLOCK_RECORD
  5
ADF1
330
1
100
AcDbSymbolTableRecord
100
AcDbBlockTableRecord
  2
m4washt
340
0
102
{BLKREFS
331
D3AF
102
}
  0
BLOCK_RECORD
  5
ADF6
330
1
100
AcDbSymbolTableRecord
100
AcDbBlockTableRecord
  2
m4washe
340
0
102
{BLKREFS
331
D3C7
331
D3C8
331
D3CA
102
}
  0
BLOCK_RECORD
  5
D854
330
1
100
AcDbSymbolTableRecord
100
AcDbBlockTableRecord
  2
M3FLATT
340
0
102
{BLKREFS
331
ED45
331
ED46
331
ED47
102
}
  0
BLOCK_RECORD
  5
E3D3
330
1
100
AcDbSymbolTableRecord
100
AcDbBlockTableRecord
  2
4hole
340
0
102
{BLKREFS
331
E4C3
331
E4C8
331
E520
331
E524
331
E6F9
331
E6FE
102
}
  0
BLOCK_RECORD
  5
E951
330
1
100
AcDbSymbolTableRecord
100
AcDbBlockTableRecord
  2
m2.5flatt
340
0
102
{BLKREFS
331
E961
331
E962
331
E963
331
E964
331
ED41
331
ED42
331
ED43
331
ED44
102
}
  0
BLOCK_RECORD
  5
F261
330
1
100
AcDbSymbolTableRecord
100
AcDbBlockTableRecord
  2
m4pant
340
0
102
{BLKREFS
331
F271
331
F272
331
F273
331
F274
102
}
  0
BLOCK_RECORD
  5
F98F
330
1
100
AcDbSymbolTableRecord
100
AcDbBlockTableRecord
  2
*D8
340
0
  0
BLOCK_RECORD
  5
F99D
330
1
100
AcDbSymbolTableRecord
100
AcDbBlockTableRecord
  2
*D9
340
0
  0
BLOCK_RECORD
  5
FA27
330
1
100
AcDbSymbolTableRecord
100
AcDbBlockTableRecord
  2
*D10
340
0
  0
BLOCK_RECORD
  5
FA49
330
1
100
AcDbSymbolTableRecord
100
AcDbBlockTableRecord
  2
*D11
340
0
  0
BLOCK_RECORD
  5
FAA5
330
1
100
AcDbSymbolTableRecord
100
AcDbBlockTableRecord
  2
*D12
340
0
  0
BLOCK_RECORD
  5
FAB4
330
1
100
AcDbSymbolTableRecord
100
AcDbBlockTableRecord
  2
*D13
340
0
  0
BLOCK_RECORD
  5
FB15
330
1
100
AcDbSymbolTableRecord
100
AcDbBlockTableRecord
  2
*D14
340
0
  0
BLOCK_RECORD
  5
FB2D
330
1
100
AcDbSymbolTableRecord
100
AcDbBlockTableRecord
  2
*D15
340
0
  0
BLOCK_RECORD
  5
FC82
330
1
100
AcDbSymbolTableRecord
100
AcDbBlockTableRecord
  2
*D16
340
0
  0
BLOCK_RECORD
  5
FFE6
330
1
100
AcDbSymbolTableRecord
100
AcDbBlockTableRecord
  2
*D17
340
0
  0
BLOCK_RECORD
  5
1046D
330
1
100
AcDbSymbolTableRecord
100
AcDbBlockTableRecord
  2
m3washe
340
0
102
{BLKREFS
331
10483
331
10484
331
104C4
331
104C5
102
}
  0
BLOCK_RECORD
  5
10474
102
{ACAD_XDICTIONARY
360
10485
102
}
330
1
100
AcDbSymbolTableRecord
100
AcDbBlockTableRecord
  2
A$C15614AF3
340
0
102
{BLKREFS
331
10489
102
}
  0
BLOCK_RECORD
  5
104CF
330
1
100
AcDbSymbolTableRecord
100
AcDbBlockTableRecord
  2
m3pant
340
0
102
{BLKREFS
331
104DF
331
104E0
331
104E1
331
104E2
102
}
  0
ENDTAB
  0
ENDSEC
  0
SECTION
  2
BLOCKS
  0
BLOCK
  5
20
330
1F
100
AcDbEntity
  8
0
100
AcDbBlockBegin
  2
*Model_Space
 70
     0
 10
0.0
 20
0.0
 30
0.0
  3
*Model_Space
  1

  0
ENDBLK
  5
21
330
1F
100
AcDbEntity
  8
0
100
AcDbBlockEnd
  0
BLOCK
  5
F8D8
330
F8D6
100
AcDbEntity
 67
     1
  8
0
100
AcDbBlockBegin
  2
*Paper_Space
 70
     0
 10
0.0
 20
0.0
 30
0.0
  3
*Paper_Space
  1

  0
ENDBLK
  5
F8D9
330
F8D6
100
AcDbEntity
 67
     1
  8
0
100
AcDbBlockEnd
  0
BLOCK
  5
ACD6
330
ACC9
100
AcDbEntity
  8
0
100
AcDbBlockBegin
  2
m4nute
 70
     0
 10
0.0
 20
0.0
 30
0.0
  3
m4nute
  1

  0
ARC
  5
ACCA
330
ACC9
100
AcDbEntity
  8
FASTENER
100
AcDbCircle
 10
-3.074135924899792
 20
-1.754522327360632
 30
0.0
 40
1.445475872639358
100
AcDbArc
 50
228.0562545220055
 51
311.9437454779944
  0
LINE
  5
ACCB
330
ACC9
100
AcDbEntity
  8
FASTENER
100
AcDbLine
 10
-2.107978919900347
 20
-2.829669359198987
 30
0.0
 11
-2.107978919900347
 21
-0.3703288408028129
 31
0.0
  0
LINE
  5
ACCC
330
ACC9
100
AcDbEntity
  8
FASTENER
100
AcDbLine
 10
4.040292930099553
 20
-2.829669359198987
 30
0.0
 11
4.040292930099667
 21
-0.3703288408095489
 31
0.0
  0
LINE
  5
ACCD
330
ACC9
100
AcDbEntity
  8
FASTENER
100
AcDbLine
 10
-4.040292929900374
 20
-2.829669359198987
 30
0.0
 11
-4.040292929900488
 21
-0.3703288408028413
 31
0.0
  0
ARC
  5
ACCE
330
ACC9
100
AcDbEntity
  8
FASTENER
100
AcDbCircle
 10
-3.074135924899792
 20
-1.445475872639377
 30
0.0
 40
1.445475872639358
100
AcDbArc
 50
48.05625452200557
 51
131.9437454779944
  0
LINE
  5
ACCF
330
ACC9
100
AcDbEntity
  8
FASTENER
100
AcDbLine
 10
-3.074135924899792
 20
-0.0000000000000284
 30
0.0
 11
3.064094790576291
 21
-0.0000000000000853
 31
0.0
  0
LINE
  5
ACD0
330
ACC9
100
AcDbEntity
  8
FASTENER
100
AcDbLine
 10
2.097937785576846
 20
-2.829669359198987
 30
0.0
 11
2.097937785576846
 21
-0.3703288408028129
 31
0.0
  0
ARC
  5
ACD1
330
ACC9
100
AcDbEntity
  8
FASTENER
100
AcDbCircle
 10
3.064094790576291
 20
-1.445475872639377
 30
0.0
 40
1.445475872639358
100
AcDbArc
 50
48.05625452200557
 51
131.9437454779944
  0
ARC
  5
ACD2
330
ACC9
100
AcDbEntity
  8
FASTENER
100
AcDbCircle
 10
-0.0050205671636832
 20
-6.157324545608531
 30
0.0
 40
6.157252075463616
100
AcDbArc
 50
70.02916925897912
 51
109.9708307409719
  0
LINE
  5
ACD3
330
ACC9
100
AcDbEntity
  8
FASTENER
100
AcDbLine
 10
-3.074135924899792
 20
-3.199998200001772
 30
0.0
 11
3.064094790576291
 21
-3.199998200001772
 31
0.0
  0
ARC
  5
ACD4
330
ACC9
100
AcDbEntity
  8
FASTENER
100
AcDbCircle
 10
3.064094790576291
 20
-1.754522327360632
 30
0.0
 40
1.445475872639358
100
AcDbArc
 50
228.0562545220055
 51
311.9437454779944
  0
ARC
  5
ACD5
330
ACC9
100
AcDbEntity
  8
FASTENER
100
AcDbCircle
 10
-0.0050205671636832
 20
2.95732634560673
 30
0.0
 40
6.157252075463616
100
AcDbArc
 50
250.0291692590281
 51
289.9708307410209
  0
ENDBLK
  5
ACD7
330
ACC9
100
AcDbEntity
  8
0
100
AcDbBlockEnd
  0
BLOCK
  5
ACE0
330
ACDB
100
AcDbEntity
  8
0
100
AcDbBlockBegin
  2
M4NUTT
 70
     0
 10
0.0
 20
0.0
 30
0.0
  3
M4NUTT
  1

  0
ARC
  5
ACDC
330
ACDB
100
AcDbEntity
  8
FASTENER
100
AcDbCircle
 10
0.0
 20
0.0
 30
0.0
 40
2.0
100
AcDbArc
 50
76.12461886653091
 51
20.66365099019179
  0
CIRCLE
  5
ACDD
330
ACDB
100
AcDbEntity
  8
FASTENER
100
AcDbCircle
 10
0.0
 20
0.0
 30
0.0
 40
1.5
  0
CIRCLE
  5
ACDE
330
ACDB
100
AcDbEntity
  8
FASTENER
100
AcDbCircle
 10
0.0
 20
0.0
 30
0.0
 40
3.498996316197036
  0
LWPOLYLINE
  5
ACDF
330
ACDB
100
AcDbEntity
  8
FASTENER
100
AcDbPolyline
 90
        6
 70
     1
 43
0.0
 10
4.040292930099667
 20
0.0
 10
2.020146465049947
 20
3.498996316197036
 10
-2.020146465049833
 20
3.498996316197036
 10
-4.040292930099667
 20
0.0
 10
-2.020146465049947
 20
-3.498996316197036
 10
2.020146465049833
 20
-3.498996316197036
  0
ENDBLK
  5
ACE1
330
ACDB
100
AcDbEntity
  8
0
100
AcDbBlockEnd
  0
BLOCK
  5
ADF2
330
ADF1
100
AcDbEntity
  8
0
100
AcDbBlockBegin
  2
m4washt
 70
     0
 10
0.0
 20
0.0
 30
0.0
  3
m4washt
  1

  0
CIRCLE
  5
ADF3
330
ADF1
100
AcDbEntity
  8
FASTENER
 48
25.4
100
AcDbCircle
 10
0.0
 20
0.0
 30
0.0
 40
4.0
  0
CIRCLE
  5
ADF4
330
ADF1
100
AcDbEntity
  8
FASTENER
 48
25.4
100
AcDbCircle
 10
0.0
 20
0.0
 30
0.0
 40
2.149999999999999
  0
ENDBLK
  5
ADF5
330
ADF1
100
AcDbEntity
  8
0
100
AcDbBlockEnd
  0
BLOCK
  5
ADF7
330
ADF6
100
AcDbEntity
  8
0
100
AcDbBlockBegin
  2
m4washe
 70
     0
 10
0.0
 20
0.0
 30
0.0
  3
m4washe
  1

  0
LINE
  5
ADF8
330
ADF6
100
AcDbEntity
  8
FASTENER
 48
25.4
100
AcDbLine
 10
-0.8000000000000113
 20
4.5
 30
0.0
 11
0.0
 21
4.5
 31
0.0
  0
LINE
  5
ADF9
330
ADF6
100
AcDbEntity
  8
FASTENER
 48
25.4
100
AcDbLine
 10
-0.8000000000000113
 20
-4.5
 30
0.0
 11
-0.8000000000000113
 21
4.5
 31
0.0
  0
LINE
  5
ADFA
330
ADF6
100
AcDbEntity
  8
FASTENER
 48
25.4
100
AcDbLine
 10
0.0
 20
-4.5
 30
0.0
 11
-0.8000000000000113
 21
-4.5
 31
0.0
  0
LINE
  5
ADFB
330
ADF6
100
AcDbEntity
  8
FASTENER
 48
25.4
100
AcDbLine
 10
0.0
 20
4.5
 30
0.0
 11
0.0
 21
-4.5
 31
0.0
  0
ENDBLK
  5
ADFC
330
ADF6
100
AcDbEntity
  8
0
100
AcDbBlockEnd
  0
BLOCK
  5
D862
330
D854
100
AcDbEntity
  8
0
100
AcDbBlockBegin
  2
M3FLATT
 70
     0
 10
0.0
 20
0.0
 30
0.0
  3
M3FLATT
  1

  0
LINE
  5
D855
330
D854
100
AcDbEntity
  8
FASTENER
100
AcDbLine
 10
-0.3652173913044407
 20
-1.460869565217592
 30
0.0
 11
0.3652173913043555
 21
-1.460869565217592
 31
0.0
  0
LINE
  5
D856
330
D854
100
AcDbEntity
  8
FASTENER
100
AcDbLine
 10
-0.3652173913042702
 20
1.460869565217365
 30
0.0
 11
0.3652173913043555
 21
1.460869565217592
 31
0.0
  0
LINE
  5
D857
330
D854
100
AcDbEntity
  8
FASTENER
100
AcDbLine
 10
-1.460869565217365
 20
-0.3652173913045544
 30
0.0
 11
-0.3652173913042702
 21
-0.3652173913043271
 31
0.0
  0
LINE
  5
D858
330
D854
100
AcDbEntity
  8
FASTENER
100
AcDbLine
 10
-1.460869565217194
 20
0.3652173913045544
 30
0.0
 11
-0.3652173913044976
 21
0.3652173913045544
 31
0.0
  0
LINE
  5
D859
330
D854
100
AcDbEntity
  8
FASTENER
100
AcDbLine
 10
-0.3652173913044407
 20
0.3652173913043271
 30
0.0
 11
-0.3652173913042702
 21
1.460869565217365
 31
0.0
  0
LINE
  5
D85A
330
D854
100
AcDbEntity
  8
FASTENER
100
AcDbLine
 10
-0.3652173913044407
 20
-1.460869565217592
 30
0.0
 11
-0.3652173913043271
 21
-0.3652173913045544
 31
0.0
  0
LINE
  5
D85B
330
D854
100
AcDbEntity
  8
FASTENER
100
AcDbLine
 10
-1.460869565217365
 20
-0.3652173913045544
 30
0.0
 11
-1.460869565217194
 21
0.3652173913045544
 31
0.0
  0
LINE
  5
D85C
330
D854
100
AcDbEntity
  8
FASTENER
100
AcDbLine
 10
0.3652173913043555
 20
-0.3652173913043271
 30
0.0
 11
1.460869565217478
 21
-0.3652173913043271
 31
0.0
  0
LINE
  5
D85D
330
D854
100
AcDbEntity
  8
FASTENER
100
AcDbLine
 10
0.3652173913042702
 20
0.3652173913045544
 30
0.0
 11
1.460869565217421
 21
0.3652173913045544
 31
0.0
  0
LINE
  5
D85E
330
D854
100
AcDbEntity
  8
FASTENER
100
AcDbLine
 10
0.3652173913043555
 20
-1.460869565217592
 30
0.0
 11
0.3652173913043555
 21
-0.3652173913043271
 31
0.0
  0
LINE
  5
D85F
330
D854
100
AcDbEntity
  8
FASTENER
100
AcDbLine
 10
0.3652173913042702
 20
0.3652173913043271
 30
0.0
 11
0.3652173913043555
 21
1.460869565217592
 31
0.0
  0
LINE
  5
D860
330
D854
100
AcDbEntity
  8
FASTENER
100
AcDbLine
 10
1.460869565217478
 20
-0.3652173913043271
 30
0.0
 11
1.460869565217421
 21
0.3652173913045544
 31
0.0
  0
CIRCLE
  5
D861
330
D854
100
AcDbEntity
  8
FASTENER
100
AcDbCircle
 10
0.0
 20
0.0
 30
0.0
 40
2.799999999999998
  0
ENDBLK
  5
D863
330
D854
100
AcDbEntity
  8
0
100
AcDbBlockEnd
  0
BLOCK
  5
E3D4
330
E3D3
100
AcDbEntity
  8
0
100
AcDbBlockBegin
  2
4hole
 70
     0
 10
0.0
 20
0.0
 30
0.0
  3
4hole
  1

  0
CIRCLE
  5
E3D5
330
E3D3
100
AcDbEntity
  8
FASTENER
100
AcDbCircle
 10
0.0
 20
0.0
 30
0.0
 40
0.0468
  0
CIRCLE
  5
E3D6
330
E3D3
100
AcDbEntity
  8
FASTENER
  6
HIDDEN
 62
     7
100
AcDbCircle
 10
0.0
 20
0.0
 30
0.0
 40
0.056
  0
ENDBLK
  5
E3D7
330
E3D3
100
AcDbEntity
  8
0
100
AcDbBlockEnd
  0
BLOCK
  5
E95F
330
E951
100
AcDbEntity
  8
0
100
AcDbBlockBegin
  2
m2.5flatt
 70
     0
 10
0.0
 20
0.0
 30
0.0
  3
m2.5flatt
  1

  0
LINE
  5
E952
330
E951
100
AcDbEntity
  8
FASTENER
100
AcDbLine
 10
-0.3065217391305168
 20
-1.226086956521896
 30
0.0
 11
0.3065217391304316
 21
-1.226086956521896
 31
0.0
  0
LINE
  5
E953
330
E951
100
AcDbEntity
  8
FASTENER
100
AcDbLine
 10
-0.3065217391303747
 20
1.226086956521726
 30
0.0
 11
0.3065217391304316
 21
1.226086956521896
 31
0.0
  0
LINE
  5
E954
330
E951
100
AcDbEntity
  8
FASTENER
100
AcDbLine
 10
-1.226086956521726
 20
-0.3065217391306305
 30
0.0
 11
-0.3065217391303747
 21
-0.3065217391304031
 31
0.0
  0
LINE
  5
E955
330
E951
100
AcDbEntity
  8
FASTENER
100
AcDbLine
 10
-1.226086956521584
 20
0.3065217391306305
 30
0.0
 11
-0.3065217391305737
 21
0.3065217391306305
 31
0.0
  0
LINE
  5
E956
330
E951
100
AcDbEntity
  8
FASTENER
100
AcDbLine
 10
-0.3065217391305168
 20
0.3065217391304031
 30
0.0
 11
-0.3065217391303747
 21
1.226086956521726
 31
0.0
  0
LINE
  5
E957
330
E951
100
AcDbEntity
  8
FASTENER
100
AcDbLine
 10
-0.3065217391305168
 20
-1.226086956521896
 30
0.0
 11
-0.3065217391304316
 21
-0.3065217391306305
 31
0.0
  0
LINE
  5
E958
330
E951
100
AcDbEntity
  8
FASTENER
100
AcDbLine
 10
-1.226086956521726
 20
-0.3065217391306305
 30
0.0
 11
-1.226086956521584
 21
0.3065217391306305
 31
0.0
  0
LINE
  5
E959
330
E951
100
AcDbEntity
  8
FASTENER
100
AcDbLine
 10
0.3065217391304316
 20
-0.3065217391304031
 30
0.0
 11
1.226086956521811
 21
-0.3065217391304031
 31
0.0
  0
LINE
  5
E95A
330
E951
100
AcDbEntity
  8
FASTENER
100
AcDbLine
 10
0.3065217391303747
 20
0.3065217391306305
 30
0.0
 11
1.226086956521754
 21
0.3065217391306305
 31
0.0
  0
LINE
  5
E95B
330
E951
100
AcDbEntity
  8
FASTENER
100
AcDbLine
 10
0.3065217391304316
 20
-1.226086956521896
 30
0.0
 11
0.3065217391304316
 21
-0.3065217391304031
 31
0.0
  0
LINE
  5
E95C
330
E951
100
AcDbEntity
  8
FASTENER
100
AcDbLine
 10
0.3065217391303747
 20
0.3065217391304031
 30
0.0
 11
0.3065217391304316
 21
1.226086956521896
 31
0.0
  0
LINE
  5
E95D
330
E951
100
AcDbEntity
  8
FASTENER
100
AcDbLine
 10
1.226086956521811
 20
-0.3065217391304031
 30
0.0
 11
1.226086956521754
 21
0.3065217391306305
 31
0.0
  0
CIRCLE
  5
E95E
330
E951
100
AcDbEntity
  8
FASTENER
100
AcDbCircle
 10
0.0
 20
0.0
 30
0.0
 40
2.35
  0
ENDBLK
  5
E960
330
E951
100
AcDbEntity
  8
0
100
AcDbBlockEnd
  0
BLOCK
  5
F26F
330
F261
100
AcDbEntity
  8
0
100
AcDbBlockBegin
  2
m4pant
 70
     0
 10
0.0
 20
0.0
 30
0.0
  3
m4pant
  1

  0
CIRCLE
  5
F262
330
F261
100
AcDbEntity
  8
PART
100
AcDbCircle
 10
0.0
 20
0.0
 30
0.0
 40
3.9999285
  0
LINE
  5
F263
330
F261
100
AcDbEntity
  8
PART
100
AcDbLine
 10
-1.481454999998732
 20
0.4444364999995969
 30
0.0
 11
-0.4444365000028938
 21
0.4444364999995969
 31
0.0
  0
LINE
  5
F264
330
F261
100
AcDbEntity
  8
PART
100
AcDbLine
 10
-1.481454999998732
 20
-0.4444364999995969
 30
0.0
 11
-0.4444365000028938
 21
-0.4444364999995969
 31
0.0
  0
LINE
  5
F265
330
F261
100
AcDbEntity
  8
PART
100
AcDbLine
 10
0.4444365000028938
 20
1.481455000000323
 30
0.0
 11
0.4444365000028938
 21
0.4444364999995969
 31
0.0
  0
LINE
  5
F266
330
F261
100
AcDbEntity
  8
PART
100
AcDbLine
 10
-0.4444365000028938
 20
1.481455000000323
 30
0.0
 11
-0.4444365000028938
 21
0.4444364999995969
 31
0.0
  0
LINE
  5
F267
330
F261
100
AcDbEntity
  8
PART
100
AcDbLine
 10
-0.4444365000028938
 20
1.481455000000323
 30
0.0
 11
0.4444365000028938
 21
1.481455000000323
 31
0.0
  0
LINE
  5
F268
330
F261
100
AcDbEntity
  8
PART
100
AcDbLine
 10
-1.481454999998732
 20
-0.4444364999995969
 30
0.0
 11
-1.481454999998732
 21
0.4444364999995969
 31
0.0
  0
LINE
  5
F269
330
F261
100
AcDbEntity
  8
PART
100
AcDbLine
 10
0.4444365000028938
 20
-1.481455000000323
 30
0.0
 11
-0.4444365000028938
 21
-1.481455000000323
 31
0.0
  0
LINE
  5
F26A
330
F261
100
AcDbEntity
  8
PART
100
AcDbLine
 10
1.481454999998732
 20
0.4444364999995969
 30
0.0
 11
1.481454999998732
 21
-0.4444364999995969
 31
0.0
  0
LINE
  5
F26B
330
F261
100
AcDbEntity
  8
PART
100
AcDbLine
 10
0.4444365000028938
 20
-0.4444364999995969
 30
0.0
 11
0.4444365000028938
 21
-1.481455000000323
 31
0.0
  0
LINE
  5
F26C
330
F261
100
AcDbEntity
  8
PART
100
AcDbLine
 10
0.4444365000028938
 20
0.4444364999995969
 30
0.0
 11
1.481454999998732
 21
0.4444364999995969
 31
0.0
  0
LINE
  5
F26D
330
F261
100
AcDbEntity
  8
PART
100
AcDbLine
 10
-0.4444365000028938
 20
-0.4444364999995969
 30
0.0
 11
-0.4444365000028938
 21
-1.481455000000323
 31
0.0
  0
LINE
  5
F26E
330
F261
100
AcDbEntity
  8
PART
100
AcDbLine
 10
0.4444365000028938
 20
-0.4444364999995969
 30
0.0
 11
1.481454999998732
 21
-0.4444364999995969
 31
0.0
  0
ENDBLK
  5
F270
330
F261
100
AcDbEntity
  8
0
100
AcDbBlockEnd
  0
BLOCK
  5
F99A
330
F98F
100
AcDbEntity
  8
0
100
AcDbBlockBegin
  2
*D8
 70
     1
 10
0.0
 20
0.0
 30
0.0
  3
*D8
  1

  0
LINE
  5
10141
330
F98F
100
AcDbEntity
  8
DIM
 62
     0
370
    -2
100
AcDbLine
 10
556.2196036502534
 20
269.2086158862748
 30
0.0
 11
556.2196036502534
 21
234.3242760908801
 31
0.0
  0
LINE
  5
10142
330
F98F
100
AcDbEntity
  8
DIM
 62
     0
370
    -2
100
AcDbLine
 10
73.61960365025281
 20
269.208615886275
 30
0.0
 11
73.61960365025281
 21
234.3242760908801
 31
0.0
  0
LINE
  5
10143
330
F98F
100
AcDbEntity
  8
DIM
 62
     0
370
    -2
100
AcDbLine
 10
551.2196036502534
 20
235.9242760908801
 30
0.0
 11
325.9547332546187
 21
235.9242760908801
 31
0.0
  0
LINE
  5
10144
330
F98F
100
AcDbEntity
  8
DIM
 62
     0
370
    -2
100
AcDbLine
 10
78.61960365025281
 20
235.9242760908801
 30
0.0
 11
303.8844740458875
 21
235.9242760908801
 31
0.0
  0
SOLID
  5
10145
330
F98F
100
AcDbEntity
  8
DIM
 62
     0
100
AcDbTrace
 10
551.2196036502534
 20
236.7576094242134
 30
0.0
 11
551.2196036502534
 21
235.0909427575468
 31
0.0
 12
556.2196036502534
 22
235.9242760908801
 32
0.0
 13
556.2196036502534
 23
235.9242760908801
 33
0.0
  0
SOLID
  5
10146
330
F98F
100
AcDbEntity
  8
DIM
 62
     0
100
AcDbTrace
 10
78.61960365025281
 20
236.7576094242134
 30
0.0
 11
78.61960365025281
 21
235.0909427575468
 31
0.0
 12
73.61960365025281
 22
235.9242760908801
 32
0.0
 13
73.61960365025281
 23
235.9242760908801
 33
0.0
  0
MTEXT
  5
10147
330
F98F
100
AcDbEntity
  8
DIM
100
AcDbMText
 10
314.9196036502531
 20
235.9242760908801
 30
0.0
 40
5.0
 41
0.0
 71
     5
 72
     1
  1
\A1;482.6\P(19")
  7
ARIAL
 73
     1
 44
1.0
1001
ACAD
1000
MTEXTBEGIN
1070
    73
1070
     1
1070
    44
1040
1.0
1070
    74
1070
     0
1000
MTEXTEND
  0
POINT
  5
10148
330
F98F
100
AcDbEntity
  8
DEFPOINTS
 62
     0
100
AcDbPoint
 10
556.2196036502534
 20
270.8086158862748
 30
0.0
  0
POINT
  5
10149
330
F98F
100
AcDbEntity
  8
DEFPOINTS
 62
     0
100
AcDbPoint
 10
73.61960365025281
 20
270.808615886275
 30
0.0
  0
POINT
  5
1014A
330
F98F
100
AcDbEntity
  8
DEFPOINTS
 62
     0
100
AcDbPoint
 10
73.61960365025281
 20
235.9242760908801
 30
0.0
  0
ENDBLK
  5
F99B
330
F98F
100
AcDbEntity
  8
0
100
AcDbBlockEnd
  0
BLOCK
  5
F9A8
330
F99D
100
AcDbEntity
  8
0
100
AcDbBlockBegin
  2
*D9
 70
     1
 10
0.0
 20
0.0
 30
0.0
  3
*D9
  1

  0
LINE
  5
FC06
330
F99D
100
AcDbEntity
  8
DIM
 62
     0
370
    -2
100
AcDbLine
 10
90.91960365025277
 20
493.4086218862723
 30
0.0
 11
90.91960365025277
 21
533.6196685369294
 31
0.0
  0
LINE
  5
FC07
330
F99D
100
AcDbEntity
  8
DIM
 62
     0
370
    -2
100
AcDbLine
 10
538.9196036502528
 20
493.4086218862723
 30
0.0
 11
538.9196036502528
 21
533.6196685369294
 31
0.0
  0
LINE
  5
FC08
330
F99D
100
AcDbEntity
  8
DIM
 62
     0
370
    -2
100
AcDbLine
 10
95.91960365025277
 20
532.0196685369294
 30
0.0
 11
303.8912953282883
 21
532.0196685369294
 31
0.0
  0
LINE
  5
FC09
330
F99D
100
AcDbEntity
  8
DIM
 62
     0
370
    -2
100
AcDbLine
 10
533.9196036502528
 20
532.0196685369294
 30
0.0
 11
325.9479119722173
 21
532.0196685369294
 31
0.0
  0
SOLID
  5
FC0A
330
F99D
100
AcDbEntity
  8
DIM
 62
     0
100
AcDbTrace
 10
95.91960365025277
 20
532.8530018702628
 30
0.0
 11
95.91960365025277
 21
531.1863352035961
 31
0.0
 12
90.91960365025277
 22
532.0196685369294
 32
0.0
 13
90.91960365025277
 23
532.0196685369294
 33
0.0
  0
SOLID
  5
FC0B
330
F99D
100
AcDbEntity
  8
DIM
 62
     0
100
AcDbTrace
 10
533.9196036502528
 20
532.8530018702628
 30
0.0
 11
533.9196036502528
 21
531.1863352035961
 31
0.0
 12
538.9196036502528
 22
532.0196685369294
 32
0.0
 13
538.9196036502528
 23
532.0196685369294
 33
0.0
  0
MTEXT
  5
FC0C
330
F99D
100
AcDbEntity
  8
DIM
100
AcDbMText
 10
314.9196036502528
 20
532.0196685369294
 30
0.0
 40
5.0
 41
0.0
 71
     5
 72
     1
  1
\A1;448.0
  7
ARIAL
 73
     1
 44
1.0
1001
ACAD
1000
MTEXTBEGIN
1070
    73
1070
     1
1070
    44
1040
1.0
1070
    74
1070
     0
1000
MTEXTEND
  0
POINT
  5
FC0D
330
F99D
100
AcDbEntity
  8
DEFPOINTS
 62
     0
100
AcDbPoint
 10
90.91960365025277
 20
491.8086218862722
 30
0.0
  0
POINT
  5
FC0E
330
F99D
100
AcDbEntity
  8
DEFPOINTS
 62
     0
100
AcDbPoint
 10
538.9196036502528
 20
491.8086218862722
 30
0.0
  0
POINT
  5
FC0F
330
F99D
100
AcDbEntity
  8
DEFPOINTS
 62
     0
100
AcDbPoint
 10
538.9196036502528
 20
532.0196685369294
 30
0.0
  0
ENDBLK
  5
F9A9
330
F99D
100
AcDbEntity
  8
0
100
AcDbBlockEnd
  0
BLOCK
  5
FA32
330
FA27
100
AcDbEntity
  8
0
100
AcDbBlockBegin
  2
*D10
 70
     1
 10
0.0
 20
0.0
 30
0.0
  3
*D10
  1

  0
LINE
  5
1048A
330
FA27
100
AcDbEntity
  8
DIM
 62
     0
370
    -2
100
AcDbLine
 10
72.01960365025282
 20
270.808615886275
 30
0.0
 11
47.25000257085588
 21
270.808615886275
 31
0.0
  0
LINE
  5
1048B
330
FA27
100
AcDbEntity
  8
DIM
 62
     0
370
    -2
100
AcDbLine
 10
103.894586393134
 20
512.5946158862732
 30
0.0
 11
47.25000257085594
 21
512.5946158862732
 31
0.0
  0
LINE
  5
1048C
330
FA27
100
AcDbEntity
  8
DIM
 62
     0
370
    -2
100
AcDbLine
 10
48.85000257085589
 20
275.808615886275
 30
0.0
 11
48.85000257085591
 21
389.3557519476655
 31
0.0
  0
LINE
  5
1048D
330
FA27
100
AcDbEntity
  8
DIM
 62
     0
370
    -2
100
AcDbLine
 10
48.85000257085594
 20
507.5946158862732
 30
0.0
 11
48.85000257085591
 21
399.4614818248825
 31
0.0
  0
SOLID
  5
1048E
330
FA27
100
AcDbEntity
  8
DIM
 62
     0
100
AcDbTrace
 10
48.01666923752256
 20
275.808615886275
 30
0.0
 11
49.68333590418922
 21
275.808615886275
 31
0.0
 12
48.85000257085589
 22
270.808615886275
 32
0.0
 13
48.85000257085589
 23
270.808615886275
 33
0.0
  0
SOLID
  5
1048F
330
FA27
100
AcDbEntity
  8
DIM
 62
     0
100
AcDbTrace
 10
48.01666923752261
 20
507.5946158862732
 30
0.0
 11
49.68333590418928
 21
507.5946158862732
 31
0.0
 12
48.85000257085594
 22
512.5946158862732
 32
0.0
 13
48.85000257085594
 23
512.5946158862732
 33
0.0
  0
MTEXT
  5
10490
330
FA27
100
AcDbEntity
  8
DIM
100
AcDbMText
 10
48.85000257085585
 20
394.408616886274
 30
0.0
 40
5.0
 41
0.0
 71
     5
 72
     1
  1
\A1;241.8
  7
ARIAL
 73
     1
 44
1.0
1001
ACAD
1000
MTEXTBEGIN
1070
    73
1070
     1
1070
    44
1040
1.0
1070
    74
1070
     0
1000
MTEXTEND
  0
POINT
  5
10491
330
FA27
100
AcDbEntity
  8
DEFPOINTS
 62
     0
100
AcDbPoint
 10
73.61960365025281
 20
270.808615886275
 30
0.0
  0
POINT
  5
10492
330
FA27
100
AcDbEntity
  8
DEFPOINTS
 62
     0
100
AcDbPoint
 10
105.494586393134
 20
512.5946158862732
 30
0.0
  0
POINT
  5
10493
330
FA27
100
AcDbEntity
  8
DEFPOINTS
 62
     0
100
AcDbPoint
 10
48.85000257085594
 20
512.5946158862732
 30
0.0
  0
ENDBLK
  5
FA33
330
FA27
100
AcDbEntity
  8
0
100
AcDbBlockEnd
  0
BLOCK
  5
FA55
330
FA49
100
AcDbEntity
  8
0
100
AcDbBlockBegin
  2
*D11
 70
     1
 10
0.0
 20
0.0
 30
0.0
  3
*D11
  1

  0
LINE
  5
FA82
330
FA49
100
AcDbEntity
  8
DIM
 62
     0
370
    -2
100
AcDbLine
 10
436.8895940502547
 20
251.4786545462749
 30
0.0
 11
464.5533700980283
 21
251.4786545462749
 31
0.0
  0
LINE
  5
FA83
330
FA49
100
AcDbEntity
  8
DIM
 62
     0
370
    -2
100
AcDbLine
 10
462.9533700980283
 20
270.8086158862748
 30
0.0
 11
464.5533700980283
 21
270.8086158862748
 31
0.0
  0
LINE
  5
FA84
330
FA49
100
AcDbEntity
  8
DIM
 62
     0
370
    -2
100
AcDbLine
 10
462.9533700980283
 20
246.4786545462749
 30
0.0
 11
462.9533700980283
 21
241.4786545462749
 31
0.0
  0
LINE
  5
FA85
330
FA49
100
AcDbEntity
  8
DIM
 62
     0
370
    -2
100
AcDbLine
 10
462.9533700980283
 20
275.8086158862748
 30
0.0
 11
462.9533700980283
 21
280.8086158862748
 31
0.0
  0
SOLID
  5
FA86
330
FA49
100
AcDbEntity
  8
DIM
 62
     0
100
AcDbTrace
 10
462.120036764695
 20
246.4786545462749
 30
0.0
 11
463.7867034313615
 21
246.4786545462749
 31
0.0
 12
462.9533700980283
 22
251.4786545462749
 32
0.0
 13
462.9533700980283
 23
251.4786545462749
 33
0.0
  0
SOLID
  5
FA87
330
FA49
100
AcDbEntity
  8
DIM
 62
     0
100
AcDbTrace
 10
462.120036764695
 20
275.8086158862748
 30
0.0
 11
463.7867034313615
 21
275.8086158862748
 31
0.0
 12
462.9533700980283
 22
270.8086158862748
 32
0.0
 13
462.9533700980283
 23
270.8086158862748
 33
0.0
  0
MTEXT
  5
FA88
330
FA49
100
AcDbEntity
  8
DIM
100
AcDbMText
 10
462.9533700980282
 20
261.0314050906618
 30
0.0
 40
5.0
 41
0.0
 71
     5
 72
     1
  1
\A1;19.3
  7
ARIAL
 73
     1
 44
1.0
1001
ACAD
1000
MTEXTBEGIN
1070
    73
1070
     1
1070
    44
1040
1.0
1070
    74
1070
     0
1000
MTEXTEND
  0
POINT
  5
FA89
330
FA49
100
AcDbEntity
  8
DEFPOINTS
 62
     0
100
AcDbPoint
 10
435.2895940502547
 20
251.4786545462749
 30
0.0
  0
POINT
  5
FA8A
330
FA49
100
AcDbEntity
  8
DEFPOINTS
 62
     0
100
AcDbPoint
 10
461.3533700980283
 20
270.8086158862748
 30
0.0
  0
POINT
  5
FA8B
330
FA49
100
AcDbEntity
  8
DEFPOINTS
 62
     0
100
AcDbPoint
 10
462.9533700980283
 20
270.8086158862748
 30
0.0
  0
ENDBLK
  5
FA56
330
FA49
100
AcDbEntity
  8
0
100
AcDbBlockEnd
  0
BLOCK
  5
FAB1
330
FAA5
100
AcDbEntity
  8
0
100
AcDbBlockBegin
  2
*D12
 70
     1
 10
0.0
 20
0.0
 30
0.0
  3
*D12
  1

  0
LINE
  5
FC2F
330
FAA5
100
AcDbEntity
  8
DIM
 62
     0
370
    -2
100
AcDbLine
 10
72.01960365025282
 20
270.808615886275
 30
0.0
 11
65.45774951983078
 21
270.808615886275
 31
0.0
  0
LINE
  5
FC30
330
FAA5
100
AcDbEntity
  8
DIM
 62
     0
370
    -2
100
AcDbLine
 10
72.01960365025283
 20
273.808615886275
 30
0.0
 11
65.45774951983078
 21
273.808615886275
 31
0.0
  0
LINE
  5
FC31
330
FAA5
100
AcDbEntity
  8
DIM
 62
     0
370
    -2
100
AcDbLine
 10
67.05774951983078
 20
278.808615886275
 30
0.0
 11
67.05774951983078
 21
283.808615886275
 31
0.0
  0
LINE
  5
FC32
330
FAA5
100
AcDbEntity
  8
DIM
 62
     0
370
    -2
100
AcDbLine
 10
67.05774951983078
 20
265.808615886275
 30
0.0
 11
67.05774951983078
 21
260.808615886275
 31
0.0
  0
LINE
  5
FC33
330
FAA5
100
AcDbEntity
  8
DIM
 62
     0
370
    -2
100
AcDbLine
 10
67.05774951983078
 20
260.808615886275
 30
0.0
 11
62.05774951983078
 21
260.808615886275
 31
0.0
  0
SOLID
  5
FC34
330
FAA5
100
AcDbEntity
  8
DIM
 62
     0
100
AcDbTrace
 10
66.22441618649745
 20
278.808615886275
 30
0.0
 11
67.89108285316411
 21
278.808615886275
 31
0.0
 12
67.05774951983078
 22
273.808615886275
 32
0.0
 13
67.05774951983078
 23
273.808615886275
 33
0.0
  0
SOLID
  5
FC35
330
FAA5
100
AcDbEntity
  8
DIM
 62
     0
100
AcDbTrace
 10
66.22441618649745
 20
265.808615886275
 30
0.0
 11
67.89108285316411
 21
265.808615886275
 31
0.0
 12
67.05774951983078
 22
270.808615886275
 32
0.0
 13
67.05774951983078
 23
270.808615886275
 33
0.0
  0
MTEXT
  5
FC36
330
FAA5
100
AcDbEntity
  8
DIM
100
AcDbMText
 10
55.01648076130414
 20
260.808615886275
 30
0.0
 40
5.0
 41
0.0
 71
     5
 72
     1
  1
\A1;3.0
  7
ARIAL
 73
     1
 44
1.0
1001
ACAD
1000
MTEXTBEGIN
1070
    73
1070
     1
1070
    44
1040
1.0
1070
    74
1070
     0
1000
MTEXTEND
  0
POINT
  5
FC37
330
FAA5
100
AcDbEntity
  8
DEFPOINTS
 62
     0
100
AcDbPoint
 10
73.61960365025281
 20
270.808615886275
 30
0.0
  0
POINT
  5
FC38
330
FAA5
100
AcDbEntity
  8
DEFPOINTS
 62
     0
100
AcDbPoint
 10
73.61960365025282
 20
273.808615886275
 30
0.0
  0
POINT
  5
FC39
330
FAA5
100
AcDbEntity
  8
DEFPOINTS
 62
     0
100
AcDbPoint
 10
67.05774951983078
 20
273.808615886275
 30
0.0
  0
ENDBLK
  5
FAB2
330
FAA5
100
AcDbEntity
  8
0
100
AcDbBlockEnd
  0
BLOCK
  5
FABF
330
FAB4
100
AcDbEntity
  8
0
100
AcDbBlockBegin
  2
*D13
 70
     1
 10
0.0
 20
0.0
 30
0.0
  3
*D13
  1

  0
LINE
  5
FC3A
330
FAB4
100
AcDbEntity
  8
DIM
 62
     0
370
    -2
100
AcDbLine
 10
72.01960365025283
 20
273.808615886275
 30
0.0
 11
60.51375077417283
 21
273.808615886275
 31
0.0
  0
LINE
  5
FC3B
330
FAB4
100
AcDbEntity
  8
DIM
 62
     0
370
    -2
100
AcDbLine
 10
90.81960365025244
 20
494.8086158862733
 30
0.0
 11
60.51375077417286
 21
494.8086158862733
 31
0.0
  0
LINE
  5
FC3C
330
FAB4
100
AcDbEntity
  8
DIM
 62
     0
370
    -2
100
AcDbLine
 10
62.11375077417283
 20
278.808615886275
 30
0.0
 11
62.11375077417285
 21
378.1589776819727
 31
0.0
  0
LINE
  5
FC3D
330
FAB4
100
AcDbEntity
  8
DIM
 62
     0
370
    -2
100
AcDbLine
 10
62.11375077417287
 20
489.8086158862733
 30
0.0
 11
62.11375077417285
 21
388.2647075591896
 31
0.0
  0
SOLID
  5
FC3E
330
FAB4
100
AcDbEntity
  8
DIM
 62
     0
100
AcDbTrace
 10
61.28041744083949
 20
278.808615886275
 30
0.0
 11
62.94708410750616
 21
278.808615886275
 31
0.0
 12
62.11375077417283
 22
273.808615886275
 32
0.0
 13
62.11375077417283
 23
273.808615886275
 33
0.0
  0
SOLID
  5
FC3F
330
FAB4
100
AcDbEntity
  8
DIM
 62
     0
100
AcDbTrace
 10
61.28041744083954
 20
489.8086158862733
 30
0.0
 11
62.94708410750621
 21
489.8086158862733
 31
0.0
 12
62.11375077417287
 22
494.8086158862733
 32
0.0
 13
62.11375077417287
 23
494.8086158862733
 33
0.0
  0
MTEXT
  5
FC40
330
FAB4
100
AcDbEntity
  8
DIM
100
AcDbMText
 10
62.11375077417279
 20
383.2118426205811
 30
0.0
 40
5.0
 41
0.0
 71
     5
 72
     1
  1
\A1;221.0
  7
ARIAL
 73
     1
 44
1.0
1001
ACAD
1000
MTEXTBEGIN
1070
    73
1070
     1
1070
    44
1040
1.0
1070
    74
1070
     0
1000
MTEXTEND
  0
POINT
  5
FC41
330
FAB4
100
AcDbEntity
  8
DEFPOINTS
 62
     0
100
AcDbPoint
 10
73.61960365025282
 20
273.808615886275
 30
0.0
  0
POINT
  5
FC42
330
FAB4
100
AcDbEntity
  8
DEFPOINTS
 62
     0
100
AcDbPoint
 10
92.41960365025242
 20
494.8086158862733
 30
0.0
  0
POINT
  5
FC43
330
FAB4
100
AcDbEntity
  8
DEFPOINTS
 62
     0
100
AcDbPoint
 10
62.11375077417287
 20
494.8086158862733
 30
0.0
  0
ENDBLK
  5
FAC0
330
FAB4
100
AcDbEntity
  8
0
100
AcDbBlockEnd
  0
BLOCK
  5
FB20
330
FB15
100
AcDbEntity
  8
0
100
AcDbBlockBegin
  2
*D14
 70
     1
 10
0.0
 20
0.0
 30
0.0
  3
*D14
  1

  0
LINE
  5
FBD4
330
FB15
100
AcDbEntity
  8
DIM
 62
     0
370
    -2
100
AcDbLine
 10
72.019603650253
 20
169.1416158862743
 30
0.0
 11
56.19612383446283
 21
169.1416158862743
 31
0.0
  0
LINE
  5
FBD5
330
FB15
100
AcDbEntity
  8
DIM
 62
     0
370
    -2
100
AcDbLine
 10
72.01960365025643
 20
125.4916158862722
 30
0.0
 11
56.19612383446282
 21
125.4916158862722
 31
0.0
  0
LINE
  5
FBD6
330
FB15
100
AcDbEntity
  8
DIM
 62
     0
370
    -2
100
AcDbLine
 10
57.79612383446283
 20
164.1416158862743
 30
0.0
 11
57.79612383446283
 21
157.271140670266
 31
0.0
  0
LINE
  5
FBD7
330
FB15
100
AcDbEntity
  8
DIM
 62
     0
370
    -2
100
AcDbLine
 10
57.79612383446282
 20
130.4916158862722
 30
0.0
 11
57.79612383446282
 21
137.3620911022805
 31
0.0
  0
SOLID
  5
FBD8
330
FB15
100
AcDbEntity
  8
DIM
 62
     0
100
AcDbTrace
 10
56.96279050112949
 20
164.1416158862743
 30
0.0
 11
58.62945716779616
 21
164.1416158862743
 31
0.0
 12
57.79612383446283
 22
169.1416158862743
 32
0.0
 13
57.79612383446283
 23
169.1416158862743
 33
0.0
  0
SOLID
  5
FBD9
330
FB15
100
AcDbEntity
  8
DIM
 62
     0
100
AcDbTrace
 10
56.96279050112948
 20
130.4916158862722
 30
0.0
 11
58.62945716779616
 21
130.4916158862722
 31
0.0
 12
57.79612383446282
 22
125.4916158862722
 32
0.0
 13
57.79612383446282
 23
125.4916158862722
 33
0.0
  0
MTEXT
  5
FBDA
330
FB15
100
AcDbEntity
  8
DIM
100
AcDbMText
 10
57.79612383446281
 20
147.3166158862732
 30
0.0
 40
5.0
 41
0.0
 71
     5
 72
     1
  1
\A1;43.7\P(1U)
  7
ARIAL
 73
     1
 44
1.0
1001
ACAD
1000
MTEXTBEGIN
1070
    73
1070
     1
1070
    44
1040
1.0
1070
    74
1070
     0
1000
MTEXTEND
  0
POINT
  5
FBDB
330
FB15
100
AcDbEntity
  8
DEFPOINTS
 62
     0
100
AcDbPoint
 10
73.619603650253
 20
169.1416158862743
 30
0.0
  0
POINT
  5
FBDC
330
FB15
100
AcDbEntity
  8
DEFPOINTS
 62
     0
100
AcDbPoint
 10
73.61960365025642
 20
125.4916158862722
 30
0.0
  0
POINT
  5
FBDD
330
FB15
100
AcDbEntity
  8
DEFPOINTS
 62
     0
100
AcDbPoint
 10
57.79612383446282
 20
125.4916158862722
 30
0.0
  0
ENDBLK
  5
FB21
330
FB15
100
AcDbEntity
  8
0
100
AcDbBlockEnd
  0
BLOCK
  5
FB38
330
FB2D
100
AcDbEntity
  8
0
100
AcDbBlockBegin
  2
*D15
 70
     1
 10
0.0
 20
0.0
 30
0.0
  3
*D15
  1

  0
LINE
  5
FCCB
330
FB2D
100
AcDbEntity
  8
DIM
 62
     0
370
    -2
100
AcDbLine
 10
579.7775655397169
 20
495.4086198862726
 30
0.0
 11
579.7775655397169
 21
532.9219227641539
 31
0.0
  0
LINE
  5
FCCC
330
FB2D
100
AcDbEntity
  8
DIM
 62
     0
370
    -2
100
AcDbLine
 10
622.3767075893536
 20
493.3933818862721
 30
0.0
 11
622.3767075893536
 21
532.9219227641539
 31
0.0
  0
LINE
  5
FCCD
330
FB2D
100
AcDbEntity
  8
DIM
 62
     0
370
    -2
100
AcDbLine
 10
584.7775655397169
 20
531.3219227641538
 30
0.0
 11
591.8761503487078
 21
531.3219227641538
 31
0.0
  0
LINE
  5
FCCE
330
FB2D
100
AcDbEntity
  8
DIM
 62
     0
370
    -2
100
AcDbLine
 10
617.3767075893536
 20
531.3219227641538
 30
0.0
 11
610.0616892300174
 21
531.3219227641538
 31
0.0
  0
SOLID
  5
FCCF
330
FB2D
100
AcDbEntity
  8
DIM
 62
     0
100
AcDbTrace
 10
584.7775655397169
 20
532.1552560974872
 30
0.0
 11
584.7775655397169
 21
530.4885894308205
 31
0.0
 12
579.7775655397169
 22
531.3219227641538
 32
0.0
 13
579.7775655397169
 23
531.3219227641538
 33
0.0
  0
SOLID
  5
FCD0
330
FB2D
100
AcDbEntity
  8
DIM
 62
     0
100
AcDbTrace
 10
617.3767075893536
 20
532.1552560974872
 30
0.0
 11
617.3767075893536
 21
530.4885894308205
 31
0.0
 12
622.3767075893536
 22
531.3219227641538
 32
0.0
 13
622.3767075893536
 23
531.3219227641538
 33
0.0
  0
MTEXT
  5
FCD1
330
FB2D
100
AcDbEntity
  8
DIM
100
AcDbMText
 10
600.9689197893626
 20
531.3219227641538
 30
0.0
 40
5.0
 41
0.0
 71
     5
 72
     1
  1
\A1;42.6
  7
ARIAL
 73
     1
 44
1.0
1001
ACAD
1000
MTEXTBEGIN
1070
    73
1070
     1
1070
    44
1040
1.0
1070
    74
1070
     0
1000
MTEXTEND
  0
POINT
  5
FCD2
330
FB2D
100
AcDbEntity
  8
DEFPOINTS
 62
     0
100
AcDbPoint
 10
579.7775655397169
 20
493.8086198862726
 30
0.0
  0
POINT
  5
FCD3
330
FB2D
100
AcDbEntity
  8
DEFPOINTS
 62
     0
100
AcDbPoint
 10
622.3767075893536
 20
491.793381886272
 30
0.0
  0
POINT
  5
FCD4
330
FB2D
100
AcDbEntity
  8
DEFPOINTS
 62
     0
100
AcDbPoint
 10
622.3767075893536
 20
531.3219227641538
 30
0.0
  0
ENDBLK
  5
FB39
330
FB2D
100
AcDbEntity
  8
0
100
AcDbBlockEnd
  0
BLOCK
  5
FC8D
330
FC82
100
AcDbEntity
  8
0
100
AcDbBlockBegin
  2
*D16
 70
     1
 10
0.0
 20
0.0
 30
0.0
  3
*D16
  1

  0
LINE
  5
104FF
330
FC82
100
AcDbEntity
  8
DIM
 62
     0
370
    -2
100
AcDbLine
 10
622.9017075893534
 20
269.2086158862724
 30
0.0
 11
622.9017075893534
 21
233.0
 31
0.0
  0
LINE
  5
10500
330
FC82
100
AcDbEntity
  8
DIM
 62
     0
370
    -2
100
AcDbLine
 10
579.2517075893535
 20
269.2086158862748
 30
0.0
 11
579.2517075893535
 21
233.0
 31
0.0
  0
LINE
  5
10501
330
FC82
100
AcDbEntity
  8
DIM
 62
     0
370
    -2
100
AcDbLine
 10
617.9017075893534
 20
234.6
 30
0.0
 11
610.5080570824177
 21
234.6
 31
0.0
  0
LINE
  5
10502
330
FC82
100
AcDbEntity
  8
DIM
 62
     0
370
    -2
100
AcDbLine
 10
584.2517075893534
 20
234.6
 30
0.0
 11
592.3225182011081
 21
234.6
 31
0.0
  0
SOLID
  5
10503
330
FC82
100
AcDbEntity
  8
DIM
 62
     0
100
AcDbTrace
 10
617.9017075893534
 20
235.4333333333334
 30
0.0
 11
617.9017075893534
 21
233.7666666666667
 31
0.0
 12
622.9017075893534
 22
234.6
 32
0.0
 13
622.9017075893534
 23
234.6
 33
0.0
  0
SOLID
  5
10504
330
FC82
100
AcDbEntity
  8
DIM
 62
     0
100
AcDbTrace
 10
584.2517075893534
 20
235.4333333333334
 30
0.0
 11
584.2517075893534
 21
233.7666666666667
 31
0.0
 12
579.2517075893535
 22
234.6
 32
0.0
 13
579.2517075893535
 23
234.6
 33
0.0
  0
MTEXT
  5
10505
330
FC82
100
AcDbEntity
  8
DIM
100
AcDbMText
 10
601.4152876417629
 20
234.6
 30
0.0
 40
5.0
 41
0.0
 71
     5
 72
     1
  1
\A1;43.6\P(1U)
  7
ARIAL
 73
     1
 44
1.0
1001
ACAD
1000
MTEXTBEGIN
1070
    73
1070
     1
1070
    44
1040
1.0
1070
    74
1070
     0
1000
MTEXTEND
  0
POINT
  5
10506
330
FC82
100
AcDbEntity
  8
DEFPOINTS
 62
     0
100
AcDbPoint
 10
622.9017075893534
 20
270.8086158862724
 30
0.0
  0
POINT
  5
10507
330
FC82
100
AcDbEntity
  8
DEFPOINTS
 62
     0
100
AcDbPoint
 10
579.2517075893535
 20
270.8086158862748
 30
0.0
  0
POINT
  5
10508
330
FC82
100
AcDbEntity
  8
DEFPOINTS
 62
     0
100
AcDbPoint
 10
579.2517075893535
 20
234.6
 30
0.0
  0
ENDBLK
  5
FC8E
330
FC82
100
AcDbEntity
  8
0
100
AcDbBlockEnd
  0
BLOCK
  5
FFF1
330
FFE6
100
AcDbEntity
  8
0
100
AcDbBlockBegin
  2
*D17
 70
     1
 10
0.0
 20
0.0
 30
0.0
  3
*D17
  1

  0
LINE
  5
10509
330
FFE6
100
AcDbEntity
  8
DIM
 62
     0
370
    -2
100
AcDbLine
 10
73.61960365025642
 20
123.8916158862725
 30
0.0
 11
73.61960365025642
 21
99.99898764800233
 31
0.0
  0
LINE
  5
1050A
330
FFE6
100
AcDbEntity
  8
DIM
 62
     0
370
    -2
100
AcDbLine
 10
556.219603650253
 20
123.8916158862745
 30
0.0
 11
556.219603650253
 21
99.99898764800233
 31
0.0
  0
LINE
  5
1050B
330
FFE6
100
AcDbEntity
  8
DIM
 62
     0
370
    -2
100
AcDbLine
 10
78.61960365025642
 20
101.5989876480023
 30
0.0
 11
303.8844740458891
 21
101.5989876480023
 31
0.0
  0
LINE
  5
1050C
330
FFE6
100
AcDbEntity
  8
DIM
 62
     0
370
    -2
100
AcDbLine
 10
551.219603650253
 20
101.5989876480023
 30
0.0
 11
325.9547332546203
 21
101.5989876480023
 31
0.0
  0
SOLID
  5
1050D
330
FFE6
100
AcDbEntity
  8
DIM
 62
     0
100
AcDbTrace
 10
78.61960365025642
 20
102.4323209813356
 30
0.0
 11
78.61960365025642
 21
100.765654314669
 31
0.0
 12
73.61960365025642
 22
101.5989876480023
 32
0.0
 13
73.61960365025642
 23
101.5989876480023
 33
0.0
  0
SOLID
  5
1050E
330
FFE6
100
AcDbEntity
  8
DIM
 62
     0
100
AcDbTrace
 10
551.219603650253
 20
102.4323209813356
 30
0.0
 11
551.219603650253
 21
100.765654314669
 31
0.0
 12
556.219603650253
 22
101.5989876480023
 32
0.0
 13
556.219603650253
 23
101.5989876480023
 33
0.0
  0
MTEXT
  5
1050F
330
FFE6
100
AcDbEntity
  8
DIM
100
AcDbMText
 10
314.9196036502547
 20
101.5989876480023
 30
0.0
 40
5.0
 41
0.0
 71
     5
 72
     1
  1
\A1;482.6\P(19")
  7
ARIAL
 73
     1
 44
1.0
1001
ACAD
1000
MTEXTBEGIN
1070
    73
1070
     1
1070
    44
1040
1.0
1070
    74
1070
     0
1000
MTEXTEND
  0
POINT
  5
10510
330
FFE6
100
AcDbEntity
  8
DEFPOINTS
 62
     0
100
AcDbPoint
 10
73.61960365025642
 20
125.4916158862725
 30
0.0
  0
POINT
  5
10511
330
FFE6
100
AcDbEntity
  8
DEFPOINTS
 62
     0
100
AcDbPoint
 10
556.219603650253
 20
125.4916158862745
 30
0.0
  0
POINT
  5
10512
330
FFE6
100
AcDbEntity
  8
DEFPOINTS
 62
     0
100
AcDbPoint
 10
556.219603650253
 20
101.5989876480023
 30
0.0
  0
ENDBLK
  5
FFF2
330
FFE6
100
AcDbEntity
  8
0
100
AcDbBlockEnd
  0
BLOCK
  5
1046E
330
1046D
100
AcDbEntity
  8
0
100
AcDbBlockBegin
  2
m3washe
 70
     0
 10
0.0
 20
0.0
 30
0.0
  3
m3washe
  1

  0
LINE
  5
1046F
330
1046D
100
AcDbEntity
  8
FASTENER
100
AcDbLine
 10
0.5
 20
3.0
 30
0.0
 11
0.0
 21
3.0
 31
0.0
  0
LINE
  5
10470
330
1046D
100
AcDbEntity
  8
FASTENER
100
AcDbLine
 10
0.5
 20
-3.0
 30
0.0
 11
0.5
 21
3.0
 31
0.0
  0
LINE
  5
10471
330
1046D
100
AcDbEntity
  8
FASTENER
100
AcDbLine
 10
0.0
 20
-3.0
 30
0.0
 11
0.5
 21
-3.0
 31
0.0
  0
LINE
  5
10472
330
1046D
100
AcDbEntity
  8
FASTENER
100
AcDbLine
 10
0.0
 20
3.0
 30
0.0
 11
0.0
 21
-3.0
 31
0.0
  0
ENDBLK
  5
10473
330
1046D
100
AcDbEntity
  8
0
100
AcDbBlockEnd
  0
BLOCK
  5
10487
330
10474
100
AcDbEntity
  8
0
100
AcDbBlockBegin
  2
A$C15614AF3
 70
     0
 10
0.0
 20
0.0
 30
0.0
  3
A$C15614AF3
  1

  0
LINE
  5
10475
330
10474
100
AcDbEntity
  8
MOTOR
100
AcDbLine
 10
-0.0000002386848905
 20
0.0000002128409164
 30
0.0
 11
40.00147546369001
 21
0.0000002128411438
 31
0.0
  0
LINE
  5
10476
330
10474
100
AcDbEntity
  8
MOTOR
100
AcDbLine
 10
-0.0000002386849758
 20
14.98600021284102
 30
0.0
 11
40.00147546369001
 21
14.98600021284102
 31
0.0
  0
LINE
  5
10477
330
10474
100
AcDbEntity
  8
MOTOR
100
AcDbLine
 10
-0.0000002386849758
 20
14.98600021284102
 30
0.0
 11
-0.0000002386848905
 21
0.0000002128409164
 31
0.0
  0
LINE
  5
10478
330
10474
100
AcDbEntity
  8
MOTOR
100
AcDbLine
 10
40.00147546369001
 20
0.0000002128411438
 30
0.0
 11
40.00147546369001
 21
14.98600021284102
 31
0.0
  0
LINE
  5
10479
330
10474
100
AcDbEntity
  8
0
100
AcDbLine
 10
2.29571705538143
 20
17.78600021284097
 30
0.0
 11
5.695717055381464
 21
17.78600021284097
 31
0.0
  0
LINE
  5
1047A
330
10474
100
AcDbEntity
  8
0
100
AcDbLine
 10
6.995717055381447
 20
15.48600021284096
 30
0.0
 11
6.995717055381447
 21
16.48600021284096
 31
0.0
  0
ARC
  5
1047B
330
10474
100
AcDbEntity
  8
0
100
AcDbCircle
 10
5.695717055381464
 20
16.48600021284096
 30
0.0
 40
1.3
100
AcDbArc
 50
0.0
 51
90.0
  0
LINE
  5
1047C
330
10474
100
AcDbEntity
  8
0
100
AcDbLine
 10
0.9957170553814478
 20
15.48600021284096
 30
0.0
 11
0.9957170553814478
 21
16.48600021284096
 31
0.0
  0
ARC
  5
1047D
330
10474
100
AcDbEntity
  8
0
100
AcDbCircle
 10
2.29571705538143
 20
16.48600021284096
 30
0.0
 40
1.3
100
AcDbArc
 50
90.0
 51
180.0
  0
LINE
  5
1047E
330
10474
100
AcDbEntity
  8
0
100
AcDbLine
 10
34.30575816962346
 20
17.78600021284097
 30
0.0
 11
37.70575816962347
 21
17.78600021284097
 31
0.0
  0
LINE
  5
1047F
330
10474
100
AcDbEntity
  8
0
100
AcDbLine
 10
39.00575816962345
 20
15.48600021284096
 30
0.0
 11
39.00575816962345
 21
16.48600021284096
 31
0.0
  0
ARC
  5
10480
330
10474
100
AcDbEntity
  8
0
100
AcDbCircle
 10
37.70575816962347
 20
16.48600021284096
 30
0.0
 40
1.3
100
AcDbArc
 50
0.0
 51
90.0
  0
LINE
  5
10481
330
10474
100
AcDbEntity
  8
0
100
AcDbLine
 10
33.00575816962345
 20
15.48600021284096
 30
0.0
 11
33.00575816962345
 21
16.48600021284096
 31
0.0
  0
ARC
  5
10482
330
10474
100
AcDbEntity
  8
0
100
AcDbCircle
 10
34.30575816962346
 20
16.48600021284096
 30
0.0
 40
1.3
100
AcDbArc
 50
90.0
 51
180.0
  0
INSERT
  5
10483
330
10474
100
AcDbEntity
  8
FASTENER
100
AcDbBlockReference
  2
m3washe
 10
3.995717055381447
 20
14.98600021284102
 30
0.0
 50
90.0
  0
INSERT
  5
10484
330
10474
100
AcDbEntity
  8
FASTENER
100
AcDbBlockReference
  2
m3washe
 10
36.00575816962345
 20
14.98600021284102
 30
0.0
 50
90.0
  0
ENDBLK
  5
10488
330
10474
100
AcDbEntity
  8
0
100
AcDbBlockEnd
  0
BLOCK
  5
104DD
330
104CF
100
AcDbEntity
  8
0
100
AcDbBlockBegin
  2
m3pant
 70
     0
 10
0.0
 20
0.0
 30
0.0
  3
m3pant
  1

  0
CIRCLE
  5
104D0
330
104CF
100
AcDbEntity
  8
FASTENER
100
AcDbCircle
 10
0.0
 20
0.0
 30
0.0
 40
3.0
  0
LINE
  5
104D1
330
104CF
100
AcDbEntity
  8
FASTENER
100
AcDbLine
 10
0.476250000003347
 20
-0.476250000003347
 30
0.0
 11
1.587499999998499
 21
-0.476250000003347
 31
0.0
  0
LINE
  5
104D2
330
104CF
100
AcDbEntity
  8
FASTENER
100
AcDbLine
 10
-0.476250000003347
 20
-0.476250000003347
 30
0.0
 11
-0.476250000003347
 21
-1.587499999998499
 31
0.0
  0
LINE
  5
104D3
330
104CF
100
AcDbEntity
  8
FASTENER
100
AcDbLine
 10
0.476250000003347
 20
0.476250000003347
 30
0.0
 11
1.587499999998499
 21
0.476250000003347
 31
0.0
  0
LINE
  5
104D4
330
104CF
100
AcDbEntity
  8
FASTENER
100
AcDbLine
 10
0.476250000003347
 20
-0.476250000003347
 30
0.0
 11
0.476250000003347
 21
-1.587499999998499
 31
0.0
  0
LINE
  5
104D5
330
104CF
100
AcDbEntity
  8
FASTENER
100
AcDbLine
 10
1.587499999998499
 20
0.476250000003347
 30
0.0
 11
1.587499999998499
 21
-0.476250000003347
 31
0.0
  0
LINE
  5
104D6
330
104CF
100
AcDbEntity
  8
FASTENER
100
AcDbLine
 10
0.476250000003347
 20
-1.587499999998499
 30
0.0
 11
-0.476250000003347
 21
-1.587499999998499
 31
0.0
  0
LINE
  5
104D7
330
104CF
100
AcDbEntity
  8
FASTENER
100
AcDbLine
 10
-1.587499999998499
 20
-0.476250000003347
 30
0.0
 11
-1.587499999998499
 21
0.476250000003347
 31
0.0
  0
LINE
  5
104D8
330
104CF
100
AcDbEntity
  8
FASTENER
100
AcDbLine
 10
-0.476250000003347
 20
1.587499999998499
 30
0.0
 11
0.476250000003347
 21
1.587499999998499
 31
0.0
  0
LINE
  5
104D9
330
104CF
100
AcDbEntity
  8
FASTENER
100
AcDbLine
 10
-0.476250000003347
 20
1.587499999998499
 30
0.0
 11
-0.476250000003347
 21
0.476250000003347
 31
0.0
  0
LINE
  5
104DA
330
104CF
100
AcDbEntity
  8
FASTENER
100
AcDbLine
 10
0.476250000003347
 20
1.587499999998499
 30
0.0
 11
0.476250000003347
 21
0.476250000003347
 31
0.0
  0
LINE
  5
104DB
330
104CF
100
AcDbEntity
  8
FASTENER
100
AcDbLine
 10
-1.587499999998499
 20
-0.476250000003347
 30
0.0
 11
-0.476250000003347
 21
-0.476250000003347
 31
0.0
  0
LINE
  5
104DC
330
104CF
100
AcDbEntity
  8
FASTENER
100
AcDbLine
 10
-1.587499999998499
 20
0.476250000003347
 30
0.0
 11
-0.476250000003347
 21
0.476250000003347
 31
0.0
  0
ENDBLK
  5
104DE
330
104CF
100
AcDbEntity
  8
0
100
AcDbBlockEnd
  0
ENDSEC
  0
SECTION
  2
ENTITIES
  0
LINE
  5
45A9
330
1F
100
AcDbEntity
  8
Rear Panel
100
AcDbLine
 10
582.4285635397171
 20
494.808615886273
 30
0.0
 11
619.7257095893533
 21
494.8086158862723
 31
0.0
  0
ARC
  5
45B5
330
1F
100
AcDbEntity
  8
Rear Panel
100
AcDbCircle
 10
619.7257095893533
 20
493.1576158862728
 30
0.0
 40
1.650999999999999
100
AcDbArc
 50
0.0
 51
90.0
  0
LINE
  5
45BB
330
1F
100
AcDbEntity
  8
Rear Panel
100
AcDbLine
 10
580.777563539717
 20
484.608615886273
 30
0.0
 11
580.7775635397172
 21
493.1576158862731
 31
0.0
  0
ARC
  5
45C3
330
1F
100
AcDbEntity
  8
Rear Panel
100
AcDbCircle
 10
582.4285635397171
 20
493.1576158862732
 30
0.0
 40
1.650999999999999
100
AcDbArc
 50
90.0
 51
180.0
  0
ARC
  5
D27E
330
1F
100
AcDbEntity
  8
Front Panel
100
AcDbCircle
 10
545.8056036502579
 20
131.4416158862746
 30
0.0
 40
3.174999999999999
100
AcDbArc
 50
90.0
 51
270.0
  0
ARC
  5
D27F
330
1F
100
AcDbEntity
  8
Front Panel
100
AcDbCircle
 10
548.853603650258
 20
131.4416158862746
 30
0.0
 40
3.174999999999999
100
AcDbArc
 50
270.0
 51
90.0
  0
ARC
  5
D280
330
1F
100
AcDbEntity
  8
Front Panel
100
AcDbCircle
 10
548.8536036502559
 20
131.4416158862704
 30
0.0
 40
3.174999999999999
100
AcDbArc
 50
270.0
 51
90.0
  0
ARC
  5
D281
330
1F
100
AcDbEntity
  8
Front Panel
100
AcDbCircle
 10
545.8056036502557
 20
131.4416158862704
 30
0.0
 40
3.174999999999999
100
AcDbArc
 50
90.0
 51
270.0
  0
LINE
  5
D282
330
1F
100
AcDbEntity
  8
Front Panel
100
AcDbLine
 10
556.2196036502556
 20
169.1416158862745
 30
0.0
 11
556.219603650253
 21
125.4916158862745
 31
0.0
  0
LINE
  5
D283
330
1F
100
AcDbEntity
  8
Front Panel
100
AcDbLine
 10
545.8056036502579
 20
128.2666158862746
 30
0.0
 11
548.853603650258
 21
128.2666158862746
 31
0.0
  0
LINE
  5
D284
330
1F
100
AcDbEntity
  8
Front Panel
100
AcDbLine
 10
545.8056036502557
 20
128.2666158862704
 30
0.0
 11
548.8536036502559
 21
128.2666158862704
 31
0.0
  0
ARC
  5
D285
330
1F
100
AcDbEntity
  8
Front Panel
100
AcDbCircle
 10
545.8056036502579
 20
163.1916158862746
 30
0.0
 40
3.174999999999999
100
AcDbArc
 50
90.0
 51
270.0
  0
ARC
  5
D286
330
1F
100
AcDbEntity
  8
Front Panel
100
AcDbCircle
 10
548.853603650258
 20
163.1916158862746
 30
0.0
 40
3.174999999999999
100
AcDbArc
 50
270.0
 51
90.0
  0
ARC
  5
D287
330
1F
100
AcDbEntity
  8
Front Panel
100
AcDbCircle
 10
548.8536036502559
 20
163.1916158862704
 30
0.0
 40
3.174999999999999
100
AcDbArc
 50
270.0
 51
90.0
  0
ARC
  5
D288
330
1F
100
AcDbEntity
  8
Front Panel
100
AcDbCircle
 10
545.8056036502557
 20
163.1916158862704
 30
0.0
 40
3.174999999999999
100
AcDbArc
 50
90.0
 51
270.0
  0
LINE
  5
D289
330
1F
100
AcDbEntity
  8
Front Panel
100
AcDbLine
 10
545.8056036502579
 20
134.6166158862746
 30
0.0
 11
548.853603650258
 21
134.6166158862746
 31
0.0
  0
LINE
  5
D28A
330
1F
100
AcDbEntity
  8
Front Panel
100
AcDbLine
 10
545.8056036502557
 20
134.6166158862704
 30
0.0
 11
548.8536036502559
 21
134.6166158862704
 31
0.0
  0
LINE
  5
D28B
330
1F
100
AcDbEntity
  8
Front Panel
100
AcDbLine
 10
545.8056036502579
 20
160.0166158862746
 30
0.0
 11
548.853603650258
 21
160.0166158862746
 31
0.0
  0
LINE
  5
D28C
330
1F
100
AcDbEntity
  8
Front Panel
100
AcDbLine
 10
545.8056036502557
 20
160.0166158862704
 30
0.0
 11
548.8536036502559
 21
160.0166158862704
 31
0.0
  0
LINE
  5
D28D
330
1F
100
AcDbEntity
  8
Front Panel
100
AcDbLine
 10
545.8056036502579
 20
166.3666158862746
 30
0.0
 11
548.853603650258
 21
166.3666158862746
 31
0.0
  0
LINE
  5
D28E
330
1F
100
AcDbEntity
  8
Front Panel
100
AcDbLine
 10
545.8056036502557
 20
166.3666158862704
 30
0.0
 11
548.8536036502559
 21
166.3666158862704
 31
0.0
  0
LINE
  5
D28F
330
1F
100
AcDbEntity
  8
Front Panel
100
AcDbLine
 10
73.61960365025281
 20
273.808615886275
 30
0.0
 11
73.61960365025281
 21
270.808615886275
 31
0.0
  0
LINE
  5
D290
330
1F
100
AcDbEntity
  8
Front Panel
100
AcDbLine
 10
556.2196036502534
 20
273.8086158862749
 30
0.0
 11
556.2196036502534
 21
270.8086158862748
 31
0.0
  0
LINE
  5
D295
330
1F
100
AcDbEntity
  8
Front Panel
100
AcDbLine
 10
73.619603650253
 20
169.1416158862743
 30
0.0
 11
556.2196036502556
 21
169.1416158862745
 31
0.0
  0
LINE
  5
D296
330
1F
100
AcDbEntity
  8
Front Panel
100
AcDbLine
 10
73.61960365025642
 20
125.4916158862725
 30
0.0
 11
556.219603650253
 21
125.4916158862745
 31
0.0
  0
ARC
  5
D297
330
1F
100
AcDbEntity
  8
Front Panel
100
AcDbCircle
 10
84.03360365025164
 20
131.4416158862743
 30
0.0
 40
3.174999999999999
100
AcDbArc
 50
270.0000000000009
 51
90.00000000000094
  0
ARC
  5
D298
330
1F
100
AcDbEntity
  8
Front Panel
100
AcDbCircle
 10
80.98560365025154
 20
131.4416158862743
 30
0.0
 40
3.174999999999999
100
AcDbArc
 50
90.00000000000094
 51
270.0000000000009
  0
ARC
  5
D299
330
1F
100
AcDbEntity
  8
Front Panel
100
AcDbCircle
 10
80.98560365025369
 20
131.4416158862701
 30
0.0
 40
3.174999999999999
100
AcDbArc
 50
90.00000000000094
 51
270.0000000000009
  0
ARC
  5
D29A
330
1F
100
AcDbEntity
  8
Front Panel
100
AcDbCircle
 10
84.03360365025381
 20
131.4416158862701
 30
0.0
 40
3.174999999999999
100
AcDbArc
 50
270.0000000000009
 51
90.00000000000094
  0
LINE
  5
D29B
330
1F
100
AcDbEntity
  8
Front Panel
100
AcDbLine
 10
84.03360365025164
 20
128.2666158862743
 30
0.0
 11
80.98560365025154
 21
128.2666158862743
 31
0.0
  0
LINE
  5
D29C
330
1F
100
AcDbEntity
  8
Front Panel
100
AcDbLine
 10
84.03360365025381
 20
128.2666158862702
 30
0.0
 11
80.98560365025369
 21
128.2666158862702
 31
0.0
  0
LINE
  5
D29D
330
1F
100
AcDbEntity
  8
Front Panel
100
AcDbLine
 10
84.03360365025164
 20
134.6166158862743
 30
0.0
 11
80.98560365025154
 21
134.6166158862743
 31
0.0
  0
LINE
  5
D29E
330
1F
100
AcDbEntity
  8
Front Panel
100
AcDbLine
 10
84.03360365025381
 20
134.6166158862702
 30
0.0
 11
80.98560365025369
 21
134.6166158862702
 31
0.0
  0
ARC
  5
D29F
330
1F
100
AcDbEntity
  8
Front Panel
100
AcDbCircle
 10
84.03360365025111
 20
163.1916158862743
 30
0.0
 40
3.174999999999999
100
AcDbArc
 50
270.0000000000009
 51
90.00000000000094
  0
ARC
  5
D2A0
330
1F
100
AcDbEntity
  8
Front Panel
100
AcDbCircle
 10
80.98560365025099
 20
163.1916158862743
 30
0.0
 40
3.174999999999999
100
AcDbArc
 50
90.00000000000094
 51
270.0000000000009
  0
ARC
  5
D2A1
330
1F
100
AcDbEntity
  8
Front Panel
100
AcDbCircle
 10
80.98560365025315
 20
163.1916158862702
 30
0.0
 40
3.174999999999999
100
AcDbArc
 50
90.00000000000094
 51
270.0000000000009
  0
ARC
  5
D2A2
330
1F
100
AcDbEntity
  8
Front Panel
100
AcDbCircle
 10
84.03360365025326
 20
163.1916158862702
 30
0.0
 40
3.174999999999999
100
AcDbArc
 50
270.0000000000009
 51
90.00000000000094
  0
LINE
  5
D2A3
330
1F
100
AcDbEntity
  8
Front Panel
100
AcDbLine
 10
84.03360365025111
 20
160.0166158862743
 30
0.0
 11
80.98560365025099
 21
160.0166158862743
 31
0.0
  0
LINE
  5
D2A4
330
1F
100
AcDbEntity
  8
Front Panel
100
AcDbLine
 10
84.03360365025111
 20
166.3666158862743
 30
0.0
 11
80.98560365025099
 21
166.3666158862743
 31
0.0
  0
LINE
  5
D2A5
330
1F
100
AcDbEntity
  8
Front Panel
100
AcDbLine
 10
84.03360365025326
 20
166.3666158862701
 30
0.0
 11
80.98560365025315
 21
166.3666158862701
 31
0.0
  0
LINE
  5
D2A6
330
1F
100
AcDbEntity
  8
Front Panel
100
AcDbLine
 10
84.03360365025326
 20
160.0166158862702
 30
0.0
 11
80.98560365025315
 21
160.0166158862702
 31
0.0
  0
LINE
  5
D2A7
330
1F
100
AcDbEntity
  8
Front Panel
100
AcDbLine
 10
73.619603650253
 20
169.1416158862743
 30
0.0
 11
73.61960365025642
 21
125.4916158862722
 31
0.0
  0
CIRCLE
  5
D2AC
330
1F
100
AcDbEntity
  8
Front Panel
100
AcDbCircle
 10
393.6596036502548
 20
144.6521138862756
 30
0.0
 40
2.044699999999999
  0
CIRCLE
  5
D2B2
330
1F
100
AcDbEntity
  8
Front Panel
100
AcDbCircle
 10
337.7796036502549
 20
144.7791138862755
 30
0.0
 40
2.044699999999999
  0
CIRCLE
  5
D2B3
330
1F
100
AcDbEntity
  8
Front Panel
100
AcDbCircle
 10
337.7796036502549
 20
151.1291138862755
 30
0.0
 40
2.044699999999999
  0
CIRCLE
  5
D2B9
330
1F
100
AcDbEntity
  8
Front Panel
100
AcDbCircle
 10
365.719603650255
 20
144.7791138862755
 30
0.0
 40
2.044699999999999
  0
CIRCLE
  5
D2BA
330
1F
100
AcDbEntity
  8
Front Panel
100
AcDbCircle
 10
365.719603650255
 20
151.1291138862755
 30
0.0
 40
2.044699999999999
  0
CIRCLE
  5
D2C0
330
1F
100
AcDbEntity
  8
Front Panel
100
AcDbCircle
 10
421.599603650255
 20
144.6521138862756
 30
0.0
 40
2.044699999999999
  0
CIRCLE
  5
D2C3
330
1F
100
AcDbEntity
  8
CONNECTOR
100
AcDbCircle
 10
430.4896036502548
 20
154.7016158862746
 30
0.0
 40
5.534988929999996
  0
CIRCLE
  5
D2C4
330
1F
100
AcDbEntity
  8
CONNECTOR
100
AcDbCircle
 10
430.4896036502548
 20
154.7016158862746
 30
0.0
 40
4.799990400000011
  0
LINE
  5
D2C5
330
1F
100
AcDbEntity
  8
CONNECTOR
100
AcDbLine
 10
429.658119542581
 20
159.4290403456158
 30
0.0
 11
429.6581195425813
 21
160.1866884554091
 31
0.0
  0
LINE
  5
D2C6
330
1F
100
AcDbEntity
  8
CONNECTOR
100
AcDbLine
 10
429.6581195425813
 20
160.1866884554091
 30
0.0
 11
431.3210877579284
 21
160.1866884554091
 31
0.0
  0
LINE
  5
D2C7
330
1F
100
AcDbEntity
  8
CONNECTOR
100
AcDbLine
 10
431.3210877579284
 20
160.1866884554091
 30
0.0
 11
431.3210877579284
 21
159.4290403456158
 31
0.0
  0
CIRCLE
  5
D2CB
330
1F
100
AcDbEntity
  8
CONNECTOR
100
AcDbCircle
 10
430.4896036502548
 20
154.7016158862746
 30
0.0
 40
3.034575470446155
  0
CIRCLE
  5
D2CC
330
1F
100
AcDbEntity
  8
CONNECTOR
100
AcDbCircle
 10
430.4896036502548
 20
154.7016158862746
 30
0.0
 40
1.452543043745598
  0
CIRCLE
  5
D2CD
330
1F
100
AcDbEntity
  8
CONNECTOR
100
AcDbCircle
 10
430.4896036502548
 20
154.7016158862746
 30
0.0
 40
3.520871175566567
  0
LINE
  5
D2CE
330
1F
100
AcDbEntity
  8
CENTER
100
AcDbLine
 10
429.3466059362548
 20
154.7016158862746
 30
0.0
 11
431.6326013642549
 21
154.7016158862746
 31
0.0
  0
LINE
  5
D2CF
330
1F
100
AcDbEntity
  8
CENTER
100
AcDbLine
 10
430.4896036502548
 20
153.5586181722745
 30
0.0
 11
430.4896036502548
 21
155.8446136002746
 31
0.0
  0
ARC
  5
D2D0
330
1F
100
AcDbEntity
  8
Front Panel
100
AcDbCircle
 10
430.4896036502548
 20
154.7016158862746
 30
0.0
 40
4.825999999999999
100
AcDbArc
 50
214.8096945528253
 51
145.1903054471745
  0
LINE
  5
D2D1
330
1F
100
AcDbEntity
  8
Front Panel
100
AcDbLine
 10
426.5272036502548
 20
157.4565500488274
 30
0.0
 11
426.5272036502548
 21
151.9466817237219
 31
0.0
  0
CIRCLE
  5
D2D3
330
1F
100
AcDbEntity
  8
CONNECTOR
100
AcDbCircle
 10
430.4896036502548
 20
154.7016158862746
 30
0.0
 40
6.349999999999999
  0
LWPOLYLINE
  5
D2F7
330
1F
100
AcDbEntity
  8
Rear Panel
100
AcDbPolyline
 90
        8
 70
     1
 43
0.0
 10
273.644603650255
 20
670.0711407471575
 42
0.4142135623730951
 10
272.6286036502548
 20
669.0551407471575
 10
272.6286036502545
 20
658.8951407471586
 42
0.4142135623730951
 10
273.6446036502546
 20
657.8791407471588
 10
285.0746036502547
 20
657.8791407471582
 42
0.4142135623730951
 10
286.0906036502545
 20
658.8951407471579
 10
286.0906036502549
 20
669.0551407471582
 42
0.414213562373118
 10
285.0746036502547
 20
670.0711407471581
  0
LWPOLYLINE
  5
D2F8
330
1F
100
AcDbEntity
  8
Rear Panel
100
AcDbPolyline
 90
        8
 70
     1
 43
0.0
 10
307.0456036502549
 20
671.8491407471573
 42
0.4142135623730951
 10
306.0296036502548
 20
670.8331407471574
 10
306.0296036502548
 20
658.8951407471586
 42
0.4142135623730951
 10
307.0456036502546
 20
657.8791407471588
 10
320.2536036502548
 20
657.8791407471582
 42
0.4142135623730951
 10
321.2696036502546
 20
658.8951407471579
 10
321.269603650255
 20
670.8331407471582
 42
0.414213562373118
 10
320.2536036502545
 20
671.8491407471581
  0
LWPOLYLINE
  5
D2F9
330
1F
100
AcDbEntity
  8
Rear Panel
100
AcDbPolyline
 90
        8
 70
     1
 43
0.0
 10
341.5734836252359
 20
658.89514074716
 42
0.4142135623731045
 10
342.5894836252359
 20
657.8791407471599
 10
363.4494876252372
 20
657.879140747159
 42
0.4142135623731445
 10
364.465487625237
 20
658.895140747159
 10
364.4654876252356
 20
666.5979358279294
 42
0.4142135623730951
 10
363.4494876252358
 20
667.6139358279293
 10
342.5894836252359
 20
667.6139358279284
 42
0.4142135623730951
 10
341.5734836252361
 20
666.5979358279287
  0
LWPOLYLINE
  5
D30C
330
1F
100
AcDbEntity
  8
Rear Panel
100
AcDbPolyline
 90
        8
 70
     1
 43
0.0
 10
370.7834633052355
 20
658.89514074716
 42
0.4142135623731045
 10
371.7994633052355
 20
657.8791407471599
 10
379.9594673052368
 20
657.879140747159
 42
0.4142135623731445
 10
380.9754673052366
 20
658.895140747159
 10
380.9754673052351
 20
666.5979358279294
 42
0.4142135623730951
 10
379.9594673052353
 20
667.6139358279293
 10
371.7994633052355
 20
667.6139358279284
 42
0.4142135623730951
 10
370.7834633052357
 20
666.5979358279287
  0
LINE
  5
D38A
330
1F
100
AcDbEntity
  8
Base
100
AcDbLine
 10
90.91960365025284
 20
491.8086218862722
 30
0.0
 11
90.91960365025284
 21
273.808615886275
 31
0.0
  0
LINE
  5
D38E
330
1F
100
AcDbEntity
  8
Front Panel
100
AcDbLine
 10
556.2196036502534
 20
273.8086158862749
 30
0.0
 11
73.61960365025281
 21
273.808615886275
 31
0.0
  0
LINE
  5
D390
330
1F
100
AcDbEntity
  8
Front Panel
100
AcDbLine
 10
556.2196036502534
 20
270.8086158862748
 30
0.0
 11
73.61960365025281
 21
270.808615886275
 31
0.0
  0
LINE
  5
D398
330
1F
100
AcDbEntity
  8
Base
100
AcDbLine
 10
538.9196036502527
 20
491.8086218862722
 30
0.0
 11
538.9196036502527
 21
273.808615886275
 31
0.0
  0
ARC
  5
D3A7
330
1F
100
AcDbEntity
  8
Base
100
AcDbCircle
 10
536.9196076502528
 20
491.8086218862722
 30
0.0
 40
0.999998
100
AcDbArc
 50
0.000000000000007
 51
65.70494098952194
  0
ARC
  5
D3A8
330
1F
100
AcDbEntity
  8
Base
100
AcDbCircle
 10
536.9196076502528
 20
491.8086218862722
 30
0.0
 40
1.999996
100
AcDbArc
 50
0.000000000000007
 51
75.52257657647041
  0
INSERT
  5
D3AF
330
1F
100
AcDbEntity
  8
CONNECT
100
AcDbBlockReference
  2
m4washt
 10
473.6696036502555
 20
667.3619998278645
 30
0.0
 41
0.9999980000000427
 42
0.9999979999999524
 43
0.999998
 50
90.0
  0
INSERT
  5
D3B0
330
1F
100
AcDbEntity
  8
CONNECT
100
AcDbBlockReference
  2
M4NUTT
 10
473.6696036502555
 20
667.3619998278645
 30
0.0
 41
0.9999980000000427
 42
0.9999979999999524
 43
0.999998
 50
90.0
  0
LINE
  5
D3B1
330
1F
100
AcDbEntity
  8
CENTER
100
AcDbLine
 10
473.6696036502555
 20
666.2189998278645
 30
0.0
 11
473.6696036502555
 21
668.5049998278644
 31
0.0
  0
LINE
  5
D3B2
330
1F
100
AcDbEntity
  8
CENTER
100
AcDbLine
 10
474.8126036502555
 20
667.3619998278645
 30
0.0
 11
472.5266036502556
 21
667.3619998278645
 31
0.0
  0
INSERT
  5
D3C5
330
1F
100
AcDbEntity
  8
FASTENER
100
AcDbBlockReference
  2
m4nute
 10
156.3586625956836
 20
502.07655363086
 30
0.0
 41
0.9999979999999524
 42
0.9999979999999524
 43
0.999998
 50
180.0
  0
INSERT
  5
D3C7
330
1F
100
AcDbEntity
  8
FASTENER
100
AcDbBlockReference
  2
m4washe
 10
156.3586625956836
 20
501.2765552308599
 30
0.0
 41
0.9999980000000427
 42
0.9999979999999524
 43
0.999998
 50
270.0
  0
INSERT
  5
D3C8
330
1F
100
AcDbEntity
  8
FASTENER
100
AcDbBlockReference
  2
m4washe
 10
156.1746242073745
 20
498.8086060862769
 30
0.0
 41
0.9999980000000427
 42
0.9999979999999524
 43
0.999998
 50
270.0
  0
INSERT
  5
D3C9
330
1F
100
AcDbEntity
  8
FASTENER
100
AcDbBlockReference
  2
m4nute
 10
156.3586625956836
 20
495.6086142862733
 30
0.0
 41
0.9999979999999524
 42
0.9999979999999524
 43
0.999998
 50
180.0
  0
INSERT
  5
D3CA
330
1F
100
AcDbEntity
  8
FASTENER
100
AcDbBlockReference
  2
m4washe
 10
156.3636831527021
 20
494.8086158862733
 30
0.0
 41
0.9999980000000427
 42
0.9999979999999524
 43
0.999998
 50
270.0
  0
LINE
  5
D3D3
330
1F
100
AcDbEntity
  8
Rear Panel
100
AcDbLine
 10
92.41960365025637
 20
684.3932832412244
 30
0.0
 11
92.41960365025647
 21
643.7941371915881
 31
0.0
  0
LINE
  5
D3D4
330
1F
100
AcDbEntity
  8
Rear Panel
100
AcDbLine
 10
537.4196036502565
 20
684.3932832412251
 30
0.0
 11
537.4196036502565
 21
643.7941371915881
 31
0.0
  0
LINE
  5
D3D5
330
1F
100
AcDbEntity
  8
Rear Panel
100
AcDbLine
 10
92.41960365025647
 20
643.7941371915881
 30
0.0
 11
537.4196036502565
 21
643.7941371915881
 31
0.0
  0
LINE
  5
D3D6
330
1F
100
AcDbEntity
  8
Rear Panel
100
AcDbLine
 10
92.41960365025637
 20
684.3932832412244
 30
0.0
 11
537.4196036502565
 21
684.3932832412251
 31
0.0
  0
CIRCLE
  5
D3E4
330
1F
100
AcDbEntity
  8
Front Panel
100
AcDbCircle
 10
523.7084046502559
 20
161.2891558862731
 30
0.0
 40
4.2545
  0
CIRCLE
  5
D3E5
330
1F
100
AcDbEntity
  8
Front Panel
100
AcDbCircle
 10
523.7084046502559
 20
133.3440758862731
 30
0.0
 40
4.2545
  0
LINE
  5
D3F2
330
1F
100
AcDbEntity
  8
Base
100
AcDbLine
 10
537.3875991822605
 20
491.8086203542661
 30
0.0
 11
538.9196036502527
 21
491.8086218862722
 31
0.0
  0
ARC
  5
D3F3
330
1F
100
AcDbEntity
  8
Base
100
AcDbCircle
 10
92.91959965025275
 20
491.8086218862722
 30
0.0
 40
0.999998
100
AcDbArc
 50
114.2950590104774
 51
180.0
  0
ARC
  5
D3F4
330
1F
100
AcDbEntity
  8
Base
100
AcDbCircle
 10
92.91959965025275
 20
491.8086218862722
 30
0.0
 40
1.999996
100
AcDbArc
 50
104.4774234235327
 51
180.0
  0
LINE
  5
D3F5
330
1F
100
AcDbEntity
  8
Base
100
AcDbLine
 10
92.45160611824806
 20
491.8086203542682
 30
0.0
 11
90.91960365025284
 21
491.8086218862722
 31
0.0
  0
CIRCLE
  5
D3FC
330
1F
100
AcDbEntity
  8
Front Panel
100
AcDbCircle
 10
106.1308026502497
 20
161.2891558862731
 30
0.0
 40
4.2545
  0
CIRCLE
  5
D3FD
330
1F
100
AcDbEntity
  8
Front Panel
100
AcDbCircle
 10
106.1308026502497
 20
133.3440758862731
 30
0.0
 40
4.2545
  0
LINE
  5
D468
330
1F
100
AcDbEntity
  8
CENTER
100
AcDbLine
 10
393.9136036502564
 20
665.3667050404081
 30
0.0
 11
398.4856036502564
 21
665.3667050404081
 31
0.0
  0
LINE
  5
D469
330
1F
100
AcDbEntity
  8
CENTER
100
AcDbLine
 10
396.1996036502565
 20
663.0807050404081
 30
0.0
 11
396.1996036502565
 21
667.6527050404081
 31
0.0
  0
CIRCLE
  5
D46D
330
1F
100
AcDbEntity
  8
VENT
100
AcDbCircle
 10
223.2296036502565
 20
678.0841371915884
 30
0.0
 40
2.381249999999999
  0
CIRCLE
  5
D46E
330
1F
100
AcDbEntity
  8
VENT
100
AcDbCircle
 10
219.4196036502565
 20
673.0041371915882
 30
0.0
 40
2.381249999999999
  0
CIRCLE
  5
D46F
330
1F
100
AcDbEntity
  8
VENT
100
AcDbCircle
 10
223.2296036502565
 20
667.9241371915882
 30
0.0
 40
2.381249999999999
  0
CIRCLE
  5
D470
330
1F
100
AcDbEntity
  8
VENT
100
AcDbCircle
 10
219.4196036502565
 20
662.8441371915883
 30
0.0
 40
2.381249999999999
  0
CIRCLE
  5
D471
330
1F
100
AcDbEntity
  8
VENT
100
AcDbCircle
 10
215.6096036502565
 20
678.0841371915884
 30
0.0
 40
2.381249999999999
  0
CIRCLE
  5
D472
330
1F
100
AcDbEntity
  8
VENT
100
AcDbCircle
 10
211.7996036502564
 20
673.0041371915882
 30
0.0
 40
2.381249999999999
  0
CIRCLE
  5
D473
330
1F
100
AcDbEntity
  8
VENT
100
AcDbCircle
 10
215.6096036502565
 20
667.9241371915882
 30
0.0
 40
2.381249999999999
  0
CIRCLE
  5
D474
330
1F
100
AcDbEntity
  8
VENT
100
AcDbCircle
 10
211.7996036502564
 20
662.8441371915883
 30
0.0
 40
2.381249999999999
  0
CIRCLE
  5
D475
330
1F
100
AcDbEntity
  8
VENT
100
AcDbCircle
 10
207.9896036502564
 20
678.0841371915884
 30
0.0
 40
2.381249999999999
  0
CIRCLE
  5
D476
330
1F
100
AcDbEntity
  8
VENT
100
AcDbCircle
 10
204.1796036502565
 20
673.0041371915882
 30
0.0
 40
2.381249999999999
  0
CIRCLE
  5
D477
330
1F
100
AcDbEntity
  8
VENT
100
AcDbCircle
 10
207.9896036502564
 20
667.9241371915882
 30
0.0
 40
2.381249999999999
  0
CIRCLE
  5
D478
330
1F
100
AcDbEntity
  8
VENT
100
AcDbCircle
 10
204.1796036502565
 20
662.8441371915883
 30
0.0
 40
2.381249999999999
  0
CIRCLE
  5
D479
330
1F
100
AcDbEntity
  8
VENT
100
AcDbCircle
 10
200.3696036502565
 20
678.0841371915884
 30
0.0
 40
2.381249999999999
  0
CIRCLE
  5
D47A
330
1F
100
AcDbEntity
  8
VENT
100
AcDbCircle
 10
196.5596036502565
 20
673.0041371915882
 30
0.0
 40
2.381249999999999
  0
CIRCLE
  5
D47B
330
1F
100
AcDbEntity
  8
VENT
100
AcDbCircle
 10
200.3696036502565
 20
667.9241371915882
 30
0.0
 40
2.381249999999999
  0
CIRCLE
  5
D47C
330
1F
100
AcDbEntity
  8
VENT
100
AcDbCircle
 10
196.5596036502565
 20
662.8441371915883
 30
0.0
 40
2.381249999999999
  0
CIRCLE
  5
D47D
330
1F
100
AcDbEntity
  8
VENT
100
AcDbCircle
 10
192.7496036502564
 20
678.0841371915884
 30
0.0
 40
2.381249999999999
  0
CIRCLE
  5
D47E
330
1F
100
AcDbEntity
  8
VENT
100
AcDbCircle
 10
188.9396036502564
 20
673.0041371915882
 30
0.0
 40
2.381249999999999
  0
CIRCLE
  5
D47F
330
1F
100
AcDbEntity
  8
VENT
100
AcDbCircle
 10
192.7496036502564
 20
667.9241371915882
 30
0.0
 40
2.381249999999999
  0
CIRCLE
  5
D480
330
1F
100
AcDbEntity
  8
VENT
100
AcDbCircle
 10
188.9396036502564
 20
662.8441371915883
 30
0.0
 40
2.381249999999999
  0
CIRCLE
  5
D481
330
1F
100
AcDbEntity
  8
VENT
100
AcDbCircle
 10
185.1296036502564
 20
678.0841371915884
 30
0.0
 40
2.381249999999999
  0
CIRCLE
  5
D482
330
1F
100
AcDbEntity
  8
VENT
100
AcDbCircle
 10
181.3196036502565
 20
673.0041371915882
 30
0.0
 40
2.381249999999999
  0
CIRCLE
  5
D483
330
1F
100
AcDbEntity
  8
VENT
100
AcDbCircle
 10
185.1296036502564
 20
667.9241371915882
 30
0.0
 40
2.381249999999999
  0
CIRCLE
  5
D484
330
1F
100
AcDbEntity
  8
VENT
100
AcDbCircle
 10
181.3196036502565
 20
662.8441371915883
 30
0.0
 40
2.381249999999999
  0
CIRCLE
  5
D485
330
1F
100
AcDbEntity
  8
VENT
100
AcDbCircle
 10
177.5096036502565
 20
678.0841371915884
 30
0.0
 40
2.381249999999999
  0
CIRCLE
  5
D486
330
1F
100
AcDbEntity
  8
VENT
100
AcDbCircle
 10
173.6996036502564
 20
673.0041371915882
 30
0.0
 40
2.381249999999999
  0
CIRCLE
  5
D487
330
1F
100
AcDbEntity
  8
VENT
100
AcDbCircle
 10
177.5096036502565
 20
667.9241371915882
 30
0.0
 40
2.381249999999999
  0
CIRCLE
  5
D488
330
1F
100
AcDbEntity
  8
VENT
100
AcDbCircle
 10
173.6996036502564
 20
662.8441371915883
 30
0.0
 40
2.381249999999999
  0
CIRCLE
  5
D489
330
1F
100
AcDbEntity
  8
VENT
100
AcDbCircle
 10
169.8896036502564
 20
678.0841371915884
 30
0.0
 40
2.381249999999999
  0
CIRCLE
  5
D48A
330
1F
100
AcDbEntity
  8
VENT
100
AcDbCircle
 10
166.0796036502564
 20
673.0041371915882
 30
0.0
 40
2.381249999999999
  0
CIRCLE
  5
D48B
330
1F
100
AcDbEntity
  8
VENT
100
AcDbCircle
 10
169.8896036502564
 20
667.9241371915882
 30
0.0
 40
2.381249999999999
  0
CIRCLE
  5
D48C
330
1F
100
AcDbEntity
  8
VENT
100
AcDbCircle
 10
166.0796036502564
 20
662.8441371915883
 30
0.0
 40
2.381249999999999
  0
CIRCLE
  5
D48D
330
1F
100
AcDbEntity
  8
VENT
100
AcDbCircle
 10
162.2696036502565
 20
678.0841371915884
 30
0.0
 40
2.381249999999999
  0
CIRCLE
  5
D48E
330
1F
100
AcDbEntity
  8
VENT
100
AcDbCircle
 10
158.4596036502565
 20
673.0041371915882
 30
0.0
 40
2.381249999999999
  0
CIRCLE
  5
D48F
330
1F
100
AcDbEntity
  8
VENT
100
AcDbCircle
 10
162.2696036502565
 20
667.9241371915882
 30
0.0
 40
2.381249999999999
  0
CIRCLE
  5
D490
330
1F
100
AcDbEntity
  8
VENT
100
AcDbCircle
 10
158.4596036502565
 20
662.8441371915883
 30
0.0
 40
2.381249999999999
  0
CIRCLE
  5
D491
330
1F
100
AcDbEntity
  8
VENT
100
AcDbCircle
 10
154.6496036502564
 20
678.0841371915884
 30
0.0
 40
2.381249999999999
  0
CIRCLE
  5
D492
330
1F
100
AcDbEntity
  8
VENT
100
AcDbCircle
 10
150.8396036502564
 20
673.0041371915882
 30
0.0
 40
2.381249999999999
  0
CIRCLE
  5
D493
330
1F
100
AcDbEntity
  8
VENT
100
AcDbCircle
 10
154.6496036502564
 20
667.9241371915882
 30
0.0
 40
2.381249999999999
  0
CIRCLE
  5
D494
330
1F
100
AcDbEntity
  8
VENT
100
AcDbCircle
 10
150.8396036502564
 20
662.8441371915883
 30
0.0
 40
2.381249999999999
  0
CIRCLE
  5
D495
330
1F
100
AcDbEntity
  8
VENT
100
AcDbCircle
 10
147.0296036502565
 20
678.0841371915884
 30
0.0
 40
2.381249999999999
  0
CIRCLE
  5
D496
330
1F
100
AcDbEntity
  8
VENT
100
AcDbCircle
 10
143.2196036502565
 20
673.0041371915882
 30
0.0
 40
2.381249999999999
  0
CIRCLE
  5
D497
330
1F
100
AcDbEntity
  8
VENT
100
AcDbCircle
 10
147.0296036502565
 20
667.9241371915882
 30
0.0
 40
2.381249999999999
  0
CIRCLE
  5
D498
330
1F
100
AcDbEntity
  8
VENT
100
AcDbCircle
 10
143.2196036502565
 20
662.8441371915883
 30
0.0
 40
2.381249999999999
  0
CIRCLE
  5
D499
330
1F
100
AcDbEntity
  8
VENT
100
AcDbCircle
 10
139.4096036502565
 20
678.0841371915884
 30
0.0
 40
2.381249999999999
  0
CIRCLE
  5
D49A
330
1F
100
AcDbEntity
  8
VENT
100
AcDbCircle
 10
135.5996036502564
 20
673.0041371915882
 30
0.0
 40
2.381249999999999
  0
CIRCLE
  5
D49B
330
1F
100
AcDbEntity
  8
VENT
100
AcDbCircle
 10
139.4096036502565
 20
667.9241371915882
 30
0.0
 40
2.381249999999999
  0
CIRCLE
  5
D49C
330
1F
100
AcDbEntity
  8
VENT
100
AcDbCircle
 10
135.5996036502564
 20
662.8441371915883
 30
0.0
 40
2.381249999999999
  0
CIRCLE
  5
D49D
330
1F
100
AcDbEntity
  8
VENT
100
AcDbCircle
 10
131.7896036502564
 20
678.0841371915884
 30
0.0
 40
2.381249999999999
  0
CIRCLE
  5
D49E
330
1F
100
AcDbEntity
  8
VENT
100
AcDbCircle
 10
127.9796036502565
 20
673.0041371915882
 30
0.0
 40
2.381249999999999
  0
CIRCLE
  5
D49F
330
1F
100
AcDbEntity
  8
VENT
100
AcDbCircle
 10
131.7896036502564
 20
667.9241371915882
 30
0.0
 40
2.381249999999999
  0
CIRCLE
  5
D4A0
330
1F
100
AcDbEntity
  8
VENT
100
AcDbCircle
 10
127.9796036502565
 20
662.8441371915883
 30
0.0
 40
2.381249999999999
  0
CIRCLE
  5
D4A1
330
1F
100
AcDbEntity
  8
VENT
100
AcDbCircle
 10
124.1696036502565
 20
678.0841371915884
 30
0.0
 40
2.381249999999999
  0
CIRCLE
  5
D4A2
330
1F
100
AcDbEntity
  8
VENT
100
AcDbCircle
 10
120.3596036502565
 20
673.0041371915882
 30
0.0
 40
2.381249999999999
  0
CIRCLE
  5
D4A3
330
1F
100
AcDbEntity
  8
VENT
100
AcDbCircle
 10
124.1696036502565
 20
667.9241371915882
 30
0.0
 40
2.381249999999999
  0
CIRCLE
  5
D4A4
330
1F
100
AcDbEntity
  8
VENT
100
AcDbCircle
 10
120.3596036502565
 20
662.8441371915883
 30
0.0
 40
2.381249999999999
  0
CIRCLE
  5
D4A5
330
1F
100
AcDbEntity
  8
VENT
100
AcDbCircle
 10
116.5496036502563
 20
678.0841371915884
 30
0.0
 40
2.381249999999999
  0
CIRCLE
  5
D4A6
330
1F
100
AcDbEntity
  8
VENT
100
AcDbCircle
 10
116.5496036502563
 20
667.9241371915882
 30
0.0
 40
2.381249999999999
  0
CIRCLE
  5
D4A7
330
1F
100
AcDbEntity
  8
VENT
100
AcDbCircle
 10
112.7396036502564
 20
673.0041371915882
 30
0.0
 40
2.381249999999999
  0
CIRCLE
  5
D4A8
330
1F
100
AcDbEntity
  8
VENT
100
AcDbCircle
 10
112.7396036502564
 20
662.8441371915883
 30
0.0
 40
2.381249999999999
  0
LWPOLYLINE
  5
DF38
330
1F
100
AcDbEntity
  8
Front Panel
100
AcDbPolyline
 90
       18
 70
     1
 43
0.0
 10
619.0567095893531
 20
273.8086158862747
 10
583.0967055893536
 20
273.8086158862747
 10
582.7564101149663
 20
272.5386158862747
 10
582.1670010637412
 20
272.5386158862747
 10
581.8267055893535
 20
273.8086158862747
 10
581.8267055893535
 20
280.3086158862746
 10
580.3267055893535
 20
280.3086158862748
 10
580.3267055893534
 20
273.8086158862748
 10
579.2517075893535
 20
273.8086158862748
 10
579.2517075893535
 20
270.8086158862748
 10
622.9017075893534
 20
270.8086158862724
 10
622.9017075893535
 20
273.8086158862723
 10
621.8267095893533
 20
273.8086158862724
 10
621.8267095893533
 20
280.3086158862748
 10
620.3267095893534
 20
280.3086158862746
 10
620.3267095893535
 20
273.8086158862747
 10
619.9864141149658
 20
272.5386158862747
 10
619.3970050637407
 20
272.5386158862747
  0
LINE
  5
E411
330
1F
100
AcDbEntity
  8
CONNECTOR
100
AcDbLine
 10
307.9715513704286
 20
151.1771929227571
 30
0.0
 11
307.8286769384655
 21
151.063703045062
 31
0.0
  0
LINE
  5
E412
330
1F
100
AcDbEntity
  8
CONNECTOR
100
AcDbLine
 10
307.8286769384658
 20
151.0637030450619
 30
0.0
 11
307.8286769384658
 21
151.1934053537114
 31
0.0
  0
LINE
  5
E413
330
1F
100
AcDbEntity
  8
CONNECTOR
100
AcDbLine
 10
307.8286769384655
 20
151.1934053537112
 30
0.0
 11
307.9715513704286
 21
151.3068942777337
 31
0.0
  0
LINE
  5
E414
330
1F
100
AcDbEntity
  8
CONNECTOR
100
AcDbLine
 10
307.9715513704287
 20
151.3068942777337
 30
0.0
 11
308.1144262792275
 21
151.3068942777337
 31
0.0
  0
LINE
  5
E415
330
1F
100
AcDbEntity
  8
CONNECTOR
100
AcDbLine
 10
308.114426279228
 20
151.3068942777337
 30
0.0
 11
308.114426279228
 21
150.5448957178105
 31
0.0
  0
LINE
  5
E416
330
1F
100
AcDbEntity
  8
CONNECTOR
100
AcDbLine
 10
307.9715513704284
 20
150.5448957178105
 30
0.0
 11
307.9715513704284
 21
151.1771929227574
 31
0.0
  0
LINE
  5
E417
330
1F
100
AcDbEntity
  8
CONNECTOR
100
AcDbLine
 10
308.1144262792276
 20
150.5448957178109
 30
0.0
 11
307.9715513704287
 21
150.5448957178109
 31
0.0
  0
CIRCLE
  5
E418
330
1F
100
AcDbEntity
  8
CONNECTOR
100
AcDbCircle
 10
306.5014794654551
 20
146.4555041834753
 30
0.0
 40
1.041397917200095
  0
CIRCLE
  5
E419
330
1F
100
AcDbEntity
  8
CONNECTOR
100
AcDbCircle
 10
305.1298822086551
 20
149.3002984938754
 30
0.0
 40
1.041397917200095
  0
CIRCLE
  5
E41A
330
1F
100
AcDbEntity
  8
CONNECTOR
100
AcDbCircle
 10
303.743484981455
 20
146.4555041834753
 30
0.0
 40
1.041397917200123
  0
CIRCLE
  5
E41B
330
1F
100
AcDbEntity
  8
CONNECTOR
100
AcDbCircle
 10
302.3718877246551
 20
149.3002984938754
 30
0.0
 40
1.041397917200123
  0
CIRCLE
  5
E41C
330
1F
100
AcDbEntity
  8
CONNECTOR
100
AcDbCircle
 10
300.985490497455
 20
146.4555041834753
 30
0.0
 40
1.041397917199996
  0
CIRCLE
  5
E41D
330
1F
100
AcDbEntity
  8
CONNECTOR
100
AcDbCircle
 10
299.613893240655
 20
149.3002984938754
 30
0.0
 40
1.041397917200081
  0
CIRCLE
  5
E41E
330
1F
100
AcDbEntity
  8
CONNECTOR
100
AcDbCircle
 10
274.9695425294549
 20
149.3002984938754
 30
0.0
 40
1.041397917200095
  0
CIRCLE
  5
E41F
330
1F
100
AcDbEntity
  8
CONNECTOR
100
AcDbCircle
 10
276.341139786255
 20
146.4555041834753
 30
0.0
 40
1.041397917200081
  0
CIRCLE
  5
E420
330
1F
100
AcDbEntity
  8
CONNECTOR
100
AcDbCircle
 10
307.8286768110551
 20
149.3002984938754
 30
0.0
 40
1.041397917200095
  0
LINE
  5
E421
330
1F
100
AcDbEntity
  8
CONNECTOR
100
AcDbLine
 10
310.5205831198826
 20
148.8973329285335
 30
0.0
 11
310.0055330393348
 21
145.9763387705337
 31
0.0
  0
LINE
  5
E422
330
1F
100
AcDbEntity
  8
CONNECTOR
100
AcDbLine
 10
307.5041263495112
 20
143.8774093396754
 30
0.0
 11
275.2940929910027
 21
143.8774093396754
 31
0.0
  0
LINE
  5
E423
330
1F
100
AcDbEntity
  8
CONNECTOR
100
AcDbLine
 10
272.7926863011751
 20
145.9763387705347
 30
0.0
 11
272.2776362206273
 21
148.8973329285341
 31
0.0
  0
LINE
  5
E424
330
1F
100
AcDbEntity
  8
CONNECTOR
100
AcDbLine
 10
274.779042910455
 20
151.8783933376753
 30
0.0
 11
308.0191764300563
 21
151.8783933376753
 31
0.0
  0
ARC
  5
E425
330
1F
100
AcDbEntity
  8
CONNECTOR
100
AcDbCircle
 10
308.019176430055
 20
149.3383984176753
 30
0.0
 40
2.539994919999992
100
AcDbArc
 50
349.9999999999852
 51
89.99999999997161
  0
ARC
  5
E426
330
1F
100
AcDbEntity
  8
CONNECTOR
100
AcDbCircle
 10
307.5041263495073
 20
146.4174042596753
 30
0.0
 40
2.539994920000004
100
AcDbArc
 50
270.0000000000905
 51
349.9999999999903
  0
ARC
  5
E427
330
1F
100
AcDbEntity
  8
CONNECTOR
100
AcDbCircle
 10
275.2940929910027
 20
146.4174042596753
 30
0.0
 40
2.539994919999999
100
AcDbArc
 50
189.9999999999884
 51
270.0000000000181
  0
ARC
  5
E428
330
1F
100
AcDbEntity
  8
CONNECTOR
100
AcDbCircle
 10
274.779042910455
 20
149.3383984176753
 30
0.0
 40
2.539994920000009
100
AcDbArc
 50
90.00000000000518
 51
189.999999999999
  0
CIRCLE
  5
E429
330
1F
100
AcDbEntity
  8
CONNECTOR
100
AcDbCircle
 10
274.9695425294549
 20
149.3002984938754
 30
0.0
 40
0.5714988569999009
  0
CIRCLE
  5
E42A
330
1F
100
AcDbEntity
  8
CONNECTOR
100
AcDbCircle
 10
299.613893240655
 20
149.3002984938754
 30
0.0
 40
0.5714988569999009
  0
CIRCLE
  5
E42B
330
1F
100
AcDbEntity
  8
CONNECTOR
100
AcDbCircle
 10
302.3718877246551
 20
149.3002984938754
 30
0.0
 40
0.5714988570000146
  0
CIRCLE
  5
E42C
330
1F
100
AcDbEntity
  8
CONNECTOR
100
AcDbCircle
 10
300.985490497455
 20
146.4555041834753
 30
0.0
 40
0.571498856999972
  0
CIRCLE
  5
E42D
330
1F
100
AcDbEntity
  8
CONNECTOR
100
AcDbCircle
 10
303.743484981455
 20
146.4555041834753
 30
0.0
 40
0.5714988569999009
  0
CIRCLE
  5
E42E
330
1F
100
AcDbEntity
  8
CONNECTOR
100
AcDbCircle
 10
276.341139786255
 20
146.4555041834753
 30
0.0
 40
0.5714988569999009
  0
CIRCLE
  5
E42F
330
1F
100
AcDbEntity
  8
CONNECTOR
100
AcDbCircle
 10
305.1298822086551
 20
149.3002984938754
 30
0.0
 40
0.5714988569999009
  0
CIRCLE
  5
E430
330
1F
100
AcDbEntity
  8
CONNECTOR
100
AcDbCircle
 10
307.8286768110551
 20
149.3002984938754
 30
0.0
 40
0.5714988569999009
  0
CIRCLE
  5
E431
330
1F
100
AcDbEntity
  8
CONNECTOR
100
AcDbCircle
 10
306.5014794654551
 20
146.4555041834753
 30
0.0
 40
0.5714988569999009
  0
CIRCLE
  5
E457
330
1F
100
AcDbEntity
  8
CONNECTOR
100
AcDbCircle
 10
298.227050497455
 20
146.4555041834753
 30
0.0
 40
1.041397917199996
  0
CIRCLE
  5
E458
330
1F
100
AcDbEntity
  8
CONNECTOR
100
AcDbCircle
 10
296.855453240655
 20
149.3002984938754
 30
0.0
 40
1.041397917200081
  0
CIRCLE
  5
E459
330
1F
100
AcDbEntity
  8
CONNECTOR
100
AcDbCircle
 10
296.855453240655
 20
149.3002984938754
 30
0.0
 40
0.5714988569999009
  0
CIRCLE
  5
E45A
330
1F
100
AcDbEntity
  8
CONNECTOR
100
AcDbCircle
 10
298.227050497455
 20
146.4555041834753
 30
0.0
 40
0.571498856999972
  0
CIRCLE
  5
E45B
330
1F
100
AcDbEntity
  8
CONNECTOR
100
AcDbCircle
 10
295.468610497455
 20
146.4555041834753
 30
0.0
 40
1.041397917199996
  0
CIRCLE
  5
E45C
330
1F
100
AcDbEntity
  8
CONNECTOR
100
AcDbCircle
 10
294.097013240655
 20
149.3002984938754
 30
0.0
 40
1.041397917200081
  0
CIRCLE
  5
E45D
330
1F
100
AcDbEntity
  8
CONNECTOR
100
AcDbCircle
 10
294.097013240655
 20
149.3002984938754
 30
0.0
 40
0.5714988569999009
  0
CIRCLE
  5
E45E
330
1F
100
AcDbEntity
  8
CONNECTOR
100
AcDbCircle
 10
295.468610497455
 20
146.4555041834753
 30
0.0
 40
0.571498856999972
  0
CIRCLE
  5
E45F
330
1F
100
AcDbEntity
  8
CONNECTOR
100
AcDbCircle
 10
292.7101704974551
 20
146.4555041834753
 30
0.0
 40
1.041397917199996
  0
CIRCLE
  5
E460
330
1F
100
AcDbEntity
  8
CONNECTOR
100
AcDbCircle
 10
291.338573240655
 20
149.3002984938754
 30
0.0
 40
1.041397917200081
  0
CIRCLE
  5
E461
330
1F
100
AcDbEntity
  8
CONNECTOR
100
AcDbCircle
 10
291.338573240655
 20
149.3002984938754
 30
0.0
 40
0.5714988569999009
  0
CIRCLE
  5
E462
330
1F
100
AcDbEntity
  8
CONNECTOR
100
AcDbCircle
 10
292.7101704974551
 20
146.4555041834753
 30
0.0
 40
0.571498856999972
  0
CIRCLE
  5
E463
330
1F
100
AcDbEntity
  8
CONNECTOR
100
AcDbCircle
 10
289.951730497455
 20
146.4555041834753
 30
0.0
 40
1.041397917199996
  0
CIRCLE
  5
E464
330
1F
100
AcDbEntity
  8
CONNECTOR
100
AcDbCircle
 10
288.580133240655
 20
149.3002984938754
 30
0.0
 40
1.041397917200081
  0
CIRCLE
  5
E465
330
1F
100
AcDbEntity
  8
CONNECTOR
100
AcDbCircle
 10
288.580133240655
 20
149.3002984938754
 30
0.0
 40
0.5714988569999009
  0
CIRCLE
  5
E466
330
1F
100
AcDbEntity
  8
CONNECTOR
100
AcDbCircle
 10
289.951730497455
 20
146.4555041834753
 30
0.0
 40
0.571498856999972
  0
CIRCLE
  5
E467
330
1F
100
AcDbEntity
  8
CONNECTOR
100
AcDbCircle
 10
287.1932904974551
 20
146.4555041834753
 30
0.0
 40
1.041397917199996
  0
CIRCLE
  5
E468
330
1F
100
AcDbEntity
  8
CONNECTOR
100
AcDbCircle
 10
285.8216932406551
 20
149.3002984938754
 30
0.0
 40
1.041397917200081
  0
CIRCLE
  5
E469
330
1F
100
AcDbEntity
  8
CONNECTOR
100
AcDbCircle
 10
285.8216932406551
 20
149.3002984938754
 30
0.0
 40
0.5714988569999009
  0
CIRCLE
  5
E46A
330
1F
100
AcDbEntity
  8
CONNECTOR
100
AcDbCircle
 10
287.1932904974551
 20
146.4555041834753
 30
0.0
 40
0.571498856999972
  0
CIRCLE
  5
E46B
330
1F
100
AcDbEntity
  8
CONNECTOR
100
AcDbCircle
 10
284.4348504974551
 20
146.4555041834753
 30
0.0
 40
1.041397917199996
  0
CIRCLE
  5
E46C
330
1F
100
AcDbEntity
  8
CONNECTOR
100
AcDbCircle
 10
283.063253240655
 20
149.3002984938754
 30
0.0
 40
1.041397917200081
  0
CIRCLE
  5
E46D
330
1F
100
AcDbEntity
  8
CONNECTOR
100
AcDbCircle
 10
283.063253240655
 20
149.3002984938754
 30
0.0
 40
0.5714988569999009
  0
CIRCLE
  5
E46E
330
1F
100
AcDbEntity
  8
CONNECTOR
100
AcDbCircle
 10
284.4348504974551
 20
146.4555041834753
 30
0.0
 40
0.571498856999972
  0
CIRCLE
  5
E46F
330
1F
100
AcDbEntity
  8
CONNECTOR
100
AcDbCircle
 10
281.676410497455
 20
146.4555041834753
 30
0.0
 40
1.041397917199996
  0
CIRCLE
  5
E470
330
1F
100
AcDbEntity
  8
CONNECTOR
100
AcDbCircle
 10
280.3048132406551
 20
149.3002984938754
 30
0.0
 40
1.041397917200081
  0
CIRCLE
  5
E471
330
1F
100
AcDbEntity
  8
CONNECTOR
100
AcDbCircle
 10
280.3048132406551
 20
149.3002984938754
 30
0.0
 40
0.5714988569999009
  0
CIRCLE
  5
E472
330
1F
100
AcDbEntity
  8
CONNECTOR
100
AcDbCircle
 10
281.676410497455
 20
146.4555041834753
 30
0.0
 40
0.571498856999972
  0
CIRCLE
  5
E473
330
1F
100
AcDbEntity
  8
CONNECTOR
100
AcDbCircle
 10
278.9179704974551
 20
146.4555041834753
 30
0.0
 40
1.041397917199996
  0
CIRCLE
  5
E474
330
1F
100
AcDbEntity
  8
CONNECTOR
100
AcDbCircle
 10
277.546373240655
 20
149.3002984938754
 30
0.0
 40
1.041397917200081
  0
CIRCLE
  5
E475
330
1F
100
AcDbEntity
  8
CONNECTOR
100
AcDbCircle
 10
277.546373240655
 20
149.3002984938754
 30
0.0
 40
0.5714988569999009
  0
CIRCLE
  5
E476
330
1F
100
AcDbEntity
  8
CONNECTOR
100
AcDbCircle
 10
278.9179704974551
 20
146.4555041834753
 30
0.0
 40
0.571498856999972
  0
LINE
  5
E4A8
330
1F
100
AcDbEntity
  8
CENTER
100
AcDbLine
 10
267.878113919611
 20
145.5919013386754
 30
0.0
 11
267.878113919611
 21
150.1639013386754
 31
0.0
  0
LINE
  5
E4AA
330
1F
100
AcDbEntity
  8
CENTER
100
AcDbLine
 10
314.9195096702548
 20
145.5919013386754
 30
0.0
 11
314.9195096702548
 21
150.1639013386754
 31
0.0
  0
LINE
  5
E4AB
330
1F
100
AcDbEntity
  8
Front Panel
100
AcDbLine
 10
273.9363117949328
 20
142.289912540075
 30
0.0
 11
308.8613117949328
 21
142.289912540075
 31
0.0
  0
ARC
  5
E4AC
330
1F
100
AcDbEntity
  8
Front Panel
100
AcDbCircle
 10
308.8613117949328
 20
145.464912540075
 30
0.0
 40
3.174999999999999
100
AcDbArc
 50
270.0
 51
0.0
  0
LINE
  5
E4AD
330
1F
100
AcDbEntity
  8
Front Panel
100
AcDbLine
 10
273.9363117949328
 20
153.4658901372752
 30
0.0
 11
308.8613117949328
 21
153.4658901372759
 31
0.0
  0
ARC
  5
E4AE
330
1F
100
AcDbEntity
  8
Front Panel
100
AcDbCircle
 10
308.8613117949328
 20
150.2908901372759
 30
0.0
 40
3.174999999999999
100
AcDbArc
 50
0.0
 51
90.00000000000122
  0
LINE
  5
E4AF
330
1F
100
AcDbEntity
  8
Front Panel
100
AcDbLine
 10
314.9195096702547
 20
151.0529013386754
 30
0.0
 11
311.9435129449134
 21
151.0529013386755
 31
0.0
  0
ARC
  5
E4B0
330
1F
100
AcDbEntity
  8
Front Panel
100
AcDbCircle
 10
314.9195096702548
 20
147.8779013386754
 30
0.0
 40
3.175000000000002
100
AcDbArc
 50
270.0
 51
90.00000000000161
  0
LINE
  5
E4B1
330
1F
100
AcDbEntity
  8
Front Panel
100
AcDbLine
 10
314.9195096702548
 20
144.7029013386754
 30
0.0
 11
311.9435129449134
 21
144.7029013386753
 31
0.0
  0
ARC
  5
E4B2
330
1F
100
AcDbEntity
  8
Front Panel
100
AcDbCircle
 10
273.9363117949328
 20
145.464912540075
 30
0.0
 40
3.174999999999999
100
AcDbArc
 50
180.0
 51
270.0
  0
ARC
  5
E4B3
330
1F
100
AcDbEntity
  8
Front Panel
100
AcDbCircle
 10
273.9363117949328
 20
150.2908901372759
 30
0.0
 40
3.174999999999999
100
AcDbArc
 50
89.99999999999877
 51
180.0
  0
LINE
  5
E4B5
330
1F
100
AcDbEntity
  8
Front Panel
100
AcDbLine
 10
270.7613117949328
 20
150.2908901372759
 30
0.0
 11
270.7613117949328
 21
145.464912540075
 31
0.0
  0
LINE
  5
E4B6
330
1F
100
AcDbEntity
  8
Front Panel
100
AcDbLine
 10
312.0363117949328
 20
150.2908901372759
 30
0.0
 11
312.0363117949328
 21
145.464912540075
 31
0.0
  0
LINE
  5
E4B8
330
1F
100
AcDbEntity
  8
Front Panel
100
AcDbLine
 10
267.8781139196108
 20
151.0529013386754
 30
0.0
 11
270.8541106449521
 21
151.0529013386755
 31
0.0
  0
ARC
  5
E4B9
330
1F
100
AcDbEntity
  8
Front Panel
100
AcDbCircle
 10
267.8781139196107
 20
147.8779013386754
 30
0.0
 40
3.175000000000002
100
AcDbArc
 50
89.99999999999827
 51
270.0
  0
LINE
  5
E4BA
330
1F
100
AcDbEntity
  8
Front Panel
100
AcDbLine
 10
267.8781139196107
 20
144.7029013386754
 30
0.0
 11
270.8541106449521
 21
144.7029013386753
 31
0.0
  0
LINE
  5
E4C1
330
1F
100
AcDbEntity
  8
CENTER
100
AcDbLine
 10
270.1641047756198
 20
147.8779013386754
 30
0.0
 11
265.5921230636015
 21
147.8779013386754
 31
0.0
  0
LWPOLYLINE
  5
E4C2
330
1F
100
AcDbEntity
  8
CONNECTOR
100
AcDbPolyline
 90
        6
 70
     1
 43
0.0
 10
265.4968734446012
 20
146.5030915094235
 10
267.8781139196107
 20
145.1282816801714
 10
270.2593543946202
 20
146.5030915094235
 10
270.2593543946202
 20
149.2527111679273
 10
267.8781139196107
 20
150.6275209971795
 10
265.4968734446012
 20
149.2527111679273
  0
INSERT
  5
E4C3
330
1F
100
AcDbEntity
  8
CONNECTOR
100
AcDbBlockReference
  2
4hole
 10
267.8781139196107
 20
147.8779013386754
 30
0.0
 41
25.39989840010159
 42
25.39989840010153
 43
25.39989840010157
  0
LINE
  5
E4C4
330
1F
100
AcDbEntity
  8
CENTER
100
AcDbLine
 10
314.9195096702548
 20
145.5919013386754
 30
0.0
 11
314.9195096702548
 21
150.1639013386754
 31
0.0
  0
LINE
  5
E4C6
330
1F
100
AcDbEntity
  8
CENTER
100
AcDbLine
 10
317.2055005262635
 20
147.8779013386754
 30
0.0
 11
312.6335188142453
 21
147.8779013386754
 31
0.0
  0
LWPOLYLINE
  5
E4C7
330
1F
100
AcDbEntity
  8
CONNECTOR
100
AcDbPolyline
 90
        6
 70
     1
 43
0.0
 10
312.5382691952449
 20
146.5030915094235
 10
314.9195096702545
 20
145.1282816801714
 10
317.300750145264
 20
146.5030915094235
 10
317.300750145264
 20
149.2527111679273
 10
314.9195096702545
 20
150.6275209971795
 10
312.5382691952449
 20
149.2527111679273
  0
INSERT
  5
E4C8
330
1F
100
AcDbEntity
  8
CONNECTOR
100
AcDbBlockReference
  2
4hole
 10
314.9195096702545
 20
147.8779013386754
 30
0.0
 41
25.39989840010159
 42
25.39989840010153
 43
25.39989840010157
  0
LINE
  5
E4C9
330
1F
100
AcDbEntity
  8
CONNECTOR
100
AcDbLine
 10
429.658119542581
 20
149.9741914269333
 30
0.0
 11
429.6581195425813
 21
149.21654331714
 31
0.0
  0
LINE
  5
E4CA
330
1F
100
AcDbEntity
  8
CONNECTOR
100
AcDbLine
 10
429.6581195425813
 20
149.21654331714
 30
0.0
 11
431.3210877579284
 21
149.21654331714
 31
0.0
  0
LINE
  5
E4CB
330
1F
100
AcDbEntity
  8
CONNECTOR
100
AcDbLine
 10
431.3210877579284
 20
149.21654331714
 30
0.0
 11
431.3210877579284
 21
149.9741914269333
 31
0.0
  0
LINE
  5
E4CD
330
1F
100
AcDbEntity
  8
CONNECTOR
100
AcDbLine
 10
227.9615513704289
 20
151.1771929227571
 30
0.0
 11
227.8186769384659
 21
151.063703045062
 31
0.0
  0
LINE
  5
E4CE
330
1F
100
AcDbEntity
  8
CONNECTOR
100
AcDbLine
 10
227.8186769384661
 20
151.0637030450619
 30
0.0
 11
227.8186769384661
 21
151.1934053537114
 31
0.0
  0
LINE
  5
E4CF
330
1F
100
AcDbEntity
  8
CONNECTOR
100
AcDbLine
 10
227.8186769384659
 20
151.1934053537112
 30
0.0
 11
227.9615513704289
 21
151.3068942777337
 31
0.0
  0
LINE
  5
E4D0
330
1F
100
AcDbEntity
  8
CONNECTOR
100
AcDbLine
 10
227.961551370429
 20
151.3068942777337
 30
0.0
 11
228.1044262792278
 21
151.3068942777337
 31
0.0
  0
LINE
  5
E4D1
330
1F
100
AcDbEntity
  8
CONNECTOR
100
AcDbLine
 10
228.1044262792283
 20
151.3068942777337
 30
0.0
 11
228.1044262792283
 21
150.5448957178105
 31
0.0
  0
LINE
  5
E4D2
330
1F
100
AcDbEntity
  8
CONNECTOR
100
AcDbLine
 10
227.9615513704286
 20
150.5448957178105
 30
0.0
 11
227.9615513704286
 21
151.1771929227574
 31
0.0
  0
LINE
  5
E4D3
330
1F
100
AcDbEntity
  8
CONNECTOR
100
AcDbLine
 10
228.1044262792279
 20
150.5448957178109
 30
0.0
 11
227.961551370429
 21
150.5448957178109
 31
0.0
  0
CIRCLE
  5
E4D4
330
1F
100
AcDbEntity
  8
CONNECTOR
100
AcDbCircle
 10
226.4914794654554
 20
146.4555041834753
 30
0.0
 40
1.041397917200095
  0
CIRCLE
  5
E4D5
330
1F
100
AcDbEntity
  8
CONNECTOR
100
AcDbCircle
 10
225.1198822086554
 20
149.3002984938754
 30
0.0
 40
1.041397917200095
  0
CIRCLE
  5
E4D6
330
1F
100
AcDbEntity
  8
CONNECTOR
100
AcDbCircle
 10
223.7334849814553
 20
146.4555041834753
 30
0.0
 40
1.041397917200123
  0
CIRCLE
  5
E4D7
330
1F
100
AcDbEntity
  8
CONNECTOR
100
AcDbCircle
 10
222.3618877246554
 20
149.3002984938754
 30
0.0
 40
1.041397917200123
  0
CIRCLE
  5
E4D8
330
1F
100
AcDbEntity
  8
CONNECTOR
100
AcDbCircle
 10
220.9754904974553
 20
146.4555041834753
 30
0.0
 40
1.041397917199996
  0
CIRCLE
  5
E4D9
330
1F
100
AcDbEntity
  8
CONNECTOR
100
AcDbCircle
 10
219.6038932406553
 20
149.3002984938754
 30
0.0
 40
1.041397917200081
  0
CIRCLE
  5
E4DA
330
1F
100
AcDbEntity
  8
CONNECTOR
100
AcDbCircle
 10
194.9595425294552
 20
149.3002984938754
 30
0.0
 40
1.041397917200095
  0
CIRCLE
  5
E4DB
330
1F
100
AcDbEntity
  8
CONNECTOR
100
AcDbCircle
 10
196.3311397862553
 20
146.4555041834753
 30
0.0
 40
1.041397917200081
  0
CIRCLE
  5
E4DC
330
1F
100
AcDbEntity
  8
CONNECTOR
100
AcDbCircle
 10
227.8186768110554
 20
149.3002984938754
 30
0.0
 40
1.041397917200095
  0
LINE
  5
E4DD
330
1F
100
AcDbEntity
  8
CONNECTOR
100
AcDbLine
 10
230.5105831198829
 20
148.8973329285335
 30
0.0
 11
229.9955330393351
 21
145.9763387705337
 31
0.0
  0
LINE
  5
E4DE
330
1F
100
AcDbEntity
  8
CONNECTOR
100
AcDbLine
 10
227.4941263495115
 20
143.8774093396754
 30
0.0
 11
195.284092991003
 21
143.8774093396754
 31
0.0
  0
LINE
  5
E4DF
330
1F
100
AcDbEntity
  8
CONNECTOR
100
AcDbLine
 10
192.7826863011754
 20
145.9763387705347
 30
0.0
 11
192.2676362206276
 21
148.8973329285341
 31
0.0
  0
LINE
  5
E4E0
330
1F
100
AcDbEntity
  8
CONNECTOR
100
AcDbLine
 10
194.7690429104553
 20
151.8783933376753
 30
0.0
 11
228.0091764300566
 21
151.8783933376753
 31
0.0
  0
ARC
  5
E4E1
330
1F
100
AcDbEntity
  8
CONNECTOR
100
AcDbCircle
 10
228.0091764300554
 20
149.3383984176753
 30
0.0
 40
2.539994919999992
100
AcDbArc
 50
349.9999999999852
 51
89.99999999997161
  0
ARC
  5
E4E2
330
1F
100
AcDbEntity
  8
CONNECTOR
100
AcDbCircle
 10
227.4941263495076
 20
146.4174042596753
 30
0.0
 40
2.539994920000004
100
AcDbArc
 50
270.0000000000905
 51
349.9999999999903
  0
ARC
  5
E4E3
330
1F
100
AcDbEntity
  8
CONNECTOR
100
AcDbCircle
 10
195.284092991003
 20
146.4174042596753
 30
0.0
 40
2.539994919999999
100
AcDbArc
 50
189.9999999999884
 51
270.0000000000181
  0
ARC
  5
E4E4
330
1F
100
AcDbEntity
  8
CONNECTOR
100
AcDbCircle
 10
194.7690429104553
 20
149.3383984176753
 30
0.0
 40
2.539994920000009
100
AcDbArc
 50
90.00000000000518
 51
189.999999999999
  0
CIRCLE
  5
E4E5
330
1F
100
AcDbEntity
  8
CONNECTOR
100
AcDbCircle
 10
194.9595425294552
 20
149.3002984938754
 30
0.0
 40
0.5714988569999009
  0
CIRCLE
  5
E4E6
330
1F
100
AcDbEntity
  8
CONNECTOR
100
AcDbCircle
 10
219.6038932406553
 20
149.3002984938754
 30
0.0
 40
0.5714988569999009
  0
CIRCLE
  5
E4E7
330
1F
100
AcDbEntity
  8
CONNECTOR
100
AcDbCircle
 10
222.3618877246554
 20
149.3002984938754
 30
0.0
 40
0.5714988570000146
  0
CIRCLE
  5
E4E8
330
1F
100
AcDbEntity
  8
CONNECTOR
100
AcDbCircle
 10
220.9754904974553
 20
146.4555041834753
 30
0.0
 40
0.571498856999972
  0
CIRCLE
  5
E4E9
330
1F
100
AcDbEntity
  8
CONNECTOR
100
AcDbCircle
 10
223.7334849814553
 20
146.4555041834753
 30
0.0
 40
0.5714988569999009
  0
CIRCLE
  5
E4EA
330
1F
100
AcDbEntity
  8
CONNECTOR
100
AcDbCircle
 10
196.3311397862553
 20
146.4555041834753
 30
0.0
 40
0.5714988569999009
  0
CIRCLE
  5
E4EB
330
1F
100
AcDbEntity
  8
CONNECTOR
100
AcDbCircle
 10
225.1198822086554
 20
149.3002984938754
 30
0.0
 40
0.5714988569999009
  0
CIRCLE
  5
E4EC
330
1F
100
AcDbEntity
  8
CONNECTOR
100
AcDbCircle
 10
227.8186768110554
 20
149.3002984938754
 30
0.0
 40
0.5714988569999009
  0
CIRCLE
  5
E4ED
330
1F
100
AcDbEntity
  8
CONNECTOR
100
AcDbCircle
 10
226.4914794654554
 20
146.4555041834753
 30
0.0
 40
0.5714988569999009
  0
CIRCLE
  5
E4EE
330
1F
100
AcDbEntity
  8
CONNECTOR
100
AcDbCircle
 10
218.2170504974553
 20
146.4555041834753
 30
0.0
 40
1.041397917199996
  0
CIRCLE
  5
E4EF
330
1F
100
AcDbEntity
  8
CONNECTOR
100
AcDbCircle
 10
216.8454532406554
 20
149.3002984938754
 30
0.0
 40
1.041397917200081
  0
CIRCLE
  5
E4F0
330
1F
100
AcDbEntity
  8
CONNECTOR
100
AcDbCircle
 10
216.8454532406554
 20
149.3002984938754
 30
0.0
 40
0.5714988569999009
  0
CIRCLE
  5
E4F1
330
1F
100
AcDbEntity
  8
CONNECTOR
100
AcDbCircle
 10
218.2170504974553
 20
146.4555041834753
 30
0.0
 40
0.571498856999972
  0
CIRCLE
  5
E4F2
330
1F
100
AcDbEntity
  8
CONNECTOR
100
AcDbCircle
 10
215.4586104974554
 20
146.4555041834753
 30
0.0
 40
1.041397917199996
  0
CIRCLE
  5
E4F3
330
1F
100
AcDbEntity
  8
CONNECTOR
100
AcDbCircle
 10
214.0870132406553
 20
149.3002984938754
 30
0.0
 40
1.041397917200081
  0
CIRCLE
  5
E4F4
330
1F
100
AcDbEntity
  8
CONNECTOR
100
AcDbCircle
 10
214.0870132406553
 20
149.3002984938754
 30
0.0
 40
0.5714988569999009
  0
CIRCLE
  5
E4F5
330
1F
100
AcDbEntity
  8
CONNECTOR
100
AcDbCircle
 10
215.4586104974554
 20
146.4555041834753
 30
0.0
 40
0.571498856999972
  0
CIRCLE
  5
E4F6
330
1F
100
AcDbEntity
  8
CONNECTOR
100
AcDbCircle
 10
212.7001704974554
 20
146.4555041834753
 30
0.0
 40
1.041397917199996
  0
CIRCLE
  5
E4F7
330
1F
100
AcDbEntity
  8
CONNECTOR
100
AcDbCircle
 10
211.3285732406553
 20
149.3002984938754
 30
0.0
 40
1.041397917200081
  0
CIRCLE
  5
E4F8
330
1F
100
AcDbEntity
  8
CONNECTOR
100
AcDbCircle
 10
211.3285732406553
 20
149.3002984938754
 30
0.0
 40
0.5714988569999009
  0
CIRCLE
  5
E4F9
330
1F
100
AcDbEntity
  8
CONNECTOR
100
AcDbCircle
 10
212.7001704974554
 20
146.4555041834753
 30
0.0
 40
0.571498856999972
  0
CIRCLE
  5
E4FA
330
1F
100
AcDbEntity
  8
CONNECTOR
100
AcDbCircle
 10
209.9417304974553
 20
146.4555041834753
 30
0.0
 40
1.041397917199996
  0
CIRCLE
  5
E4FB
330
1F
100
AcDbEntity
  8
CONNECTOR
100
AcDbCircle
 10
208.5701332406553
 20
149.3002984938754
 30
0.0
 40
1.041397917200081
  0
CIRCLE
  5
E4FC
330
1F
100
AcDbEntity
  8
CONNECTOR
100
AcDbCircle
 10
208.5701332406553
 20
149.3002984938754
 30
0.0
 40
0.5714988569999009
  0
CIRCLE
  5
E4FD
330
1F
100
AcDbEntity
  8
CONNECTOR
100
AcDbCircle
 10
209.9417304974553
 20
146.4555041834753
 30
0.0
 40
0.571498856999972
  0
CIRCLE
  5
E4FE
330
1F
100
AcDbEntity
  8
CONNECTOR
100
AcDbCircle
 10
207.1832904974554
 20
146.4555041834753
 30
0.0
 40
1.041397917199996
  0
CIRCLE
  5
E4FF
330
1F
100
AcDbEntity
  8
CONNECTOR
100
AcDbCircle
 10
205.8116932406554
 20
149.3002984938754
 30
0.0
 40
1.041397917200081
  0
CIRCLE
  5
E500
330
1F
100
AcDbEntity
  8
CONNECTOR
100
AcDbCircle
 10
205.8116932406554
 20
149.3002984938754
 30
0.0
 40
0.5714988569999009
  0
CIRCLE
  5
E501
330
1F
100
AcDbEntity
  8
CONNECTOR
100
AcDbCircle
 10
207.1832904974554
 20
146.4555041834753
 30
0.0
 40
0.571498856999972
  0
CIRCLE
  5
E502
330
1F
100
AcDbEntity
  8
CONNECTOR
100
AcDbCircle
 10
204.4248504974553
 20
146.4555041834753
 30
0.0
 40
1.041397917199996
  0
CIRCLE
  5
E503
330
1F
100
AcDbEntity
  8
CONNECTOR
100
AcDbCircle
 10
203.0532532406553
 20
149.3002984938754
 30
0.0
 40
1.041397917200081
  0
CIRCLE
  5
E504
330
1F
100
AcDbEntity
  8
CONNECTOR
100
AcDbCircle
 10
203.0532532406553
 20
149.3002984938754
 30
0.0
 40
0.5714988569999009
  0
CIRCLE
  5
E505
330
1F
100
AcDbEntity
  8
CONNECTOR
100
AcDbCircle
 10
204.4248504974553
 20
146.4555041834753
 30
0.0
 40
0.571498856999972
  0
CIRCLE
  5
E506
330
1F
100
AcDbEntity
  8
CONNECTOR
100
AcDbCircle
 10
201.6664104974553
 20
146.4555041834753
 30
0.0
 40
1.041397917199996
  0
CIRCLE
  5
E507
330
1F
100
AcDbEntity
  8
CONNECTOR
100
AcDbCircle
 10
200.2948132406554
 20
149.3002984938754
 30
0.0
 40
1.041397917200081
  0
CIRCLE
  5
E508
330
1F
100
AcDbEntity
  8
CONNECTOR
100
AcDbCircle
 10
200.2948132406554
 20
149.3002984938754
 30
0.0
 40
0.5714988569999009
  0
CIRCLE
  5
E509
330
1F
100
AcDbEntity
  8
CONNECTOR
100
AcDbCircle
 10
201.6664104974553
 20
146.4555041834753
 30
0.0
 40
0.571498856999972
  0
CIRCLE
  5
E50A
330
1F
100
AcDbEntity
  8
CONNECTOR
100
AcDbCircle
 10
198.9079704974554
 20
146.4555041834753
 30
0.0
 40
1.041397917199996
  0
CIRCLE
  5
E50B
330
1F
100
AcDbEntity
  8
CONNECTOR
100
AcDbCircle
 10
197.5363732406553
 20
149.3002984938754
 30
0.0
 40
1.041397917200081
  0
CIRCLE
  5
E50C
330
1F
100
AcDbEntity
  8
CONNECTOR
100
AcDbCircle
 10
197.5363732406553
 20
149.3002984938754
 30
0.0
 40
0.5714988569999009
  0
CIRCLE
  5
E50D
330
1F
100
AcDbEntity
  8
CONNECTOR
100
AcDbCircle
 10
198.9079704974554
 20
146.4555041834753
 30
0.0
 40
0.571498856999972
  0
LINE
  5
E50E
330
1F
100
AcDbEntity
  8
CENTER
100
AcDbLine
 10
187.8681139196113
 20
145.5919013386754
 30
0.0
 11
187.8681139196113
 21
150.1639013386754
 31
0.0
  0
LINE
  5
E50F
330
1F
100
AcDbEntity
  8
CENTER
100
AcDbLine
 10
234.9095096702551
 20
145.5919013386754
 30
0.0
 11
234.9095096702551
 21
150.1639013386754
 31
0.0
  0
LINE
  5
E510
330
1F
100
AcDbEntity
  8
Front Panel
100
AcDbLine
 10
193.9263117949331
 20
142.289912540075
 30
0.0
 11
228.8513117949331
 21
142.289912540075
 31
0.0
  0
ARC
  5
E511
330
1F
100
AcDbEntity
  8
Front Panel
100
AcDbCircle
 10
228.8513117949331
 20
145.464912540075
 30
0.0
 40
3.174999999999999
100
AcDbArc
 50
270.0
 51
0.0
  0
LINE
  5
E512
330
1F
100
AcDbEntity
  8
Front Panel
100
AcDbLine
 10
193.9263117949331
 20
153.4658901372752
 30
0.0
 11
228.8513117949331
 21
153.4658901372759
 31
0.0
  0
ARC
  5
E513
330
1F
100
AcDbEntity
  8
Front Panel
100
AcDbCircle
 10
228.8513117949331
 20
150.2908901372759
 30
0.0
 40
3.174999999999999
100
AcDbArc
 50
0.0
 51
90.00000000000122
  0
LINE
  5
E514
330
1F
100
AcDbEntity
  8
Front Panel
100
AcDbLine
 10
234.909509670255
 20
151.0529013386754
 30
0.0
 11
231.9335129449137
 21
151.0529013386755
 31
0.0
  0
ARC
  5
E515
330
1F
100
AcDbEntity
  8
Front Panel
100
AcDbCircle
 10
234.9095096702551
 20
147.8779013386754
 30
0.0
 40
3.175000000000002
100
AcDbArc
 50
270.0
 51
90.00000000000161
  0
LINE
  5
E516
330
1F
100
AcDbEntity
  8
Front Panel
100
AcDbLine
 10
234.9095096702551
 20
144.7029013386754
 30
0.0
 11
231.9335129449137
 21
144.7029013386753
 31
0.0
  0
ARC
  5
E517
330
1F
100
AcDbEntity
  8
Front Panel
100
AcDbCircle
 10
193.9263117949331
 20
145.464912540075
 30
0.0
 40
3.174999999999999
100
AcDbArc
 50
180.0
 51
270.0
  0
ARC
  5
E518
330
1F
100
AcDbEntity
  8
Front Panel
100
AcDbCircle
 10
193.9263117949331
 20
150.2908901372759
 30
0.0
 40
3.174999999999999
100
AcDbArc
 50
89.99999999999877
 51
180.0
  0
LINE
  5
E519
330
1F
100
AcDbEntity
  8
Front Panel
100
AcDbLine
 10
190.7513117949331
 20
150.2908901372759
 30
0.0
 11
190.7513117949331
 21
145.464912540075
 31
0.0
  0
LINE
  5
E51A
330
1F
100
AcDbEntity
  8
Front Panel
100
AcDbLine
 10
232.0263117949331
 20
150.2908901372759
 30
0.0
 11
232.0263117949331
 21
145.464912540075
 31
0.0
  0
LINE
  5
E51B
330
1F
100
AcDbEntity
  8
Front Panel
100
AcDbLine
 10
187.8681139196111
 20
151.0529013386754
 30
0.0
 11
190.8441106449524
 21
151.0529013386755
 31
0.0
  0
ARC
  5
E51C
330
1F
100
AcDbEntity
  8
Front Panel
100
AcDbCircle
 10
187.868113919611
 20
147.8779013386754
 30
0.0
 40
3.175000000000002
100
AcDbArc
 50
89.99999999999827
 51
270.0
  0
LINE
  5
E51D
330
1F
100
AcDbEntity
  8
Front Panel
100
AcDbLine
 10
187.868113919611
 20
144.7029013386754
 30
0.0
 11
190.8441106449524
 21
144.7029013386753
 31
0.0
  0
LINE
  5
E51E
330
1F
100
AcDbEntity
  8
CENTER
100
AcDbLine
 10
190.15410477562
 20
147.8779013386754
 30
0.0
 11
185.5821230636018
 21
147.8779013386754
 31
0.0
  0
LWPOLYLINE
  5
E51F
330
1F
100
AcDbEntity
  8
CONNECTOR
100
AcDbPolyline
 90
        6
 70
     1
 43
0.0
 10
185.4868734446015
 20
146.5030915094235
 10
187.868113919611
 20
145.1282816801714
 10
190.2493543946205
 20
146.5030915094235
 10
190.2493543946205
 20
149.2527111679273
 10
187.868113919611
 20
150.6275209971795
 10
185.4868734446015
 20
149.2527111679273
  0
INSERT
  5
E520
330
1F
100
AcDbEntity
  8
CONNECTOR
100
AcDbBlockReference
  2
4hole
 10
187.868113919611
 20
147.8779013386754
 30
0.0
 41
25.39989840010159
 42
25.39989840010153
 43
25.39989840010157
  0
LINE
  5
E521
330
1F
100
AcDbEntity
  8
CENTER
100
AcDbLine
 10
234.9095096702551
 20
145.5919013386754
 30
0.0
 11
234.9095096702551
 21
150.1639013386754
 31
0.0
  0
LINE
  5
E522
330
1F
100
AcDbEntity
  8
CENTER
100
AcDbLine
 10
237.1955005262639
 20
147.8779013386754
 30
0.0
 11
232.6235188142456
 21
147.8779013386754
 31
0.0
  0
LWPOLYLINE
  5
E523
330
1F
100
AcDbEntity
  8
CONNECTOR
100
AcDbPolyline
 90
        6
 70
     1
 43
0.0
 10
232.5282691952453
 20
146.5030915094235
 10
234.9095096702548
 20
145.1282816801714
 10
237.2907501452643
 20
146.5030915094235
 10
237.2907501452643
 20
149.2527111679273
 10
234.9095096702548
 20
150.6275209971795
 10
232.5282691952453
 20
149.2527111679273
  0
INSERT
  5
E524
330
1F
100
AcDbEntity
  8
CONNECTOR
100
AcDbBlockReference
  2
4hole
 10
234.9095096702548
 20
147.8779013386754
 30
0.0
 41
25.39989840010159
 42
25.39989840010153
 43
25.39989840010157
  0
LINE
  5
E69B
330
1F
100
AcDbEntity
  8
CONNECTOR
370
    15
100
AcDbLine
 10
148.0317443673103
 20
151.1771929227572
 30
0.0
 11
147.8888699353472
 21
151.063703045062
 31
0.0
  0
LINE
  5
E69C
330
1F
100
AcDbEntity
  8
CONNECTOR
370
    15
100
AcDbLine
 10
147.8888699353475
 20
151.0637030450618
 30
0.0
 11
147.8888699353475
 21
151.1934053537113
 31
0.0
  0
LINE
  5
E69D
330
1F
100
AcDbEntity
  8
CONNECTOR
370
    15
100
AcDbLine
 10
147.8888699353473
 20
151.1934053537111
 30
0.0
 11
148.0317443673103
 21
151.3068942777337
 31
0.0
  0
LINE
  5
E69E
330
1F
100
AcDbEntity
  8
CONNECTOR
370
    15
100
AcDbLine
 10
148.0317443673104
 20
151.3068942777337
 30
0.0
 11
148.1746192761092
 21
151.3068942777337
 31
0.0
  0
LINE
  5
E69F
330
1F
100
AcDbEntity
  8
CONNECTOR
370
    15
100
AcDbLine
 10
148.1746192761096
 20
151.3068942777337
 30
0.0
 11
148.1746192761096
 21
150.5448957178105
 31
0.0
  0
LINE
  5
E6A0
330
1F
100
AcDbEntity
  8
CONNECTOR
370
    15
100
AcDbLine
 10
148.03174436731
 20
150.5448957178104
 30
0.0
 11
148.03174436731
 21
151.1771929227574
 31
0.0
  0
LINE
  5
E6A1
330
1F
100
AcDbEntity
  8
CONNECTOR
370
    15
100
AcDbLine
 10
148.1746192761092
 20
150.5448957178109
 30
0.0
 11
148.0317443673104
 21
150.5448957178109
 31
0.0
  0
CIRCLE
  5
E6A2
330
1F
100
AcDbEntity
  8
CONNECTOR
370
    15
100
AcDbCircle
 10
146.5616724623367
 20
146.4555041834753
 30
0.0
 40
1.041397917200095
  0
CIRCLE
  5
E6A3
330
1F
100
AcDbEntity
  8
CONNECTOR
370
    15
100
AcDbCircle
 10
145.1900752055367
 20
149.3002984938753
 30
0.0
 40
1.041397917200095
  0
CIRCLE
  5
E6A4
330
1F
100
AcDbEntity
  8
CONNECTOR
370
    15
100
AcDbCircle
 10
143.8036779783367
 20
146.4555041834753
 30
0.0
 40
1.041397917200123
  0
CIRCLE
  5
E6A5
330
1F
100
AcDbEntity
  8
CONNECTOR
370
    15
100
AcDbCircle
 10
142.4320807215367
 20
149.3002984938753
 30
0.0
 40
1.041397917200123
  0
CIRCLE
  5
E6A6
330
1F
100
AcDbEntity
  8
CONNECTOR
370
    15
100
AcDbCircle
 10
141.0456834943367
 20
146.4555041834753
 30
0.0
 40
1.041397917199996
  0
CIRCLE
  5
E6A7
330
1F
100
AcDbEntity
  8
CONNECTOR
370
    15
100
AcDbCircle
 10
139.6740862375367
 20
149.3002984938753
 30
0.0
 40
1.041397917200081
  0
CIRCLE
  5
E6A8
330
1F
100
AcDbEntity
  8
CONNECTOR
370
    15
100
AcDbCircle
 10
136.9160917535367
 20
149.3002984938753
 30
0.0
 40
1.041397917200095
  0
CIRCLE
  5
E6A9
330
1F
100
AcDbEntity
  8
CONNECTOR
370
    15
100
AcDbCircle
 10
138.2876890103367
 20
146.4555041834753
 30
0.0
 40
1.041397917200081
  0
CIRCLE
  5
E6AA
330
1F
100
AcDbEntity
  8
CONNECTOR
370
    15
100
AcDbCircle
 10
147.8888698079367
 20
149.3002984938753
 30
0.0
 40
1.041397917200095
  0
LINE
  5
E6AB
330
1F
100
AcDbEntity
  8
CONNECTOR
370
    15
100
AcDbLine
 10
150.5807761167643
 20
148.8973329285334
 30
0.0
 11
150.0657260362165
 21
145.9763387705337
 31
0.0
  0
LINE
  5
E6AC
330
1F
100
AcDbEntity
  8
CONNECTOR
370
    15
100
AcDbLine
 10
147.5643193463929
 20
143.8774093396753
 30
0.0
 11
137.2406422150853
 21
143.8774093396753
 31
0.0
  0
LINE
  5
E6AD
330
1F
100
AcDbEntity
  8
CONNECTOR
370
    15
100
AcDbLine
 10
134.7392355252568
 20
145.9763387705347
 30
0.0
 11
134.2241854447091
 21
148.8973329285341
 31
0.0
  0
LINE
  5
E6AE
330
1F
100
AcDbEntity
  8
CONNECTOR
370
    15
100
AcDbLine
 10
136.7255921345364
 20
151.8783933376753
 30
0.0
 11
148.079369426938
 21
151.8783933376753
 31
0.0
  0
ARC
  5
E6AF
330
1F
100
AcDbEntity
  8
CONNECTOR
370
    15
100
AcDbCircle
 10
148.0793694269367
 20
149.3383984176753
 30
0.0
 40
2.539994919999992
100
AcDbArc
 50
349.9999999999864
 51
89.99999999997232
  0
ARC
  5
E6B0
330
1F
100
AcDbEntity
  8
CONNECTOR
370
    15
100
AcDbCircle
 10
147.564319346389
 20
146.4174042596753
 30
0.0
 40
2.539994920000004
100
AcDbArc
 50
270.0000000000896
 51
349.9999999999929
  0
ARC
  5
E6B1
330
1F
100
AcDbEntity
  8
CONNECTOR
370
    15
100
AcDbCircle
 10
137.2406422150845
 20
146.4174042596753
 30
0.0
 40
2.539994919999999
100
AcDbArc
 50
189.9999999999861
 51
270.0000000000187
  0
ARC
  5
E6B2
330
1F
100
AcDbEntity
  8
CONNECTOR
370
    15
100
AcDbCircle
 10
136.7255921345367
 20
149.3383984176753
 30
0.0
 40
2.539994920000009
100
AcDbArc
 50
90.0000000000057
 51
190.0000000000004
  0
CIRCLE
  5
E6B3
330
1F
100
AcDbEntity
  8
CONNECTOR
370
    15
100
AcDbCircle
 10
136.9160917535367
 20
149.3002984938753
 30
0.0
 40
0.5714988569999009
  0
CIRCLE
  5
E6B4
330
1F
100
AcDbEntity
  8
CONNECTOR
370
    15
100
AcDbCircle
 10
139.6740862375367
 20
149.3002984938753
 30
0.0
 40
0.5714988569999009
  0
CIRCLE
  5
E6B5
330
1F
100
AcDbEntity
  8
CONNECTOR
370
    15
100
AcDbCircle
 10
142.4320807215367
 20
149.3002984938753
 30
0.0
 40
0.5714988570000146
  0
CIRCLE
  5
E6B6
330
1F
100
AcDbEntity
  8
CONNECTOR
370
    15
100
AcDbCircle
 10
141.0456834943367
 20
146.4555041834753
 30
0.0
 40
0.571498856999972
  0
CIRCLE
  5
E6B7
330
1F
100
AcDbEntity
  8
CONNECTOR
370
    15
100
AcDbCircle
 10
143.8036779783367
 20
146.4555041834753
 30
0.0
 40
0.5714988569999009
  0
CIRCLE
  5
E6B8
330
1F
100
AcDbEntity
  8
CONNECTOR
370
    15
100
AcDbCircle
 10
138.2876890103367
 20
146.4555041834753
 30
0.0
 40
0.5714988569999009
  0
CIRCLE
  5
E6B9
330
1F
100
AcDbEntity
  8
CONNECTOR
370
    15
100
AcDbCircle
 10
145.1900752055367
 20
149.3002984938753
 30
0.0
 40
0.5714988569999009
  0
CIRCLE
  5
E6BA
330
1F
100
AcDbEntity
  8
CONNECTOR
370
    15
100
AcDbCircle
 10
147.8888698079367
 20
149.3002984938753
 30
0.0
 40
0.5714988569999009
  0
CIRCLE
  5
E6BB
330
1F
100
AcDbEntity
  8
CONNECTOR
370
    15
100
AcDbCircle
 10
146.5616724623367
 20
146.4555041834753
 30
0.0
 40
0.5714988569999009
  0
LINE
  5
E6E3
330
1F
100
AcDbEntity
  8
CENTER
100
AcDbLine
 10
154.8992557871367
 20
145.5919013386754
 30
0.0
 11
154.8992557871367
 21
150.1639013386754
 31
0.0
  0
LINE
  5
E6E4
330
1F
100
AcDbEntity
  8
Front Panel
100
AcDbLine
 10
135.9638536624588
 20
142.289912540075
 30
0.0
 11
148.8410579118147
 21
142.289912540075
 31
0.0
  0
ARC
  5
E6E5
330
1F
100
AcDbEntity
  8
Front Panel
100
AcDbCircle
 10
148.8410579118147
 20
145.464912540075
 30
0.0
 40
3.174999999999999
100
AcDbArc
 50
270.0
 51
0.0
  0
LINE
  5
E6E6
330
1F
100
AcDbEntity
  8
Front Panel
100
AcDbLine
 10
135.9638536624588
 20
153.4658901372752
 30
0.0
 11
148.8410579118147
 21
153.4658901372759
 31
0.0
  0
ARC
  5
E6E7
330
1F
100
AcDbEntity
  8
Front Panel
100
AcDbCircle
 10
148.8410579118147
 20
150.2908901372759
 30
0.0
 40
3.174999999999999
100
AcDbArc
 50
0.0
 51
90.00000000000119
  0
LINE
  5
E6E8
330
1F
100
AcDbEntity
  8
Front Panel
100
AcDbLine
 10
154.8992557871367
 20
151.0529013386754
 30
0.0
 11
151.9232590617953
 21
151.0529013386755
 31
0.0
  0
ARC
  5
E6E9
330
1F
100
AcDbEntity
  8
Front Panel
100
AcDbCircle
 10
154.8992557871367
 20
147.8779013386754
 30
0.0
 40
3.175000000000002
100
AcDbArc
 50
270.0
 51
90.00000000000161
  0
LINE
  5
E6EA
330
1F
100
AcDbEntity
  8
Front Panel
100
AcDbLine
 10
154.8992557871367
 20
144.7029013386754
 30
0.0
 11
151.9232590617953
 21
144.7029013386753
 31
0.0
  0
ARC
  5
E6EB
330
1F
100
AcDbEntity
  8
Front Panel
100
AcDbCircle
 10
135.9638536624588
 20
145.464912540075
 30
0.0
 40
3.174999999999999
100
AcDbArc
 50
180.0
 51
270.0
  0
ARC
  5
E6EC
330
1F
100
AcDbEntity
  8
Front Panel
100
AcDbCircle
 10
135.9638536624588
 20
150.2908901372759
 30
0.0
 40
3.174999999999999
100
AcDbArc
 50
89.99999999999884
 51
180.0
  0
LINE
  5
E6EE
330
1F
100
AcDbEntity
  8
Front Panel
100
AcDbLine
 10
132.7888536624587
 20
150.2908901372759
 30
0.0
 11
132.7888536624587
 21
145.464912540075
 31
0.0
  0
LINE
  5
E6EF
330
1F
100
AcDbEntity
  8
Front Panel
100
AcDbLine
 10
152.0160579118147
 20
150.2908901372759
 30
0.0
 11
152.0160579118147
 21
145.464912540075
 31
0.0
  0
LINE
  5
E6F1
330
1F
100
AcDbEntity
  8
Front Panel
100
AcDbLine
 10
129.9056557871368
 20
151.0529013386754
 30
0.0
 11
132.8816525124781
 21
151.0529013386755
 31
0.0
  0
ARC
  5
E6F2
330
1F
100
AcDbEntity
  8
Front Panel
100
AcDbCircle
 10
129.9056557871367
 20
147.8779013386754
 30
0.0
 40
3.175000000000002
100
AcDbArc
 50
89.99999999999833
 51
270.0
  0
LINE
  5
E6F3
330
1F
100
AcDbEntity
  8
Front Panel
100
AcDbLine
 10
129.9056557871367
 20
144.7029013386754
 30
0.0
 11
132.8816525124781
 21
144.7029013386753
 31
0.0
  0
LINE
  5
E6F4
330
1F
100
AcDbEntity
  8
CENTER
100
AcDbLine
 10
154.899255787137
 20
145.5919013386754
 30
0.0
 11
154.899255787137
 21
150.1639013386754
 31
0.0
  0
LINE
  5
E6F7
330
1F
100
AcDbEntity
  8
CENTER
100
AcDbLine
 10
157.1852466431457
 20
147.8779013386754
 30
0.0
 11
152.6132649311275
 21
147.8779013386754
 31
0.0
  0
LWPOLYLINE
  5
E6F8
330
1F
100
AcDbEntity
  8
CONNECTOR
100
AcDbPolyline
 90
        6
 70
     1
 43
0.0
 10
152.5180153121272
 20
146.5030915094235
 10
154.8992557871367
 20
145.1282816801714
 10
157.2804962621462
 20
146.5030915094235
 10
157.2804962621462
 20
149.2527111679273
 10
154.8992557871367
 20
150.6275209971795
 10
152.5180153121272
 20
149.2527111679273
  0
INSERT
  5
E6F9
330
1F
100
AcDbEntity
  8
CONNECTOR
100
AcDbBlockReference
  2
4hole
 10
154.8992557871367
 20
147.8779013386754
 30
0.0
 41
25.39989840010159
 42
25.39989840010153
 43
25.39989840010157
  0
LINE
  5
E6FA
330
1F
100
AcDbEntity
  8
CENTER
100
AcDbLine
 10
129.9056557871367
 20
145.5919013386754
 30
0.0
 11
129.9056557871367
 21
150.1639013386754
 31
0.0
  0
LINE
  5
E6FB
330
1F
100
AcDbEntity
  8
CENTER
100
AcDbLine
 10
129.9056557871369
 20
145.5919013386754
 30
0.0
 11
129.9056557871369
 21
150.1639013386754
 31
0.0
  0
LINE
  5
E6FC
330
1F
100
AcDbEntity
  8
CENTER
100
AcDbLine
 10
132.1916466431457
 20
147.8779013386754
 30
0.0
 11
127.6196649311275
 21
147.8779013386754
 31
0.0
  0
LWPOLYLINE
  5
E6FD
330
1F
100
AcDbEntity
  8
CONNECTOR
100
AcDbPolyline
 90
        6
 70
     1
 43
0.0
 10
127.5244153121271
 20
146.5030915094235
 10
129.9056557871367
 20
145.1282816801714
 10
132.2868962621462
 20
146.5030915094235
 10
132.2868962621462
 20
149.2527111679273
 10
129.9056557871367
 20
150.6275209971795
 10
127.5244153121271
 20
149.2527111679273
  0
INSERT
  5
E6FE
330
1F
100
AcDbEntity
  8
CONNECTOR
100
AcDbBlockReference
  2
4hole
 10
129.9056557871367
 20
147.8779013386754
 30
0.0
 41
25.39989840010159
 42
25.39989840010153
 43
25.39989840010157
  0
CIRCLE
  5
E777
330
1F
100
AcDbEntity
  8
CONNECTOR
100
AcDbCircle
 10
396.1996036502565
 20
665.3667050404081
 30
0.0
 40
4.427570390609057
  0
LINE
  5
E778
330
1F
100
AcDbEntity
  8
CENTER
  6
Continuous
100
AcDbLine
 10
396.1996036502565
 20
663.116709540408
 30
0.0
 11
396.1996036502565
 21
667.6167005404082
 31
0.0
  0
LINE
  5
E77B
330
1F
100
AcDbEntity
  8
CENTER
  6
Continuous
100
AcDbLine
 10
393.9496081502565
 20
665.3667050404081
 30
0.0
 11
398.4495991502565
 21
665.3667050404081
 31
0.0
  0
CIRCLE
  5
E77C
330
1F
100
AcDbEntity
  8
CONNECTOR
100
AcDbCircle
 10
396.1996036502565
 20
665.3667050404081
 30
0.0
 40
0.999998
  0
CIRCLE
  5
E77D
330
1F
100
AcDbEntity
  8
CONNECTOR
100
AcDbCircle
 10
396.1996036502565
 20
665.3667050404081
 30
0.0
 40
4.826000000000032
  0
CIRCLE
  5
E77E
330
1F
100
AcDbEntity
  8
CONNECTOR
100
AcDbCircle
 10
396.1996036502565
 20
665.3667050404081
 30
0.0
 40
2.320939134203646
  0
ARC
  5
E77F
330
1F
100
AcDbEntity
  8
CONNECTOR
100
AcDbCircle
 10
396.1996036502565
 20
665.3667050404081
 30
0.0
 40
6.350000000000011
100
AcDbArc
 50
119.3081092355254
 51
60.6918907644745
  0
LINE
  5
E780
330
1F
100
AcDbEntity
  8
CONNECTOR
100
AcDbLine
 10
399.3079659457427
 20
670.9039050404081
 30
0.0
 11
393.0912413547703
 21
670.9039050404081
 31
0.0
  0
LINE
  5
E786
330
1F
100
AcDbEntity
  8
CONNECTOR
100
AcDbLine
 10
395.1836036502566
 20
670.0845456481438
 30
0.0
 11
395.1836036502566
 21
670.9039050404081
 31
0.0
  0
LINE
  5
E787
330
1F
100
AcDbEntity
  8
CONNECTOR
100
AcDbLine
 10
397.2156036502565
 20
670.0845456481438
 30
0.0
 11
397.2156036502565
 21
670.9039050404081
 31
0.0
  0
LINE
  5
E788
330
1F
100
AcDbEntity
  8
CONNECTOR
100
AcDbLine
 10
397.2156036502565
 20
670.9039050404081
 30
0.0
 11
395.1836036502566
 21
670.9039050404081
 31
0.0
  0
LINE
  5
E789
330
1F
100
AcDbEntity
  8
CONNECTOR
100
AcDbLine
 10
395.1836036502566
 20
660.6488644326724
 30
0.0
 11
395.1836036502566
 21
659.8295050404082
 31
0.0
  0
LINE
  5
E78A
330
1F
100
AcDbEntity
  8
CONNECTOR
100
AcDbLine
 10
397.2156036502565
 20
660.6488644326724
 30
0.0
 11
397.2156036502565
 21
659.8295050404082
 31
0.0
  0
LINE
  5
E78B
330
1F
100
AcDbEntity
  8
CONNECTOR
100
AcDbLine
 10
397.2156036502565
 20
659.8295050404082
 30
0.0
 11
395.1836036502566
 21
659.8295050404082
 31
0.0
  0
LINE
  5
E79B
330
1F
100
AcDbEntity
  8
CONNECTOR
100
AcDbLine
 10
306.6496176502547
 20
658.3817050404076
 30
0.0
 11
306.6496176502547
 21
671.1816794404074
 31
0.0
  0
LINE
  5
E79C
330
1F
100
AcDbEntity
  8
CONNECTOR
100
AcDbLine
 10
306.6496176502547
 20
671.1816794404074
 30
0.0
 11
320.6495896502547
 21
671.1816794404074
 31
0.0
  0
LINE
  5
E79D
330
1F
100
AcDbEntity
  8
CONNECTOR
100
AcDbLine
 10
320.6495896502547
 20
671.1816794404074
 30
0.0
 11
320.6495896502547
 21
658.3817050404076
 31
0.0
  0
ARC
  5
E79E
330
1F
100
AcDbEntity
  8
CONNECTOR
100
AcDbCircle
 10
313.6496036502547
 20
664.8816920404075
 30
0.0
 40
5.599988799999997
100
AcDbArc
 50
280.8069228748605
 51
259.1930771251394
  0
LINE
  5
E79F
330
1F
100
AcDbEntity
  8
CONNECTOR
100
AcDbLine
 10
316.0995987502547
 20
662.7816962404074
 30
0.0
 11
317.9658433887393
 21
662.7816962404074
 31
0.0
  0
LINE
  5
E7A0
330
1F
100
AcDbEntity
  8
CONNECTOR
100
AcDbLine
 10
311.1996085502548
 20
662.7816962404074
 30
0.0
 11
309.33336391177
 21
662.7816962404074
 31
0.0
  0
LINE
  5
E7A1
330
1F
100
AcDbEntity
  8
CONNECTOR
100
AcDbLine
 10
315.4496000502548
 20
669.3314022332267
 30
0.0
 11
315.5995997502547
 21
669.7022114159617
 31
0.0
  0
LINE
  5
E7A2
330
1F
100
AcDbEntity
  8
CONNECTOR
100
AcDbLine
 10
311.8496072502547
 20
669.3314022332267
 30
0.0
 11
311.6996075502547
 21
669.7022114159617
 31
0.0
  0
LINE
  5
E7A3
330
1F
100
AcDbEntity
  8
CONNECTOR
100
AcDbLine
 10
312.5996057502547
 20
659.7888150293161
 30
0.0
 11
312.5996057502548
 21
658.3817050404076
 31
0.0
  0
LINE
  5
E7A4
330
1F
100
AcDbEntity
  8
CONNECTOR
100
AcDbLine
 10
314.6996015502548
 20
659.7888150293158
 30
0.0
 11
314.6996015502548
 21
658.3817050404076
 31
0.0
  0
LINE
  5
E7A6
330
1F
100
AcDbEntity
  8
CONNECTOR
100
AcDbLine
 10
321.1303246862939
 20
658.3817050404076
 30
0.0
 11
306.6496176502547
 21
658.3817050404076
 31
0.0
  0
ARC
  5
E7B7
330
1F
100
AcDbEntity
  8
CONNECTOR
100
AcDbCircle
 10
313.6496036502547
 20
664.8816920404075
 30
0.0
 40
5.199989599999996
100
AcDbArc
 50
112.0243128370426
 51
67.97568716295739
  0
ARC
  5
E7B8
330
1F
100
AcDbEntity
  8
CONNECTOR
100
AcDbCircle
 10
313.6496036502547
 20
664.8816920404075
 30
0.0
 40
4.799990399999995
100
AcDbArc
 50
112.0243128370426
 51
67.97568716295739
  0
LINE
  5
E7BD
330
1F
100
AcDbEntity
  8
CONNECTOR
100
AcDbLine
 10
311.8996071502547
 20
663.8316941404077
 30
0.0
 11
310.4996099502547
 21
663.8316941404077
 31
0.0
  0
LINE
  5
E7BE
330
1F
100
AcDbEntity
  8
CONNECTOR
100
AcDbLine
 10
310.4996099502547
 20
663.8316941404077
 30
0.0
 11
310.4996099502547
 21
665.2316913404074
 31
0.0
  0
LINE
  5
E7BF
330
1F
100
AcDbEntity
  8
CONNECTOR
100
AcDbLine
 10
310.4996099502547
 20
665.2316913404074
 30
0.0
 11
311.8996071502547
 21
665.2316913404074
 31
0.0
  0
LINE
  5
E7C0
330
1F
100
AcDbEntity
  8
CONNECTOR
100
AcDbLine
 10
311.8996071502547
 20
665.2316913404074
 30
0.0
 11
311.8996071502547
 21
663.8316941404077
 31
0.0
  0
LINE
  5
E7C1
330
1F
100
AcDbEntity
  8
CONNECTOR
100
AcDbLine
 10
310.8496092502548
 20
664.1816934404076
 30
0.0
 11
310.8496092502547
 21
664.8816920404075
 31
0.0
  0
LINE
  5
E7C2
330
1F
100
AcDbEntity
  8
CONNECTOR
100
AcDbLine
 10
311.8996071502547
 20
664.1816934404076
 30
0.0
 11
310.8496092502548
 21
664.1816934404076
 31
0.0
  0
LINE
  5
E7C3
330
1F
100
AcDbEntity
  8
CONNECTOR
100
AcDbLine
 10
310.8496092502547
 20
664.8816920404075
 30
0.0
 11
311.8996071502547
 21
664.8816920404075
 31
0.0
  0
LINE
  5
E7C4
330
1F
100
AcDbEntity
  8
CONNECTOR
100
AcDbLine
 10
310.8496092502548
 20
664.1816934404076
 30
0.0
 11
310.4996099502547
 21
663.8316941404077
 31
0.0
  0
LINE
  5
E7C5
330
1F
100
AcDbEntity
  8
CONNECTOR
100
AcDbLine
 10
310.8496092502547
 20
664.8816920404075
 30
0.0
 11
310.4996099502547
 21
665.2316913404074
 31
0.0
  0
LINE
  5
E7C6
330
1F
100
AcDbEntity
  8
CONNECTOR
100
AcDbLine
 10
315.3996001502548
 20
665.2316913404074
 30
0.0
 11
316.7995973502548
 21
665.2316913404074
 31
0.0
  0
LINE
  5
E7C7
330
1F
100
AcDbEntity
  8
CONNECTOR
100
AcDbLine
 10
316.7995973502548
 20
665.2316913404074
 30
0.0
 11
316.7995973502548
 21
663.8316941404077
 31
0.0
  0
LINE
  5
E7C8
330
1F
100
AcDbEntity
  8
CONNECTOR
100
AcDbLine
 10
316.7995973502548
 20
663.8316941404077
 30
0.0
 11
315.3996001502548
 21
663.8316941404077
 31
0.0
  0
LINE
  5
E7C9
330
1F
100
AcDbEntity
  8
CONNECTOR
100
AcDbLine
 10
315.3996001502548
 20
663.8316941404077
 30
0.0
 11
315.3996001502548
 21
665.2316913404074
 31
0.0
  0
LINE
  5
E7CA
330
1F
100
AcDbEntity
  8
CONNECTOR
100
AcDbLine
 10
316.4495980502547
 20
664.8816920404075
 30
0.0
 11
316.4495980502547
 21
664.1816934404076
 31
0.0
  0
LINE
  5
E7CB
330
1F
100
AcDbEntity
  8
CONNECTOR
100
AcDbLine
 10
315.3996001502548
 20
664.8816920404075
 30
0.0
 11
316.4495980502547
 21
664.8816920404075
 31
0.0
  0
LINE
  5
E7CC
330
1F
100
AcDbEntity
  8
CONNECTOR
100
AcDbLine
 10
316.4495980502547
 20
664.1816934404076
 30
0.0
 11
315.3996001502548
 21
664.1816934404076
 31
0.0
  0
LINE
  5
E7CD
330
1F
100
AcDbEntity
  8
CONNECTOR
100
AcDbLine
 10
316.4495980502547
 20
664.8816920404075
 30
0.0
 11
316.7995973502548
 21
665.2316913404074
 31
0.0
  0
LINE
  5
E7CE
330
1F
100
AcDbEntity
  8
CONNECTOR
100
AcDbLine
 10
316.4495980502547
 20
664.1816934404076
 30
0.0
 11
316.7995973502548
 21
663.8316941404077
 31
0.0
  0
LINE
  5
E7CF
330
1F
100
AcDbEntity
  8
CONNECTOR
100
AcDbLine
 10
314.6121017252548
 20
665.5816906404075
 30
0.0
 11
314.6121017252548
 21
666.9816878404076
 31
0.0
  0
LINE
  5
E7D0
330
1F
100
AcDbEntity
  8
CONNECTOR
100
AcDbLine
 10
314.6121017252548
 20
666.9816878404076
 30
0.0
 11
316.0120989252548
 21
666.9816878404076
 31
0.0
  0
LINE
  5
E7D1
330
1F
100
AcDbEntity
  8
CONNECTOR
100
AcDbLine
 10
316.0120989252548
 20
666.9816878404076
 30
0.0
 11
316.0120989252548
 21
665.5816906404075
 31
0.0
  0
LINE
  5
E7D2
330
1F
100
AcDbEntity
  8
CONNECTOR
100
AcDbLine
 10
316.0120989252548
 20
665.5816906404075
 30
0.0
 11
314.6121017252548
 21
665.5816906404075
 31
0.0
  0
LINE
  5
E7D3
330
1F
100
AcDbEntity
  8
CONNECTOR
100
AcDbLine
 10
314.9621010252547
 20
666.6316885404077
 30
0.0
 11
315.6620996252547
 21
666.6316885404077
 31
0.0
  0
LINE
  5
E7D4
330
1F
100
AcDbEntity
  8
CONNECTOR
100
AcDbLine
 10
314.9621010252547
 20
665.5816906404075
 30
0.0
 11
314.9621010252547
 21
666.6316885404077
 31
0.0
  0
LINE
  5
E7D5
330
1F
100
AcDbEntity
  8
CONNECTOR
100
AcDbLine
 10
315.6620996252547
 20
666.6316885404077
 30
0.0
 11
315.6620996252547
 21
665.5816906404075
 31
0.0
  0
LINE
  5
E7D6
330
1F
100
AcDbEntity
  8
CONNECTOR
100
AcDbLine
 10
314.9621010252547
 20
666.6316885404077
 30
0.0
 11
314.6121017252548
 21
666.9816878404076
 31
0.0
  0
LINE
  5
E7D7
330
1F
100
AcDbEntity
  8
CONNECTOR
100
AcDbLine
 10
315.6620996252547
 20
666.6316885404077
 30
0.0
 11
316.0120989252548
 21
666.9816878404076
 31
0.0
  0
LINE
  5
E7D8
330
1F
100
AcDbEntity
  8
CONNECTOR
100
AcDbLine
 10
311.2871083752547
 20
665.5816906404075
 30
0.0
 11
311.2871083752547
 21
666.9816878404076
 31
0.0
  0
LINE
  5
E7D9
330
1F
100
AcDbEntity
  8
CONNECTOR
100
AcDbLine
 10
311.2871083752547
 20
666.9816878404076
 30
0.0
 11
312.6871055752547
 21
666.9816878404076
 31
0.0
  0
LINE
  5
E7DA
330
1F
100
AcDbEntity
  8
CONNECTOR
100
AcDbLine
 10
312.6871055752547
 20
666.9816878404076
 30
0.0
 11
312.6871055752547
 21
665.5816906404075
 31
0.0
  0
LINE
  5
E7DB
330
1F
100
AcDbEntity
  8
CONNECTOR
100
AcDbLine
 10
312.6871055752547
 20
665.5816906404075
 30
0.0
 11
311.2871083752547
 21
665.5816906404075
 31
0.0
  0
LINE
  5
E7DC
330
1F
100
AcDbEntity
  8
CONNECTOR
100
AcDbLine
 10
311.6371076752547
 20
666.6316885404077
 30
0.0
 11
312.3371062752547
 21
666.6316885404077
 31
0.0
  0
LINE
  5
E7DD
330
1F
100
AcDbEntity
  8
CONNECTOR
100
AcDbLine
 10
311.6371076752547
 20
665.5816906404075
 30
0.0
 11
311.6371076752547
 21
666.6316885404077
 31
0.0
  0
LINE
  5
E7DE
330
1F
100
AcDbEntity
  8
CONNECTOR
100
AcDbLine
 10
312.3371062752547
 20
666.6316885404077
 30
0.0
 11
312.3371062752547
 21
665.5816906404075
 31
0.0
  0
LINE
  5
E7DF
330
1F
100
AcDbEntity
  8
CONNECTOR
100
AcDbLine
 10
311.6371076752547
 20
666.6316885404077
 30
0.0
 11
311.2871083752547
 21
666.9816878404076
 31
0.0
  0
LINE
  5
E7E0
330
1F
100
AcDbEntity
  8
CONNECTOR
100
AcDbLine
 10
312.3371062752547
 20
666.6316885404077
 30
0.0
 11
312.6871055752547
 21
666.9816878404076
 31
0.0
  0
ARC
  5
E7E1
330
1F
100
AcDbEntity
  8
CONNECTOR
100
AcDbCircle
 10
313.6496036502547
 20
664.8816920404075
 30
0.0
 40
3.849992299999998
100
AcDbArc
 50
103.1365587869437
 51
207.0356917894117
  0
ARC
  5
E7E2
330
1F
100
AcDbEntity
  8
CONNECTOR
100
AcDbCircle
 10
313.6496036502547
 20
664.8816920404075
 30
0.0
 40
3.849992299999998
100
AcDbArc
 50
332.9643082105883
 51
76.86344121305625
  0
LINE
  5
E7E3
330
1F
100
AcDbEntity
  8
CONNECTOR
100
AcDbLine
 10
316.0995987502547
 20
663.1316955404075
 30
0.0
 11
317.07888243158
 21
663.1316955404075
 31
0.0
  0
LINE
  5
E7E4
330
1F
100
AcDbEntity
  8
CONNECTOR
100
AcDbLine
 10
316.0995987502547
 20
663.1316955404075
 30
0.0
 11
316.0995987502547
 21
661.911849499121
 31
0.0
  0
ARC
  5
E7E5
330
1F
100
AcDbEntity
  8
CONNECTOR
100
AcDbCircle
 10
313.6496036502547
 20
664.8816920404075
 30
0.0
 40
3.849992299999998
100
AcDbArc
 50
230.478803641357
 51
309.521196358643
  0
LINE
  5
E7E6
330
1F
100
AcDbEntity
  8
CONNECTOR
100
AcDbLine
 10
311.1996085502548
 20
663.1316955404075
 30
0.0
 11
311.1996085502548
 21
661.911849499121
 31
0.0
  0
LINE
  5
E7E7
330
1F
100
AcDbEntity
  8
CONNECTOR
100
AcDbLine
 10
310.2203248689296
 20
663.1316955404075
 30
0.0
 11
311.1996085502548
 21
663.1316955404075
 31
0.0
  0
LINE
  5
E7E8
330
1F
100
AcDbEntity
  8
CONNECTOR
100
AcDbLine
 10
312.7746054002547
 20
668.6309344668928
 30
0.0
 11
312.7746054002547
 21
667.8816860404075
 31
0.0
  0
LINE
  5
E7E9
330
1F
100
AcDbEntity
  8
CONNECTOR
100
AcDbLine
 10
312.7746054002547
 20
667.8816860404075
 30
0.0
 11
314.5246019002547
 21
667.8816860404075
 31
0.0
  0
LINE
  5
E7EA
330
1F
100
AcDbEntity
  8
CONNECTOR
100
AcDbLine
 10
314.5246019002547
 20
668.6309344668928
 30
0.0
 11
314.5246019002547
 21
667.8816860404075
 31
0.0
  0
LINE
  5
E7EB
330
1F
100
AcDbEntity
  8
CONNECTOR
100
AcDbLine
 10
313.8246033002547
 20
663.4816948404077
 30
0.0
 11
315.2246005002548
 21
663.4816948404077
 31
0.0
  0
LINE
  5
E7EC
330
1F
100
AcDbEntity
  8
CONNECTOR
100
AcDbLine
 10
315.2246005002548
 20
663.4816948404077
 30
0.0
 11
315.2246005002548
 21
662.0816976404074
 31
0.0
  0
LINE
  5
E7ED
330
1F
100
AcDbEntity
  8
CONNECTOR
100
AcDbLine
 10
315.2246005002548
 20
662.0816976404074
 30
0.0
 11
313.8246033002547
 21
662.0816976404074
 31
0.0
  0
LINE
  5
E7EE
330
1F
100
AcDbEntity
  8
CONNECTOR
100
AcDbLine
 10
313.8246033002547
 20
662.0816976404074
 30
0.0
 11
313.8246033002547
 21
663.4816948404077
 31
0.0
  0
LINE
  5
E7EF
330
1F
100
AcDbEntity
  8
CONNECTOR
100
AcDbLine
 10
314.8746012002547
 20
663.1316955404078
 30
0.0
 11
314.8746012002547
 21
662.4316969404075
 31
0.0
  0
LINE
  5
E7F0
330
1F
100
AcDbEntity
  8
CONNECTOR
100
AcDbLine
 10
313.8246033002547
 20
663.1316955404078
 30
0.0
 11
314.8746012002547
 21
663.1316955404078
 31
0.0
  0
LINE
  5
E7F1
330
1F
100
AcDbEntity
  8
CONNECTOR
100
AcDbLine
 10
314.8746012002547
 20
662.4316969404075
 30
0.0
 11
313.8246033002547
 21
662.4316969404075
 31
0.0
  0
LINE
  5
E7F2
330
1F
100
AcDbEntity
  8
CONNECTOR
100
AcDbLine
 10
314.8746012002547
 20
663.1316955404078
 30
0.0
 11
315.2246005002548
 21
663.4816948404077
 31
0.0
  0
LINE
  5
E7F3
330
1F
100
AcDbEntity
  8
CONNECTOR
100
AcDbLine
 10
314.8746012002547
 20
662.4316969404075
 30
0.0
 11
315.2246005002548
 21
662.0816976404074
 31
0.0
  0
LINE
  5
E7F4
330
1F
100
AcDbEntity
  8
CONNECTOR
100
AcDbLine
 10
312.4246061002548
 20
662.4316969404075
 30
0.0
 11
312.0746068002548
 21
662.0816976404074
 31
0.0
  0
LINE
  5
E7F5
330
1F
100
AcDbEntity
  8
CONNECTOR
100
AcDbLine
 10
312.4246061002548
 20
663.1316955404078
 30
0.0
 11
312.0746068002548
 21
663.4816948404077
 31
0.0
  0
LINE
  5
E7F6
330
1F
100
AcDbEntity
  8
CONNECTOR
100
AcDbLine
 10
312.4246061002548
 20
662.4316969404075
 30
0.0
 11
313.4746040002547
 21
662.4316969404075
 31
0.0
  0
LINE
  5
E7F7
330
1F
100
AcDbEntity
  8
CONNECTOR
100
AcDbLine
 10
313.4746040002547
 20
663.1316955404078
 30
0.0
 11
312.4246061002548
 21
663.1316955404078
 31
0.0
  0
LINE
  5
E7F8
330
1F
100
AcDbEntity
  8
CONNECTOR
100
AcDbLine
 10
312.4246061002548
 20
663.1316955404078
 30
0.0
 11
312.4246061002548
 21
662.4316969404075
 31
0.0
  0
LINE
  5
E7F9
330
1F
100
AcDbEntity
  8
CONNECTOR
100
AcDbLine
 10
313.4746040002547
 20
662.0816976404074
 30
0.0
 11
313.4746040002547
 21
663.4816948404077
 31
0.0
  0
LINE
  5
E7FA
330
1F
100
AcDbEntity
  8
CONNECTOR
100
AcDbLine
 10
312.0746068002548
 20
662.0816976404074
 30
0.0
 11
313.4746040002547
 21
662.0816976404074
 31
0.0
  0
LINE
  5
E7FB
330
1F
100
AcDbEntity
  8
CONNECTOR
100
AcDbLine
 10
312.0746068002548
 20
663.4816948404077
 30
0.0
 11
312.0746068002548
 21
662.0816976404074
 31
0.0
  0
LINE
  5
E7FC
330
1F
100
AcDbEntity
  8
CONNECTOR
100
AcDbLine
 10
313.4746040002547
 20
663.4816948404077
 30
0.0
 11
312.0746068002548
 21
663.4816948404077
 31
0.0
  0
LINE
  5
E7FD
330
1F
100
AcDbEntity
  8
CONNECTOR
100
AcDbLine
 10
312.9496050502547
 20
664.8816920404075
 30
0.0
 11
312.9496050502547
 21
666.6316885404077
 31
0.0
  0
LINE
  5
E7FE
330
1F
100
AcDbEntity
  8
CONNECTOR
100
AcDbLine
 10
312.9496050502547
 20
666.6316885404077
 30
0.0
 11
314.3496022502548
 21
666.6316885404077
 31
0.0
  0
LINE
  5
E7FF
330
1F
100
AcDbEntity
  8
CONNECTOR
100
AcDbLine
 10
314.3496022502548
 20
666.6316885404077
 30
0.0
 11
314.3496022502548
 21
664.8816920404075
 31
0.0
  0
LINE
  5
E800
330
1F
100
AcDbEntity
  8
CONNECTOR
100
AcDbLine
 10
314.3496022502548
 20
664.8816920404075
 30
0.0
 11
312.9496050502547
 21
664.8816920404075
 31
0.0
  0
TEXT
  5
E801
330
1F
100
AcDbEntity
  8
CONNECTOR
100
AcDbText
 10
314.9821675074543
 20
664.6542053416534
 30
0.0
 40
0.9999979999999998
  1
1
 50
180.0
  7
TEXT2
100
AcDbText
  0
TEXT
  5
E802
330
1F
100
AcDbEntity
  8
CONNECTOR
100
AcDbText
 10
313.2333462422799
 20
664.7071577329512
 30
0.0
 40
0.9999979999999998
  1
2
 50
180.0
  7
TEXT2
100
AcDbText
  0
TEXT
  5
E803
330
1F
100
AcDbEntity
  8
CONNECTOR
100
AcDbText
 10
317.048955864783
 20
666.6134409815104
 30
0.0
 40
0.9999979999999998
  1
3
 50
180.0
  7
TEXT2
100
AcDbText
  0
TEXT
  5
E804
330
1F
100
AcDbEntity
  8
CONNECTOR
100
AcDbText
 10
311.2195525257728
 20
666.6134409815104
 30
0.0
 40
0.9999979999999998
  1
4
 50
180.0
  7
TEXT2
100
AcDbText
  0
TEXT
  5
E805
330
1F
100
AcDbEntity
  8
CONNECTOR
100
AcDbText
 10
315.671096708972
 20
668.2020103553098
 30
0.0
 40
0.9999979999999998
  1
5
 50
180.0
  7
TEXT2
100
AcDbText
  0
TEXT
  5
E806
330
1F
100
AcDbEntity
  8
CONNECTOR
100
AcDbText
 10
312.597411305196
 20
668.2549627466078
 30
0.0
 40
0.9999979999999998
  1
6
 50
180.0
  7
TEXT2
100
AcDbText
  0
LINE
  5
E80A
330
1F
100
AcDbEntity
  8
CENTER
100
AcDbLine
 10
312.5066036502547
 20
664.8816920404075
 30
0.0
 11
314.7926036502548
 21
664.8816920404075
 31
0.0
  0
LINE
  5
E80B
330
1F
100
AcDbEntity
  8
CENTER
100
AcDbLine
 10
313.6496036502547
 20
663.7386920404074
 30
0.0
 11
313.6496036502547
 21
666.0246920404075
 31
0.0
  0
LINE
  5
E80C
330
1F
100
AcDbEntity
  8
CONNECTOR
  6
Continuous
 62
     7
370
    15
100
AcDbLine
 10
285.039589750254
 20
669.0926683784077
 30
0.0
 11
285.3395891502541
 21
669.0926683784075
 31
0.0
  0
LINE
  5
E80D
330
1F
100
AcDbEntity
  8
CONNECTOR
  6
Continuous
 62
     7
370
    15
100
AcDbLine
 10
285.039589750254
 20
669.0926683784077
 30
0.0
 11
284.7895902502541
 21
669.0926683784077
 31
0.0
  0
LINE
  5
E80E
330
1F
100
AcDbEntity
  8
CONNECTOR
  6
Continuous
 62
     7
370
    15
100
AcDbLine
 10
284.7895902502541
 20
669.0926683784077
 30
0.0
 11
284.7895902502541
 21
669.1426682784076
 31
0.0
  0
LINE
  5
E80F
330
1F
100
AcDbEntity
  8
CONNECTOR
  6
Continuous
 62
     7
370
    15
100
AcDbLine
 10
284.7895902502541
 20
669.1426682784076
 30
0.0
 11
284.7895902502541
 21
669.3676678284076
 31
0.0
  0
LINE
  5
E810
330
1F
100
AcDbEntity
  8
CONNECTOR
  6
Continuous
 62
     7
370
    15
100
AcDbLine
 10
286.0648166609841
 20
658.6676892284075
 30
0.0
 11
272.654390639525
 21
658.6676892284077
 31
0.0
  0
LINE
  5
E811
330
1F
100
AcDbEntity
  8
CONNECTOR
  6
Continuous
 62
     7
370
    15
100
AcDbLine
 10
273.8896120502541
 20
669.0926683784077
 30
0.0
 11
273.6396125502541
 21
669.0926683784077
 31
0.0
  0
LINE
  5
E812
330
1F
100
AcDbEntity
  8
CONNECTOR
  6
Continuous
 62
     7
370
    15
100
AcDbLine
 10
273.8896120502541
 20
669.1426682784076
 30
0.0
 11
273.8896120502541
 21
669.0926683784077
 31
0.0
  0
LINE
  5
E813
330
1F
100
AcDbEntity
  8
CONNECTOR
  6
Continuous
 62
     7
370
    15
100
AcDbLine
 10
276.6274745401621
 20
668.0976703684076
 30
0.0
 11
274.9646099002541
 21
666.4348057284996
 31
0.0
  0
LINE
  5
E814
330
1F
100
AcDbEntity
  8
CONNECTOR
  6
Continuous
 62
     7
370
    15
100
AcDbLine
 10
274.9646099002541
 20
666.4348057284996
 30
0.0
 11
274.9646099002347
 21
660.4176857284077
 31
0.0
  0
ARC
  5
E815
330
1F
100
AcDbEntity
  8
CONNECTOR
  6
Continuous
 62
     7
370
    15
100
AcDbCircle
 10
275.3646091002541
 20
660.4176857284077
 30
0.0
 40
0.3999992000223735
100
AcDbArc
 50
180.0
 51
270.0
  0
LINE
  5
E816
330
1F
100
AcDbEntity
  8
CONNECTOR
  6
Continuous
 62
     7
370
    15
100
AcDbLine
 10
275.3646091002541
 20
660.0176865283852
 30
0.0
 11
283.314593200254
 21
660.0176865284076
 31
0.0
  0
ARC
  5
E817
330
1F
100
AcDbEntity
  8
CONNECTOR
  6
Continuous
 62
     7
370
    15
100
AcDbCircle
 10
283.314593200254
 20
660.4176857284077
 30
0.0
 40
0.3999991999999915
100
AcDbArc
 50
270.0
 51
0.000000000000007
  0
LINE
  5
E818
330
1F
100
AcDbEntity
  8
CONNECTOR
  6
Continuous
 62
     7
370
    15
100
AcDbLine
 10
283.714592400245
 20
660.4176857284077
 30
0.0
 11
283.7145924002541
 21
666.4348057284996
 31
0.0
  0
LINE
  5
E819
330
1F
100
AcDbEntity
  8
CONNECTOR
  6
Continuous
 62
     7
370
    15
100
AcDbLine
 10
283.7145924002541
 20
666.4348057284996
 30
0.0
 11
282.051727760346
 21
668.0976703684076
 31
0.0
  0
LINE
  5
E81A
330
1F
100
AcDbEntity
  8
CONNECTOR
  6
Continuous
 62
     7
370
    15
100
AcDbLine
 10
282.051727760346
 20
668.0976703684076
 30
0.0
 11
276.6274745401621
 21
668.0976703684076
 31
0.0
  0
LINE
  5
E81B
330
1F
100
AcDbEntity
  8
CONNECTOR
  6
Continuous
 62
     7
370
    15
100
AcDbLine
 10
282.051727760346
 20
668.0976703684076
 30
0.0
 11
281.9895958502541
 21
667.9476706684076
 31
0.0
  0
LINE
  5
E81C
330
1F
100
AcDbEntity
  8
CONNECTOR
  6
Continuous
 62
     7
370
    15
100
AcDbLine
 10
283.7145924002541
 20
666.4348057284996
 30
0.0
 11
283.5645927002541
 21
666.3726738184077
 31
0.0
  0
LINE
  5
E81D
330
1F
100
AcDbEntity
  8
CONNECTOR
  6
Continuous
 62
     7
370
    15
100
AcDbLine
 10
283.5645927002541
 20
666.3726738184077
 30
0.0
 11
281.9895958502541
 21
667.9476706684076
 31
0.0
  0
LINE
  5
E81E
330
1F
100
AcDbEntity
  8
CONNECTOR
  6
Continuous
 62
     7
370
    15
100
AcDbLine
 10
283.5645927002167
 20
660.4176857284077
 30
0.0
 11
283.5645927002541
 21
666.3726738184077
 31
0.0
  0
LINE
  5
E81F
330
1F
100
AcDbEntity
  8
CONNECTOR
  6
Continuous
 62
     7
370
    15
100
AcDbLine
 10
276.6274745401621
 20
668.0976703684076
 30
0.0
 11
276.689606450254
 21
667.9476706684076
 31
0.0
  0
LINE
  5
E820
330
1F
100
AcDbEntity
  8
CONNECTOR
  6
Continuous
 62
     7
370
    15
100
AcDbLine
 10
281.9895958502541
 20
667.9476706684076
 30
0.0
 11
276.689606450254
 21
667.9476706684076
 31
0.0
  0
LINE
  5
E821
330
1F
100
AcDbEntity
  8
CONNECTOR
  6
Continuous
 62
     7
370
    15
100
AcDbLine
 10
275.114609600254
 20
666.3726738184077
 30
0.0
 11
274.9646099002541
 21
666.4348057284996
 31
0.0
  0
LINE
  5
E822
330
1F
100
AcDbEntity
  8
CONNECTOR
  6
Continuous
 62
     7
370
    15
100
AcDbLine
 10
276.689606450254
 20
667.9476706684076
 30
0.0
 11
275.114609600254
 21
666.3726738184077
 31
0.0
  0
LINE
  5
E823
330
1F
100
AcDbEntity
  8
CONNECTOR
  6
Continuous
 62
     7
370
    15
100
AcDbLine
 10
275.114609600254
 20
666.3726738184077
 30
0.0
 11
275.1146096002285
 21
660.4176857284077
 31
0.0
  0
LINE
  5
E824
330
1F
100
AcDbEntity
  8
CONNECTOR
  6
Continuous
 62
     7
370
    15
100
AcDbLine
 10
273.3396131502541
 20
669.0926683784077
 30
0.0
 11
273.6396125502541
 21
669.0926683784077
 31
0.0
  0
LINE
  5
E825
330
1F
100
AcDbEntity
  8
CONNECTOR
  6
Continuous
 62
     7
370
    15
100
AcDbLine
 10
273.8896120502541
 20
669.3676678284076
 30
0.0
 11
273.8896120502541
 21
669.1426682784076
 31
0.0
  0
ARC
  5
E826
330
1F
100
AcDbEntity
  8
CONNECTOR
  6
Continuous
 62
     7
370
    15
100
AcDbCircle
 10
283.314593200254
 20
660.4176857284077
 30
0.0
 40
0.2499994999626255
100
AcDbArc
 50
270.0
 51
0.000000000000007
  0
LINE
  5
E827
330
1F
100
AcDbEntity
  8
CONNECTOR
  6
Continuous
 62
     7
370
    15
100
AcDbLine
 10
275.3646091002541
 20
660.167686228382
 30
0.0
 11
283.314593200254
 21
660.167686228445
 31
0.0
  0
ARC
  5
E828
330
1F
100
AcDbEntity
  8
CONNECTOR
  6
Continuous
 62
     7
370
    15
100
AcDbCircle
 10
275.3646091002541
 20
660.4176857284077
 30
0.0
 40
0.2499995000255653
100
AcDbArc
 50
180.0
 51
270.0
  0
LINE
  5
E829
330
1F
100
AcDbEntity
  8
CONNECTOR
  6
Continuous
 62
     7
370
    15
100
AcDbLine
 10
285.3395891502541
 20
669.0926683784075
 30
0.0
 11
285.3395891502541
 21
658.6676892284075
 31
0.0
  0
LINE
  5
E82C
330
1F
100
AcDbEntity
  8
CONNECTOR
  6
Continuous
 62
     7
370
    15
100
AcDbLine
 10
284.7895902502541
 20
669.3676678284076
 30
0.0
 11
273.8896120502541
 21
669.3676678284076
 31
0.0
  0
LINE
  5
E82D
330
1F
100
AcDbEntity
  8
CONNECTOR
  6
Continuous
 62
     7
370
    15
100
AcDbLine
 10
273.3396131502541
 20
658.6676892284077
 30
0.0
 11
273.3396131502541
 21
669.0926683784077
 31
0.0
  0
LINE
  5
E82E
330
1F
100
AcDbEntity
  8
CONNECTOR
  6
Continuous
 62
     7
370
    15
100
AcDbLine
 10
273.8396121502541
 20
669.3676678284076
 30
0.0
 11
273.8896120502541
 21
669.3676678284076
 31
0.0
  0
LINE
  5
E82F
330
1F
100
AcDbEntity
  8
CONNECTOR
  6
Continuous
 62
     7
370
    15
100
AcDbLine
 10
284.7895902502541
 20
669.3676678284076
 30
0.0
 11
284.8395901502541
 21
669.3676678284076
 31
0.0
  0
ARC
  5
E835
330
1F
100
AcDbEntity
  8
CONNECTOR
  6
Continuous
 62
     7
370
    15
100
AcDbCircle
 10
284.8395901502541
 20
669.1176683284075
 30
0.0
 40
0.2499995
100
AcDbArc
 50
0.000000000000007
 51
89.99999999999998
  0
LINE
  5
E836
330
1F
100
AcDbEntity
  8
CONNECTOR
  6
Continuous
 62
     7
370
    15
100
AcDbLine
 10
285.089589650254
 20
669.1176683284075
 30
0.0
 11
285.089589650254
 21
669.0926683784077
 31
0.0
  0
LINE
  5
E837
330
1F
100
AcDbEntity
  8
CONNECTOR
  6
Continuous
 62
     7
370
    15
100
AcDbLine
 10
273.5896126502541
 20
669.0926683784077
 30
0.0
 11
273.5896126502541
 21
669.1176683284075
 31
0.0
  0
ARC
  5
E838
330
1F
100
AcDbEntity
  8
CONNECTOR
  6
Continuous
 62
     7
370
    15
100
AcDbCircle
 10
273.8396121502541
 20
669.1176683284075
 30
0.0
 40
0.2499995
100
AcDbArc
 50
89.99999999999998
 51
180.0
  0
LINE
  5
E83B
330
1F
100
AcDbEntity
  8
CONNECTOR
  6
Continuous
 62
     7
370
    15
100
AcDbLine
 10
277.0396057502541
 20
665.4076757484078
 30
0.0
 11
276.5396067502541
 21
665.6476752684076
 31
0.0
  0
LINE
  5
E83C
330
1F
100
AcDbEntity
  8
CONNECTOR
  6
Continuous
 62
     7
370
    15
100
AcDbLine
 10
282.1395955502541
 20
665.6476752684076
 30
0.0
 11
276.5396067502541
 21
665.6476752684076
 31
0.0
  0
LINE
  5
E83D
330
1F
100
AcDbEntity
  8
CONNECTOR
  6
Continuous
 62
     7
370
    15
100
AcDbLine
 10
282.1395955502541
 20
665.6476752684076
 30
0.0
 11
281.6395965502541
 21
665.4076757484078
 31
0.0
  0
LINE
  5
E83E
330
1F
100
AcDbEntity
  8
CONNECTOR
  6
Continuous
 62
     7
370
    15
100
AcDbLine
 10
281.6395965502541
 20
665.4076757484078
 30
0.0
 11
277.0396057502541
 21
665.4076757484078
 31
0.0
  0
LINE
  5
E83F
330
1F
100
AcDbEntity
  8
CONNECTOR
  6
Continuous
 62
     7
370
    15
100
AcDbLine
 10
282.1395955502541
 20
662.4676816284077
 30
0.0
 11
281.6395965502541
 21
662.7076811484077
 31
0.0
  0
LINE
  5
E840
330
1F
100
AcDbEntity
  8
CONNECTOR
  6
Continuous
 62
     7
370
    15
100
AcDbLine
 10
276.5396067502541
 20
662.4676816284077
 30
0.0
 11
282.1395955502541
 21
662.4676816284077
 31
0.0
  0
LINE
  5
E841
330
1F
100
AcDbEntity
  8
CONNECTOR
  6
Continuous
 62
     7
370
    15
100
AcDbLine
 10
276.5396067502541
 20
662.4676816284077
 30
0.0
 11
277.0396057502541
 21
662.7076811484077
 31
0.0
  0
LINE
  5
E842
330
1F
100
AcDbEntity
  8
CONNECTOR
  6
Continuous
 62
     7
370
    15
100
AcDbLine
 10
277.0396057502541
 20
662.7076811484077
 30
0.0
 11
281.6395965502541
 21
662.7076811484077
 31
0.0
  0
LINE
  5
E843
330
1F
100
AcDbEntity
  8
CONNECTOR
  6
Continuous
 62
     7
370
    15
100
AcDbLine
 10
282.1395955502541
 20
662.4676816284077
 30
0.0
 11
282.1395955502541
 21
665.6476752684076
 31
0.0
  0
LINE
  5
E844
330
1F
100
AcDbEntity
  8
CONNECTOR
  6
Continuous
 62
     7
370
    15
100
AcDbLine
 10
281.6395965502541
 20
662.7076811484077
 30
0.0
 11
281.6395965502541
 21
665.4076757484078
 31
0.0
  0
LINE
  5
E845
330
1F
100
AcDbEntity
  8
CONNECTOR
  6
Continuous
 62
     7
370
    15
100
AcDbLine
 10
277.0396057502541
 20
665.4076757484078
 30
0.0
 11
277.0396057502541
 21
662.7076811484077
 31
0.0
  0
LINE
  5
E846
330
1F
100
AcDbEntity
  8
CONNECTOR
  6
Continuous
 62
     7
370
    15
100
AcDbLine
 10
276.5396067502541
 20
665.6476752684076
 30
0.0
 11
276.5396067502541
 21
662.4676816284077
 31
0.0
  0
LINE
  5
E849
330
1F
100
AcDbEntity
  8
CONNECTOR
  6
Continuous
 62
     7
370
    15
100
AcDbLine
 10
280.8395981502541
 20
666.3476738684076
 30
0.0
 11
280.8395981502541
 21
665.6476752684076
 31
0.0
  0
LINE
  5
E84A
330
1F
100
AcDbEntity
  8
CONNECTOR
  6
Continuous
 62
     7
370
    15
100
AcDbLine
 10
280.8395981502541
 20
666.3476738684076
 30
0.0
 11
280.8395981502541
 21
666.6476732684077
 31
0.0
  0
LINE
  5
E84B
330
1F
100
AcDbEntity
  8
CONNECTOR
  6
Continuous
 62
     7
370
    15
100
AcDbLine
 10
279.8396001502541
 20
665.6476752684076
 30
0.0
 11
279.8396001502541
 21
666.3476738684076
 31
0.0
  0
LINE
  5
E84C
330
1F
100
AcDbEntity
  8
CONNECTOR
  6
Continuous
 62
     7
370
    15
100
AcDbLine
 10
279.8396001502541
 20
666.3476738684076
 30
0.0
 11
280.8395981502541
 21
666.3476738684076
 31
0.0
  0
LINE
  5
E84D
330
1F
100
AcDbEntity
  8
CONNECTOR
  6
Continuous
 62
     7
370
    15
100
AcDbLine
 10
279.8396001502541
 20
666.6476732684077
 30
0.0
 11
279.8396001502541
 21
666.3476738684076
 31
0.0
  0
LINE
  5
E84E
330
1F
100
AcDbEntity
  8
CONNECTOR
  6
Continuous
 62
     7
370
    15
100
AcDbLine
 10
278.8396021502541
 20
665.6476752684076
 30
0.0
 11
278.8396021502541
 21
666.3476738684078
 31
0.0
  0
LINE
  5
E84F
330
1F
100
AcDbEntity
  8
CONNECTOR
  6
Continuous
 62
     7
370
    15
100
AcDbLine
 10
277.8396041502541
 20
665.6476752684076
 30
0.0
 11
277.8396041502541
 21
666.3476738684076
 31
0.0
  0
LINE
  5
E850
330
1F
100
AcDbEntity
  8
CONNECTOR
  6
Continuous
 62
     7
370
    15
100
AcDbLine
 10
277.8396041502541
 20
666.3476738684076
 30
0.0
 11
278.8396021502541
 21
666.3476738684078
 31
0.0
  0
LINE
  5
E851
330
1F
100
AcDbEntity
  8
CONNECTOR
  6
Continuous
 62
     7
370
    15
100
AcDbLine
 10
278.8396021502541
 20
666.3476738684076
 30
0.0
 11
278.8396021502541
 21
666.6476732684077
 31
0.0
  0
LINE
  5
E852
330
1F
100
AcDbEntity
  8
CONNECTOR
  6
Continuous
 62
     7
370
    15
100
AcDbLine
 10
277.8396041502541
 20
666.6476732684077
 30
0.0
 11
277.8396041502541
 21
666.3476738684076
 31
0.0
  0
LINE
  5
E853
330
1F
100
AcDbEntity
  8
CONNECTOR
  6
Continuous
 62
     7
370
    15
100
AcDbLine
 10
279.8396001502541
 20
662.4676816284077
 30
0.0
 11
279.8396001502541
 21
661.7676830284077
 31
0.0
  0
LINE
  5
E854
330
1F
100
AcDbEntity
  8
CONNECTOR
  6
Continuous
 62
     7
370
    15
100
AcDbLine
 10
280.8395981502541
 20
662.4676816284077
 30
0.0
 11
280.8395981502541
 21
661.7676830284077
 31
0.0
  0
LINE
  5
E855
330
1F
100
AcDbEntity
  8
CONNECTOR
  6
Continuous
 62
     7
370
    15
100
AcDbLine
 10
280.8395981502541
 20
661.7676830284077
 30
0.0
 11
279.8396001502541
 21
661.7676830284077
 31
0.0
  0
LINE
  5
E856
330
1F
100
AcDbEntity
  8
CONNECTOR
  6
Continuous
 62
     7
370
    15
100
AcDbLine
 10
279.8396001502541
 20
661.7676830284077
 30
0.0
 11
279.8396001502541
 21
661.4676836284076
 31
0.0
  0
LINE
  5
E857
330
1F
100
AcDbEntity
  8
CONNECTOR
  6
Continuous
 62
     7
370
    15
100
AcDbLine
 10
280.8395981502541
 20
661.4676836284075
 30
0.0
 11
280.8395981502541
 21
661.7676830284077
 31
0.0
  0
LINE
  5
E858
330
1F
100
AcDbEntity
  8
CONNECTOR
  6
Continuous
 62
     7
370
    15
100
AcDbLine
 10
277.8396041502541
 20
661.7676830284077
 30
0.0
 11
277.8396041502541
 21
662.4676816284077
 31
0.0
  0
LINE
  5
E859
330
1F
100
AcDbEntity
  8
CONNECTOR
  6
Continuous
 62
     7
370
    15
100
AcDbLine
 10
278.8396021502541
 20
662.4676816284077
 30
0.0
 11
278.8396021502541
 21
661.7676830284077
 31
0.0
  0
LINE
  5
E85A
330
1F
100
AcDbEntity
  8
CONNECTOR
  6
Continuous
 62
     7
370
    15
100
AcDbLine
 10
278.8396021502541
 20
661.7676830284077
 30
0.0
 11
277.8396041502541
 21
661.7676830284077
 31
0.0
  0
LINE
  5
E85B
330
1F
100
AcDbEntity
  8
CONNECTOR
  6
Continuous
 62
     7
370
    15
100
AcDbLine
 10
278.8396021502541
 20
661.4676836284076
 30
0.0
 11
278.8396021502541
 21
661.7676830284077
 31
0.0
  0
LINE
  5
E85C
330
1F
100
AcDbEntity
  8
CONNECTOR
  6
Continuous
 62
     7
370
    15
100
AcDbLine
 10
277.8396041502541
 20
661.7676830284077
 30
0.0
 11
277.8396041502541
 21
661.4676836284076
 31
0.0
  0
LINE
  5
E85D
330
1F
100
AcDbEntity
  8
CONNECTOR
  6
Continuous
 62
     7
370
    15
100
AcDbLine
 10
279.8396001502541
 20
666.6476732684077
 30
0.0
 11
280.8395981502541
 21
666.6476732684077
 31
0.0
  0
LINE
  5
E85E
330
1F
100
AcDbEntity
  8
CONNECTOR
  6
Continuous
 62
     7
370
    15
100
AcDbLine
 10
279.8396001502541
 20
661.4676836284076
 30
0.0
 11
280.8395981502541
 21
661.4676836284075
 31
0.0
  0
LINE
  5
E85F
330
1F
100
AcDbEntity
  8
CONNECTOR
  6
Continuous
 62
     7
370
    15
100
AcDbLine
 10
278.8396021502541
 20
666.6476732684077
 30
0.0
 11
277.8396041502541
 21
666.6476732684077
 31
0.0
  0
LINE
  5
E860
330
1F
100
AcDbEntity
  8
CONNECTOR
  6
Continuous
 62
     7
370
    15
100
AcDbLine
 10
278.8396021502541
 20
661.4676836284076
 30
0.0
 11
277.8396041502541
 21
661.4676836284076
 31
0.0
  0
LINE
  5
E87B
330
1F
100
AcDbEntity
  8
CONNECTOR
  6
Continuous
 62
     7
370
    15
100
AcDbLine
 10
283.5645927002541
 20
665.1676762284076
 30
0.0
 11
283.1645935002541
 21
665.1676762284076
 31
0.0
  0
LINE
  5
E87C
330
1F
100
AcDbEntity
  8
CONNECTOR
  6
Continuous
 62
     7
370
    15
100
AcDbLine
 10
283.1645935002541
 20
661.4176837284076
 30
0.0
 11
283.5645927002541
 21
661.4176837284076
 31
0.0
  0
LINE
  5
E87D
330
1F
100
AcDbEntity
  8
CONNECTOR
  6
Continuous
 62
     7
370
    15
100
AcDbLine
 10
283.1645935002541
 20
665.1676762284076
 30
0.0
 11
283.1645935002541
 21
661.4176837284076
 31
0.0
  0
LINE
  5
E87E
330
1F
100
AcDbEntity
  8
CONNECTOR
  6
Continuous
 62
     7
370
    15
100
AcDbLine
 10
275.5146088002541
 20
661.4176837284078
 30
0.0
 11
275.5146088002541
 21
665.1676762284076
 31
0.0
  0
LINE
  5
E87F
330
1F
100
AcDbEntity
  8
CONNECTOR
  6
Continuous
 62
     7
370
    15
100
AcDbLine
 10
275.5146088002541
 20
665.1676762284076
 30
0.0
 11
275.114609600254
 21
665.1676762284076
 31
0.0
  0
LINE
  5
E880
330
1F
100
AcDbEntity
  8
CONNECTOR
  6
Continuous
 62
     7
370
    15
100
AcDbLine
 10
275.114609600254
 20
661.4176837284078
 30
0.0
 11
275.5146088002541
 21
661.4176837284078
 31
0.0
  0
LINE
  5
E89B
330
1F
100
AcDbEntity
  8
PCB
100
AcDbLine
 10
380.8361883412753
 20
658.3817050404076
 30
0.0
 11
370.9227422691974
 21
658.3817050404076
 31
0.0
  0
CIRCLE
  5
E89C
330
1F
100
AcDbEntity
  8
CONNECTOR
100
AcDbCircle
 10
375.8795833302543
 20
663.4617050404076
 30
0.0
 40
1.895462085378652
  0
LWPOLYLINE
  5
E8A7
330
1F
100
AcDbEntity
  8
CENTER
100
AcDbPolyline
 90
        2
 70
     0
 43
0.0
 10
375.8795833302543
 20
664.0967050404074
 10
375.8795833302543
 20
662.8267050404075
  0
LWPOLYLINE
  5
E8A8
330
1F
100
AcDbEntity
  8
CENTER
100
AcDbPolyline
 90
        2
 70
     0
 43
0.0
 10
376.5145833302542
 20
663.4617050404076
 10
375.2445833302543
 20
663.4617050404076
  0
LINE
  5
E8AB
330
1F
100
AcDbEntity
  8
CONNECTOR
100
AcDbLine
 10
380.9754527643315
 20
658.8897050404074
 30
0.0
 11
370.7834778461406
 21
658.8897050404074
 31
0.0
  0
CIRCLE
  5
E8B3
330
1F
100
AcDbEntity
  8
CONNECTOR
  6
Continuous
100
AcDbCircle
 10
375.8795833302543
 20
663.4617050404076
 30
0.0
 40
3.556007620000001
  0
CIRCLE
  5
E8B4
330
1F
100
AcDbEntity
  8
CONNECTOR
  6
Continuous
100
AcDbCircle
 10
375.8795833302543
 20
663.4617050404076
 30
0.0
 40
2.895607620000001
  0
LINE
  5
E8B5
330
1F
100
AcDbEntity
  8
CONNECTOR
100
AcDbLine
 10
380.0959909502543
 20
664.2237050404075
 30
0.0
 11
379.3529888915872
 21
664.2237050404077
 31
0.0
  0
LINE
  5
E8B6
330
1F
100
AcDbEntity
  8
CONNECTOR
100
AcDbLine
 10
380.0959909502543
 20
662.6997050404075
 30
0.0
 11
379.3529888915872
 21
662.6997050404075
 31
0.0
  0
LINE
  5
E8B7
330
1F
100
AcDbEntity
  8
CONNECTOR
  6
Continuous
100
AcDbLine
 10
380.0959909502543
 20
664.2237050404075
 30
0.0
 11
380.0959909502543
 21
662.6997050404075
 31
0.0
  0
LINE
  5
E8B8
330
1F
100
AcDbEntity
  8
CONNECTOR
100
AcDbLine
 10
371.6631757102543
 20
664.2237050404075
 30
0.0
 11
372.4061777689215
 21
664.2237050404077
 31
0.0
  0
LINE
  5
E8B9
330
1F
100
AcDbEntity
  8
CONNECTOR
100
AcDbLine
 10
371.6631757102543
 20
662.6997050404075
 30
0.0
 11
372.4061777689213
 21
662.6997050404075
 31
0.0
  0
LINE
  5
E8BA
330
1F
100
AcDbEntity
  8
CONNECTOR
  6
Continuous
100
AcDbLine
 10
371.6631757102543
 20
664.2237050404075
 30
0.0
 11
371.6631757102543
 21
662.6997050404075
 31
0.0
  0
LINE
  5
E8BB
330
1F
100
AcDbEntity
  8
CONNECTOR
100
AcDbLine
 10
375.1175909502542
 20
666.9351122734166
 30
0.0
 11
375.1175909502542
 21
666.2552531609567
 31
0.0
  0
LINE
  5
E8BC
330
1F
100
AcDbEntity
  8
CONNECTOR
100
AcDbLine
 10
376.6415909502543
 20
666.9351089300467
 30
0.0
 11
376.6415909502543
 21
666.2552490039177
 31
0.0
  0
CIRCLE
  5
E8BD
330
1F
100
AcDbEntity
  8
CONNECTOR
100
AcDbCircle
 10
359.3696036502545
 20
663.4617050404076
 30
0.0
 40
1.895462085378652
  0
LWPOLYLINE
  5
E8C8
330
1F
100
AcDbEntity
  8
CENTER
100
AcDbPolyline
 90
        2
 70
     0
 43
0.0
 10
359.3696036502545
 20
664.0967050404074
 10
359.3696036502545
 20
662.8267050404075
  0
LWPOLYLINE
  5
E8C9
330
1F
100
AcDbEntity
  8
CENTER
100
AcDbPolyline
 90
        2
 70
     0
 43
0.0
 10
360.0046036502546
 20
663.4617050404076
 10
358.7346036502546
 20
663.4617050404076
  0
LINE
  5
E8CC
330
1F
100
AcDbEntity
  8
CONNECTOR
100
AcDbLine
 10
364.4654730843319
 20
658.8897050404074
 30
0.0
 11
353.1196112702545
 21
658.8897050404074
 31
0.0
  0
LINE
  5
E8D1
330
1F
100
AcDbEntity
  8
CONNECTOR
  6
Continuous
100
AcDbLine
 10
353.1196112702545
 20
667.7797050404075
 30
0.0
 11
353.1196112702545
 21
658.3817050404076
 31
0.0
  0
LINE
  5
E8D3
330
1F
100
AcDbEntity
  8
CONNECTOR
  6
Continuous
100
AcDbLine
 10
353.6276112702546
 20
658.8897050404074
 30
0.0
 11
353.6276112702546
 21
658.3817050404076
 31
0.0
  0
CIRCLE
  5
E8D4
330
1F
100
AcDbEntity
  8
CONNECTOR
  6
Continuous
100
AcDbCircle
 10
359.3696036502545
 20
663.4617050404076
 30
0.0
 40
3.556007620000001
  0
CIRCLE
  5
E8D5
330
1F
100
AcDbEntity
  8
CONNECTOR
  6
Continuous
100
AcDbCircle
 10
359.3696036502545
 20
663.4617050404076
 30
0.0
 40
2.895607620000001
  0
LINE
  5
E8D6
330
1F
100
AcDbEntity
  8
CONNECTOR
100
AcDbLine
 10
363.5860112702546
 20
664.2237050404075
 30
0.0
 11
362.8430092115875
 21
664.2237050404077
 31
0.0
  0
LINE
  5
E8D7
330
1F
100
AcDbEntity
  8
CONNECTOR
100
AcDbLine
 10
363.5860112702546
 20
662.6997050404075
 30
0.0
 11
362.8430092115875
 21
662.6997050404075
 31
0.0
  0
LINE
  5
E8D8
330
1F
100
AcDbEntity
  8
CONNECTOR
  6
Continuous
100
AcDbLine
 10
363.5860112702546
 20
664.2237050404075
 30
0.0
 11
363.5860112702546
 21
662.6997050404075
 31
0.0
  0
LINE
  5
E8D9
330
1F
100
AcDbEntity
  8
CONNECTOR
100
AcDbLine
 10
355.1531960302546
 20
664.2237050404075
 30
0.0
 11
355.8961980889217
 21
664.2237050404077
 31
0.0
  0
LINE
  5
E8DA
330
1F
100
AcDbEntity
  8
CONNECTOR
100
AcDbLine
 10
355.1531960302546
 20
662.6997050404075
 30
0.0
 11
355.8961980889216
 21
662.6997050404075
 31
0.0
  0
LINE
  5
E8DB
330
1F
100
AcDbEntity
  8
CONNECTOR
  6
Continuous
100
AcDbLine
 10
355.1531960302546
 20
664.2237050404075
 30
0.0
 11
355.1531960302546
 21
662.6997050404075
 31
0.0
  0
LINE
  5
E8DC
330
1F
100
AcDbEntity
  8
CONNECTOR
100
AcDbLine
 10
358.6076112702545
 20
666.9351122734166
 30
0.0
 11
358.6076112702545
 21
666.2552531609567
 31
0.0
  0
LINE
  5
E8DD
330
1F
100
AcDbEntity
  8
CONNECTOR
100
AcDbLine
 10
360.1316112702546
 20
666.9351089300467
 30
0.0
 11
360.1316112702546
 21
666.2552490039177
 31
0.0
  0
CIRCLE
  5
E8DE
330
1F
100
AcDbEntity
  8
CONNECTOR
100
AcDbCircle
 10
346.6696036502546
 20
663.4617050404076
 30
0.0
 40
1.895462085378652
  0
LWPOLYLINE
  5
E8E9
330
1F
100
AcDbEntity
  8
CENTER
100
AcDbPolyline
 90
        2
 70
     0
 43
0.0
 10
346.6696036502546
 20
664.0967050404074
 10
346.6696036502546
 20
662.8267050404075
  0
LWPOLYLINE
  5
E8EA
330
1F
100
AcDbEntity
  8
CENTER
100
AcDbPolyline
 90
        2
 70
     0
 43
0.0
 10
347.3046036502545
 20
663.4617050404076
 10
346.0346036502546
 20
663.4617050404076
  0
LINE
  5
E8ED
330
1F
100
AcDbEntity
  8
CONNECTOR
100
AcDbLine
 10
352.9196112702546
 20
658.8897050404074
 30
0.0
 11
341.5734981661411
 21
658.8897050404074
 31
0.0
  0
LINE
  5
E8EF
330
1F
100
AcDbEntity
  8
CONNECTOR
  6
Continuous
100
AcDbLine
 10
352.9196112702546
 20
667.7797050404076
 30
0.0
 11
352.9196112702546
 21
658.3817050404076
 31
0.0
  0
LINE
  5
E8F1
330
1F
100
AcDbEntity
  8
CONNECTOR
  6
Continuous
100
AcDbLine
 10
352.4116112702546
 20
658.8897050404074
 30
0.0
 11
352.4116112702546
 21
658.3817050404076
 31
0.0
  0
CIRCLE
  5
E8F5
330
1F
100
AcDbEntity
  8
CONNECTOR
  6
Continuous
100
AcDbCircle
 10
346.6696036502546
 20
663.4617050404076
 30
0.0
 40
3.556007620000001
  0
CIRCLE
  5
E8F6
330
1F
100
AcDbEntity
  8
CONNECTOR
  6
Continuous
100
AcDbCircle
 10
346.6696036502546
 20
663.4617050404076
 30
0.0
 40
2.895607620000001
  0
LINE
  5
E8F7
330
1F
100
AcDbEntity
  8
CONNECTOR
100
AcDbLine
 10
350.8860112702545
 20
664.2237050404075
 30
0.0
 11
350.1430092115875
 21
664.2237050404077
 31
0.0
  0
LINE
  5
E8F8
330
1F
100
AcDbEntity
  8
CONNECTOR
100
AcDbLine
 10
350.8860112702545
 20
662.6997050404075
 30
0.0
 11
350.1430092115875
 21
662.6997050404075
 31
0.0
  0
LINE
  5
E8F9
330
1F
100
AcDbEntity
  8
CONNECTOR
  6
Continuous
100
AcDbLine
 10
350.8860112702545
 20
664.2237050404075
 30
0.0
 11
350.8860112702545
 21
662.6997050404075
 31
0.0
  0
LINE
  5
E8FA
330
1F
100
AcDbEntity
  8
CONNECTOR
100
AcDbLine
 10
342.4531960302545
 20
664.2237050404075
 30
0.0
 11
343.1961980889217
 21
664.2237050404077
 31
0.0
  0
LINE
  5
E8FB
330
1F
100
AcDbEntity
  8
CONNECTOR
100
AcDbLine
 10
342.4531960302545
 20
662.6997050404075
 30
0.0
 11
343.1961980889216
 21
662.6997050404075
 31
0.0
  0
LINE
  5
E8FC
330
1F
100
AcDbEntity
  8
CONNECTOR
  6
Continuous
100
AcDbLine
 10
342.4531960302545
 20
664.2237050404075
 30
0.0
 11
342.4531960302545
 21
662.6997050404075
 31
0.0
  0
LINE
  5
E8FD
330
1F
100
AcDbEntity
  8
CONNECTOR
100
AcDbLine
 10
345.9076112702545
 20
666.9351122734166
 30
0.0
 11
345.9076112702545
 21
666.2552531609567
 31
0.0
  0
LINE
  5
E8FE
330
1F
100
AcDbEntity
  8
CONNECTOR
100
AcDbLine
 10
347.4316112702546
 20
666.9351089300467
 30
0.0
 11
347.4316112702546
 21
666.2552490039177
 31
0.0
  0
LINE
  5
E8FF
330
1F
100
AcDbEntity
  8
PCB
100
AcDbLine
 10
364.3262086612758
 20
658.3817050404076
 30
0.0
 11
341.7127625891978
 21
658.3817050404076
 31
0.0
  0
CIRCLE
  5
E900
330
1F
100
AcDbEntity
  8
CONNECTOR
100
AcDbCircle
 10
458.4296036502546
 20
666.7637050404076
 30
0.0
 40
3.968750000000022
  0
CIRCLE
  5
E901
330
1F
100
AcDbEntity
  8
CONNECTOR
100
AcDbCircle
 10
458.4296036502546
 20
666.7637050404076
 30
0.0
 40
3.460750000000016
  0
CIRCLE
  5
E903
330
1F
100
AcDbEntity
  8
CONNECTOR
100
AcDbCircle
 10
458.4296036502546
 20
666.7637050404076
 30
0.0
 40
1.27
  0
ARC
  5
E90A
330
1F
100
AcDbEntity
  8
CONNECTOR
100
AcDbCircle
 10
458.4296036502546
 20
666.7637050404079
 30
0.0
 40
1.27
100
AcDbArc
 50
0.0000000000002106
 51
89.99999999999998
  0
LINE
  5
E917
330
1F
100
AcDbEntity
  8
CENTER
100
AcDbLine
 10
456.1436036502546
 20
666.7637050404076
 30
0.0
 11
460.7156036502545
 21
666.7637050404076
 31
0.0
  0
LINE
  5
E918
330
1F
100
AcDbEntity
  8
CENTER
100
AcDbLine
 10
458.4296036502546
 20
664.4777050404078
 30
0.0
 11
458.4296036502546
 21
669.0497050404078
 31
0.0
  0
LWPOLYLINE
  5
E91B
330
1F
100
AcDbEntity
  8
MOTOR
100
AcDbPolyline
 90
        8
 70
     1
 43
0.0
 10
526.6903415014442
 20
647.267654865219
 10
526.6903415014442
 20
680.9197655675941
 42
0.4142135623730951
 10
523.5156590014441
 20
684.094448067594
 10
489.8635482990693
 20
684.094448067594
 42
0.414213562373096
 10
486.6888657990691
 20
680.9197655675941
 10
486.6888657990694
 20
647.267654865219
 42
0.4142135623730951
 10
489.8635482990693
 20
644.0929723652191
 10
523.5156590014441
 20
644.092972365219
 42
0.4142135623730951
  0
CIRCLE
  5
E91C
330
1F
100
AcDbEntity
  8
MOTOR
100
AcDbCircle
 10
506.6896036502567
 20
664.0937102164065
 30
0.0
 40
19.47138599999999
  0
CIRCLE
  5
E91D
330
1F
100
AcDbEntity
  8
MOTOR
100
AcDbCircle
 10
506.6896036502567
 20
664.0937102164065
 30
0.0
 40
10.96546107948468
  0
LINE
  5
E91E
330
1F
100
AcDbEntity
  8
CENTER
100
AcDbLine
 10
509.3351724002566
 20
664.0937102164065
 30
0.0
 11
504.5689157402566
 21
664.0937102164065
 31
0.0
  0
LINE
  5
E91F
330
1F
100
AcDbEntity
  8
CENTER
100
AcDbLine
 10
506.6896036502567
 20
661.9730223064065
 30
0.0
 11
506.6896036502567
 21
666.7392789664066
 31
0.0
  0
LINE
  5
E921
330
1F
100
AcDbEntity
  8
MOTOR
100
AcDbLine
 10
508.9228986174435
 20
653.358081204782
 30
0.0
 11
510.4838334214963
 21
644.995576977683
 31
0.0
  0
LINE
  5
E936
330
1F
100
AcDbEntity
  8
MOTOR
100
AcDbLine
 10
517.1035785835219
 20
660.6599858863219
 30
0.0
 11
525.1261870854709
 21
657.8305429667333
 31
0.0
  0
LINE
  5
E937
330
1F
100
AcDbEntity
  8
MOTOR
100
AcDbLine
 10
514.8702836163352
 20
671.3956148979465
 30
0.0
 11
521.3319573142314
 21
676.9286762054569
 31
0.0
  0
LINE
  5
E938
330
1F
100
AcDbEntity
  8
MOTOR
100
AcDbLine
 10
504.4563086830698
 20
674.8293392280308
 30
0.0
 11
502.895373879017
 21
683.1918434551298
 31
0.0
  0
LINE
  5
E939
330
1F
100
AcDbEntity
  8
MOTOR
100
AcDbLine
 10
496.2756287169912
 20
667.5274345464909
 30
0.0
 11
488.2530202150424
 21
670.3568774660793
 31
0.0
  0
LINE
  5
E93A
330
1F
100
AcDbEntity
  8
MOTOR
100
AcDbLine
 10
498.5089236841782
 20
656.7918055348664
 30
0.0
 11
492.0472499862821
 21
651.258744227356
 31
0.0
  0
INSERT
  5
E961
330
1F
100
AcDbEntity
  8
FASTENER
100
AcDbBlockReference
  2
m2.5flatt
 10
531.4196036502567
 20
651.5937102164059
 30
0.0
 41
0.999998
 42
0.999998
 43
0.999998
 50
180.0
  0
INSERT
  5
E962
330
1F
100
AcDbEntity
  8
FASTENER
100
AcDbBlockReference
  2
m2.5flatt
 10
531.4196036502567
 20
676.5937102164074
 30
0.0
 41
-0.999998
 42
0.999998
 43
0.999998
  0
INSERT
  5
E963
330
1F
100
AcDbEntity
  8
FASTENER
100
AcDbBlockReference
  2
m2.5flatt
 10
98.41960365025636
 20
651.5937102164059
 30
0.0
 41
-0.999998
 42
0.999998
 43
0.999998
 50
180.0
  0
INSERT
  5
E964
330
1F
100
AcDbEntity
  8
FASTENER
100
AcDbBlockReference
  2
m2.5flatt
 10
98.41960365025636
 20
676.5937102164074
 30
0.0
 41
0.999998
 42
0.999998
 43
0.999998
  0
CIRCLE
  5
E9E3
330
1F
100
AcDbEntity
  8
FASTENER
100
AcDbCircle
 10
396.1996036502565
 20
665.3667050404081
 30
0.0
 40
7.9375
  0
CIRCLE
  5
E9E5
330
1F
100
AcDbEntity
  8
Rear Panel
100
AcDbCircle
 10
448.2696036502545
 20
661.4297050404077
 30
0.0
 40
2.1082
  0
CIRCLE
  5
E9E6
330
1F
100
AcDbEntity
  8
Rear Panel
100
AcDbCircle
 10
299.6796036502547
 20
661.4297050404078
 30
0.0
 40
2.1082
  0
CIRCLE
  5
E9E7
330
1F
100
AcDbEntity
  8
Rear Panel
100
AcDbCircle
 10
335.2396036502548
 20
661.4297050404078
 30
0.0
 40
2.1082
  0
CIRCLE
  5
E9E8
330
1F
100
AcDbEntity
  8
Rear Panel
100
AcDbCircle
 10
266.6596036502546
 20
661.4297050404078
 30
0.0
 40
2.1082
  0
LINE
  5
EA32
330
1F
100
AcDbEntity
  8
Rear Panel
100
AcDbLine
 10
537.4196036502528
 20
494.8086158862733
 30
0.0
 11
537.4196036502528
 21
492.8086198862711
 31
0.0
  0
LINE
  5
EA33
330
1F
100
AcDbEntity
  8
Rear Panel
100
AcDbLine
 10
92.41960365025242
 20
494.8086158862733
 30
0.0
 11
537.4196036502529
 21
494.8086158862733
 31
0.0
  0
LINE
  5
EA35
330
1F
100
AcDbEntity
  8
Rear Panel
100
AcDbLine
 10
92.41960365025242
 20
494.8086158862733
 30
0.0
 11
92.41960365025288
 21
492.8086198862711
 31
0.0
  0
LINE
  5
EA36
330
1F
100
AcDbEntity
  8
Rear Panel
100
AcDbLine
 10
92.41960365025288
 20
492.8086198862711
 30
0.0
 11
92.93560465025198
 21
492.292618886272
 31
0.0
  0
LINE
  5
EA37
330
1F
100
AcDbEntity
  8
Rear Panel
100
AcDbLine
 10
537.4196036502525
 20
492.8086198862709
 30
0.0
 11
536.903601650254
 21
492.2926178862724
 31
0.0
  0
LINE
  5
EA42
330
1F
100
AcDbEntity
  8
CONNECTOR
100
AcDbLine
 10
279.613603650255
 20
503.5515738662565
 30
0.0
 11
286.7256036502549
 21
503.5515738662565
 31
0.0
  0
LINE
  5
EA43
330
1F
100
AcDbEntity
  8
CONNECTOR
100
AcDbLine
 10
278.953203650255
 20
498.7255738662566
 30
0.0
 11
279.613603650255
 21
498.7255738662565
 31
0.0
  0
LINE
  5
EA44
330
1F
100
AcDbEntity
  8
CONNECTOR
100
AcDbLine
 10
286.7256036502549
 20
498.7255738662565
 30
0.0
 11
287.3860036502549
 21
498.7255738662565
 31
0.0
  0
LINE
  5
EA45
330
1F
100
AcDbEntity
  8
CONNECTOR
100
AcDbLine
 10
278.953203650255
 20
500.2495738662565
 30
0.0
 11
279.613603650255
 21
500.2495738662565
 31
0.0
  0
LINE
  5
EA46
330
1F
100
AcDbEntity
  8
CONNECTOR
100
AcDbLine
 10
286.7256036502549
 20
500.2495738662565
 30
0.0
 11
287.3860036502549
 21
500.2495738662565
 31
0.0
  0
LINE
  5
EA55
330
1F
100
AcDbEntity
  8
CONNECTOR
100
AcDbLine
 10
283.931603650255
 20
496.9475738662565
 30
0.0
 11
283.931603650255
 21
503.5515738662565
 31
0.0
  0
LINE
  5
EA56
330
1F
100
AcDbEntity
  8
CONNECTOR
100
AcDbLine
 10
282.407603650255
 20
496.9475738662565
 30
0.0
 11
282.407603650255
 21
503.5515738662565
 31
0.0
  0
ARC
  5
EA57
330
1F
100
AcDbEntity
  8
CONNECTOR
100
AcDbCircle
 10
283.169603650255
 20
496.9475738662565
 30
0.0
 40
0.7620000000000007
100
AcDbArc
 50
180.0
 51
0.0
  0
LINE
  5
EA58
330
1F
100
AcDbEntity
  8
CONNECTOR
  6
Continuous
100
AcDbLine
 10
286.7256036502549
 20
494.8086158862733
 30
0.0
 11
286.7256036502549
 21
503.5515738662565
 31
0.0
  0
LINE
  5
EA59
330
1F
100
AcDbEntity
  8
CONNECTOR
  6
Continuous
100
AcDbLine
 10
287.3860036502549
 20
498.7255738662565
 30
0.0
 11
287.3860036502549
 21
500.2495738662565
 31
0.0
  0
LINE
  5
EA5A
330
1F
100
AcDbEntity
  8
CONNECTOR
  6
Continuous
100
AcDbLine
 10
279.613603650255
 20
494.8086158862733
 30
0.0
 11
279.613603650255
 21
503.5515738662565
 31
0.0
  0
LINE
  5
EA5B
330
1F
100
AcDbEntity
  8
CONNECTOR
  6
Continuous
100
AcDbLine
 10
278.953203650255
 20
498.7255738662566
 30
0.0
 11
278.953203650255
 21
500.2495738662565
 31
0.0
  0
LINE
  5
EA68
330
1F
100
AcDbEntity
  8
CONNECTOR
100
AcDbLine
 10
266.913603650255
 20
503.5515738662565
 30
0.0
 11
274.0256036502549
 21
503.5515738662565
 31
0.0
  0
LINE
  5
EA69
330
1F
100
AcDbEntity
  8
CONNECTOR
100
AcDbLine
 10
266.253203650255
 20
498.7255738662566
 30
0.0
 11
266.913603650255
 21
498.7255738662565
 31
0.0
  0
LINE
  5
EA6A
330
1F
100
AcDbEntity
  8
CONNECTOR
100
AcDbLine
 10
274.0256036502549
 20
498.7255738662565
 30
0.0
 11
274.686003650255
 21
498.7255738662565
 31
0.0
  0
LINE
  5
EA6B
330
1F
100
AcDbEntity
  8
CONNECTOR
100
AcDbLine
 10
266.253203650255
 20
500.2495738662565
 30
0.0
 11
266.913603650255
 21
500.2495738662565
 31
0.0
  0
LINE
  5
EA6C
330
1F
100
AcDbEntity
  8
CONNECTOR
100
AcDbLine
 10
274.0256036502549
 20
500.2495738662565
 30
0.0
 11
274.6860036502549
 21
500.2495738662565
 31
0.0
  0
LINE
  5
EA7B
330
1F
100
AcDbEntity
  8
CONNECTOR
100
AcDbLine
 10
271.2316036502549
 20
496.9475738662565
 30
0.0
 11
271.2316036502549
 21
503.5515738662565
 31
0.0
  0
LINE
  5
EA7C
330
1F
100
AcDbEntity
  8
CONNECTOR
100
AcDbLine
 10
269.7076036502549
 20
496.9475738662565
 30
0.0
 11
269.7076036502549
 21
503.5515738662565
 31
0.0
  0
ARC
  5
EA7D
330
1F
100
AcDbEntity
  8
CONNECTOR
100
AcDbCircle
 10
270.469603650255
 20
496.9475738662565
 30
0.0
 40
0.7620000000000007
100
AcDbArc
 50
180.0
 51
0.0
  0
LINE
  5
EA7E
330
1F
100
AcDbEntity
  8
CONNECTOR
  6
Continuous
100
AcDbLine
 10
274.0256036502549
 20
494.8086158862733
 30
0.0
 11
274.0256036502549
 21
503.5515738662565
 31
0.0
  0
LINE
  5
EA7F
330
1F
100
AcDbEntity
  8
CONNECTOR
  6
Continuous
100
AcDbLine
 10
274.686003650255
 20
498.7255738662565
 30
0.0
 11
274.6860036502549
 21
500.2495738662565
 31
0.0
  0
LINE
  5
EA80
330
1F
100
AcDbEntity
  8
CONNECTOR
  6
Continuous
100
AcDbLine
 10
266.913603650255
 20
494.8086158862733
 30
0.0
 11
266.913603650255
 21
503.5515738662565
 31
0.0
  0
LINE
  5
EA81
330
1F
100
AcDbEntity
  8
CONNECTOR
  6
Continuous
100
AcDbLine
 10
266.253203650255
 20
498.7255738662566
 30
0.0
 11
266.253203650255
 21
500.2495738662565
 31
0.0
  0
LINE
  5
EA8E
330
1F
100
AcDbEntity
  8
CONNECTOR
100
AcDbLine
 10
250.403603650255
 20
503.5515738662565
 30
0.0
 11
257.515603650255
 21
503.5515738662565
 31
0.0
  0
LINE
  5
EA8F
330
1F
100
AcDbEntity
  8
CONNECTOR
100
AcDbLine
 10
249.743203650255
 20
498.7255738662566
 30
0.0
 11
250.403603650255
 21
498.7255738662565
 31
0.0
  0
LINE
  5
EA90
330
1F
100
AcDbEntity
  8
CONNECTOR
100
AcDbLine
 10
257.515603650255
 20
498.7255738662565
 30
0.0
 11
258.176003650255
 21
498.7255738662565
 31
0.0
  0
LINE
  5
EA91
330
1F
100
AcDbEntity
  8
CONNECTOR
100
AcDbLine
 10
249.743203650255
 20
500.2495738662565
 30
0.0
 11
250.403603650255
 21
500.2495738662565
 31
0.0
  0
LINE
  5
EA92
330
1F
100
AcDbEntity
  8
CONNECTOR
100
AcDbLine
 10
257.515603650255
 20
500.2495738662565
 30
0.0
 11
258.176003650255
 21
500.2495738662565
 31
0.0
  0
LINE
  5
EAA1
330
1F
100
AcDbEntity
  8
CONNECTOR
100
AcDbLine
 10
254.721603650255
 20
496.9475738662565
 30
0.0
 11
254.721603650255
 21
503.5515738662565
 31
0.0
  0
LINE
  5
EAA2
330
1F
100
AcDbEntity
  8
CONNECTOR
100
AcDbLine
 10
253.197603650255
 20
496.9475738662565
 30
0.0
 11
253.197603650255
 21
503.5515738662565
 31
0.0
  0
ARC
  5
EAA3
330
1F
100
AcDbEntity
  8
CONNECTOR
100
AcDbCircle
 10
253.959603650255
 20
496.9475738662565
 30
0.0
 40
0.7620000000000007
100
AcDbArc
 50
180.0
 51
0.0
  0
LINE
  5
EAA4
330
1F
100
AcDbEntity
  8
CONNECTOR
  6
Continuous
100
AcDbLine
 10
257.515603650255
 20
494.8086158862733
 30
0.0
 11
257.515603650255
 21
503.5515738662565
 31
0.0
  0
LINE
  5
EAA5
330
1F
100
AcDbEntity
  8
CONNECTOR
  6
Continuous
100
AcDbLine
 10
258.176003650255
 20
498.7255738662565
 30
0.0
 11
258.176003650255
 21
500.2495738662565
 31
0.0
  0
LINE
  5
EAA6
330
1F
100
AcDbEntity
  8
CONNECTOR
  6
Continuous
100
AcDbLine
 10
250.403603650255
 20
494.8086158862733
 30
0.0
 11
250.403603650255
 21
503.5515738662565
 31
0.0
  0
LINE
  5
EAA7
330
1F
100
AcDbEntity
  8
CONNECTOR
  6
Continuous
100
AcDbLine
 10
249.743203650255
 20
498.7255738662566
 30
0.0
 11
249.743203650255
 21
500.2495738662565
 31
0.0
  0
LINE
  5
EAAE
330
1F
100
AcDbEntity
  8
Hidden
100
AcDbLine
 10
157.8043236462877
 20
499.6086044862769
 30
0.0
 11
157.8043236462877
 21
501.27655523086
 31
0.0
  0
LINE
  5
EAAF
330
1F
100
AcDbEntity
  8
Hidden
100
AcDbLine
 10
154.5348836542198
 20
499.6086044862769
 30
0.0
 11
154.5348836542198
 21
501.27655523086
 31
0.0
  0
LINE
  5
EAB0
330
1F
100
AcDbEntity
  8
FASTENER
100
AcDbLine
 10
158.1695996502537
 20
499.6086044862769
 30
0.0
 11
158.1695996502537
 21
501.27655523086
 31
0.0
  0
LINE
  5
EAB1
330
1F
100
AcDbEntity
  8
FASTENER
100
AcDbLine
 10
154.1696076502537
 20
499.6086044862769
 30
0.0
 11
154.1696076502537
 21
501.27655523086
 31
0.0
  0
LINE
  5
EAB8
330
1F
100
AcDbEntity
  8
FASTENER
100
AcDbLine
 10
157.8043236462877
 20
508.1850372308681
 30
0.0
 11
154.5348836542202
 21
508.1850372308684
 31
0.0
  0
LINE
  5
EAB9
330
1F
100
AcDbEntity
  8
Hidden
100
AcDbLine
 10
154.1696076502537
 20
507.8197612269018
 30
0.0
 11
158.1695996502537
 21
507.8197612269018
 31
0.0
  0
LINE
  5
EABA
330
1F
100
AcDbEntity
  8
FASTENER
100
AcDbLine
 10
158.1695996502537
 20
507.8197612269018
 30
0.0
 11
157.8043236462877
 21
508.1850372308681
 31
0.0
  0
LINE
  5
EABB
330
1F
100
AcDbEntity
  8
FASTENER
100
AcDbLine
 10
154.1696076502537
 20
507.8197612269018
 30
0.0
 11
154.5348836542197
 21
508.1850372308681
 31
0.0
  0
LINE
  5
EABC
330
1F
100
AcDbEntity
  8
Hidden
100
AcDbLine
 10
157.8043236462877
 20
505.2765454308652
 30
0.0
 11
157.8043236462877
 21
508.1850372308681
 31
0.0
  0
LINE
  5
EABD
330
1F
100
AcDbEntity
  8
FASTENER
100
AcDbLine
 10
158.1695996502537
 20
505.2765454308652
 30
0.0
 11
158.1695996502537
 21
507.8197612269018
 31
0.0
  0
LINE
  5
EABE
330
1F
100
AcDbEntity
  8
Hidden
100
AcDbLine
 10
154.5348836542197
 20
505.2765454308652
 30
0.0
 11
154.5348836542197
 21
508.1850372308681
 31
0.0
  0
LINE
  5
EABF
330
1F
100
AcDbEntity
  8
FASTENER
100
AcDbLine
 10
154.1696076502537
 20
505.2765454308652
 30
0.0
 11
154.1696076502537
 21
507.8197612269018
 31
0.0
  0
LINE
  5
EAC3
330
1F
100
AcDbEntity
  8
SWITCH
100
AcDbLine
 10
198.5871215235358
 20
498.4970158862557
 30
0.0
 11
197.0631215235357
 21
498.4970158862557
 31
0.0
  0
LINE
  5
EAC4
330
1F
100
AcDbEntity
  8
SWITCH
100
AcDbLine
 10
196.5551215235358
 20
498.4970158862557
 30
0.0
 11
195.0311215235356
 21
498.4970158862557
 31
0.0
  0
LINE
  5
EAC8
330
1F
100
AcDbEntity
  8
SWITCH
100
AcDbLine
 10
197.0631215235357
 20
498.4970158862557
 30
0.0
 11
197.0631215235357
 21
497.222560606788
 31
0.0
  0
LINE
  5
EAC9
330
1F
100
AcDbEntity
  8
SWITCH
100
AcDbLine
 10
196.5551215235356
 20
498.4970158862557
 30
0.0
 11
196.5551215235358
 21
497.222560606788
 31
0.0
  0
LINE
  5
EACA
330
1F
100
AcDbEntity
  8
SWITCH
100
AcDbLine
 10
198.5871215235358
 20
498.4970158862557
 30
0.0
 11
198.5871215235356
 21
494.8086158862733
 31
0.0
  0
LINE
  5
EACB
330
1F
100
AcDbEntity
  8
SWITCH
100
AcDbLine
 10
195.0311215235356
 20
498.4970158862557
 30
0.0
 11
195.0311215235356
 21
494.8086158862733
 31
0.0
  0
LINE
  5
EAF8
330
1F
100
AcDbEntity
  8
SWITCH
100
AcDbLine
 10
197.0631215235357
 20
497.222560606788
 30
0.0
 11
196.5551215235358
 21
497.222560606788
 31
0.0
  0
LINE
  5
EAFC
330
1F
100
AcDbEntity
  8
SWITCH
100
AcDbLine
 10
216.367121523536
 20
498.4970158862557
 30
0.0
 11
214.843121523536
 21
498.4970158862557
 31
0.0
  0
LINE
  5
EAFD
330
1F
100
AcDbEntity
  8
SWITCH
100
AcDbLine
 10
214.3351215235361
 20
498.4970158862557
 30
0.0
 11
212.8111215235358
 21
498.4970158862557
 31
0.0
  0
LINE
  5
EB01
330
1F
100
AcDbEntity
  8
SWITCH
100
AcDbLine
 10
214.843121523536
 20
498.4970158862557
 30
0.0
 11
214.843121523536
 21
497.222560606788
 31
0.0
  0
LINE
  5
EB02
330
1F
100
AcDbEntity
  8
SWITCH
100
AcDbLine
 10
214.3351215235359
 20
498.4970158862557
 30
0.0
 11
214.3351215235361
 21
497.222560606788
 31
0.0
  0
LINE
  5
EB03
330
1F
100
AcDbEntity
  8
SWITCH
100
AcDbLine
 10
216.367121523536
 20
498.4970158862557
 30
0.0
 11
216.3671215235358
 21
494.8086158862733
 31
0.0
  0
LINE
  5
EB04
330
1F
100
AcDbEntity
  8
SWITCH
100
AcDbLine
 10
212.8111215235358
 20
498.4970158862557
 30
0.0
 11
212.8111215235359
 21
494.8086158862733
 31
0.0
  0
LINE
  5
EB31
330
1F
100
AcDbEntity
  8
SWITCH
100
AcDbLine
 10
214.843121523536
 20
497.222560606788
 30
0.0
 11
214.3351215235361
 21
497.222560606788
 31
0.0
  0
LWPOLYLINE
  5
EB32
330
1F
100
AcDbEntity
  8
CONNECTOR
100
AcDbPolyline
 90
        4
 70
     0
 43
0.0
 10
238.4656036502551
 20
502.190617886272
 10
238.4656036502551
 20
513.8746178862723
 10
228.813603650255
 20
513.8746178862723
 10
228.813603650255
 20
502.190617886272
  0
CIRCLE
  5
EB34
330
1F
100
AcDbEntity
  8
CONNECTOR
100
AcDbCircle
 10
233.6396036502551
 20
508.7946178862721
 30
0.0
 40
1.016
  0
LINE
  5
EB36
330
1F
100
AcDbEntity
  8
CONNECTOR
  6
Continuous
100
AcDbLine
 10
227.2896036502551
 20
501.428617886272
 30
0.0
 11
239.9896036502551
 21
501.4286178862723
 31
0.0
  0
LINE
  5
EB37
330
1F
100
AcDbEntity
  8
CONNECTOR
100
AcDbLine
 10
239.2276036502551
 20
502.190617886272
 30
0.0
 11
228.0516036502551
 21
502.190617886272
 31
0.0
  0
LINE
  5
EB38
330
1F
100
AcDbEntity
  8
CONNECTOR
  6
Continuous
100
AcDbLine
 10
228.0516036502551
 20
502.190617886272
 30
0.0
 11
228.0516036502551
 21
499.4361324038423
 31
0.0
  0
LINE
  5
EB39
330
1F
100
AcDbEntity
  8
CONNECTOR
100
AcDbLine
 10
227.2896036502551
 20
499.4361324038422
 30
0.0
 11
227.2896036502551
 21
501.428617886272
 31
0.0
  0
LINE
  5
EB3A
330
1F
100
AcDbEntity
  8
CONNECTOR
100
AcDbLine
 10
228.0516036502551
 20
502.190617886272
 30
0.0
 11
227.2896036502551
 21
501.428617886272
 31
0.0
  0
LINE
  5
EB3B
330
1F
100
AcDbEntity
  8
CONNECTOR
  6
Continuous
100
AcDbLine
 10
239.2276036502551
 20
502.190617886272
 30
0.0
 11
239.2276036502551
 21
499.4361324038423
 31
0.0
  0
LINE
  5
EB3C
330
1F
100
AcDbEntity
  8
CONNECTOR
100
AcDbLine
 10
239.989603650255
 20
499.4361324038422
 30
0.0
 11
239.9896036502551
 21
501.4286178862723
 31
0.0
  0
LINE
  5
EB3D
330
1F
100
AcDbEntity
  8
CONNECTOR
100
AcDbLine
 10
239.2276036502551
 20
502.190617886272
 30
0.0
 11
239.9896036502551
 21
501.4286178862723
 31
0.0
  0
LINE
  5
EB4A
330
1F
100
AcDbEntity
  8
CONNECTOR
100
AcDbLine
 10
175.378353650255
 20
497.5851257968147
 30
0.0
 11
175.378353650255
 21
500.9206178862722
 31
0.0
  0
LINE
  5
EB4B
330
1F
100
AcDbEntity
  8
CONNECTOR
100
AcDbLine
 10
174.870353650255
 20
501.4286178862723
 30
0.0
 11
175.378353650255
 21
500.9206178862722
 31
0.0
  0
LINE
  5
EB4C
330
1F
100
AcDbEntity
  8
CONNECTOR
100
AcDbLine
 10
174.870353650255
 20
501.4286178862723
 30
0.0
 11
167.948853650255
 21
501.4286178862723
 31
0.0
  0
LINE
  5
EB53
330
1F
100
AcDbEntity
  8
CONNECTOR
100
AcDbLine
 10
167.440853650255
 20
497.5844133545449
 30
0.0
 11
167.440853650255
 21
500.9206178862722
 31
0.0
  0
LINE
  5
EB54
330
1F
100
AcDbEntity
  8
CONNECTOR
100
AcDbLine
 10
167.948853650255
 20
501.4286178862723
 30
0.0
 11
167.440853650255
 21
500.9206178862722
 31
0.0
  0
LINE
  5
EB67
330
1F
100
AcDbEntity
  8
CONNECTOR
100
AcDbLine
 10
167.948853650255
 20
501.4286178862723
 30
0.0
 11
167.948853650255
 21
497.5851257968147
 31
0.0
  0
LINE
  5
EB68
330
1F
100
AcDbEntity
  8
CONNECTOR
100
AcDbLine
 10
174.870353650255
 20
501.4286178862723
 30
0.0
 11
174.870353650255
 21
497.5851257968147
 31
0.0
  0
LINE
  5
EB69
330
1F
100
AcDbEntity
  8
CONNECTOR
100
AcDbLine
 10
175.378353650255
 20
500.9206178862722
 30
0.0
 11
167.440853650255
 21
500.9206178862722
 31
0.0
  0
ARC
  5
EB76
330
1F
100
AcDbEntity
  8
CONNECTOR
370
    15
100
AcDbCircle
 10
134.4399445696536
 20
267.9920275194748
 30
0.0
 40
0.2539994919999907
100
AcDbArc
 50
180.0
 51
270.0000000000008
  0
ARC
  5
EB77
330
1F
100
AcDbEntity
  8
CONNECTOR
370
    15
100
AcDbCircle
 10
150.3657127180544
 20
267.9920275194748
 30
0.0
 40
0.2539994920001328
100
AcDbArc
 50
270.0000000000008
 51
0.0
  0
LINE
  5
EB78
330
1F
100
AcDbEntity
  8
CONNECTOR
370
    15
100
AcDbLine
 10
134.1859450776544
 20
270.808615886275
 30
0.0
 11
134.1859450776541
 21
267.992027519475
 31
0.0
  0
LINE
  5
EB79
330
1F
100
AcDbEntity
  8
CONNECTOR
370
    15
100
AcDbLine
 10
150.6197122100545
 20
267.992027519475
 30
0.0
 11
150.6197122100546
 21
270.808615886275
 31
0.0
  0
LINE
  5
EB8E
330
1F
100
AcDbEntity
  8
CONNECTOR
370
    15
100
AcDbLine
 10
150.3657127180544
 20
267.7380280274749
 30
0.0
 11
134.4421203307659
 21
267.7380280274748
 31
0.0
  0
ARC
  5
EC2F
330
1F
100
AcDbEntity
  8
CONNECTOR
370
    15
100
AcDbCircle
 10
192.483047482454
 20
267.9920275194748
 30
0.0
 40
0.2539994919999907
100
AcDbArc
 50
180.0
 51
270.0000000000006
  0
ARC
  5
EC30
330
1F
100
AcDbEntity
  8
CONNECTOR
370
    15
100
AcDbCircle
 10
230.2951718580549
 20
267.9920275194748
 30
0.0
 40
0.2539994920001328
100
AcDbArc
 50
270.0000000000006
 51
0.0
  0
LINE
  5
EC31
330
1F
100
AcDbEntity
  8
CONNECTOR
370
    15
100
AcDbLine
 10
192.2290479904549
 20
270.808615886275
 30
0.0
 11
192.2290479904546
 21
267.992027519475
 31
0.0
  0
LINE
  5
EC32
330
1F
100
AcDbEntity
  8
CONNECTOR
370
    15
100
AcDbLine
 10
230.549171350055
 20
267.992027519475
 30
0.0
 11
230.5491713500551
 21
270.808615886275
 31
0.0
  0
LINE
  5
EC47
330
1F
100
AcDbEntity
  8
CONNECTOR
370
    15
100
AcDbLine
 10
192.483047482454
 20
267.7380280274748
 30
0.0
 11
230.2929960969426
 21
267.7380280274748
 31
0.0
  0
ARC
  5
EC73
330
1F
100
AcDbEntity
  8
CONNECTOR
370
    15
100
AcDbCircle
 10
272.493047482454
 20
267.9920275194748
 30
0.0
 40
0.2539994919999907
100
AcDbArc
 50
180.0
 51
270.0000000000006
  0
ARC
  5
EC74
330
1F
100
AcDbEntity
  8
CONNECTOR
370
    15
100
AcDbCircle
 10
310.3051718580549
 20
267.9920275194748
 30
0.0
 40
0.2539994920001328
100
AcDbArc
 50
270.0000000000006
 51
0.0
  0
LINE
  5
EC75
330
1F
100
AcDbEntity
  8
CONNECTOR
370
    15
100
AcDbLine
 10
272.2390479904549
 20
270.808615886275
 30
0.0
 11
272.2390479904545
 21
267.992027519475
 31
0.0
  0
LINE
  5
EC76
330
1F
100
AcDbEntity
  8
CONNECTOR
370
    15
100
AcDbLine
 10
310.559171350055
 20
267.992027519475
 30
0.0
 11
310.5591713500551
 21
270.8086158862749
 31
0.0
  0
LINE
  5
EC8B
330
1F
100
AcDbEntity
  8
CONNECTOR
370
    15
100
AcDbLine
 10
272.493047482454
 20
267.7380280274748
 30
0.0
 11
310.3029960969426
 21
267.7380280274748
 31
0.0
  0
LINE
  5
ECD0
330
1F
100
AcDbEntity
  8
CONNECTOR
100
AcDbLine
 10
424.9546147202547
 20
269.3073701777468
 30
0.0
 11
424.9546147202547
 21
264.6986281062748
 31
0.0
  0
LINE
  5
ECD1
330
1F
100
AcDbEntity
  8
CONNECTOR
100
AcDbLine
 10
436.0245925802547
 20
269.3073701777468
 30
0.0
 11
436.0245925802547
 21
264.6986281062747
 31
0.0
  0
LINE
  5
ECD2
330
1F
100
AcDbEntity
  8
CONNECTOR
100
AcDbLine
 10
436.8395909502546
 20
269.3073701777467
 30
0.0
 11
424.1396163502547
 21
269.3073701777469
 31
0.0
  0
LINE
  5
ECD3
330
1F
100
AcDbEntity
  8
CONNECTOR
100
AcDbLine
 10
436.0245925802547
 20
264.6986281062748
 30
0.0
 11
424.9546147202547
 21
264.6986281062749
 31
0.0
  0
LINE
  5
ECDE
330
1F
100
AcDbEntity
  8
CONNECTOR
100
AcDbLine
 10
435.2895940502547
 20
251.4786545462749
 30
0.0
 11
425.6896132502546
 21
251.4786545462749
 31
0.0
  0
LINE
  5
ECE4
330
1F
100
AcDbEntity
  8
CONNECTOR
100
AcDbLine
 10
424.1396163502547
 20
269.3073701777468
 30
0.0
 11
424.1396163502547
 21
270.8086158862749
 31
0.0
  0
LINE
  5
ECE5
330
1F
100
AcDbEntity
  8
CONNECTOR
100
AcDbLine
 10
436.8395909502546
 20
269.3073701777467
 30
0.0
 11
436.8395909502546
 21
270.8086158862748
 31
0.0
  0
LINE
  5
ECE6
330
1F
100
AcDbEntity
  8
CONNECTOR
100
AcDbLine
 10
435.2895940502547
 20
251.4786545462749
 30
0.0
 11
435.2895940502547
 21
264.0433368613297
 31
0.0
  0
LINE
  5
ECE7
330
1F
100
AcDbEntity
  8
CONNECTOR
100
AcDbLine
 10
425.6896132502546
 20
251.4786545462749
 30
0.0
 11
425.6896132502546
 21
264.0433368613297
 31
0.0
  0
LINE
  5
ECE8
330
1F
100
AcDbEntity
  8
CONNECTOR
100
AcDbLine
 10
424.9546147202547
 20
264.6986281062749
 30
0.0
 11
425.6896132502546
 21
264.0433368613297
 31
0.0
  0
LINE
  5
ECE9
330
1F
100
AcDbEntity
  8
CONNECTOR
100
AcDbLine
 10
436.0245925802547
 20
264.6986281062748
 30
0.0
 11
435.2895940502547
 21
264.0433368613297
 31
0.0
  0
LINE
  5
ECEA
330
1F
100
AcDbEntity
  8
CONNECTOR
100
AcDbLine
 10
435.2895940502547
 20
264.0433368613297
 30
0.0
 11
425.6896132502546
 21
264.0433368613297
 31
0.0
  0
LINE
  5
ECEB
330
1F
100
AcDbEntity
  8
CONNECTOR
100
AcDbLine
 10
435.2895940502547
 20
255.8704859492718
 30
0.0
 11
435.9746762193892
 21
255.8704859492717
 31
0.0
  0
LINE
  5
ECEC
330
1F
100
AcDbEntity
  8
CONNECTOR
100
AcDbLine
 10
435.9746762193892
 20
255.8704859492717
 30
0.0
 11
435.9746762193892
 21
254.2075177339246
 31
0.0
  0
LINE
  5
ECED
330
1F
100
AcDbEntity
  8
CONNECTOR
100
AcDbLine
 10
435.9746762193892
 20
254.2075177339246
 30
0.0
 11
435.2895940502547
 21
254.2075177339246
 31
0.0
  0
LINE
  5
ECEE
330
1F
100
AcDbEntity
  8
CONNECTOR
100
AcDbLine
 10
425.6896132502546
 20
255.8704859492718
 30
0.0
 11
425.0045310811201
 21
255.8704859492717
 31
0.0
  0
LINE
  5
ECEF
330
1F
100
AcDbEntity
  8
CONNECTOR
100
AcDbLine
 10
425.0045310811201
 20
255.8704859492717
 30
0.0
 11
425.0045310811201
 21
254.2075177339246
 31
0.0
  0
LINE
  5
ECF0
330
1F
100
AcDbEntity
  8
CONNECTOR
100
AcDbLine
 10
425.0045310811201
 20
254.2075177339246
 30
0.0
 11
425.6896132502546
 21
254.2075177339246
 31
0.0
  0
LINE
  5
ED03
330
1F
100
AcDbEntity
  8
Top Panel
100
AcDbLine
 10
92.41960365025288
 20
491.7766178862729
 30
0.0
 11
92.41960365025288
 21
272.8086178862749
 31
0.0
  0
LINE
  5
ED04
330
1F
100
AcDbEntity
  8
Top Panel
100
AcDbLine
 10
94.45160365025284
 20
493.8086178862729
 30
0.0
 11
92.41960365025288
 21
491.7766178862729
 31
0.0
  0
LINE
  5
ED05
330
1F
100
AcDbEntity
  8
Top Panel
100
AcDbLine
 10
537.4196016502533
 20
491.7766178862732
 30
0.0
 11
537.4196016502533
 21
273.8086158862749
 31
0.0
  0
LINE
  5
ED07
330
1F
100
AcDbEntity
  8
Top Panel
100
AcDbLine
 10
534.740993650253
 20
323.6086178862748
 30
0.0
 11
528.4925936502528
 21
323.6086178862749
 31
0.0
  0
LINE
  5
ED08
330
1F
100
AcDbEntity
  8
Top Panel
100
AcDbLine
 10
535.4267936502528
 20
332.7526178862748
 30
0.0
 11
527.8067936502529
 21
332.7526178862749
 31
0.0
  0
LINE
  5
ED09
330
1F
100
AcDbEntity
  8
Top Panel
100
AcDbLine
 10
535.3876016502534
 20
493.8086178862731
 30
0.0
 11
94.45160365025284
 21
493.8086178862729
 31
0.0
  0
LINE
  5
ED0A
330
1F
100
AcDbEntity
  8
Top Panel
100
AcDbLine
 10
537.4196016502533
 20
491.7766178862732
 30
0.0
 11
535.3876016502534
 21
493.8086178862731
 31
0.0
  0
CIRCLE
  5
ED0C
330
1F
100
AcDbEntity
  8
Top Panel
100
AcDbCircle
 10
365.719603650253
 20
469.6586178862747
 30
0.0
 40
3.047999999999999
  0
CIRCLE
  5
ED16
330
1F
100
AcDbEntity
  8
Top Panel
100
AcDbCircle
 10
365.719603650253
 20
401.0786178862747
 30
0.0
 40
3.047999999999999
  0
CIRCLE
  5
ED1A
330
1F
100
AcDbEntity
  8
Top Panel
100
AcDbCircle
 10
365.719603650253
 20
332.4986178862747
 30
0.0
 40
3.047999999999999
  0
LINE
  5
ED1D
330
1F
100
AcDbEntity
  8
Top Panel
100
AcDbLine
 10
534.740993650253
 20
323.6086178862748
 30
0.0
 11
535.4267936502528
 21
332.7526178862748
 31
0.0
  0
LINE
  5
ED1E
330
1F
100
AcDbEntity
  8
Top Panel
100
AcDbLine
 10
528.4925936502528
 20
323.6086178862749
 30
0.0
 11
527.8067936502529
 21
332.7526178862749
 31
0.0
  0
LINE
  5
ED1F
330
1F
100
AcDbEntity
  8
Top Panel
100
AcDbLine
 10
534.740993650253
 20
443.6086178862748
 30
0.0
 11
528.4925936502528
 21
443.6086178862749
 31
0.0
  0
LINE
  5
ED20
330
1F
100
AcDbEntity
  8
Top Panel
100
AcDbLine
 10
535.4267936502528
 20
452.7526178862747
 30
0.0
 11
527.8067936502529
 21
452.7526178862749
 31
0.0
  0
LINE
  5
ED21
330
1F
100
AcDbEntity
  8
Top Panel
100
AcDbLine
 10
534.740993650253
 20
443.6086178862748
 30
0.0
 11
535.4267936502528
 21
452.7526178862747
 31
0.0
  0
LINE
  5
ED22
330
1F
100
AcDbEntity
  8
Top Panel
100
AcDbLine
 10
528.4925936502528
 20
443.6086178862749
 30
0.0
 11
527.8067936502529
 21
452.7526178862749
 31
0.0
  0
LINE
  5
ED23
330
1F
100
AcDbEntity
  8
Top Panel
100
AcDbLine
 10
95.09821165025332
 20
323.6086178862748
 30
0.0
 11
101.3466116502534
 21
323.6086178862749
 31
0.0
  0
LINE
  5
ED24
330
1F
100
AcDbEntity
  8
Top Panel
100
AcDbLine
 10
94.41241165025356
 20
332.7526178862748
 30
0.0
 11
102.0324116502534
 21
332.7526178862749
 31
0.0
  0
LINE
  5
ED25
330
1F
100
AcDbEntity
  8
Top Panel
100
AcDbLine
 10
95.09821165025332
 20
323.6086178862748
 30
0.0
 11
94.41241165025356
 21
332.7526178862748
 31
0.0
  0
LINE
  5
ED26
330
1F
100
AcDbEntity
  8
Top Panel
100
AcDbLine
 10
101.3466116502534
 20
323.6086178862749
 30
0.0
 11
102.0324116502534
 21
332.7526178862749
 31
0.0
  0
LINE
  5
ED27
330
1F
100
AcDbEntity
  8
Top Panel
100
AcDbLine
 10
95.09821165025332
 20
443.6086178862748
 30
0.0
 11
101.3466116502534
 21
443.6086178862749
 31
0.0
  0
LINE
  5
ED28
330
1F
100
AcDbEntity
  8
Top Panel
100
AcDbLine
 10
94.41241165025356
 20
452.7526178862747
 30
0.0
 11
102.0324116502534
 21
452.7526178862749
 31
0.0
  0
LINE
  5
ED29
330
1F
100
AcDbEntity
  8
Top Panel
100
AcDbLine
 10
95.09821165025332
 20
443.6086178862748
 30
0.0
 11
94.41241165025356
 21
452.7526178862747
 31
0.0
  0
LINE
  5
ED2A
330
1F
100
AcDbEntity
  8
Top Panel
100
AcDbLine
 10
101.3466116502534
 20
443.6086178862749
 30
0.0
 11
102.0324116502534
 21
452.7526178862749
 31
0.0
  0
INSERT
  5
ED41
330
1F
100
AcDbEntity
  8
FASTENER
100
AcDbBlockReference
  2
m2.5flatt
 10
134.9196036502528
 20
489.108615886273
 30
0.0
 41
0.999998
 42
0.999998
 43
0.999998
  0
INSERT
  5
ED42
330
1F
100
AcDbEntity
  8
FASTENER
100
AcDbBlockReference
  2
m2.5flatt
 10
254.9196036502527
 20
489.108615886273
 30
0.0
 41
0.999998
 42
0.999998
 43
0.999998
  0
INSERT
  5
ED43
330
1F
100
AcDbEntity
  8
FASTENER
100
AcDbBlockReference
  2
m2.5flatt
 10
374.9196036502527
 20
489.108615886273
 30
0.0
 41
0.999998
 42
0.999998
 43
0.999998
  0
INSERT
  5
ED44
330
1F
100
AcDbEntity
  8
FASTENER
100
AcDbBlockReference
  2
m2.5flatt
 10
494.9196036502526
 20
489.1086158862731
 30
0.0
 41
0.999998
 42
0.999998
 43
0.999998
  0
INSERT
  5
ED45
330
1F
100
AcDbEntity
  8
FASTENER
100
AcDbBlockReference
  2
M3FLATT
 10
365.719603650253
 20
469.6586178862747
 30
0.0
 41
0.999998
 42
0.999998
 43
0.999998
  0
INSERT
  5
ED46
330
1F
100
AcDbEntity
  8
FASTENER
100
AcDbBlockReference
  2
M3FLATT
 10
365.719603650253
 20
401.0786178862747
 30
0.0
 41
0.999998
 42
0.999998
 43
0.999998
  0
INSERT
  5
ED47
330
1F
100
AcDbEntity
  8
FASTENER
100
AcDbBlockReference
  2
M3FLATT
 10
365.719603650253
 20
332.4986178862747
 30
0.0
 41
0.999998
 42
0.999998
 43
0.999998
  0
LWPOLYLINE
  5
ED48
330
1F
100
AcDbEntity
  8
FASTENER
100
AcDbPolyline
 90
        6
 70
     1
 43
0.0
 10
455.6799729932393
 20
671.5324273136952
 10
452.9303423362237
 20
666.7699273136952
 10
455.6799729932393
 20
662.0074273136951
 10
461.1792343072704
 20
662.0074273136951
 10
463.928864964286
 20
666.7699273136952
 10
461.1792343072704
 20
671.5324273136952
  0
CIRCLE
  5
ED49
330
1F
100
AcDbEntity
  8
FASTENER
100
AcDbCircle
 10
458.4296036502546
 20
666.7637050404076
 30
0.0
 40
4.768722273287317
  0
LWPOLYLINE
  5
ED4B
330
1F
100
AcDbEntity
  8
FASTENER
100
AcDbPolyline
 90
        6
 70
     1
 43
0.0
 10
391.6168858885638
 20
673.3042050404081
 10
387.0341681268712
 20
665.3667050404081
 10
391.6168858885638
 20
657.429205040408
 10
400.782321411949
 20
657.429205040408
 10
405.3650391736416
 20
665.3667050404081
 10
400.782321411949
 20
673.3042050404081
  0
CIRCLE
  5
ED4C
330
1F
100
AcDbEntity
  8
FASTENER
100
AcDbCircle
 10
396.1996036502565
 20
665.3667050404081
 30
0.0
 40
9.165435523385259
  0
CIRCLE
  5
ED4E
330
1F
100
AcDbEntity
  8
FASTENER
100
AcDbCircle
 10
458.4296036502546
 20
666.7637050404076
 30
0.0
 40
5.499264834201705
  0
LINE
  5
EDC1
330
1F
100
AcDbEntity
  8
CONNECTOR
370
    15
100
AcDbLine
 10
599.4518839981806
 20
267.7380280274748
 30
0.0
 11
599.2266965193534
 21
267.7380280274748
 31
0.0
  0
LINE
  5
EDC4
330
1F
100
AcDbEntity
  8
CONNECTOR
370
    15
100
AcDbLine
 10
602.3728781561815
 20
267.7380280274748
 30
0.0
 11
599.4518839981807
 21
267.7380280274748
 31
0.0
  0
ARC
  5
EDC7
330
1F
100
AcDbEntity
  8
CONNECTOR
370
    15
100
AcDbCircle
 10
604.2619146439534
 20
267.9920275194748
 30
0.0
 40
0.2539994920000192
100
AcDbArc
 50
270.0
 51
0.0000000000006107
  0
LINE
  5
EDC8
330
1F
100
AcDbEntity
  8
CONNECTOR
370
    15
100
AcDbLine
 10
604.2619146439534
 20
267.7380280274748
 30
0.0
 11
602.3728781561815
 21
267.7380280274748
 31
0.0
  0
LINE
  5
EDC9
330
1F
100
AcDbEntity
  8
CONNECTOR
370
    15
100
AcDbLine
 10
604.5159141359533
 20
270.8086158862734
 30
0.0
 11
604.5159141359533
 21
267.9920275194748
 31
0.0
  0
LINE
  5
EDE6
330
1F
100
AcDbEntity
  8
CONNECTOR
370
    15
100
AcDbLine
 10
603.9444152835313
 20
267.7380280274748
 30
0.0
 11
603.9444152835313
 21
267.6237282560745
 31
0.0
  0
LINE
  5
EDE8
330
1F
100
AcDbEntity
  8
CONNECTOR
370
    15
100
AcDbLine
 10
603.1824167236077
 20
267.7380280274748
 30
0.0
 11
603.1824167236079
 21
267.6237282560745
 31
0.0
  0
LINE
  5
EDE9
330
1F
100
AcDbEntity
  8
CONNECTOR
370
    15
100
AcDbLine
 10
603.1824167236079
 20
267.6237282560745
 30
0.0
 11
603.9444152835315
 21
267.6237282560745
 31
0.0
  0
LINE
  5
EDEE
330
1F
100
AcDbEntity
  8
Top Panel
100
AcDbLine
 10
579.7775655397169
 20
493.8086198862726
 30
0.0
 11
580.7775635397172
 21
493.8086198862726
 31
0.0
  0
LINE
  5
EDEF
330
1F
100
AcDbEntity
  8
Top Panel
100
AcDbLine
 10
582.1525635397169
 20
272.808619886274
 30
0.0
 11
582.1525635397168
 21
280.5233758862747
 31
0.0
  0
LINE
  5
EDF0
330
1F
100
AcDbEntity
  8
Top Panel
100
AcDbLine
 10
579.7775655397169
 20
285.523375886275
 30
0.0
 11
579.7775655397169
 21
493.8086198862726
 31
0.0
  0
LINE
  5
EDF1
330
1F
100
AcDbEntity
  8
Top Panel
100
AcDbLine
 10
583.1525615397168
 20
273.8086158862747
 30
0.0
 11
583.1525615397169
 21
280.9375886202202
 31
0.0
  0
LINE
  5
EDF2
330
1F
100
AcDbEntity
  8
Top Panel
100
AcDbLine
 10
580.7775635397172
 20
285.9375886202203
 30
0.0
 11
580.7775635397172
 21
493.8086198862722
 31
0.0
  0
LINE
  5
EDF5
330
1F
100
AcDbEntity
  8
Top Panel
100
AcDbLine
 10
582.8287574687192
 20
272.808619886274
 30
0.0
 11
582.1525635397169
 21
272.808619886274
 31
0.0
  0
LINE
  5
EDF6
330
1F
100
AcDbEntity
  8
Top Panel
100
AcDbLine
 10
579.777565539717
 20
285.5233758862749
 30
0.0
 11
582.1525635397169
 21
280.5233758862747
 31
0.0
  0
LINE
  5
EDF7
330
1F
100
AcDbEntity
  8
Top Panel
100
AcDbLine
 10
580.7775635397172
 20
285.9375886202205
 30
0.0
 11
583.1525615397171
 21
280.9375886202203
 31
0.0
  0
LINE
  5
EE49
330
1F
100
AcDbEntity
  8
Base
100
AcDbLine
 10
622.3767075893534
 20
285.5233758862745
 30
0.0
 11
622.3767075893536
 21
491.793381886272
 31
0.0
  0
LINE
  5
EE4A
330
1F
100
AcDbEntity
  8
Base
100
AcDbLine
 10
618.8207075893537
 20
273.7933738862748
 30
0.0
 11
618.8207075893537
 21
286.7633758862748
 31
0.0
  0
LINE
  5
EE4C
330
1F
100
AcDbEntity
  8
Base
100
AcDbLine
 10
621.3767095893534
 20
491.793381886272
 30
0.0
 11
621.3767095893534
 21
493.793377886272
 31
0.0
  0
LINE
  5
EE4D
330
1F
100
AcDbEntity
  8
Base
100
AcDbLine
 10
580.7767055893536
 20
293.7933338862748
 30
0.0
 11
580.7767055893536
 21
491.793381886272
 31
0.0
  0
LINE
  5
EE4E
330
1F
100
AcDbEntity
  8
Base
100
AcDbLine
 10
582.3769055893535
 20
282.5563738862748
 30
0.0
 11
582.3769055893535
 21
293.7933338862748
 31
0.0
  0
LINE
  5
EE4F
330
1F
100
AcDbEntity
  8
Base
100
AcDbLine
 10
583.3929055893532
 20
273.7933738862748
 30
0.0
 11
583.3929055893531
 21
282.5563738862748
 31
0.0
  0
LINE
  5
EE50
330
1F
100
AcDbEntity
  8
Base
100
AcDbLine
 10
620.3267095893534
 20
273.8086158862744
 30
0.0
 11
620.3267095893535
 21
280.5233758862748
 31
0.0
  0
LINE
  5
EE51
330
1F
100
AcDbEntity
  8
Base
100
AcDbLine
 10
619.3267115893534
 20
272.7933758862747
 30
0.0
 11
619.3267115893534
 21
280.9375886202206
 31
0.0
  0
LINE
  5
EE52
330
1F
100
AcDbEntity
  8
Base
100
AcDbLine
 10
619.3267115893534
 20
272.7933758862747
 30
0.0
 11
620.0546768512297
 21
272.7933758862747
 31
0.0
  0
LINE
  5
EE53
330
1F
100
AcDbEntity
  8
Base
100
AcDbLine
 10
622.3767075893538
 20
285.5233758862749
 30
0.0
 11
620.3267095893534
 21
280.5233758862747
 31
0.0
  0
LINE
  5
EE54
330
1F
100
AcDbEntity
  8
Base
100
AcDbLine
 10
621.194582546121
 20
285.4933758862747
 30
0.0
 11
619.3267115893533
 21
280.9375886202203
 31
0.0
  0
LINE
  5
EE55
330
1F
100
AcDbEntity
  8
Base
100
AcDbLine
 10
580.7767055893536
 20
293.7933338862748
 30
0.0
 11
582.3769055893535
 21
293.7933338862748
 31
0.0
  0
LINE
  5
EE56
330
1F
100
AcDbEntity
  8
Base
100
AcDbLine
 10
622.3644076013536
 20
286.7633758862747
 30
0.0
 11
618.8207075893537
 21
286.7633758862748
 31
0.0
  0
LINE
  5
EE58
330
1F
100
AcDbEntity
  8
Base
100
AcDbLine
 10
582.3769055893535
 20
282.5563738862748
 30
0.0
 11
583.3929055893531
 21
282.5563738862748
 31
0.0
  0
LINE
  5
EE5A
330
1F
100
AcDbEntity
  8
Base
100
AcDbLine
 10
581.7767035893539
 20
491.7933818862719
 30
0.0
 11
581.7767035893539
 21
493.793377886272
 31
0.0
  0
LINE
  5
EE5C
330
1F
100
AcDbEntity
  8
Base
100
AcDbLine
 10
581.7767035893539
 20
493.793377886272
 30
0.0
 11
621.3767095893534
 21
493.793377886272
 31
0.0
  0
LINE
  5
EE5D
330
1F
100
AcDbEntity
  8
Base
100
AcDbLine
 10
580.7767055893534
 20
491.793381886272
 30
0.0
 11
581.7767035893539
 21
491.7933818862719
 31
0.0
  0
LINE
  5
EE5E
330
1F
100
AcDbEntity
  8
Base
100
AcDbLine
 10
621.3767095893533
 20
491.793381886272
 30
0.0
 11
622.3767075893536
 21
491.793381886272
 31
0.0
  0
LINE
  5
EE75
330
1F
100
AcDbEntity
  8
Base
100
AcDbLine
 10
648.9533670241487
 20
162.0286356874748
 30
0.0
 11
648.9533670241487
 21
162.0786355874748
 31
0.0
  0
LINE
  5
F19A
330
1F
100
AcDbEntity
  8
CONNECTOR
100
AcDbLine
 10
598.152283790171
 20
503.5515738662565
 30
0.0
 11
605.264283790171
 21
503.5515738662565
 31
0.0
  0
LINE
  5
F1A3
330
1F
100
AcDbEntity
  8
CONNECTOR
  6
Continuous
100
AcDbLine
 10
605.264283790171
 20
494.8086158862733
 30
0.0
 11
605.264283790171
 21
503.5515738662565
 31
0.0
  0
LINE
  5
F1A5
330
1F
100
AcDbEntity
  8
CONNECTOR
  6
Continuous
100
AcDbLine
 10
598.152283790171
 20
494.8086158862733
 30
0.0
 11
598.152283790171
 21
503.5515738662565
 31
0.0
  0
ARC
  5
F1C8
330
1F
100
AcDbEntity
  8
FASTENER
100
AcDbCircle
 10
241.0470420493259
 20
496.1549087354074
 30
0.0
 40
3.281223668430726
100
AcDbArc
 50
48.05625452200557
 51
131.9437454779944
  0
LINE
  5
F1C9
330
1F
100
AcDbEntity
  8
FASTENER
100
AcDbLine
 10
238.85387003433
 20
498.5954876165129
 30
0.0
 11
238.85387003433
 21
496.6164208051599
 31
0.0
  0
LINE
  5
F1CA
330
1F
100
AcDbEntity
  8
FASTENER
100
AcDbLine
 10
224.8973208479851
 20
498.5954876165129
 30
0.0
 11
224.8973208479849
 21
496.616420805175
 31
0.0
  0
LINE
  5
F1CB
330
1F
100
AcDbEntity
  8
FASTENER
100
AcDbLine
 10
243.2402140643243
 20
498.5954876165129
 30
0.0
 11
243.2402140643246
 21
496.6164208051599
 31
0.0
  0
ARC
  5
F1CC
330
1F
100
AcDbEntity
  8
FASTENER
100
AcDbCircle
 10
241.0470420493259
 20
499.0569996862612
 30
0.0
 40
3.281223668430726
100
AcDbArc
 50
228.0562545220056
 51
311.9437454779944
  0
LINE
  5
F1CD
330
1F
100
AcDbEntity
  8
FASTENER
100
AcDbLine
 10
241.0470420493259
 20
495.7757760178304
 30
0.0
 11
227.1132861927633
 21
495.7757760178306
 31
0.0
  0
LINE
  5
F1CE
330
1F
100
AcDbEntity
  8
FASTENER
100
AcDbLine
 10
229.306458207759
 20
498.5954876165129
 30
0.0
 11
229.306458207759
 21
496.6164208051599
 31
0.0
  0
ARC
  5
F1CF
330
1F
100
AcDbEntity
  8
FASTENER
100
AcDbCircle
 10
227.1132861927633
 20
499.0569996862612
 30
0.0
 40
3.281223668430726
100
AcDbArc
 50
228.0562545220056
 51
311.9437454779944
  0
ARC
  5
F1D0
330
1F
100
AcDbEntity
  8
FASTENER
100
AcDbCircle
 10
234.080164121049
 20
509.7528747821076
 30
0.0
 40
13.97693425737732
100
AcDbArc
 50
250.0291692589788
 51
289.9708307409722
  0
LINE
  5
F1D1
330
1F
100
AcDbEntity
  8
FASTENER
100
AcDbLine
 10
241.0470420493259
 20
499.4361324038423
 30
0.0
 11
227.1132861927633
 21
499.4361324038423
 31
0.0
  0
ARC
  5
F1D2
330
1F
100
AcDbEntity
  8
FASTENER
100
AcDbCircle
 10
227.1132861927633
 20
496.1549087354074
 30
0.0
 40
3.281223668430726
100
AcDbArc
 50
48.05625452200557
 51
131.9437454779944
  0
ARC
  5
F1D3
330
1F
100
AcDbEntity
  8
FASTENER
100
AcDbCircle
 10
234.080164121049
 20
485.459033639565
 30
0.0
 40
13.97693425737732
100
AcDbArc
 50
70.02916925902777
 51
109.9708307410212
  0
LINE
  5
F1DF
330
1F
100
AcDbEntity
  8
FASTENER
 48
25.4
100
AcDbLine
 10
244.2951436908128
 20
495.7757760178306
 30
0.0
 11
244.2951436908128
 21
494.8086158862733
 31
0.0
  0
LINE
  5
F1E0
330
1F
100
AcDbEntity
  8
FASTENER
 48
25.4
100
AcDbLine
 10
223.8651845508128
 20
495.7757760178306
 30
0.0
 11
244.2951436908128
 21
495.7757760178306
 31
0.0
  0
LINE
  5
F1E1
330
1F
100
AcDbEntity
  8
FASTENER
 48
25.4
100
AcDbLine
 10
223.8651845508128
 20
494.8086158862733
 30
0.0
 11
223.8651845508128
 21
495.7757760178306
 31
0.0
  0
LINE
  5
F1E2
330
1F
100
AcDbEntity
  8
FASTENER
 48
25.4
100
AcDbLine
 10
244.2951436908128
 20
494.8086158862733
 30
0.0
 11
223.8651845508128
 21
494.8086158862733
 31
0.0
  0
ARC
  5
F1EE
330
1F
100
AcDbEntity
  8
FASTENER
100
AcDbCircle
 10
175.8540666896975
 20
495.6163915957537
 30
0.0
 40
1.968734201058435
100
AcDbArc
 50
48.05625452200557
 51
131.9437454779944
  0
LINE
  5
F1EF
330
1F
100
AcDbEntity
  8
FASTENER
100
AcDbLine
 10
174.5381634806999
 20
497.0807389244169
 30
0.0
 11
174.5381634806999
 21
495.8932988376052
 31
0.0
  0
LINE
  5
F1F0
330
1F
100
AcDbEntity
  8
FASTENER
100
AcDbLine
 10
166.164233968893
 20
497.0807389244169
 30
0.0
 11
166.1642339688929
 21
495.8932988376142
 31
0.0
  0
LINE
  5
F1F1
330
1F
100
AcDbEntity
  8
FASTENER
100
AcDbLine
 10
177.1699698986965
 20
497.0807389244169
 30
0.0
 11
177.1699698986967
 21
495.8932988376052
 31
0.0
  0
ARC
  5
F1F2
330
1F
100
AcDbEntity
  8
FASTENER
100
AcDbCircle
 10
175.8540666896975
 20
497.3576461662659
 30
0.0
 40
1.968734201058435
100
AcDbArc
 50
228.0562545220056
 51
311.9437454779944
  0
LINE
  5
F1F3
330
1F
100
AcDbEntity
  8
FASTENER
100
AcDbLine
 10
175.8540666896975
 20
495.3889119652075
 30
0.0
 11
167.4938131757599
 21
495.3889119652076
 31
0.0
  0
LINE
  5
F1F4
330
1F
100
AcDbEntity
  8
FASTENER
100
AcDbLine
 10
168.8097163847574
 20
497.0807389244169
 30
0.0
 11
168.8097163847574
 21
495.8932988376052
 31
0.0
  0
ARC
  5
F1F5
330
1F
100
AcDbEntity
  8
FASTENER
100
AcDbCircle
 10
167.4938131757599
 20
497.3576461662659
 30
0.0
 40
1.968734201058435
100
AcDbArc
 50
228.0562545220056
 51
311.9437454779944
  0
ARC
  5
F1F6
330
1F
100
AcDbEntity
  8
FASTENER
100
AcDbCircle
 10
171.6739399327313
 20
503.7751712237738
 30
0.0
 40
8.386160554426393
100
AcDbArc
 50
250.0291692589788
 51
289.9708307409722
  0
LINE
  5
F1F7
330
1F
100
AcDbEntity
  8
FASTENER
100
AcDbLine
 10
175.8540666896975
 20
497.5851257968146
 30
0.0
 11
167.4938131757599
 21
497.5851257968146
 31
0.0
  0
ARC
  5
F1F8
330
1F
100
AcDbEntity
  8
FASTENER
100
AcDbCircle
 10
167.4938131757599
 20
495.6163915957537
 30
0.0
 40
1.968734201058435
100
AcDbArc
 50
48.05625452200557
 51
131.9437454779944
  0
ARC
  5
F1F9
330
1F
100
AcDbEntity
  8
FASTENER
100
AcDbCircle
 10
171.6739399327313
 20
489.1988665382482
 30
0.0
 40
8.386160554426393
100
AcDbArc
 50
70.02916925902777
 51
109.9708307410212
  0
LINE
  5
F1FA
330
1F
100
AcDbEntity
  8
FASTENER
 48
25.4
100
AcDbLine
 10
177.8029276745896
 20
495.3889119652076
 30
0.0
 11
177.8029276745896
 21
494.8086158862732
 31
0.0
  0
LINE
  5
F1FB
330
1F
100
AcDbEntity
  8
FASTENER
 48
25.4
100
AcDbLine
 10
165.5449521905896
 20
495.3889119652076
 30
0.0
 11
177.8029276745896
 21
495.3889119652076
 31
0.0
  0
LINE
  5
F1FC
330
1F
100
AcDbEntity
  8
FASTENER
 48
25.4
100
AcDbLine
 10
165.5449521905896
 20
494.8086158862732
 30
0.0
 11
165.5449521905896
 21
495.3889119652076
 31
0.0
  0
LINE
  5
F1FD
330
1F
100
AcDbEntity
  8
FASTENER
 48
25.4
100
AcDbLine
 10
177.8029276745896
 20
494.8086158862732
 30
0.0
 11
165.5449521905896
 21
494.8086158862732
 31
0.0
  0
ARC
  5
F20D
330
1F
100
AcDbEntity
  8
FASTENER
100
AcDbCircle
 10
607.2116479884234
 20
496.1549087354068
 30
0.0
 40
3.281223668430726
100
AcDbArc
 50
48.05625452200557
 51
126.4048619220195
  0
LINE
  5
F20F
330
1F
100
AcDbEntity
  8
FASTENER
100
AcDbLine
 10
591.0619267870826
 20
498.5954876165123
 30
0.0
 11
591.0619267870822
 21
496.6164208051743
 31
0.0
  0
LINE
  5
F210
330
1F
100
AcDbEntity
  8
FASTENER
100
AcDbLine
 10
609.4048200034217
 20
498.5954876165123
 30
0.0
 11
609.4048200034221
 21
496.6164208051592
 31
0.0
  0
ARC
  5
F211
330
1F
100
AcDbEntity
  8
FASTENER
100
AcDbCircle
 10
607.2116479884234
 20
499.0569996862606
 30
0.0
 40
3.281223668430726
100
AcDbArc
 50
233.5951380779805
 51
311.9437454779944
  0
LINE
  5
F212
330
1F
100
AcDbEntity
  8
FASTENER
100
AcDbLine
 10
607.2116479884234
 20
495.7757760178298
 30
0.0
 11
605.264283790171
 21
495.7757760178298
 31
0.0
  0
LINE
  5
F213
330
1F
100
AcDbEntity
  8
FASTENER
100
AcDbLine
 10
595.4710641468564
 20
498.5954876165123
 30
0.0
 11
595.4710641468564
 21
496.6164208051592
 31
0.0
  0
ARC
  5
F214
330
1F
100
AcDbEntity
  8
FASTENER
100
AcDbCircle
 10
593.2778921318607
 20
499.0569996862606
 30
0.0
 40
3.281223668430726
100
AcDbArc
 50
228.0562545220056
 51
311.9437454779944
  0
ARC
  5
F215
330
1F
100
AcDbEntity
  8
FASTENER
100
AcDbCircle
 10
600.2447700601464
 20
509.752874782107
 30
0.0
 40
13.97693425737732
100
AcDbArc
 50
250.0291692589788
 51
261.3898812981408
  0
LINE
  5
F216
330
1F
100
AcDbEntity
  8
FASTENER
100
AcDbLine
 10
607.2116479884234
 20
499.4361324038417
 30
0.0
 11
605.264283790171
 21
499.4361324038417
 31
0.0
  0
ARC
  5
F217
330
1F
100
AcDbEntity
  8
FASTENER
100
AcDbCircle
 10
593.2778921318607
 20
496.1549087354068
 30
0.0
 40
3.281223668430726
100
AcDbArc
 50
48.05625452200557
 51
131.9437454779944
  0
ARC
  5
F218
330
1F
100
AcDbEntity
  8
FASTENER
100
AcDbCircle
 10
600.2447700601464
 20
485.4590336395644
 30
0.0
 40
13.97693425737732
100
AcDbArc
 50
98.61011870185919
 51
109.9708307410212
  0
LINE
  5
F219
330
1F
100
AcDbEntity
  8
FASTENER
 48
25.4
100
AcDbLine
 10
610.4597496299102
 20
495.7757760178299
 30
0.0
 11
610.4597496299102
 21
494.8086158862727
 31
0.0
  0
LINE
  5
F21A
330
1F
100
AcDbEntity
  8
FASTENER
 48
25.4
100
AcDbLine
 10
590.0297904899103
 20
495.7757760178299
 30
0.0
 11
598.152283790171
 21
495.7757760178298
 31
0.0
  0
LINE
  5
F21B
330
1F
100
AcDbEntity
  8
FASTENER
 48
25.4
100
AcDbLine
 10
590.0297904899103
 20
494.8086158862727
 30
0.0
 11
590.0297904899103
 21
495.7757760178299
 31
0.0
  0
LINE
  5
F21C
330
1F
100
AcDbEntity
  8
FASTENER
 48
25.4
100
AcDbLine
 10
610.4597496299102
 20
494.8086158862727
 30
0.0
 11
590.0297904899103
 21
494.8086158862727
 31
0.0
  0
LWPOLYLINE
  5
F21E
330
1F
100
AcDbEntity
  8
CONNECTOR
100
AcDbPolyline
 90
        4
 70
     0
 43
0.0
 10
594.9782095893525
 20
502.1906178862724
 10
594.9782095893525
 20
513.8746178862724
 10
604.6302095893525
 20
513.8746178862724
 10
604.6302095893525
 20
503.5515738662565
  0
LINE
  5
F228
330
1F
100
AcDbEntity
  8
CONNECTOR
100
AcDbLine
 10
594.2670095893524
 20
502.1906178862724
 30
0.0
 11
598.152283790171
 21
502.1906178862724
 31
0.0
  0
LINE
  5
F229
330
1F
100
AcDbEntity
  8
CONNECTOR
  6
Continuous
100
AcDbLine
 10
606.1542095893525
 20
501.4286178862723
 30
0.0
 11
605.264283790171
 21
501.4286178862723
 31
0.0
  0
LINE
  5
F22A
330
1F
100
AcDbEntity
  8
CONNECTOR
100
AcDbLine
 10
606.1542095893525
 20
499.4361324038417
 30
0.0
 11
606.1542095893525
 21
501.4286178862723
 31
0.0
  0
LINE
  5
F22B
330
1F
100
AcDbEntity
  8
CONNECTOR
  6
Continuous
100
AcDbLine
 10
605.3922095893526
 20
502.1906178862724
 30
0.0
 11
605.3922095893526
 21
499.4361324038417
 31
0.0
  0
LINE
  5
F22C
330
1F
100
AcDbEntity
  8
CONNECTOR
100
AcDbLine
 10
605.3922095893526
 20
502.1906178862724
 30
0.0
 11
606.1542095893525
 21
501.4286178862723
 31
0.0
  0
LINE
  5
F235
330
1F
100
AcDbEntity
  8
CONNECTOR
100
AcDbLine
 10
594.2670095893524
 20
499.4361324038416
 30
0.0
 11
594.2670095893524
 21
502.1906178862724
 31
0.0
  0
LINE
  5
F238
330
1F
100
AcDbEntity
  8
CONNECTOR
100
AcDbLine
 10
594.9782095893525
 20
509.8106178862724
 30
0.0
 11
594.2670095893524
 21
509.8106178862724
 31
0.0
  0
LINE
  5
F239
330
1F
100
AcDbEntity
  8
CONNECTOR
100
AcDbLine
 10
594.9782095893525
 20
507.7786178862725
 30
0.0
 11
594.2670095893524
 21
507.7786178862725
 31
0.0
  0
LINE
  5
F23A
330
1F
100
AcDbEntity
  8
CONNECTOR
100
AcDbLine
 10
594.2670095893524
 20
507.7786178862725
 30
0.0
 11
594.2670095893524
 21
509.8106178862724
 31
0.0
  0
LINE
  5
F23B
330
1F
100
AcDbEntity
  8
CONNECTOR
100
AcDbLine
 10
604.6302095893525
 20
509.8106178862724
 30
0.0
 11
605.3414095893526
 21
509.8106178862724
 31
0.0
  0
LINE
  5
F23C
330
1F
100
AcDbEntity
  8
CONNECTOR
100
AcDbLine
 10
604.6302095893525
 20
507.7786178862725
 30
0.0
 11
605.3414095893526
 21
507.7786178862725
 31
0.0
  0
LINE
  5
F23D
330
1F
100
AcDbEntity
  8
CONNECTOR
100
AcDbLine
 10
605.3414095893526
 20
507.7786178862725
 30
0.0
 11
605.3414095893526
 21
509.8106178862724
 31
0.0
  0
CIRCLE
  5
F23F
330
1F
100
AcDbEntity
  8
CONNECTOR
100
AcDbCircle
 10
601.708283790171
 20
499.4875738662564
 30
0.0
 40
0.7620000000000289
  0
LINE
  5
F241
330
1F
100
AcDbEntity
  8
FASTENER
 48
25.4
100
AcDbLine
 10
605.2642837901711
 20
495.77577601783
 30
0.0
 11
610.4597496299102
 21
495.7757760178299
 31
0.0
  0
LINE
  5
F242
330
1F
100
AcDbEntity
  8
FASTENER
100
AcDbLine
 10
598.1522837901709
 20
495.7757760178298
 30
0.0
 11
593.2778921318607
 21
495.7757760178299
 31
0.0
  0
LINE
  5
F243
330
1F
100
AcDbEntity
  8
CONNECTOR
  6
Continuous
100
AcDbLine
 10
598.152283790171
 20
501.4286178862724
 30
0.0
 11
594.2670095893525
 21
501.4286178862724
 31
0.0
  0
LINE
  5
F244
330
1F
100
AcDbEntity
  8
CONNECTOR
100
AcDbLine
 10
605.2642837901711
 20
502.1906178862724
 30
0.0
 11
605.3922095893526
 21
502.1906178862724
 31
0.0
  0
LINE
  5
F245
330
1F
100
AcDbEntity
  8
FASTENER
100
AcDbLine
 10
598.1522837901709
 20
499.4361324038416
 30
0.0
 11
593.2778921318607
 21
499.4361324038417
 31
0.0
  0
LINE
  5
F246
330
1F
100
AcDbEntity
  8
MOTOR
100
AcDbLine
 10
581.0759697381666
 20
494.8086158862725
 30
0.0
 11
621.0774454405414
 21
494.8086158862725
 31
0.0
  0
LINE
  5
F247
330
1F
100
AcDbEntity
  8
MOTOR
100
AcDbLine
 10
581.0759697381664
 20
509.7946158862724
 30
0.0
 11
594.2670095893524
 21
509.7946158862725
 31
0.0
  0
LINE
  5
F249
330
1F
100
AcDbEntity
  8
MOTOR
100
AcDbLine
 10
581.0759697381664
 20
509.7946158862724
 30
0.0
 11
581.0759697381666
 21
494.8086158862725
 31
0.0
  0
LINE
  5
F24A
330
1F
100
AcDbEntity
  8
MOTOR
100
AcDbLine
 10
621.0774454405414
 20
494.8086158862725
 30
0.0
 11
621.0774454405414
 21
509.7946158862725
 31
0.0
  0
LINE
  5
F24B
330
1F
100
AcDbEntity
  8
MOTOR
100
AcDbLine
 10
605.3414095893526
 20
509.7946158862725
 30
0.0
 11
621.0774454405414
 21
509.7946158862725
 31
0.0
  0
INSERT
  5
F271
330
1F
100
AcDbEntity
  8
FASTENER
100
AcDbBlockReference
  2
m4pant
 10
106.1308026502497
 20
161.2891558862731
 30
0.0
 41
0.999998
 42
0.999998
 43
0.999998
  0
INSERT
  5
F272
330
1F
100
AcDbEntity
  8
FASTENER
100
AcDbBlockReference
  2
m4pant
 10
106.1308026502497
 20
133.3440758862731
 30
0.0
 41
0.999998
 42
0.999998
 43
0.999998
  0
INSERT
  5
F273
330
1F
100
AcDbEntity
  8
FASTENER
100
AcDbBlockReference
  2
m4pant
 10
523.7084046502559
 20
133.3440758862731
 30
0.0
 41
0.999998
 42
0.999998
 43
0.999998
  0
INSERT
  5
F274
330
1F
100
AcDbEntity
  8
FASTENER
100
AcDbBlockReference
  2
m4pant
 10
523.7084046502559
 20
161.2891558862731
 30
0.0
 41
0.999998
 42
0.999998
 43
0.999998
  0
LINE
  5
F275
330
1F
100
AcDbEntity
  8
Base
100
AcDbLine
 10
621.194582546121
 20
285.4933758862747
 30
0.0
 11
621.194582546121
 21
286.7633758862747
 31
0.0
  0
LINE
  5
F276
330
1F
100
AcDbEntity
  8
Base
100
AcDbLine
 10
92.41960365025647
 20
642.7941391915882
 30
0.0
 11
537.4196036502565
 21
642.7941391915879
 31
0.0
  0
LINE
  5
F277
330
1F
100
AcDbEntity
  8
Top Panel
100
AcDbLine
 10
92.41960365025637
 20
685.3932812412246
 30
0.0
 11
537.4196036502565
 21
685.3932812412254
 31
0.0
  0
LINE
  5
F279
330
1F
100
AcDbEntity
  8
Base
100
AcDbLine
 10
90.91960365025659
 20
684.3932832412244
 30
0.0
 11
90.91960365025659
 21
644.7306277663027
 31
0.0
  0
ARC
  5
F27A
330
1F
100
AcDbEntity
  8
Base
100
AcDbCircle
 10
92.91959965025649
 20
644.7306277663027
 30
0.0
 40
0.999998
100
AcDbArc
 50
180.0
 51
245.7049409895219
  0
ARC
  5
F27B
330
1F
100
AcDbEntity
  8
Base
100
AcDbCircle
 10
92.91959965025649
 20
644.7306277663027
 30
0.0
 40
1.999996
100
AcDbArc
 50
180.0
 51
255.5225765764704
  0
LINE
  5
F27C
330
1F
100
AcDbEntity
  8
Base
100
AcDbLine
 10
92.45160811824893
 20
644.7306292983088
 30
0.0
 11
90.91960365025659
 21
644.7306277663027
 31
0.0
  0
LINE
  5
F27D
330
1F
100
AcDbEntity
  8
Rear Panel
100
AcDbLine
 10
92.4196036502566
 20
643.7941371915886
 30
0.0
 11
92.41960365025647
 21
644.7941351915905
 31
0.0
  0
LINE
  5
F27F
330
1F
100
AcDbEntity
  8
Base
100
AcDbLine
 10
92.41960365025637
 20
684.3932832412244
 30
0.0
 11
90.91960365025659
 21
684.3932832412244
 31
0.0
  0
LINE
  5
F280
330
1F
100
AcDbEntity
  8
Top Panel
100
AcDbLine
 10
92.41960365025637
 20
684.3932832412244
 30
0.0
 11
92.41960365025637
 21
685.3932812412246
 31
0.0
  0
LINE
  5
F281
330
1F
100
AcDbEntity
  8
Base
100
AcDbLine
 10
538.9196036502564
 20
684.3932832412244
 30
0.0
 11
538.9196036502564
 21
644.7306277663027
 31
0.0
  0
ARC
  5
F282
330
1F
100
AcDbEntity
  8
Base
100
AcDbCircle
 10
536.9196076502565
 20
644.7306277663027
 30
0.0
 40
0.999998
100
AcDbArc
 50
294.295059010478
 51
0.000000000000007
  0
ARC
  5
F283
330
1F
100
AcDbEntity
  8
Base
100
AcDbCircle
 10
536.9196076502565
 20
644.7306277663027
 30
0.0
 40
1.999996
100
AcDbArc
 50
284.4774234235296
 51
0.000000000000007
  0
LINE
  5
F284
330
1F
100
AcDbEntity
  8
Base
100
AcDbLine
 10
537.3875991822641
 20
644.7306292983088
 30
0.0
 11
538.9196036502564
 21
644.7306277663027
 31
0.0
  0
LINE
  5
F285
330
1F
100
AcDbEntity
  8
Rear Panel
100
AcDbLine
 10
537.4196036502564
 20
643.7941371915886
 30
0.0
 11
537.4196036502565
 21
644.7941351915905
 31
0.0
  0
LINE
  5
F286
330
1F
100
AcDbEntity
  8
Base
100
AcDbLine
 10
537.4196036502566
 20
684.3932832412244
 30
0.0
 11
538.9196036502564
 21
684.3932832412244
 31
0.0
  0
LINE
  5
F287
330
1F
100
AcDbEntity
  8
Top Panel
100
AcDbLine
 10
537.4196036502566
 20
684.3932832412244
 30
0.0
 11
537.4196036502566
 21
685.3932812412246
 31
0.0
  0
ARC
  5
F30F
330
1F
100
AcDbEntity
  8
Front Panel
100
AcDbCircle
 10
84.0336036502515
 20
648.2191391915886
 30
0.0
 40
3.174999999999999
100
AcDbArc
 50
270.0
 51
89.99999999999998
  0
ARC
  5
F310
330
1F
100
AcDbEntity
  8
Front Panel
100
AcDbCircle
 10
80.98560365025139
 20
648.2191391915886
 30
0.0
 40
3.174999999999999
100
AcDbArc
 50
89.99999999999998
 51
270.0
  0
ARC
  5
F311
330
1F
100
AcDbEntity
  8
Front Panel
100
AcDbCircle
 10
80.98560365025354
 20
648.2191391915843
 30
0.0
 40
3.174999999999999
100
AcDbArc
 50
89.99999999999998
 51
270.0
  0
ARC
  5
F312
330
1F
100
AcDbEntity
  8
Front Panel
100
AcDbCircle
 10
84.03360365025367
 20
648.2191391915843
 30
0.0
 40
3.174999999999999
100
AcDbArc
 50
270.0
 51
89.99999999999998
  0
LINE
  5
F313
330
1F
100
AcDbEntity
  8
Front Panel
100
AcDbLine
 10
73.61960365025379
 20
685.9191391915883
 30
0.0
 11
73.61960365025641
 21
642.2691391915885
 31
0.0
  0
LINE
  5
F314
330
1F
100
AcDbEntity
  8
Front Panel
100
AcDbLine
 10
84.0336036502515
 20
645.0441391915886
 30
0.0
 11
80.98560365025139
 21
645.0441391915886
 31
0.0
  0
LINE
  5
F315
330
1F
100
AcDbEntity
  8
Front Panel
100
AcDbLine
 10
84.03360365025367
 20
645.0441391915842
 30
0.0
 11
80.98560365025354
 21
645.0441391915842
 31
0.0
  0
ARC
  5
F316
330
1F
100
AcDbEntity
  8
Front Panel
100
AcDbCircle
 10
84.0336036502515
 20
679.9691391915886
 30
0.0
 40
3.174999999999999
100
AcDbArc
 50
270.0
 51
89.99999999999998
  0
ARC
  5
F317
330
1F
100
AcDbEntity
  8
Front Panel
100
AcDbCircle
 10
80.98560365025139
 20
679.9691391915886
 30
0.0
 40
3.174999999999999
100
AcDbArc
 50
89.99999999999998
 51
270.0
  0
ARC
  5
F318
330
1F
100
AcDbEntity
  8
Front Panel
100
AcDbCircle
 10
80.98560365025354
 20
679.9691391915843
 30
0.0
 40
3.174999999999999
100
AcDbArc
 50
89.99999999999998
 51
270.0
  0
ARC
  5
F319
330
1F
100
AcDbEntity
  8
Front Panel
100
AcDbCircle
 10
84.03360365025367
 20
679.9691391915843
 30
0.0
 40
3.174999999999999
100
AcDbArc
 50
270.0
 51
89.99999999999998
  0
LINE
  5
F31A
330
1F
100
AcDbEntity
  8
Front Panel
100
AcDbLine
 10
84.0336036502515
 20
651.3941391915885
 30
0.0
 11
80.98560365025139
 21
651.3941391915885
 31
0.0
  0
LINE
  5
F31B
330
1F
100
AcDbEntity
  8
Front Panel
100
AcDbLine
 10
84.03360365025367
 20
651.3941391915842
 30
0.0
 11
80.98560365025354
 21
651.3941391915842
 31
0.0
  0
LINE
  5
F31C
330
1F
100
AcDbEntity
  8
Front Panel
100
AcDbLine
 10
84.0336036502515
 20
676.7941391915885
 30
0.0
 11
80.98560365025139
 21
676.7941391915885
 31
0.0
  0
LINE
  5
F31D
330
1F
100
AcDbEntity
  8
Front Panel
100
AcDbLine
 10
84.03360365025367
 20
676.7941391915842
 30
0.0
 11
80.98560365025354
 21
676.7941391915842
 31
0.0
  0
LINE
  5
F31E
330
1F
100
AcDbEntity
  8
Front Panel
100
AcDbLine
 10
84.0336036502515
 20
683.1441391915886
 30
0.0
 11
80.98560365025139
 21
683.1441391915886
 31
0.0
  0
LINE
  5
F31F
330
1F
100
AcDbEntity
  8
Front Panel
100
AcDbLine
 10
84.03360365025367
 20
683.1441391915842
 30
0.0
 11
80.98560365025354
 21
683.1441391915842
 31
0.0
  0
LINE
  5
F320
330
1F
100
AcDbEntity
  8
Front Panel
100
AcDbLine
 10
556.2196036502564
 20
685.9191391915883
 30
0.0
 11
73.61960365025379
 21
685.9191391915883
 31
0.0
  0
LINE
  5
F321
330
1F
100
AcDbEntity
  8
Front Panel
100
AcDbLine
 10
556.219603650253
 20
642.2691391915862
 30
0.0
 11
73.61960365025641
 21
642.2691391915885
 31
0.0
  0
ARC
  5
F322
330
1F
100
AcDbEntity
  8
Front Panel
100
AcDbCircle
 10
545.8056036502577
 20
648.2191391915882
 30
0.0
 40
3.174999999999999
100
AcDbArc
 50
89.99999999999909
 51
269.9999999999991
  0
ARC
  5
F323
330
1F
100
AcDbEntity
  8
Front Panel
100
AcDbCircle
 10
548.8536036502579
 20
648.2191391915882
 30
0.0
 40
3.174999999999999
100
AcDbArc
 50
269.9999999999991
 51
89.99999999999909
  0
ARC
  5
F324
330
1F
100
AcDbEntity
  8
Front Panel
100
AcDbCircle
 10
548.8536036502558
 20
648.219139191584
 30
0.0
 40
3.174999999999999
100
AcDbArc
 50
269.9999999999991
 51
89.99999999999909
  0
ARC
  5
F325
330
1F
100
AcDbEntity
  8
Front Panel
100
AcDbCircle
 10
545.8056036502556
 20
648.219139191584
 30
0.0
 40
3.174999999999999
100
AcDbArc
 50
89.99999999999909
 51
269.9999999999991
  0
LINE
  5
F326
330
1F
100
AcDbEntity
  8
Front Panel
100
AcDbLine
 10
545.8056036502577
 20
645.0441391915882
 30
0.0
 11
548.8536036502579
 21
645.0441391915882
 31
0.0
  0
LINE
  5
F327
330
1F
100
AcDbEntity
  8
Front Panel
100
AcDbLine
 10
545.8056036502556
 20
645.0441391915841
 30
0.0
 11
548.8536036502558
 21
645.0441391915841
 31
0.0
  0
LINE
  5
F328
330
1F
100
AcDbEntity
  8
Front Panel
100
AcDbLine
 10
545.8056036502577
 20
651.3941391915882
 30
0.0
 11
548.8536036502579
 21
651.3941391915882
 31
0.0
  0
LINE
  5
F329
330
1F
100
AcDbEntity
  8
Front Panel
100
AcDbLine
 10
545.8056036502556
 20
651.394139191584
 30
0.0
 11
548.8536036502558
 21
651.394139191584
 31
0.0
  0
ARC
  5
F32A
330
1F
100
AcDbEntity
  8
Front Panel
100
AcDbCircle
 10
545.8056036502582
 20
679.9691391915882
 30
0.0
 40
3.174999999999999
100
AcDbArc
 50
89.99999999999909
 51
269.9999999999991
  0
ARC
  5
F32B
330
1F
100
AcDbEntity
  8
Front Panel
100
AcDbCircle
 10
548.8536036502584
 20
679.9691391915882
 30
0.0
 40
3.174999999999999
100
AcDbArc
 50
269.9999999999991
 51
89.99999999999909
  0
ARC
  5
F32C
330
1F
100
AcDbEntity
  8
Front Panel
100
AcDbCircle
 10
548.8536036502562
 20
679.9691391915841
 30
0.0
 40
3.174999999999999
100
AcDbArc
 50
269.9999999999991
 51
89.99999999999909
  0
ARC
  5
F32D
330
1F
100
AcDbEntity
  8
Front Panel
100
AcDbCircle
 10
545.8056036502561
 20
679.9691391915841
 30
0.0
 40
3.174999999999999
100
AcDbArc
 50
89.99999999999909
 51
269.9999999999991
  0
LINE
  5
F32E
330
1F
100
AcDbEntity
  8
Front Panel
100
AcDbLine
 10
545.8056036502582
 20
676.7941391915882
 30
0.0
 11
548.8536036502584
 21
676.7941391915882
 31
0.0
  0
LINE
  5
F32F
330
1F
100
AcDbEntity
  8
Front Panel
100
AcDbLine
 10
545.8056036502582
 20
683.1441391915882
 30
0.0
 11
548.8536036502584
 21
683.1441391915882
 31
0.0
  0
LINE
  5
F330
330
1F
100
AcDbEntity
  8
Front Panel
100
AcDbLine
 10
545.8056036502561
 20
683.144139191584
 30
0.0
 11
548.8536036502562
 21
683.144139191584
 31
0.0
  0
LINE
  5
F331
330
1F
100
AcDbEntity
  8
Front Panel
100
AcDbLine
 10
545.8056036502561
 20
676.7941391915841
 30
0.0
 11
548.8536036502562
 21
676.7941391915841
 31
0.0
  0
LINE
  5
F332
330
1F
100
AcDbEntity
  8
Front Panel
100
AcDbLine
 10
556.2196036502564
 20
685.9191391915883
 30
0.0
 11
556.219603650253
 21
642.269139191586
 31
0.0
  0
LEADER
  5
F46C
330
1F
100
AcDbEntity
  8
DIM
100
AcDbLeader
  3
METRIC
 73
     0
 40
13.810022737608
 41
34.74914051841746
 76
     3
 10
459.8417370130191
 20
670.4727201285982
 30
0.0
 10
473.142815300386
 20
713.7754508767677
 30
0.0
 10
479.928801728386
 20
713.7754508767677
 30
0.0
211
-1.0
221
0.0
231
0.0
213
0.0
223
2.53999492
233
0.0
1001
ACAD
1000
DSTYLE
1002
{
1070
   141
1040
0.0
1070
   179
1070
     2
1070
   271
1070
     2
1070
   272
1070
     2
1002
}
  0
MTEXT
  5
F46D
102
{ACAD_REACTORS
330
F46C
102
}
330
1F
100
AcDbEntity
  8
DIM
100
AcDbMText
 10
482.428796728386
 20
711.2354559567675
 30
0.0
 40
5.07998984
 41
0.0
 71
     4
 72
     1
  1
+24VDC\PPOWER IN
  7
ARIAL
 73
     1
 44
1.0
1001
ACAD
1000
MTEXTBEGIN
1070
    73
1070
     1
1070
    44
1040
1.0
1070
    74
1070
     0
1000
MTEXTEND
  0
LEADER
  5
F46E
330
1F
100
AcDbEntity
  8
DIM
100
AcDbLeader
  3
METRIC
 73
     0
 40
5.253260572987721
 41
13.65639836289222
 76
     3
 10
275.701245159852
 20
669.3676448513525
 30
0.0
 10
259.6716383777808
 20
704.8845028206556
 30
0.0
 10
253.8856499497809
 20
704.8845028206556
 30
0.0
213
0.0
223
2.53999492
233
0.0
1001
ACAD
1000
DSTYLE
1002
{
1070
   141
1040
0.0
1070
   179
1070
     2
1070
   271
1070
     2
1070
   272
1070
     2
1002
}
  0
MTEXT
  5
F46F
102
{ACAD_REACTORS
330
F46E
102
}
330
1F
100
AcDbEntity
  8
DIM
100
AcDbMText
 10
251.3856549497809
 20
702.3445079006554
 30
0.0
 40
5.07998984
 41
0.0
 71
     9
 72
     1
  1
\A1;USB
  7
ARIAL
 73
     1
 44
1.0
1001
ACAD
1000
MTEXTBEGIN
1070
    73
1070
     1
1070
    44
1040
1.0
1070
    74
1070
     0
1000
MTEXTEND
  0
LEADER
  5
F470
330
1F
100
AcDbEntity
  8
DIM
100
AcDbLeader
  3
METRIC
 73
     0
 40
5.256725784447475
 41
23.13028649386085
 76
     3
 10
307.9631840101618
 20
671.1816528353295
 30
0.0
 10
289.1235004116698
 20
713.6036161207137
 30
0.0
 10
282.3375139836698
 20
713.6036161207137
 30
0.0
213
0.0
223
2.53999492
233
0.0
1001
ACAD
1000
DSTYLE
1002
{
1070
   141
1040
0.0
1070
   179
1070
     2
1070
   271
1070
     2
1070
   272
1070
     2
1002
}
  0
MTEXT
  5
F471
102
{ACAD_REACTORS
330
F470
102
}
330
1F
100
AcDbEntity
  8
DIM
100
AcDbMText
 10
279.8375189836698
 20
711.0636212007137
 30
0.0
 40
5.079989839999998
 41
0.0
 71
     9
 72
     1
  1
RS-232
  7
ARIAL
 73
     1
 44
1.0
1001
ACAD
1000
MTEXTBEGIN
1070
    73
1070
     1
1070
    44
1040
1.0
1070
    74
1070
     0
1000
MTEXTEND
  0
LEADER
  5
F472
330
1F
100
AcDbEntity
  8
DIM
100
AcDbLeader
  3
METRIC
 73
     0
 40
5.256725784447476
 41
55.36021828103684
 76
     3
 10
358.6076112702545
 20
666.9351122734167
 30
0.0
 10
330.8140421561891
 20
735.6092545642172
 30
0.0
 10
326.0280517281892
 20
735.6092545642172
 30
0.0
211
-1.0
221
0.0
231
0.0
213
0.0
223
-2.53999492
233
0.0
1001
ACAD
1000
DSTYLE
1002
{
1070
   141
1040
0.0
1070
   179
1070
     2
1070
   271
1070
     2
1070
   272
1070
     2
1002
}
  0
MTEXT
  5
F473
102
{ACAD_REACTORS
330
F472
102
}
330
1F
100
AcDbEntity
  8
DIM
100
AcDbMText
 10
323.5280567281892
 20
738.1492494842174
 30
0.0
 40
5.07998984
 41
0.0
 71
     3
 72
     1
  1
FIBER-OPTIC TX
  7
ARIAL
 73
     1
 44
1.0
1001
ACAD
1000
MTEXTBEGIN
1070
    73
1070
     1
1070
    44
1040
1.0
1070
    74
1070
     0
1000
MTEXTEND
  0
LEADER
  5
F474
330
1F
100
AcDbEntity
  8
DIM
100
AcDbLeader
  3
METRIC
 73
     0
 40
5.256725784447476
 41
56.15028649386085
 76
     3
 10
346.4054376332787
 20
667.6139358279286
 30
0.0
 10
315.3421626847895
 20
725.0011445123906
 30
0.0
 10
310.5561722567895
 20
725.0011445123906
 30
0.0
211
-1.0
221
0.0
231
0.0
213
0.0
223
-2.53999492
233
0.0
1001
ACAD
1000
DSTYLE
1002
{
1070
   141
1040
0.0
1070
   179
1070
     2
1070
   271
1070
     2
1070
   272
1070
     2
1002
}
  0
MTEXT
  5
F475
102
{ACAD_REACTORS
330
F474
102
}
330
1F
100
AcDbEntity
  8
DIM
100
AcDbMText
 10
308.0561772567896
 20
727.5411394323905
 30
0.0
 40
5.07998984
 41
0.0
 71
     3
 72
     1
  1
FIBER-OPTIC RX
  7
ARIAL
 73
     1
 44
1.0
1001
ACAD
1000
MTEXTBEGIN
1070
    73
1070
     1
1070
    44
1040
1.0
1070
    74
1070
     0
1000
MTEXTEND
  0
LEADER
  5
F476
330
1F
100
AcDbEntity
  8
DIM
100
AcDbLeader
  3
METRIC
 73
     0
 40
13.81348794906775
 41
37.84357435197818
 76
     3
 10
434.9650915901333
 20
669.582872084825
 30
0.0
 10
449.4517920384878
 20
727.2276522058433
 30
0.0
 10
456.617412721939
 20
727.2276522058433
 30
0.0
211
-1.0
221
0.0
231
0.0
213
0.0
223
2.539994919999999
233
0.0
1001
ACAD
1000
DSTYLE
1002
{
1070
   141
1040
0.0
1070
   179
1070
     2
1070
   271
1070
     2
1070
   272
1070
     2
1002
}
  0
MTEXT
  5
F477
102
{ACAD_REACTORS
330
F476
102
}
330
1F
100
AcDbEntity
  8
DIM
100
AcDbMText
 10
458.9282531062642
 20
727.4106105420385
 30
0.0
 40
5.07998984
 41
0.0
 71
     4
 72
     1
  1
COMMS SELECTOR
  7
ARIAL
 73
     1
 44
1.0
1001
ACAD
1000
MTEXTBEGIN
1070
    73
1070
     1
1070
    44
1040
1.0
1070
    74
1070
     0
1000
MTEXTEND
  0
LEADER
  5
F478
330
1F
100
AcDbEntity
  8
DIM
100
AcDbLeader
  3
METRIC
 73
     0
 40
13.810022737608
 41
37.84357435197818
 76
     3
 10
417.0740141341777
 20
668.750594991111
 30
0.0
 10
433.6488506098663
 20
737.8585380080339
 30
0.0
 10
439.4348390378662
 20
737.8585380080339
 30
0.0
213
0.0
223
2.539994919999999
233
0.0
1001
ACAD
1000
DSTYLE
1002
{
1070
   141
1040
0.0
1070
   179
1070
     2
1070
   271
1070
     2
1070
   272
1070
     2
1002
}
  0
MTEXT
  5
F479
102
{ACAD_REACTORS
330
F478
102
}
330
1F
100
AcDbEntity
  8
DIM
100
AcDbMText
 10
441.5965533370224
 20
734.8241808360946
 30
0.0
 40
5.07998984
 41
0.0
 71
     7
 72
     1
  1
ADDRESS SELECTOR
  7
ARIAL
 73
     1
 44
1.0
1001
ACAD
1000
MTEXTBEGIN
1070
    73
1070
     1
1070
    44
1040
1.0
1070
    74
1070
     0
1000
MTEXTEND
  0
MTEXT
  5
F484
330
1F
100
AcDbEntity
  8
DIM
100
AcDbMText
 10
448.3110761197964
 20
657.8131869197971
 30
0.0
 40
2.999994
 41
37.999924
 71
     2
 72
     5
  1
+24V
  7
ARIAL
 73
     1
 44
1.0
1001
ACAD
1000
MTEXTBEGIN
1070
    73
1070
     1
1070
    44
1040
1.0
1070
    74
1070
     0
1000
MTEXTEND
  0
MTEXT
  5
F485
330
1F
100
AcDbEntity
  8
DIM
100
AcDbMText
 10
266.7010761197966
 20
657.8131869197973
 30
0.0
 40
2.999994
 41
37.999924
 71
     2
 72
     5
  1
USB
  7
ARIAL
 73
     1
 44
1.0
1001
ACAD
1000
MTEXTBEGIN
1070
    73
1070
     1
1070
    44
1040
1.0
1070
    74
1070
     0
1000
MTEXTEND
  0
MTEXT
  5
F486
330
1F
100
AcDbEntity
  8
DIM
100
AcDbMText
 10
297.9619042829565
 20
657.8131869197973
 30
0.0
 40
2.999994
 41
37.999924
 71
     2
 72
     5
  1
RS-232
  7
ARIAL
 73
     1
 44
1.0
1001
ACAD
1000
MTEXTBEGIN
1070
    73
1070
     1
1070
    44
1040
1.0
1070
    74
1070
     0
1000
MTEXTEND
  0
MTEXT
  5
F487
330
1F
100
AcDbEntity
  8
DIM
100
AcDbMText
 10
334.2870849359579
 20
657.8131869197973
 30
0.0
 40
2.999994
 41
37.999924
 71
     2
 72
     5
  1
Optical
  7
ARIAL
 73
     1
 44
1.0
1001
ACAD
1000
MTEXTBEGIN
1070
    73
1070
     1
1070
    44
1040
1.0
1070
    74
1070
     0
1000
MTEXTEND
  0
MTEXT
  5
F4B2
330
1F
100
AcDbEntity
  8
DIM
100
AcDbMText
 10
433.0715582465158
 20
657.8862738480965
 30
0.0
 40
2.999994
 41
37.999924
 71
     2
 72
     5
  1
Mode
  7
ARIAL
 73
     1
 44
1.0
1001
ACAD
1000
MTEXTBEGIN
1070
    73
1070
     1
1070
    44
1040
1.0
1070
    74
1070
     0
1000
MTEXTEND
  0
MTEXT
  5
F4B3
330
1F
100
AcDbEntity
  8
DIM
100
AcDbMText
 10
415.2915938065158
 20
657.8862738480966
 30
0.0
 40
2.999994
 41
37.999924
 71
     2
 72
     5
  1
Address
  7
ARIAL
 73
     1
 44
1.0
1001
ACAD
1000
MTEXTBEGIN
1070
    73
1070
     1
1070
    44
1040
1.0
1070
    74
1070
     0
1000
MTEXTEND
  0
MTEXT
  5
F4B6
330
1F
100
AcDbEntity
  8
SWITCH
100
AcDbMText
 10
437.1606472128046
 20
663.8233664082522
 30
0.0
 40
1.015997967999999
 41
2.185157486336286
 71
     8
 72
     5
  1
0
  7
THIN
 11
-0.0000000000000003
 21
1.0
 31
0.0
 73
     1
 44
1.0
1001
ACAD
1000
MTEXTBEGIN
1070
    73
1070
     1
1070
    44
1040
1.0
1070
    74
1070
     0
1000
MTEXTEND
  0
MTEXT
  5
F4B7
330
1F
100
AcDbEntity
  8
SWITCH
100
AcDbMText
 10
436.8193860528236
 20
662.2480079658624
 30
0.0
 40
1.015997967999999
 41
2.185157486336286
 71
     2
 72
     5
  1
F
  7
THIN
 11
-0.3826834323650894
 21
-0.9238795325112871
 31
0.0
 73
     1
 44
1.0
1001
ACAD
1000
MTEXTBEGIN
1070
    73
1070
     1
1070
    44
1040
1.0
1070
    74
1070
     0
1000
MTEXTEND
  0
MTEXT
  5
F4B8
330
1F
100
AcDbEntity
  8
SWITCH
100
AcDbMText
 10
435.9012382759373
 20
660.923161536604
 30
0.0
 40
1.015997967999999
 41
2.185157486336286
 71
     2
 72
     5
  1
E
  7
THIN
 11
-0.7071067811865472
 21
-0.7071067811865479
 31
0.0
 73
     1
 44
1.0
1001
ACAD
1000
MTEXTBEGIN
1070
    73
1070
     1
1070
    44
1040
1.0
1070
    74
1070
     0
1000
MTEXTEND
  0
MTEXT
  5
F4B9
330
1F
100
AcDbEntity
  8
SWITCH
100
AcDbMText
 10
434.5459835581459
 20
660.0505229795686
 30
0.0
 40
1.015997967999999
 41
2.185157486336286
 71
     2
 72
     5
  1
D
  7
THIN
 11
-0.9238795325112864
 21
-0.3826834323650908
 31
0.0
 73
     1
 44
1.0
1001
ACAD
1000
MTEXTBEGIN
1070
    73
1070
     1
1070
    44
1040
1.0
1070
    74
1070
     0
1000
MTEXTEND
  0
MTEXT
  5
F4BA
330
1F
100
AcDbEntity
  8
SWITCH
100
AcDbMText
 10
432.9599471448188
 20
659.762943604577
 30
0.0
 40
1.015997967999999
 41
2.185157486336286
 71
     2
 72
     5
  1
C
  7
THIN
 11
-1.0
 21
-0.0000000000000006
 31
0.0
 73
     1
 44
1.0
1001
ACAD
1000
MTEXTBEGIN
1070
    73
1070
     1
1070
    44
1040
1.0
1070
    74
1070
     0
1000
MTEXTEND
  0
MTEXT
  5
F4BB
330
1F
100
AcDbEntity
  8
SWITCH
100
AcDbMText
 10
431.3845887024289
 20
660.104204764558
 30
0.0
 40
1.015997967999999
 41
2.185157486336286
 71
     2
 72
     5
  1
B
  7
THIN
 11
-0.9238795325112873
 21
0.3826834323650888
 31
0.0
 73
     1
 44
1.0
1001
ACAD
1000
MTEXTBEGIN
1070
    73
1070
     1
1070
    44
1040
1.0
1070
    74
1070
     0
1000
MTEXTEND
  0
MTEXT
  5
F4BC
330
1F
100
AcDbEntity
  8
SWITCH
100
AcDbMText
 10
430.05974227317
 20
661.0223525414444
 30
0.0
 40
1.015997967999999
 41
2.185157486336286
 71
     2
 72
     5
  1
A
  7
THIN
 11
-0.7071067811865479
 21
0.7071067811865472
 31
0.0
 73
     1
 44
1.0
1001
ACAD
1000
MTEXTBEGIN
1070
    73
1070
     1
1070
    44
1040
1.0
1070
    74
1070
     0
1000
MTEXTEND
  0
MTEXT
  5
F4BD
330
1F
100
AcDbEntity
  8
SWITCH
100
AcDbMText
 10
429.1871037161354
 20
662.377607259236
 30
0.0
 40
1.015997967999999
 41
2.185157486336286
 71
     2
 72
     5
  1
9
  7
THIN
 11
-0.3826834323650907
 21
0.9238795325112864
 31
0.0
 73
     1
 44
1.0
1001
ACAD
1000
MTEXTBEGIN
1070
    73
1070
     1
1070
    44
1040
1.0
1070
    74
1070
     0
1000
MTEXTEND
  0
MTEXT
  5
F4BE
330
1F
100
AcDbEntity
  8
SWITCH
100
AcDbMText
 10
428.8995243411436
 20
663.9636436725631
 30
0.0
 40
1.015997967999999
 41
2.185157486336286
 71
     8
 72
     5
  1
8
  7
THIN
 11
0.0000000000000002
 21
-1.0
 31
0.0
 73
     1
 44
1.0
1001
ACAD
1000
MTEXTBEGIN
1070
    73
1070
     1
1070
    44
1040
1.0
1070
    74
1070
     0
1000
MTEXTEND
  0
MTEXT
  5
F4BF
330
1F
100
AcDbEntity
  8
SWITCH
100
AcDbMText
 10
429.2407855011246
 20
665.5390021149531
 30
0.0
 40
1.015997967999999
 41
2.185157486336286
 71
     2
 72
     5
  1
7
  7
THIN
 11
0.3826834323650895
 21
0.9238795325112871
 31
0.0
 73
     1
 44
1.0
1001
ACAD
1000
MTEXTBEGIN
1070
    73
1070
     1
1070
    44
1040
1.0
1070
    74
1070
     0
1000
MTEXTEND
  0
MTEXT
  5
F4C0
330
1F
100
AcDbEntity
  8
SWITCH
100
AcDbMText
 10
430.158933278011
 20
666.8638485442113
 30
0.0
 40
1.015997967999999
 41
2.185157486336286
 71
     2
 72
     5
  1
6
  7
THIN
 11
0.7071067811865472
 21
0.7071067811865479
 31
0.0
 73
     1
 44
1.0
1001
ACAD
1000
MTEXTBEGIN
1070
    73
1070
     1
1070
    44
1040
1.0
1070
    74
1070
     0
1000
MTEXTEND
  0
MTEXT
  5
F4C1
330
1F
100
AcDbEntity
  8
SWITCH
100
AcDbMText
 10
431.514187995802
 20
667.7364871012465
 30
0.0
 40
1.015997967999999
 41
2.185157486336286
 71
     2
 72
     5
  1
5
  7
THIN
 11
0.9238795325112864
 21
0.3826834323650908
 31
0.0
 73
     1
 44
1.0
1001
ACAD
1000
MTEXTBEGIN
1070
    73
1070
     1
1070
    44
1040
1.0
1070
    74
1070
     0
1000
MTEXTEND
  0
MTEXT
  5
F4C2
330
1F
100
AcDbEntity
  8
SWITCH
100
AcDbMText
 10
433.1002244091294
 20
668.0240664762384
 30
0.0
 40
1.015997967999999
 41
2.185157486336286
 71
     2
 72
     5
  1
4
  7
THIN
 73
     1
 44
1.0
1001
ACAD
1000
MTEXTBEGIN
1070
    73
1070
     1
1070
    44
1040
1.0
1070
    74
1070
     0
1000
MTEXTEND
  0
MTEXT
  5
F4C3
330
1F
100
AcDbEntity
  8
SWITCH
100
AcDbMText
 10
434.6755828515194
 20
667.6828053162576
 30
0.0
 40
1.015997967999999
 41
2.185157486336286
 71
     2
 72
     5
  1
3
  7
THIN
 11
0.9238795325112867
 21
-0.3826834323650896
 31
0.0
 73
     1
 44
1.0
1001
ACAD
1000
MTEXTBEGIN
1070
    73
1070
     1
1070
    44
1040
1.0
1070
    74
1070
     0
1000
MTEXTEND
  0
MTEXT
  5
F4C4
330
1F
100
AcDbEntity
  8
SWITCH
100
AcDbMText
 10
436.0004292807778
 20
666.7646575393706
 30
0.0
 40
1.015997967999999
 41
2.185157486336286
 71
     2
 72
     5
  1
2
  7
THIN
 11
0.7071067811865472
 21
-0.7071067811865479
 31
0.0
 73
     1
 44
1.0
1001
ACAD
1000
MTEXTBEGIN
1070
    73
1070
     1
1070
    44
1040
1.0
1070
    74
1070
     0
1000
MTEXTEND
  0
MTEXT
  5
F4C5
330
1F
100
AcDbEntity
  8
SWITCH
100
AcDbMText
 10
436.8730678378129
 20
665.4094028215794
 30
0.0
 40
1.015997967999999
 41
2.185157486336286
 71
     2
 72
     5
  1
1
  7
THIN
 11
0.3826834323650892
 21
-0.9238795325112869
 31
0.0
 73
     1
 44
1.0
1001
ACAD
1000
MTEXTBEGIN
1070
    73
1070
     1
1070
    44
1040
1.0
1070
    74
1070
     0
1000
MTEXTEND
  0
LINE
  5
F4C6
330
1F
100
AcDbEntity
  8
CENTER
100
AcDbLine
 10
416.3931190509747
 20
663.8935050404077
 30
0.0
 11
414.1071236229747
 21
663.8935050404077
 31
0.0
  0
LINE
  5
F4C7
330
1F
100
AcDbEntity
  8
CENTER
100
AcDbLine
 10
415.2501213369744
 20
662.7505073264077
 30
0.0
 11
415.2501213369744
 21
665.0365027544076
 31
0.0
  0
CIRCLE
  5
F4C8
330
1F
100
AcDbEntity
  8
PANEL
100
AcDbCircle
 10
433.0300857769738
 20
663.8935050404077
 30
0.0
 40
2.1081957836
  0
CIRCLE
  5
F4C9
330
1F
100
AcDbEntity
  8
SWITCH
100
AcDbCircle
 10
433.0300857769741
 20
663.8935050404074
 30
0.0
 40
1.777996443999998
  0
ARC
  5
F4CA
330
1F
100
AcDbEntity
  8
SWITCH
100
AcDbCircle
 10
433.0300857769741
 20
663.8935050404074
 30
0.0
 40
1.523996951999998
100
AcDbArc
 50
279.594068226865
 51
80.40593177314141
  0
ARC
  5
F4CB
330
1F
100
AcDbEntity
  8
SWITCH
100
AcDbCircle
 10
433.0300857769741
 20
663.8935050404074
 30
0.0
 40
1.523996951999998
100
AcDbArc
 50
99.5940682268586
 51
260.4059317731414
  0
LINE
  5
F4CC
330
1F
100
AcDbEntity
  8
SWITCH
100
AcDbLine
 10
434.515982805174
 20
663.8935050404074
 30
0.0
 11
433.4252125640057
 21
664.9842752815762
 31
0.0
  0
LINE
  5
F4CD
330
1F
100
AcDbEntity
  8
SWITCH
100
AcDbLine
 10
434.515982805174
 20
663.8935050404074
 30
0.0
 11
433.4252125640057
 21
662.8027347992392
 31
0.0
  0
LINE
  5
F4CE
330
1F
100
AcDbEntity
  8
SWITCH
100
AcDbLine
 10
433.4252125640057
 20
664.9842752815762
 30
0.0
 11
433.4252125640057
 21
663.8935050404077
 31
0.0
  0
LINE
  5
F4CF
330
1F
100
AcDbEntity
  8
SWITCH
100
AcDbLine
 10
433.4252125640057
 20
663.8935050404074
 30
0.0
 11
433.4252125640057
 21
662.8027347992392
 31
0.0
  0
LINE
  5
F4D0
330
1F
100
AcDbEntity
  8
CENTER
100
AcDbLine
 10
434.1730834909741
 20
663.8935050404074
 30
0.0
 11
431.887088062974
 21
663.8935050404074
 31
0.0
  0
LINE
  5
F4D1
330
1F
100
AcDbEntity
  8
CENTER
100
AcDbLine
 10
433.0300857769741
 20
662.7505073264077
 30
0.0
 11
433.0300857769741
 21
665.0365027544076
 31
0.0
  0
LINE
  5
F4D2
330
1F
100
AcDbEntity
  8
SWITCH
100
AcDbLine
 10
432.7760862849742
 20
662.1337449394448
 30
0.0
 11
432.7760862849742
 21
665.6532651413702
 31
0.0
  0
LINE
  5
F4D3
330
1F
100
AcDbEntity
  8
SWITCH
100
AcDbLine
 10
433.2840852689741
 20
662.1337449394448
 30
0.0
 11
433.284085268974
 21
665.6532651413702
 31
0.0
  0
MTEXT
  5
F4D4
330
1F
100
AcDbEntity
  8
SWITCH
100
AcDbMText
 10
419.3806827728049
 20
663.8233664082523
 30
0.0
 40
1.015997967999999
 41
2.185157486336286
 71
     8
 72
     5
  1
0
  7
THIN
 11
-0.0000000000000003
 21
1.0
 31
0.0
 73
     1
 44
1.0
1001
ACAD
1000
MTEXTBEGIN
1070
    73
1070
     1
1070
    44
1040
1.0
1070
    74
1070
     0
1000
MTEXTEND
  0
MTEXT
  5
F4D5
330
1F
100
AcDbEntity
  8
SWITCH
100
AcDbMText
 10
419.0394216128239
 20
662.2480079658625
 30
0.0
 40
1.015997967999999
 41
2.185157486336286
 71
     2
 72
     5
  1
F
  7
THIN
 11
-0.3826834323650894
 21
-0.9238795325112871
 31
0.0
 73
     1
 44
1.0
1001
ACAD
1000
MTEXTBEGIN
1070
    73
1070
     1
1070
    44
1040
1.0
1070
    74
1070
     0
1000
MTEXTEND
  0
MTEXT
  5
F4D6
330
1F
100
AcDbEntity
  8
SWITCH
100
AcDbMText
 10
418.1212738359376
 20
660.923161536604
 30
0.0
 40
1.015997967999999
 41
2.185157486336286
 71
     2
 72
     5
  1
E
  7
THIN
 11
-0.7071067811865472
 21
-0.7071067811865479
 31
0.0
 73
     1
 44
1.0
1001
ACAD
1000
MTEXTBEGIN
1070
    73
1070
     1
1070
    44
1040
1.0
1070
    74
1070
     0
1000
MTEXTEND
  0
MTEXT
  5
F4D7
330
1F
100
AcDbEntity
  8
SWITCH
100
AcDbMText
 10
416.7660191181461
 20
660.0505229795689
 30
0.0
 40
1.015997967999999
 41
2.185157486336286
 71
     2
 72
     5
  1
D
  7
THIN
 11
-0.9238795325112864
 21
-0.3826834323650908
 31
0.0
 73
     1
 44
1.0
1001
ACAD
1000
MTEXTBEGIN
1070
    73
1070
     1
1070
    44
1040
1.0
1070
    74
1070
     0
1000
MTEXTEND
  0
MTEXT
  5
F4D8
330
1F
100
AcDbEntity
  8
SWITCH
100
AcDbMText
 10
415.1799827048192
 20
659.7629436045772
 30
0.0
 40
1.015997967999999
 41
2.185157486336286
 71
     2
 72
     5
  1
C
  7
THIN
 11
-1.0
 21
-0.0000000000000006
 31
0.0
 73
     1
 44
1.0
1001
ACAD
1000
MTEXTBEGIN
1070
    73
1070
     1
1070
    44
1040
1.0
1070
    74
1070
     0
1000
MTEXTEND
  0
MTEXT
  5
F4D9
330
1F
100
AcDbEntity
  8
SWITCH
100
AcDbMText
 10
413.6046242624291
 20
660.1042047645583
 30
0.0
 40
1.015997967999999
 41
2.185157486336286
 71
     2
 72
     5
  1
B
  7
THIN
 11
-0.9238795325112873
 21
0.3826834323650888
 31
0.0
 73
     1
 44
1.0
1001
ACAD
1000
MTEXTBEGIN
1070
    73
1070
     1
1070
    44
1040
1.0
1070
    74
1070
     0
1000
MTEXTEND
  0
MTEXT
  5
F4DA
330
1F
100
AcDbEntity
  8
SWITCH
100
AcDbMText
 10
412.2797778331704
 20
661.0223525414444
 30
0.0
 40
1.015997967999999
 41
2.185157486336286
 71
     2
 72
     5
  1
A
  7
THIN
 11
-0.7071067811865479
 21
0.7071067811865472
 31
0.0
 73
     1
 44
1.0
1001
ACAD
1000
MTEXTBEGIN
1070
    73
1070
     1
1070
    44
1040
1.0
1070
    74
1070
     0
1000
MTEXTEND
  0
MTEXT
  5
F4DB
330
1F
100
AcDbEntity
  8
SWITCH
100
AcDbMText
 10
411.4071392761356
 20
662.3776072592362
 30
0.0
 40
1.015997967999999
 41
2.185157486336286
 71
     2
 72
     5
  1
9
  7
THIN
 11
-0.3826834323650907
 21
0.9238795325112864
 31
0.0
 73
     1
 44
1.0
1001
ACAD
1000
MTEXTBEGIN
1070
    73
1070
     1
1070
    44
1040
1.0
1070
    74
1070
     0
1000
MTEXTEND
  0
MTEXT
  5
F4DC
330
1F
100
AcDbEntity
  8
SWITCH
100
AcDbMText
 10
411.1195599011439
 20
663.9636436725631
 30
0.0
 40
1.015997967999999
 41
2.185157486336286
 71
     8
 72
     5
  1
8
  7
THIN
 11
0.0000000000000002
 21
-1.0
 31
0.0
 73
     1
 44
1.0
1001
ACAD
1000
MTEXTBEGIN
1070
    73
1070
     1
1070
    44
1040
1.0
1070
    74
1070
     0
1000
MTEXTEND
  0
MTEXT
  5
F4DD
330
1F
100
AcDbEntity
  8
SWITCH
100
AcDbMText
 10
411.4608210611248
 20
665.5390021149531
 30
0.0
 40
1.015997967999999
 41
2.185157486336286
 71
     2
 72
     5
  1
7
  7
THIN
 11
0.3826834323650895
 21
0.9238795325112871
 31
0.0
 73
     1
 44
1.0
1001
ACAD
1000
MTEXTBEGIN
1070
    73
1070
     1
1070
    44
1040
1.0
1070
    74
1070
     0
1000
MTEXTEND
  0
MTEXT
  5
F4DE
330
1F
100
AcDbEntity
  8
SWITCH
100
AcDbMText
 10
412.3789688380112
 20
666.8638485442114
 30
0.0
 40
1.015997967999999
 41
2.185157486336286
 71
     2
 72
     5
  1
6
  7
THIN
 11
0.7071067811865472
 21
0.7071067811865479
 31
0.0
 73
     1
 44
1.0
1001
ACAD
1000
MTEXTBEGIN
1070
    73
1070
     1
1070
    44
1040
1.0
1070
    74
1070
     0
1000
MTEXTEND
  0
MTEXT
  5
F4DF
330
1F
100
AcDbEntity
  8
SWITCH
100
AcDbMText
 10
413.7342235558023
 20
667.7364871012468
 30
0.0
 40
1.015997967999999
 41
2.185157486336286
 71
     2
 72
     5
  1
5
  7
THIN
 11
0.9238795325112864
 21
0.3826834323650908
 31
0.0
 73
     1
 44
1.0
1001
ACAD
1000
MTEXTBEGIN
1070
    73
1070
     1
1070
    44
1040
1.0
1070
    74
1070
     0
1000
MTEXTEND
  0
MTEXT
  5
F4E0
330
1F
100
AcDbEntity
  8
SWITCH
100
AcDbMText
 10
415.3202599691296
 20
668.0240664762385
 30
0.0
 40
1.015997967999999
 41
2.185157486336286
 71
     2
 72
     5
  1
4
  7
THIN
 73
     1
 44
1.0
1001
ACAD
1000
MTEXTBEGIN
1070
    73
1070
     1
1070
    44
1040
1.0
1070
    74
1070
     0
1000
MTEXTEND
  0
MTEXT
  5
F4E1
330
1F
100
AcDbEntity
  8
SWITCH
100
AcDbMText
 10
416.8956184115196
 20
667.6828053162576
 30
0.0
 40
1.015997967999999
 41
2.185157486336286
 71
     2
 72
     5
  1
3
  7
THIN
 11
0.9238795325112867
 21
-0.3826834323650896
 31
0.0
 73
     1
 44
1.0
1001
ACAD
1000
MTEXTBEGIN
1070
    73
1070
     1
1070
    44
1040
1.0
1070
    74
1070
     0
1000
MTEXTEND
  0
MTEXT
  5
F4E2
330
1F
100
AcDbEntity
  8
SWITCH
100
AcDbMText
 10
418.220464840778
 20
666.7646575393708
 30
0.0
 40
1.015997967999999
 41
2.185157486336286
 71
     2
 72
     5
  1
2
  7
THIN
 11
0.7071067811865472
 21
-0.7071067811865479
 31
0.0
 73
     1
 44
1.0
1001
ACAD
1000
MTEXTBEGIN
1070
    73
1070
     1
1070
    44
1040
1.0
1070
    74
1070
     0
1000
MTEXTEND
  0
MTEXT
  5
F4E3
330
1F
100
AcDbEntity
  8
SWITCH
100
AcDbMText
 10
419.0931033978131
 20
665.4094028215796
 30
0.0
 40
1.015997967999999
 41
2.185157486336286
 71
     2
 72
     5
  1
1
  7
THIN
 11
0.3826834323650892
 21
-0.9238795325112869
 31
0.0
 73
     1
 44
1.0
1001
ACAD
1000
MTEXTBEGIN
1070
    73
1070
     1
1070
    44
1040
1.0
1070
    74
1070
     0
1000
MTEXTEND
  0
CIRCLE
  5
F4E4
330
1F
100
AcDbEntity
  8
PANEL
100
AcDbCircle
 10
415.250121336974
 20
663.8935050404079
 30
0.0
 40
2.1081957836
  0
CIRCLE
  5
F4E5
330
1F
100
AcDbEntity
  8
SWITCH
100
AcDbCircle
 10
415.2501213369744
 20
663.8935050404077
 30
0.0
 40
1.777996443999998
  0
ARC
  5
F4E6
330
1F
100
AcDbEntity
  8
SWITCH
100
AcDbCircle
 10
415.2501213369744
 20
663.8935050404077
 30
0.0
 40
1.523996951999998
100
AcDbArc
 50
279.594068226865
 51
80.40593177314141
  0
ARC
  5
F4E7
330
1F
100
AcDbEntity
  8
SWITCH
100
AcDbCircle
 10
415.2501213369744
 20
663.8935050404077
 30
0.0
 40
1.523996951999998
100
AcDbArc
 50
99.5940682268586
 51
260.4059317731414
  0
LINE
  5
F4E8
330
1F
100
AcDbEntity
  8
SWITCH
100
AcDbLine
 10
416.7360183651743
 20
663.8935050404077
 30
0.0
 11
415.645248124006
 21
664.9842752815762
 31
0.0
  0
LINE
  5
F4E9
330
1F
100
AcDbEntity
  8
SWITCH
100
AcDbLine
 10
416.7360183651743
 20
663.8935050404077
 30
0.0
 11
415.645248124006
 21
662.8027347992392
 31
0.0
  0
LINE
  5
F4EA
330
1F
100
AcDbEntity
  8
SWITCH
100
AcDbLine
 10
415.645248124006
 20
664.9842752815762
 30
0.0
 11
415.645248124006
 21
663.8935050404079
 31
0.0
  0
LINE
  5
F4EB
330
1F
100
AcDbEntity
  8
SWITCH
100
AcDbLine
 10
415.645248124006
 20
663.8935050404077
 30
0.0
 11
415.645248124006
 21
662.8027347992392
 31
0.0
  0
LINE
  5
F4EC
330
1F
100
AcDbEntity
  8
SWITCH
100
AcDbLine
 10
414.9961218449744
 20
662.133744939445
 30
0.0
 11
414.9961218449744
 21
665.6532651413704
 31
0.0
  0
LINE
  5
F4ED
330
1F
100
AcDbEntity
  8
SWITCH
100
AcDbLine
 10
415.5041208289744
 20
662.1337449394451
 30
0.0
 11
415.5041208289742
 21
665.6532651413704
 31
0.0
  0
LEADER
  5
F4EF
330
1F
100
AcDbEntity
  8
DIM
100
AcDbLeader
  3
METRIC
 73
     0
 40
5.253260572987721
 41
46.72837653478854
 76
     3
 10
369.6
 20
158.55
 30
0.0
 10
388.8640115720002
 20
188.9
 30
0.0
 10
394.65
 20
188.9
 30
0.0
213
0.0
223
-2.53999492
233
0.0
1001
ACAD
1000
DSTYLE
1002
{
1070
   141
1040
0.0
1070
   179
1070
     2
1070
   271
1070
     2
1070
   272
1070
     2
1002
}
  0
MTEXT
  5
F4F0
102
{ACAD_REACTORS
330
F4EF
102
}
330
1F
100
AcDbEntity
  8
DIM
100
AcDbMText
 10
397.1499950000002
 20
191.4399949199998
 30
0.0
 40
5.07998984
 41
0.0
 71
     1
 72
     1
  1
STATUS LEDs
  7
ARIAL
 73
     1
 44
1.0
1001
ACAD
1000
MTEXTBEGIN
1070
    73
1070
     1
1070
    44
1040
1.0
1070
    74
1070
     0
1000
MTEXTEND
  0
LEADER
  5
F943
330
1F
100
AcDbEntity
  8
DIM
100
AcDbLeader
  3
METRIC
 73
     0
 40
5.253260572987721
 41
46.72837653478854
 76
     3
 10
433.7228583793387
 20
160.1668298671592
 30
0.0
 10
449.7502273014159
 20
188.8628636494382
 30
0.0
 10
455.5362157294157
 20
188.8628636494382
 30
0.0
213
0.0
223
-2.53999492
233
0.0
1001
ACAD
1000
DSTYLE
1002
{
1070
   141
1040
0.0
1070
   179
1070
     2
1070
   271
1070
     2
1070
   272
1070
     2
1002
}
  0
MTEXT
  5
F944
102
{ACAD_REACTORS
330
F943
102
}
330
1F
100
AcDbEntity
  8
DIM
100
AcDbMText
 10
458.0362107294158
 20
191.402858569438
 30
0.0
 40
5.07998984
 41
0.0
 71
     1
 72
     1
  1
HV OUT\P(SHV)
  7
ARIAL
 73
     1
 44
1.0
1001
ACAD
1000
MTEXTBEGIN
1070
    73
1070
     1
1070
    44
1040
1.0
1070
    74
1070
     0
1000
MTEXTEND
  0
LEADER
  5
F945
330
1F
100
AcDbEntity
  8
DIM
100
AcDbLeader
  3
METRIC
 73
     0
 40
5.253260572987721
 41
46.72837653478854
 76
     3
 10
294.95
 20
153.4658901372756
 30
0.0
 10
315.1974543249318
 20
189.1272028867625
 30
0.0
 10
320.9834427529317
 20
189.1272028867625
 30
0.0
213
0.0
223
-2.53999492
233
0.0
1001
ACAD
1000
DSTYLE
1002
{
1070
   141
1040
0.0
1070
   179
1070
     2
1070
   271
1070
     2
1070
   272
1070
     2
1002
}
  0
MTEXT
  5
F946
102
{ACAD_REACTORS
330
F945
102
}
330
1F
100
AcDbEntity
  8
DIM
100
AcDbMText
 10
323.4834377529318
 20
191.6671978067623
 30
0.0
 40
5.07998984
 41
0.0
 71
     1
 72
     1
  1
CHANNELS 17-32
  7
ARIAL
 73
     1
 44
1.0
1001
ACAD
1000
MTEXTBEGIN
1070
    73
1070
     1
1070
    44
1040
1.0
1070
    74
1070
     0
1000
MTEXTEND
  0
LEADER
  5
F947
330
1F
100
AcDbEntity
  8
DIM
100
AcDbLeader
  3
METRIC
 73
     0
 40
5.253260572987721
 41
46.72837653478854
 76
     3
 10
213.75
 20
153.4658901372756
 30
0.0
 10
235.1874543249321
 20
189.1272028867625
 30
0.0
 10
240.9734427529319
 20
189.1272028867625
 30
0.0
213
0.0
223
-2.53999492
233
0.0
1001
ACAD
1000
DSTYLE
1002
{
1070
   141
1040
0.0
1070
   179
1070
     2
1070
   271
1070
     2
1070
   272
1070
     2
1002
}
  0
MTEXT
  5
F948
102
{ACAD_REACTORS
330
F947
102
}
330
1F
100
AcDbEntity
  8
DIM
100
AcDbMText
 10
243.473437752932
 20
191.6671978067623
 30
0.0
 40
5.07998984
 41
0.0
 71
     1
 72
     1
  1
CHANNELS 1-16
  7
ARIAL
 73
     1
 44
1.0
1001
ACAD
1000
MTEXTBEGIN
1070
    73
1070
     1
1070
    44
1040
1.0
1070
    74
1070
     0
1000
MTEXTEND
  0
LEADER
  5
F949
330
1F
100
AcDbEntity
  8
DIM
100
AcDbLeader
  3
METRIC
 73
     0
 40
5.253260572987721
 41
46.72837653478854
 76
     3
 10
142.15
 20
153.4658901372756
 30
0.0
 10
157.2853442044132
 20
189.1272028867625
 30
0.0
 10
163.071332632413
 20
189.1272028867625
 30
0.0
213
0.0
223
-2.53999492
233
0.0
1001
ACAD
1000
DSTYLE
1002
{
1070
   141
1040
0.0
1070
   179
1070
     2
1070
   271
1070
     2
1070
   272
1070
     2
1002
}
  0
MTEXT
  5
F94A
102
{ACAD_REACTORS
330
F949
102
}
330
1F
100
AcDbEntity
  8
DIM
100
AcDbMText
 10
165.5713276324131
 20
191.6671978067623
 30
0.0
 40
5.07998984
 41
0.0
 71
     1
 72
     1
  1
ACTUATOR
  7
ARIAL
 73
     1
 44
1.0
1001
ACAD
1000
MTEXTBEGIN
1070
    73
1070
     1
1070
    44
1040
1.0
1070
    74
1070
     0
1000
MTEXTEND
  0
MTEXT
  5
F959
330
1F
100
AcDbEntity
  8
DIM
100
AcDbMText
 10
385.5539249038348
 20
657.8862738480966
 30
0.0
 40
2.999994
 41
37.999924
 71
     2
 72
     5
  1
Gate
  7
ARIAL
 73
     1
 44
1.0
1001
ACAD
1000
MTEXTBEGIN
1070
    73
1070
     1
1070
    44
1040
1.0
1070
    74
1070
     0
1000
MTEXTEND
  0
LEADER
  5
F97E
330
1F
100
AcDbEntity
  8
DIM
100
AcDbLeader
  3
METRIC
 73
     0
 40
5.253260572987721
 41
13.65639836289222
 76
     3
 10
397.706038101217
 20
674.0404113085234
 30
0.0
 10
400.4184580509538
 20
731.1502195064816
 30
0.0
 10
394.632469622954
 20
731.1502195064816
 30
0.0
213
0.0
223
2.53999492
233
0.0
1001
ACAD
1000
DSTYLE
1002
{
1070
   141
1040
0.0
1070
   179
1070
     2
1070
   271
1070
     2
1070
   272
1070
     2
1002
}
  0
MTEXT
  5
F97F
102
{ACAD_REACTORS
330
F97E
102
}
330
1F
100
AcDbEntity
  8
DIM
100
AcDbMText
 10
390.4711448429358
 20
711.4516902962038
 30
0.0
 40
5.07998984
 41
0.0
 71
     9
 72
     1
  1
GATE\PFIBER-OPTIC\POR BNC
  7
ARIAL
 73
     1
 44
1.0
1001
ACAD
1000
MTEXTBEGIN
1070
    73
1070
     1
1070
    44
1040
1.0
1070
    74
1070
     0
1000
MTEXTEND
  0
DIMENSION
  5
F98E
330
1F
100
AcDbEntity
  8
DIM
100
AcDbDimension
  2
*D8
 10
73.61960365025281
 20
235.9242760908801
 30
0.0
 11
314.9196036502531
 21
235.9242760908801
 31
0.0
 70
    32
  1
<>\P(19")
 71
     5
 42
482.6000000000006
  3
METRIC
100
AcDbAlignedDimension
 13
556.2196036502534
 23
270.8086158862748
 33
0.0
 14
73.61960365025281
 24
270.808615886275
 34
0.0
100
AcDbRotatedDimension
1001
ACAD
1000
DSTYLE
1002
{
1070
   141
1040
0.0
1002
}
  0
DIMENSION
  5
F99C
330
1F
100
AcDbEntity
  8
DIM
100
AcDbDimension
  2
*D9
 10
538.9196036502528
 20
532.0196685369294
 30
0.0
 11
314.9196036502528
 21
532.0196685369294
 31
0.0
 70
   160
 71
     5
 42
448.0
  3
METRIC
100
AcDbAlignedDimension
 13
90.91960365025277
 23
491.8086218862722
 33
0.0
 14
538.9196036502528
 24
491.8086218862722
 34
0.0
100
AcDbRotatedDimension
1001
ACAD
1000
DSTYLE
1002
{
1070
   141
1040
0.0
1002
}
  0
MTEXT
  5
F9E3
330
1F
100
AcDbEntity
  8
DIM
100
AcDbMText
 10
522.1829637943831
 20
694.72616676254
 30
0.0
 40
5.0
 41
0.0
 71
     5
 72
     1
  1
\A1;M4 GROUND LUG
  7
ARIAL
 73
     1
 44
1.0
1001
ACAD
1000
MTEXTBEGIN
1070
    73
1070
     1
1070
    44
1040
1.0
1070
    74
1070
     0
1000
MTEXTEND
  0
LEADER
  5
F9E5
330
1F
100
AcDbEntity
  8
DIM
100
AcDbLeader
  3
METRIC
 73
     0
 40
13.810022737608
 41
34.74914051841746
 76
     3
 10
474.8519253306523
 20
670.3364913448699
 30
0.0
 10
484.7933039710852
 20
694.4672647777899
 30
0.0
 10
489.7933039710852
 20
694.4672647777899
 30
0.0
211
-1.0
221
0.0
231
0.0
213
0.0
223
2.53999492
233
0.0
1001
ACAD
1000
DSTYLE
1002
{
1070
   141
1040
0.0
1070
   179
1070
     2
1070
   271
1070
     2
1070
   272
1070
     2
1002
}
  0
DIMENSION
  5
FA26
330
1F
100
AcDbEntity
  8
DIM
100
AcDbDimension
  2
*D10
 10
48.85000257085594
 20
512.5946158862732
 30
0.0
 11
48.85000257085585
 21
394.408616886274
 31
0.0
 70
   160
 71
     5
 42
241.7859999999982
  3
METRIC
100
AcDbAlignedDimension
 13
73.61960365025281
 23
270.808615886275
 33
0.0
 14
105.494586393134
 24
512.5946158862732
 34
0.0
 50
90.0
100
AcDbRotatedDimension
1001
ACAD
1000
DSTYLE
1002
{
1070
   141
1040
0.0
1070
   179
1070
     1
1002
}
  0
DIMENSION
  5
FA48
330
1F
100
AcDbEntity
  8
DIM
100
AcDbDimension
  2
*D11
 10
462.9533700980283
 20
270.8086158862748
 30
0.0
 11
462.9533700980282
 21
261.0314050906618
 31
0.0
 70
   160
 71
     5
 42
19.32996133999992
  3
METRIC
100
AcDbAlignedDimension
 13
435.2895940502547
 23
251.4786545462749
 33
0.0
 14
461.3533700980283
 24
270.8086158862748
 34
0.0
 50
90.0
100
AcDbRotatedDimension
1001
ACAD
1000
DSTYLE
1002
{
1070
   141
1040
0.0
1070
   179
1070
     1
1002
}
  0
DIMENSION
  5
FAA4
330
1F
100
AcDbEntity
  8
DIM
100
AcDbDimension
  2
*D12
 10
67.05774951983078
 20
273.808615886275
 30
0.0
 11
55.01648076130414
 21
260.808615886275
 31
0.0
 70
   160
 71
     5
 42
3.0
  3
METRIC
100
AcDbAlignedDimension
 13
73.61960365025281
 23
270.808615886275
 33
0.0
 14
73.61960365025282
 24
273.808615886275
 34
0.0
 50
90.0
100
AcDbRotatedDimension
1001
ACAD
1000
DSTYLE
1002
{
1070
   141
1040
0.0
1070
   179
1070
     1
1002
}
  0
DIMENSION
  5
FAB3
330
1F
100
AcDbEntity
  8
DIM
100
AcDbDimension
  2
*D13
 10
62.11375077417287
 20
494.8086158862733
 30
0.0
 11
62.11375077417279
 21
383.2118426205811
 31
0.0
 70
   160
 71
     5
 42
220.9999999999983
  3
METRIC
100
AcDbAlignedDimension
 13
73.61960365025282
 23
273.808615886275
 33
0.0
 14
92.41960365025242
 24
494.8086158862733
 34
0.0
 50
90.0
100
AcDbRotatedDimension
1001
ACAD
1000
DSTYLE
1002
{
1070
   141
1040
0.0
1070
   179
1070
     1
1002
}
  0
DIMENSION
  5
FB14
330
1F
100
AcDbEntity
  8
DIM
100
AcDbDimension
  2
*D14
 10
57.79612383446282
 20
125.4916158862722
 30
0.0
 11
57.79612383446281
 21
147.3166158862732
 31
0.0
 70
    32
  1
<>\P(1U)
 71
     5
 42
43.65000000000217
  3
METRIC
100
AcDbAlignedDimension
 13
73.619603650253
 23
169.1416158862743
 33
0.0
 14
73.61960365025642
 24
125.4916158862722
 34
0.0
 50
90.0
100
AcDbRotatedDimension
1001
ACAD
1000
DSTYLE
1002
{
1070
   141
1040
0.0
1070
   179
1070
     1
1002
}
  0
DIMENSION
  5
FB2C
330
1F
100
AcDbEntity
  8
DIM
100
AcDbDimension
  2
*D15
 10
622.3767075893536
 20
531.3219227641538
 30
0.0
 11
600.9689197893626
 21
531.3219227641538
 31
0.0
 70
   160
 71
     5
 42
42.59914204963661
  3
METRIC
100
AcDbAlignedDimension
 13
579.7775655397169
 23
493.8086198862726
 33
0.0
 14
622.3767075893536
 24
491.793381886272
 34
0.0
100
AcDbRotatedDimension
1001
ACAD
1000
DSTYLE
1002
{
1070
   141
1040
0.0
1070
   179
1070
     1
1002
}
  0
DIMENSION
  5
FC81
330
1F
100
AcDbEntity
  8
DIM
100
AcDbDimension
  2
*D16
 10
579.2517075893535
 20
234.6
 30
0.0
 11
601.4152876417629
 21
234.6
 31
0.0
 70
   160
  1
<>\P(1U)
 71
     5
 42
43.64999999999997
  3
METRIC
100
AcDbAlignedDimension
 13
622.9017075893534
 23
270.8086158862724
 33
0.0
 14
579.2517075893535
 24
270.8086158862748
 34
0.0
100
AcDbRotatedDimension
1001
ACAD
1000
DSTYLE
1002
{
1070
   141
1040
0.0
1070
   179
1070
     1
1002
}
  0
DIMENSION
  5
FFE5
330
1F
100
AcDbEntity
  8
DIM
100
AcDbDimension
  2
*D17
 10
556.219603650253
 20
101.5989876480023
 30
0.0
 11
314.9196036502547
 21
101.5989876480023
 31
0.0
 70
    32
  1
<>\P(19")
 71
     5
 42
482.5999999999965
  3
METRIC
100
AcDbAlignedDimension
 13
73.61960365025642
 23
125.4916158862725
 33
0.0
 14
556.219603650253
 24
125.4916158862745
 34
0.0
100
AcDbRotatedDimension
1001
ACAD
1000
DSTYLE
1002
{
1070
   141
1040
0.0
1070
   179
1070
     1
1002
}
  0
MTEXT
  5
10074
330
1F
100
AcDbEntity
  8
DIM
100
AcDbMText
 10
302.3110760560626
 20
392.2831113370642
 30
0.0
 40
8.0
 41
99.8044490030054
 71
     1
 72
     5
  1
{\fArial|b0|i0|c0|p34;TOP}
 73
     1
 44
1.0
1001
ACAD
1000
MTEXTBEGIN
1070
    73
1070
     1
1070
    44
1040
1.0
1070
    74
1070
     0
1000
MTEXTEND
  0
MTEXT
  5
10119
330
1F
100
AcDbEntity
  8
DIM
100
AcDbMText
 10
341.0445215520961
 20
152.5250078455304
 30
0.0
 40
3.0
 41
38.0
 71
     1
 72
     5
  1
Xmit
  7
ARIAL
 73
     1
 44
1.0
1001
ACAD
1000
MTEXTBEGIN
1070
    73
1070
     1
1070
    44
1040
1.0
1070
    74
1070
     0
1000
MTEXTEND
  0
MTEXT
  5
1011A
330
1F
100
AcDbEntity
  8
DIM
100
AcDbMText
 10
341.4688390327603
 20
146.1750078455304
 30
0.0
 40
3.0
 41
38.0
 71
     1
 72
     5
  1
Rcv
  7
ARIAL
 73
     1
 44
1.0
1001
ACAD
1000
MTEXTBEGIN
1070
    73
1070
     1
1070
    44
1040
1.0
1070
    74
1070
     0
1000
MTEXTEND
  0
MTEXT
  5
1011B
330
1F
100
AcDbEntity
  8
DIM
100
AcDbMText
 10
369.4088390327603
 20
146.1750078455304
 30
0.0
 40
3.0
 41
38.0
 71
     1
 72
     5
  1
Link
  7
ARIAL
 73
     1
 44
1.0
1001
ACAD
1000
MTEXTBEGIN
1070
    73
1070
     1
1070
    44
1040
1.0
1070
    74
1070
     0
1000
MTEXTEND
  0
MTEXT
  5
1011C
330
1F
100
AcDbEntity
  8
DIM
100
AcDbMText
 10
369.4088390327603
 20
152.5250078455304
 30
0.0
 40
3.0
 41
38.0
 71
     1
 72
     5
  1
Status
  7
ARIAL
 73
     1
 44
1.0
1001
ACAD
1000
MTEXTBEGIN
1070
    73
1070
     1
1070
    44
1040
1.0
1070
    74
1070
     0
1000
MTEXTEND
  0
MTEXT
  5
1011D
330
1F
100
AcDbEntity
  8
DIM
100
AcDbMText
 10
397.3488390327602
 20
146.0480078455305
 30
0.0
 40
3.0
 41
38.0
 71
     1
 72
     5
  1
Power
  7
ARIAL
 73
     1
 44
1.0
1001
ACAD
1000
MTEXTBEGIN
1070
    73
1070
     1
1070
    44
1040
1.0
1070
    74
1070
     0
1000
MTEXTEND
  0
MTEXT
  5
1011E
330
1F
100
AcDbEntity
  8
DIM
100
AcDbMText
 10
425.2888390327604
 20
146.0480078455305
 30
0.0
 40
3.0
 41
38.0
 71
     1
 72
     5
  1
HV
  7
ARIAL
 73
     1
 44
1.0
1001
ACAD
1000
MTEXTBEGIN
1070
    73
1070
     1
1070
    44
1040
1.0
1070
    74
1070
     0
1000
MTEXTEND
  0
LINE
  5
102CB
330
1F
100
AcDbEntity
  8
CONNECTOR
100
AcDbLine
 10
588.1567186593534
 20
269.3073701777468
 30
0.0
 11
588.1567186593534
 21
264.6986281062748
 31
0.0
  0
LINE
  5
102CC
330
1F
100
AcDbEntity
  8
CONNECTOR
100
AcDbLine
 10
599.2266965193534
 20
269.3073701777468
 30
0.0
 11
599.2266965193534
 21
264.6986281062747
 31
0.0
  0
LINE
  5
102CD
330
1F
100
AcDbEntity
  8
CONNECTOR
100
AcDbLine
 10
600.0416948893533
 20
269.3073701777467
 30
0.0
 11
587.3417202893533
 21
269.3073701777469
 31
0.0
  0
LINE
  5
102CE
330
1F
100
AcDbEntity
  8
CONNECTOR
100
AcDbLine
 10
599.2266965193534
 20
264.6986281062748
 30
0.0
 11
588.1567186593534
 21
264.6986281062749
 31
0.0
  0
LINE
  5
102CF
330
1F
100
AcDbEntity
  8
CONNECTOR
100
AcDbLine
 10
598.4916979893535
 20
251.4786545462749
 30
0.0
 11
588.8917171893533
 21
251.4786545462749
 31
0.0
  0
LINE
  5
102D0
330
1F
100
AcDbEntity
  8
CONNECTOR
100
AcDbLine
 10
587.3417202893534
 20
269.3073701777468
 30
0.0
 11
587.3417202893534
 21
270.8086158862749
 31
0.0
  0
LINE
  5
102D1
330
1F
100
AcDbEntity
  8
CONNECTOR
100
AcDbLine
 10
600.0416948893533
 20
269.3073701777467
 30
0.0
 11
600.0416948893533
 21
270.8086158862748
 31
0.0
  0
LINE
  5
102D2
330
1F
100
AcDbEntity
  8
CONNECTOR
100
AcDbLine
 10
598.4916979893535
 20
251.4786545462749
 30
0.0
 11
598.4916979893535
 21
264.0433368613297
 31
0.0
  0
LINE
  5
102D3
330
1F
100
AcDbEntity
  8
CONNECTOR
100
AcDbLine
 10
588.8917171893533
 20
251.4786545462749
 30
0.0
 11
588.8917171893533
 21
264.0433368613297
 31
0.0
  0
LINE
  5
102D4
330
1F
100
AcDbEntity
  8
CONNECTOR
100
AcDbLine
 10
588.1567186593534
 20
264.6986281062749
 30
0.0
 11
588.8917171893533
 21
264.0433368613297
 31
0.0
  0
LINE
  5
102D5
330
1F
100
AcDbEntity
  8
CONNECTOR
100
AcDbLine
 10
599.2266965193534
 20
264.6986281062748
 30
0.0
 11
598.4916979893535
 21
264.0433368613297
 31
0.0
  0
LINE
  5
102D6
330
1F
100
AcDbEntity
  8
CONNECTOR
100
AcDbLine
 10
598.4916979893535
 20
264.0433368613297
 30
0.0
 11
588.8917171893533
 21
264.0433368613297
 31
0.0
  0
CIRCLE
  5
102E9
330
1F
100
AcDbEntity
  8
CONNECTOR
100
AcDbCircle
 10
593.6917075893534
 20
255.0390018415981
 30
0.0
 40
0.8314841076736456
  0
LEADER
  5
1041A
330
1F
100
AcDbEntity
  8
DIM
100
AcDbLeader
  3
METRIC
 76
     2
 10
375.9669235468105
 20
667.3068832880105
 30
0.0
 10
400.4184580509538
 20
731.1502195064816
 30
0.0
1001
ACAD
1000
DSTYLE
1002
{
1070
   147
1040
2.5
1070
    77
1070
     0
1070
   141
1040
0.0
1070
   179
1070
     1
1002
}
  0
LINE
  5
10430
330
1F
100
AcDbEntity
  8
DIM
100
AcDbLine
 10
479.0996982954881
 20
657.9642736984427
 30
0.0
 11
477.599701295488
 21
657.9642736984427
 31
0.0
1001
PHOENIX7010
1002
{
1070
    62
1070
     1
1070
    41
1040
1.0
1002
}
  0
LINE
  5
10431
330
1F
100
AcDbEntity
  8
DIM
100
AcDbLine
 10
476.8497027954881
 20
659.089271448443
 30
0.0
 11
479.8496967954881
 21
659.0892714484426
 31
0.0
1001
PHOENIX7010
1002
{
1070
    62
1070
     1
1070
    41
1040
1.0
1002
}
  0
LINE
  5
10432
330
1F
100
AcDbEntity
  8
DIM
100
AcDbLine
 10
480.5996952954881
 20
660.2142691984429
 30
0.0
 11
476.0997042954881
 21
660.2142691984429
 31
0.0
1001
PHOENIX7010
1002
{
1070
    62
1070
     1
1070
    41
1040
1.0
1002
}
  0
LINE
  5
10433
330
1F
100
AcDbEntity
  8
DIM
100
AcDbLine
 10
478.3496997954881
 20
660.2142691984429
 30
0.0
 11
478.3496997954881
 21
663.2142631984429
 31
0.0
1001
PHOENIX7010
1002
{
1070
    62
1070
     1
1070
    41
1040
1.0
1002
}
  0
MTEXT
  5
1045E
330
1F
100
AcDbEntity
  8
DIM
100
AcDbMText
 10
286.6610760560625
 20
624.6331113370642
 30
0.0
 40
8.0
 41
99.8044490030054
 71
     1
 72
     5
  1
{\fArial|b0|i0|c0|p34;BACK VIEW (ROTATED)}
 73
     1
 44
1.0
1001
ACAD
1000
MTEXTBEGIN
1070
    73
1070
     1
1070
    44
1040
1.0
1070
    74
1070
     0
1000
MTEXTEND
  0
MTEXT
  5
1045F
330
1F
100
AcDbEntity
  8
DIM
100
AcDbMText
 10
286.6610760560625
 20
78.78311133706414
 30
0.0
 40
8.0
 41
99.8044490030054
 71
     1
 72
     5
  1
{\fArial|b0|i0|c0|p34;FRONT VIEW}
 73
     1
 44
1.0
1001
ACAD
1000
MTEXTBEGIN
1070
    73
1070
     1
1070
    44
1040
1.0
1070
    74
1070
     0
1000
MTEXTEND
  0
INSERT
  5
10489
330
1F
100
AcDbEntity
  8
DIM
100
AcDbBlockReference
  2
A$C15614AF3
 10
103.1488660377522
 20
494.8086156734323
 30
0.0
  0
LINE
  5
104BA
330
1F
100
AcDbEntity
  8
0
100
AcDbLine
 10
583.3716870322327
 20
512.5946158862723
 30
0.0
 11
586.7716870322328
 21
512.5946158862723
 31
0.0
  0
LINE
  5
104BB
330
1F
100
AcDbEntity
  8
0
100
AcDbLine
 10
588.0716870322328
 20
510.2946158862724
 30
0.0
 11
588.0716870322328
 21
511.2946158862723
 31
0.0
  0
ARC
  5
104BC
330
1F
100
AcDbEntity
  8
0
100
AcDbCircle
 10
586.7716870322328
 20
511.2946158862723
 30
0.0
 40
1.3
100
AcDbArc
 50
0.0
 51
90.0
  0
LINE
  5
104BD
330
1F
100
AcDbEntity
  8
0
100
AcDbLine
 10
582.0716870322327
 20
510.2946158862724
 30
0.0
 11
582.0716870322327
 21
511.2946158862723
 31
0.0
  0
ARC
  5
104BE
330
1F
100
AcDbEntity
  8
0
100
AcDbCircle
 10
583.3716870322327
 20
511.2946158862723
 30
0.0
 40
1.3
100
AcDbArc
 50
90.0
 51
180.0
  0
LINE
  5
104BF
330
1F
100
AcDbEntity
  8
0
100
AcDbLine
 10
615.3817281464748
 20
512.5946158862723
 30
0.0
 11
618.7817281464748
 21
512.5946158862723
 31
0.0
  0
LINE
  5
104C0
330
1F
100
AcDbEntity
  8
0
100
AcDbLine
 10
620.0817281464749
 20
510.2946158862724
 30
0.0
 11
620.0817281464749
 21
511.2946158862723
 31
0.0
  0
ARC
  5
104C1
330
1F
100
AcDbEntity
  8
0
100
AcDbCircle
 10
618.7817281464748
 20
511.2946158862723
 30
0.0
 40
1.3
100
AcDbArc
 50
0.0
 51
90.0
  0
LINE
  5
104C2
330
1F
100
AcDbEntity
  8
0
100
AcDbLine
 10
614.0817281464749
 20
510.2946158862724
 30
0.0
 11
614.0817281464749
 21
511.2946158862723
 31
0.0
  0
ARC
  5
104C3
330
1F
100
AcDbEntity
  8
0
100
AcDbCircle
 10
615.3817281464748
 20
511.2946158862723
 30
0.0
 40
1.3
100
AcDbArc
 50
90.0
 51
180.0
  0
INSERT
  5
104C4
330
1F
100
AcDbEntity
  8
FASTENER
100
AcDbBlockReference
  2
m3washe
 10
585.0716870322328
 20
509.7946158862724
 30
0.0
 50
90.0
  0
INSERT
  5
104C5
330
1F
100
AcDbEntity
  8
FASTENER
100
AcDbBlockReference
  2
m3washe
 10
617.0817281464749
 20
509.7946158862724
 30
0.0
 50
90.0
  0
INSERT
  5
104DF
330
1F
100
AcDbEntity
  8
FASTENER
100
AcDbBlockReference
  2
m3pant
 10
490.6896036502567
 20
680.0937102164066
 30
0.0
  0
INSERT
  5
104E0
330
1F
100
AcDbEntity
  8
FASTENER
100
AcDbBlockReference
  2
m3pant
 10
522.6896036502568
 20
680.0937102164064
 30
0.0
  0
INSERT
  5
104E1
330
1F
100
AcDbEntity
  8
FASTENER
100
AcDbBlockReference
  2
m3pant
 10
522.6896036502567
 20
648.0937102164062
 30
0.0
  0
INSERT
  5
104E2
330
1F
100
AcDbEntity
  8
FASTENER
100
AcDbBlockReference
  2
m3pant
 10
490.6896036502566
 20
648.0937102164065
 30
0.0
  0
ENDSEC
  0
SECTION
  2
OBJECTS
  0
DICTIONARY
  5
C
330
0
100
AcDbDictionary
281
     1
  3
ACAD_COLOR
350
5029
  3
ACAD_GROUP
350
D
  3
ACAD_LAYOUT
350
1A
  3
ACAD_MATERIAL
350
5028
  3
ACAD_MLINESTYLE
350
17
  3
ACAD_PLOTSETTINGS
350
19
  3
ACAD_PLOTSTYLENAME
350
E
  3
ACAD_TABLESTYLE
350
502A
  3
AcadDim
350
10419
  3
ACDBHEADERROUNDTRIPXREC
350
1052A
  3
AcDbVariableDictionary
350
5039
  3
ASE_INDEX_DICTIONARY
350
E3A5
  3
DWGPROPS
350
10529
  0
DICTIONARY
  5
5031
330
2
100
AcDbDictionary
280
     1
281
     1
  3
ACAD_LAYERFILTERS
360
FB98
  3
ACAD_LAYERSTATES
360
5032
  3
ACLYDICTIONARY
360
FB97
  0
DICTIONARY
  5
54D8
330
1F
100
AcDbDictionary
280
     1
281
     1
  3
ACAD_SORTENTS
360
54D9
  0
DICTIONARY
  5
10485
330
10474
100
AcDbDictionary
280
     1
281
     1
  3
ACAD_SORTENTS
360
10486
  0
DICTIONARY
  5
5029
102
{ACAD_REACTORS
330
C
102
}
330
C
100
AcDbDictionary
281
     1
  0
DICTIONARY
  5
D
102
{ACAD_REACTORS
330
C
102
}
330
C
100
AcDbDictionary
281
     1
  0
DICTIONARY
  5
1A
102
{ACAD_REACTORS
330
C
102
}
330
C
100
AcDbDictionary
281
     1
  3
Layout1
350
F8D7
  3
Model
350
22
  0
DICTIONARY
  5
5028
102
{ACAD_REACTORS
330
C
102
}
330
C
100
AcDbDictionary
281
     1
  0
DICTIONARY
  5
17
102
{ACAD_REACTORS
330
C
102
}
330
C
100
AcDbDictionary
281
     1
  3
Standard
350
18
  0
DICTIONARY
  5
19
102
{ACAD_REACTORS
330
C
102
}
330
C
100
AcDbDictionary
281
     1
  0
ACDBDICTIONARYWDFLT
  5
E
102
{ACAD_REACTORS
330
C
102
}
330
C
100
AcDbDictionary
281
     1
  3
Normal
350
F
100
AcDbDictionaryWithDefault
340
F
  0
DICTIONARY
  5
502A
102
{ACAD_REACTORS
330
C
102
}
330
C
100
AcDbDictionary
281
     1
  3
Standard
350
502B
  0
XRECORD
  5
10419
102
{ACAD_REACTORS
330
C
102
}
330
C
100
AcDbXrecord
280
     1
 90
   990106
  3

 60
     0
 61
     0
 62
     1
 63
     3
 64
     0
 65
     0
 66
     0
 67
     3
 68
     1
 69
     0
 70
     0
 71
     0
 72
     0
 40
0.0
170
     0
  0
DICTIONARY
  5
1052A
102
{ACAD_REACTORS
330
C
102
}
330
C
100
AcDbDictionary
281
     1
  0
DICTIONARY
  5
5039
102
{ACAD_REACTORS
330
C
102
}
330
C
100
AcDbDictionary
281
     1
  3
CTABLESTYLE
350
503A
  3
DIMASSOC
350
505A
  3
PROJECTNAME
350
505B
  0
DICTIONARY
  5
E3A5
102
{ACAD_REACTORS
330
C
102
}
330
C
100
AcDbDictionary
281
     1
  3
ASEBlockHierarchyIndexRecord
350
E3A6
1001
DCO15
1040
1575292618.728
  0
XRECORD
  5
10529
102
{ACAD_REACTORS
330
C
102
}
330
C
100
AcDbXrecord
280
     1
  1
DWGPROPS COOKIE
  2

  3

  4

  6

  7

  8

  9

300
=
301
=
302
=
303
=
304
=
305
=
306
=
307
=
308
=
309
=
 40
6.437809513888888
 41
2451534.924419676
 42
2454656.660099456
  1

 90
        0
  0
DICTIONARY
  5
FB98
102
{ACAD_REACTORS
330
5031
102
}
330
5031
100
AcDbDictionary
281
     1
  0
DICTIONARY
  5
5032
102
{ACAD_REACTORS
330
5031
102
}
330
5031
100
AcDbDictionary
281
     1
  0
DICTIONARY
  5
FB97
102
{ACAD_REACTORS
330
5031
102
}
330
5031
100
AcDbDictionary
281
     1
1001
ACAD
1000
<All
  0
SORTENTSTABLE
  5
54D9
102
{ACAD_REACTORS
330
54D8
102
}
330
54D8
100
AcDbSortentsTable
330
1F
331
F32D
  5
F4B6
331
D49D
  5
ED0E
331
D47E
  5
EC52
331
F229
  5
E599
331
F1FA
  5
F458
331
D3C8
  5
EBEA
331
EE5D
  5
EDDC
331
EDEE
  5
EDDE
331
D29D
  5
E5CC
331
ED20
  5
EDFA
331
EC73
  5
EB93
331
D27E
  5
E5A7
331
D2D3
  5
E60C
331
D38A
  5
EBD0
331
E7C7
  5
E818
331
E7E6
  5
E86B
331
102CD
  5
102CD
331
F4E2
  5
F4E8
331
F4C3
  5
F4C9
331
F32E
  5
F4B7
331
F30F
  5
F496
331
D49E
  5
ED0F
331
F241
  5
F46B
331
D47F
  5
EC53
331
F22A
  5
E59B
331
F1FB
  5
F459
331
EE5E
  5
EDDD
331
EDEF
  5
EDDF
331
D29E
  5
E5CD
331
EC74
  5
EB94
331
ED21
  5
EDFB
331
D27F
  5
E5A8
331
D3C9
  5
EBED
331
E7E7
  5
E86C
331
102CE
  5
102CE
331
FB2C
  5
FB2C
331
F4E3
  5
F4E9
331
F4C4
  5
F4CA
331
F959
  5
F99C
331
F32F
  5
F4B8
331
F310
  5
F497
331
D49F
  5
ED10
331
F271
  5
F483
331
F242
  5
F461
331
D480
  5
EC54
331
F22B
  5
E59C
331
F1FC
  5
F45A
331
EDF0
  5
EDE0
331
EDC1
  5
D2A3
331
ED22
  5
EDFC
331
ECE4
  5
E626
331
EC75
  5
EB95
331
EB8E
  5
EBC2
331
D280
  5
E5A9
331
D29F
  5
E5CE
331
D3CA
  5
EBEE
331
102CF
  5
102CF
331
FA48
  5
FA48
331
F4E4
  5
F4EA
331
F4C5
  5
F4CB
331
F330
  5
F4B9
331
F311
  5
F498
331
D4A0
  5
ED11
331
F272
  5
F484
331
F22C
  5
E59D
331
F1FD
  5
F45B
331
EDF1
  5
EDE1
331
F243
  5
E59A
331
ED23
  5
EDFD
331
ECE5
  5
E62A
331
EC76
  5
EB96
331
D281
  5
E5AA
331
D481
  5
ECDE
331
102D0
  5
102D0
331
10119
  5
10119
331
F4E5
  5
F4EB
331
F4C6
  5
F4CC
331
F331
  5
F4BA
331
F312
  5
F499
331
D4A1
  5
ED12
331
F273
  5
F485
331
F244
  5
E598
331
F1DF
  5
F448
331
EDF2
  5
EDE2
331
ED24
  5
EDFE
331
ECE6
  5
E62B
331
D282
  5
E5AB
331
D38E
  5
EBD1
331
D482
  5
ECDF
331
102D1
  5
102D1
331
1011A
  5
1011A
331
F4E6
  5
F4EC
331
F4C7
  5
F4CD
331
F332
  5
F4BB
331
F313
  5
F49A
331
D4A2
  5
ED13
331
F274
  5
F486
331
F1E0
  5
F449
331
F245
  5
F466
331
D2B9
  5
E5E0
331
EDC4
  5
D2A6
331
ECE7
  5
E62C
331
ED25
  5
EDFF
331
D283
  5
E5AC
331
D3FC
  5
EC24
331
D483
  5
ECE0
331
102D2
  5
102D2
331
1011B
  5
1011B
331
F4E7
  5
F4ED
331
F4C8
  5
F4CE
331
F314
  5
F49B
331
D4A3
  5
ED15
331
F275
  5
F487
331
F246
  5
D3F2
331
F1E1
  5
F44A
331
D2BA
  5
E5E4
331
ED26
  5
EE00
331
D284
  5
E5AD
331
D390
  5
EBD2
331
D3AF
  5
EBD6
331
D3FD
  5
EC25
331
D484
  5
ECE1
331
102D3
  5
102D3
331
1011C
  5
1011C
331
F4E8
  5
F4EF
331
F4C9
  5
F4CF
331
F315
  5
F49C
331
D4A4
  5
ED17
331
F247
  5
D3FE
331
F1A3
  5
F43A
331
EDF5
  5
EDE3
331
F1E2
  5
F44B
331
F276
  5
EC15
331
ED27
  5
EE01
331
D285
  5
E5AE
331
D485
  5
ECE4
331
102D4
  5
102D4
331
1011D
  5
1011D
331
FAA4
  5
FAA4
331
F4E9
  5
F4F0
331
F4CA
  5
F4D0
331
F316
  5
F49D
331
D4A5
  5
ED18
331
F277
  5
EC17
331
EDF6
  5
EDE4
331
EDC7
  5
D2A9
331
D286
  5
E5AF
331
D486
  5
ECE5
331
1011E
  5
1011E
331
102D5
  5
102D5
331
F4EA
  5
F4F1
331
F484
  5
F407
331
F4CB
  5
F4D1
331
F317
  5
F49E
331
D4A6
  5
ED19
331
F1A5
  5
F43B
331
EDF7
  5
EDE5
331
F249
  5
E58A
331
D468
  5
EC3F
331
D287
  5
E5B0
331
D487
  5
ECE6
331
102D6
  5
102D6
331
F485
  5
F408
331
F4CC
  5
F4D2
331
F4EB
  5
F4F2
331
FC81
  5
FC81
331
F318
  5
F49F
331
F279
  5
F488
331
D488
  5
ECE7
331
F24A
  5
E58B
331
D469
  5
EC40
331
D4A7
  5
ED1A
331
F486
  5
F409
331
F4CD
  5
F4D3
331
F4EC
  5
F4F3
331
F319
  5
F4A0
331
F27A
  5
F489
331
F24B
  5
E589
331
D489
  5
ECE8
331
F20D
  5
F45C
331
D3D3
  5
EC10
331
F4ED
  5
F4F4
331
F487
  5
F434
331
F4CE
  5
F4D4
331
F31A
  5
F4A1
331
F27B
  5
F48A
331
D48A
  5
ECEB
331
D3D4
  5
EC13
331
D2F7
  5
E8E6
331
102E9
  5
102E9
331
F9E3
  5
F947
331
F4CF
  5
F4D5
331
F31B
  5
F4A2
331
F27C
  5
F48B
331
D48B
  5
ECEC
331
F20F
  5
F45D
331
D3D5
  5
EC14
331
F4EF
  5
F4F5
331
F31C
  5
F4A3
331
F27D
  5
F48C
331
D48C
  5
ECED
331
D46D
  5
EC41
331
D3D6
  5
EC16
331
FFE5
  5
FFE5
331
F97E
  5
F9E1
331
F9E5
  5
F9E6
331
F31D
  5
F4A4
331
D48D
  5
ECFE
331
D46E
  5
EC42
331
F97F
  5
F9E2
331
F31E
  5
F4A5
331
F27F
  5
F48D
331
D48E
  5
ECFF
331
D46F
  5
EC43
331
FB14
  5
FB14
331
F31F
  5
F4A6
331
D48F
  5
ED00
331
E800
  5
E8A6
331
D4A8
  5
ED1B
331
E820
  5
E671
331
E801
  5
E8A7
331
E840
  5
E691
331
E821
  5
E672
331
E802
  5
E8AE
331
E860
  5
E6C4
331
E841
  5
E694
331
E822
  5
E673
331
E803
  5
E8AF
331
E428
  5
EB69
331
E842
  5
E695
331
E823
  5
E674
331
E804
  5
E8B0
331
E429
  5
EB6A
331
E458
  5
EB74
331
E8B8
  5
EAEF
331
E843
  5
E696
331
E805
  5
E8B1
331
E824
  5
E675
331
E4A8
  5
EBEF
331
E42A
  5
EB6B
331
E459
  5
EB75
331
E844
  5
E697
331
E825
  5
E676
331
E806
  5
E8B2
331
E8B9
  5
EAF0
331
E4C8
  5
EE0B
331
E42B
  5
EB6C
331
E45A
  5
EB76
331
E8BA
  5
EAF1
331
E89B
  5
EE70
331
E845
  5
E698
331
E826
  5
E677
331
E8E9
  5
E8D1
331
E4C9
  5
EE0C
331
E4AA
  5
EBF0
331
E42C
  5
EB6D
331
E45B
  5
EB77
331
E4E8
  5
EE2A
331
E8BB
  5
EAF2
331
E89C
  5
EAE0
331
E846
  5
E699
331
E827
  5
E678
331
E8EA
  5
E8D2
331
E4CA
  5
EE0D
331
E42D
  5
EB6E
331
E45C
  5
EB78
331
E4AB
  5
EBF1
331
E4E9
  5
EE2B
331
E500
  5
EE42
331
E90A
  5
E8E3
331
E8BC
  5
EAF8
331
E828
  5
E679
331
E921
  5
EBCF
331
E4CB
  5
EE0E
331
E4AC
  5
EBF2
331
DF38
  5
EDB5
331
E42E
  5
EB6F
331
E45D
  5
EB79
331
E4EA
  5
EE2C
331
E501
  5
EE43
331
E520
  5
EE62
331
E829
  5
E67A
331
E80A
  5
E8B3
331
E8BD
  5
E8B8
331
E6B0
  5
EBB2
331
E4AD
  5
EBF3
331
E42F
  5
EB70
331
E45E
  5
EB7A
331
E4EB
  5
EE2D
331
E502
  5
EE44
331
E521
  5
EE63
331
E849
  5
E69A
331
E80B
  5
E8B6
331
E8ED
  5
E8D3
331
EA68
  5
EB17
331
E6B1
  5
EBB3
331
E522
  5
EE64
331
E4CD
  5
EE0F
331
E4AE
  5
EBF4
331
E430
  5
EB71
331
E411
  5
EB4C
331
E45F
  5
EB7B
331
E4EC
  5
EE2E
331
E503
  5
EE45
331
E84A
  5
E69F
331
E80C
  5
E65B
331
EA32
  5
ED1D
331
EA69
  5
EB18
331
E504
  5
EE46
331
E4AF
  5
EBF5
331
E431
  5
EB72
331
E412
  5
EB4D
331
E460
  5
EB7C
331
E4CE
  5
EE10
331
E4ED
  5
EE2F
331
E523
  5
EE65
331
E6B2
  5
EBB4
331
E6F1
  5
EC0D
331
E778
  5
EC31
331
EAB0
  5
EBDF
331
E8C8
  5
E8BD
331
E82C
  5
E67B
331
E80D
  5
E65C
331
E84B
  5
E6A0
331
E8EF
  5
E8D4
331
EA33
  5
ED1E
331
EA6A
  5
EB19
331
E6B3
  5
EBB5
331
E524
  5
EE66
331
E505
  5
EE47
331
E4B0
  5
EBF6
331
E461
  5
EB7D
331
E413
  5
EB4E
331
E4CF
  5
EE11
331
E4EE
  5
EE30
331
E6F2
  5
EC0E
331
E7A0
  5
E7B7
331
EAB1
  5
EBE1
331
E8C9
  5
E8C0
331
E84C
  5
E6A1
331
E82D
  5
E67C
331
E80E
  5
E65D
331
E87B
  5
E6C5
331
EA6B
  5
EB1A
331
EAF8
  5
EB01
331
1041A
  5
1041A
331
E6B4
  5
EBB6
331
E506
  5
EE48
331
E4B1
  5
EBF7
331
E462
  5
EB7E
331
E414
  5
EB4F
331
E4D0
  5
EE12
331
E4EF
  5
EE31
331
E6F3
  5
EC0F
331
E7A1
  5
E7B9
331
E7C8
  5
E819
331
E8F1
  5
E8D5
331
E84D
  5
E6A2
331
E82E
  5
E67D
331
E80F
  5
E65E
331
E87C
  5
E6C6
331
EA35
  5
EDAF
331
EA6C
  5
EB1B
331
E7A2
  5
E7BA
331
E77B
  5
EC32
331
E6B5
  5
EBB7
331
E4F0
  5
EE32
331
E4B2
  5
EBF8
331
E463
  5
EB7F
331
E415
  5
EB50
331
E4D1
  5
EE13
331
E507
  5
EE49
331
E6F4
  5
EE67
331
E7C9
  5
E81A
331
E7E8
  5
E86E
331
EA36
  5
EDB0
331
E84E
  5
E6A3
331
E82F
  5
E67E
331
E810
  5
E65F
331
E87D
  5
E6E3
331
EB68
  5
EB2B
331
E7A3
  5
E7BB
331
E77C
  5
EC33
331
E4F1
  5
EE33
331
E4B3
  5
EBF9
331
E464
  5
EB80
331
E416
  5
EB51
331
E4D2
  5
EE14
331
E508
  5
EE4A
331
E6B6
  5
EBB8
331
E7CA
  5
E81B
331
E7E9
  5
E86F
331
E8CC
  5
E8C1
331
E84F
  5
E6A4
331
E811
  5
E660
331
E87E
  5
E6E6
331
EA37
  5
EDB1
331
EB4A
  5
EB24
331
EB69
  5
EB2C
331
E77D
  5
EC34
331
E6B7
  5
EBB9
331
E4F2
  5
EE34
331
E465
  5
EB81
331
E417
  5
EB52
331
E4D3
  5
EE15
331
E509
  5
EE4B
331
E7A4
  5
E7C1
331
E7CB
  5
E81C
331
E7EA
  5
E870
331
EA8E
  5
EB2D
331
E961
  5
F0B7
331
E850
  5
E6B4
331
E812
  5
E661
331
E87F
  5
E722
331
EAFC
  5
EB02
331
EB4B
  5
EB25
331
E77E
  5
EC35
331
E4F3
  5
EE35
331
E4B5
  5
EBFC
331
E418
  5
EB53
331
E466
  5
EB82
331
E4D4
  5
EE16
331
E50A
  5
EE4C
331
E6B8
  5
EBBA
331
E6F7
  5
EE68
331
E7CC
  5
E81D
331
E7EB
  5
E871
331
45C3
  5
5464
331
EA8F
  5
EB2E
331
E8F5
  5
E8D6
331
E8A7
  5
EAE1
331
E851
  5
E6B5
331
E813
  5
E662
331
E880
  5
E723
331
E962
  5
F0B8
331
EAFD
  5
EB03
331
EB4C
  5
EB26
331
ECE8
  5
E62D
331
E6F8
  5
EE69
331
E6B9
  5
EBBB
331
E4F4
  5
EE36
331
E4B6
  5
EBFD
331
E419
  5
EB54
331
E467
  5
EB83
331
E4D5
  5
EE17
331
E50B
  5
EE4D
331
E77F
  5
EC36
331
E7A6
  5
E807
331
E7CD
  5
E81F
331
E7EC
  5
E878
331
EA90
  5
EB2F
331
E8F6
  5
E8D7
331
E8A8
  5
EAE2
331
E852
  5
E6B6
331
E814
  5
E663
331
E963
  5
F0B9
331
EA42
  5
EB0A
331
10430
  5
10430
331
ECE9
  5
E630
331
ED08
  5
EDEE
331
E6F9
  5
EE6A
331
E6BA
  5
EBBC
331
E69B
  5
EB9D
331
E4F5
  5
EE37
331
E468
  5
EB84
331
E41A
  5
EB55
331
E4D6
  5
EE18
331
E50C
  5
EE4E
331
E780
  5
EC37
331
E7CE
  5
E820
331
E7ED
  5
E879
331
EAB8
  5
EBE3
331
EA91
  5
EB30
331
E8F7
  5
E8D8
331
E815
  5
E664
331
E853
  5
E6B7
331
E964
  5
F0BB
331
EA43
  5
EB0B
331
ECEA
  5
E63C
331
10431
  5
10431
331
EC8B
  5
EB97
331
ED09
  5
EDF1
331
ED28
  5
EE02
331
E6FA
  5
EE6B
331
E6BB
  5
EBBD
331
E69C
  5
EB9E
331
E4F6
  5
EE38
331
E4B8
  5
EBFE
331
E469
  5
EB85
331
E41B
  5
EB56
331
E4D7
  5
EE19
331
E50D
  5
EE4F
331
E7CF
  5
E821
331
E7EE
  5
E87A
331
EAB9
  5
EBE4
331
EA7B
  5
EB1D
331
E936
  5
EE72
331
E8F8
  5
E8D9
331
E854
  5
E6B8
331
E835
  5
E67F
331
E816
  5
E665
331
E8D1
  5
E8C2
331
E917
  5
E8E4
331
EA44
  5
EB0C
331
EA92
  5
EB31
331
EDC8
  5
D2AE
331
ED29
  5
EE03
331
10432
  5
10432
331
ECEB
  5
E63D
331
ED0A
  5
EDF3
331
E6FB
  5
EE6C
331
E69D
  5
EB9F
331
E4B9
  5
EBFF
331
E46A
  5
EB86
331
E41C
  5
EB57
331
E4D8
  5
EE1A
331
E4F7
  5
EE39
331
E50E
  5
EE50
331
E7D0
  5
E822
331
E7EF
  5
E87B
331
EA7C
  5
EB1E
331
E937
  5
EE73
331
E8AB
  5
EAE7
331
E855
  5
E6B9
331
E836
  5
E680
331
E817
  5
E666
331
E8F9
  5
E8DA
331
E918
  5
E8E5
331
EA45
  5
EB0D
331
EABA
  5
EBE5
331
EB01
  5
EB05
331
EDC9
  5
D2AF
331
10433
  5
10433
331
ECEC
  5
E640
331
ED2A
  5
EE04
331
D288
  5
E5B1
331
E7F0
  5
E87C
331
E6FC
  5
EE6D
331
E69E
  5
EBA0
331
E4BA
  5
EC00
331
E41D
  5
EB58
331
E46B
  5
EB87
331
E4D9
  5
EE1B
331
E4F8
  5
EE3A
331
E50F
  5
EE51
331
E7D1
  5
E824
331
45A9
  5
4B8E
331
EA7D
  5
EB1F
331
E938
  5
EE74
331
E8D3
  5
E8C4
331
E856
  5
E6BA
331
E837
  5
E681
331
E818
  5
E667
331
E8FA
  5
E8DB
331
EA46
  5
EB0E
331
EABB
  5
EBE8
331
EB02
  5
EB06
331
EE49
  5
EDB6
331
D2A0
  5
E5CF
331
ECED
  5
E641
331
EC2F
  5
EB98
331
ED0C
  5
EDF4
331
D289
  5
E5B2
331
E7F1
  5
E87D
331
E6FD
  5
EE6E
331
E510
  5
EE52
331
E46C
  5
EB88
331
E41E
  5
EB59
331
E4DA
  5
EE1C
331
E4F9
  5
EE3B
331
E69F
  5
EBA1
331
E7D2
  5
E825
331
EA7E
  5
EB20
331
E8FB
  5
E8DC
331
E8D4
  5
E8C5
331
E857
  5
E6BB
331
E838
  5
E682
331
E819
  5
E668
331
E939
  5
EE75
331
EABC
  5
EBDC
331
EB03
  5
EB07
331
F1C8
  5
F43C
331
D2C0
  5
E5E9
331
EE4A
  5
EDB7
331
D2A1
  5
E5D0
331
EC30
  5
EB99
331
ECEE
  5
E642
331
D28A
  5
E5B3
331
E7F2
  5
E87E
331
E511
  5
EE53
331
E46D
  5
EB89
331
E41F
  5
EB5A
331
E4DB
  5
EE1D
331
E4FA
  5
EE3C
331
E6A0
  5
EBA2
331
E6FE
  5
EE6F
331
E7D3
  5
E826
331
EB53
  5
EB27
331
EA7F
  5
EB21
331
E93A
  5
F006
331
E8FC
  5
E8DD
331
E8D5
  5
E8C6
331
E858
  5
E6BC
331
E81A
  5
E669
331
E91B
  5
EBC9
331
EABD
  5
EBE0
331
EB04
  5
EB08
331
F1C9
  5
F43D
331
D2F8
  5
E8E7
331
D2A2
  5
E5D1
331
ECD0
  5
E60E
331
EC31
  5
EB9A
331
ECEF
  5
E644
331
D28B
  5
E5B4
331
E7F3
  5
E87F
331
E512
  5
EE54
331
E46E
  5
EB8A
331
E420
  5
EB5B
331
E457
  5
EB73
331
E4DC
  5
EE1E
331
E4FB
  5
EE3D
331
E6A1
  5
EBA3
331
E786
  5
EC39
331
E7D4
  5
E827
331
F4D0
  5
F4D6
331
EABE
  5
EBDE
331
E91C
  5
EBCB
331
E8FD
  5
E8DE
331
E8D6
  5
E8C7
331
E859
  5
E6BD
331
E81B
  5
E66A
331
EA80
  5
EB22
331
EB54
  5
EB28
331
F210
  5
F45E
331
F1CA
  5
F43E
331
D2F9
  5
E8E8
331
EE4C
  5
EDB8
331
D2A3
  5
E5D2
331
ECD1
  5
E611
331
EC32
  5
EB9B
331
ECF0
  5
E645
331
D28C
  5
E5B5
331
D398
  5
EBD3
331
E7F4
  5
E880
331
E6A2
  5
EBA4
331
E513
  5
EE55
331
E46F
  5
EB8B
331
E421
  5
EB5C
331
E4DD
  5
EE1F
331
E4FC
  5
EE3E
331
E787
  5
EC3A
331
E7D5
  5
E829
331
F4B2
  5
F435
331
F4D1
  5
F4D7
331
F4F0
  5
F945
331
EABF
  5
EBE2
331
E91D
  5
EBCC
331
E8FE
  5
E8DF
331
E8D7
  5
E8C8
331
E85A
  5
E6BE
331
E83B
  5
E683
331
E81C
  5
E66D
331
E9E3
  5
F0BC
331
EA81
  5
EB23
331
F1CB
  5
F43F
331
F211
  5
F45F
331
EE4D
  5
EDB9
331
ECD2
  5
E61C
331
D28D
  5
E5B6
331
D2A4
  5
E5D3
331
D2C3
  5
E5F9
331
D3B0
  5
EBD7
331
E7B7
  5
E808
331
E6A3
  5
EBA5
331
E514
  5
EE56
331
E470
  5
EB8C
331
E422
  5
EB5D
331
E4DE
  5
EE20
331
E4FD
  5
EE3F
331
E788
  5
EC3B
331
E7D6
  5
E82A
331
E7F5
  5
E89B
331
F46C
  5
F3EF
331
F4B3
  5
F438
331
F4D2
  5
F4D8
331
E91E
  5
EBCD
331
E8FF
  5
EE71
331
E8D8
  5
E8C9
331
E83C
  5
E684
331
E81D
  5
E66E
331
E85B
  5
E6BF
331
EAA1
  5
EB33
331
F1CC
  5
F440
331
F212
  5
F460
331
EE75
  5
F3EE
331
EE4E
  5
EDBA
331
ECD3
  5
E61F
331
D28E
  5
E5BD
331
D2A5
  5
E5D4
331
D2C4
  5
E5FA
331
D3B1
  5
EBD8
331
E7D7
  5
E82B
331
E6E3
  5
EC01
331
E6A4
  5
EBA6
331
E515
  5
EE57
331
E471
  5
EB8D
331
E423
  5
EB64
331
E4DF
  5
EE21
331
E4FE
  5
EE40
331
E789
  5
EC3C
331
E7B8
  5
E809
331
E7F6
  5
E89C
331
F46D
  5
F3F0
331
F4D3
  5
F4D9
331
E91F
  5
EBCE
331
E900
  5
E8E0
331
E85C
  5
E6C0
331
E83D
  5
E68C
331
E81E
  5
E66F
331
E8D9
  5
E8CB
331
E9E5
  5
F0BD
331
EAA2
  5
EB34
331
F280
  5
F48E
331
F1CD
  5
F441
331
F213
  5
F462
331
EE4F
  5
EDBB
331
ED41
  5
F0C1
331
EB76
  5
EBBE
331
D28F
  5
E5BE
331
D2A6
  5
E5D5
331
D2C5
  5
E5FD
331
D3B2
  5
EBD9
331
D470
  5
EC44
331
E6E4
  5
EC02
331
E6A5
  5
EBA7
331
E516
  5
EE58
331
E4C1
  5
EE05
331
E472
  5
EB8E
331
E424
  5
EB65
331
E4E0
  5
EE22
331
E4FF
  5
EE41
331
E78A
  5
EC3D
331
E7D8
  5
E83E
331
E7F7
  5
E89D
331
F46E
  5
F3F1
331
F4D4
  5
F4DA
331
E9E6
  5
F0BE
331
E8DA
  5
E8CC
331
E8B3
  5
EAE8
331
E85D
  5
E6C1
331
E83E
  5
E68D
331
E81F
  5
E670
331
E901
  5
E8E1
331
EA55
  5
EB10
331
EAA3
  5
EB35
331
EB31
  5
EB09
331
F320
  5
F4A7
331
F281
  5
F48F
331
D490
  5
ED01
331
F1CE
  5
F442
331
F214
  5
F463
331
EE50
  5
EDBC
331
ED42
  5
F0C2
331
EB77
  5
EBBF
331
D290
  5
E5BF
331
D2A7
  5
E5D6
331
D2C6
  5
E602
331
D471
  5
EC45
331
E6E5
  5
EC03
331
E6A6
  5
EBA8
331
E4E1
  5
EE23
331
E425
  5
EB66
331
E473
  5
EB8F
331
E4C2
  5
EE06
331
E517
  5
EE59
331
E78B
  5
EC3E
331
E7D9
  5
E83F
331
E7F8
  5
E89E
331
F943
  5
F948
331
F46F
  5
F3F2
331
F4B6
  5
F4BC
331
F4D5
  5
F4DB
331
E9E7
  5
F0BF
331
E8DB
  5
E8CD
331
E8B4
  5
EAE9
331
E85E
  5
E6C2
331
E83F
  5
E690
331
EA56
  5
EB11
331
EAA4
  5
EB36
331
EAC3
  5
EAFA
331
EB32
  5
EC26
331
F321
  5
F4A8
331
F282
  5
F490
331
D491
  5
ED02
331
F215
  5
F464
331
F1CF
  5
F443
331
F1EE
  5
F44C
331
ED43
  5
F0C3
331
EB78
  5
EBC0
331
EE51
  5
EDBD
331
D2C7
  5
E604
331
D472
  5
EC46
331
E6E6
  5
EC04
331
E6A7
  5
EBA9
331
E518
  5
EE5A
331
E4C3
  5
EE07
331
E474
  5
EB90
331
E426
  5
EB67
331
E4E2
  5
EE24
331
E7DA
  5
E840
331
E7F9
  5
E89F
331
F944
  5
F949
331
F4B7
  5
F4BD
331
F470
  5
F3F3
331
F4D6
  5
F4DC
331
E9E8
  5
F0C0
331
E903
  5
E8E2
331
E8DC
  5
E8CE
331
E8B5
  5
EAEA
331
E85F
  5
E6C3
331
EA57
  5
EB12
331
EAA5
  5
EB37
331
EAC4
  5
EAFB
331
F322
  5
F4A9
331
F283
  5
F491
331
D492
  5
ED03
331
F235
  5
E5A0
331
F1D0
  5
F444
331
EB79
  5
EBC1
331
ED44
  5
F0C4
331
EE52
  5
EDBE
331
F1EF
  5
F44D
331
F216
  5
F465
331
D3E4
  5
EC18
331
D473
  5
EC47
331
E6E7
  5
EC05
331
E6A8
  5
EBAA
331
E4E3
  5
EE25
331
E475
  5
EB91
331
E427
  5
EB68
331
E4C4
  5
EE08
331
E519
  5
EE5B
331
E7DB
  5
E854
331
E7FA
  5
E8A0
331
F945
  5
F94A
331
F4B8
  5
F4BE
331
F471
  5
F3F4
331
F4D7
  5
F4DD
331
EA58
  5
EB13
331
E8DD
  5
E8CF
331
E8B6
  5
EAEB
331
EAA6
  5
EB38
331
EB34
  5
EC27
331
F323
  5
F4AA
331
F284
  5
F492
331
D493
  5
ED04
331
F1D1
  5
F445
331
ED45
  5
F0C5
331
1045E
  5
1045E
331
ED16
  5
EDF5
331
EE53
  5
EDBF
331
F1F0
  5
F44E
331
F217
  5
F467
331
D3E5
  5
EC19
331
D474
  5
EC48
331
E7BD
  5
E80A
331
E6A9
  5
EBAB
331
E51A
  5
EE5C
331
E4E4
  5
EE26
331
E476
  5
EB92
331
E6E8
  5
EC06
331
E777
  5
EC30
331
E7DC
  5
E855
331
E7FB
  5
E8A1
331
F946
  5
F959
331
F4B9
  5
F4BF
331
F472
  5
F3F5
331
F4D8
  5
F4DE
331
E8DE
  5
E8D0
331
E8B7
  5
EAEC
331
EA59
  5
EB14
331
EAA7
  5
EB39
331
F324
  5
F4AB
331
F285
  5
F493
331
D494
  5
ED05
331
F218
  5
F468
331
F1D2
  5
F446
331
1045F
  5
1045F
331
ED46
  5
F0C6
331
EE54
  5
EDC0
331
F1F1
  5
F44F
331
D475
  5
EC49
331
E6E9
  5
EC07
331
E6AA
  5
EBAC
331
E4C6
  5
EE09
331
E4E5
  5
EE27
331
E51B
  5
EE5D
331
E7BE
  5
E80B
331
E7DD
  5
E856
331
E7FC
  5
E8A2
331
FAB3
  5
FAB3
331
F947
  5
F97E
331
F4BA
  5
F4C0
331
45B5
  5
545E
331
F473
  5
F3F6
331
F4D9
  5
F4DF
331
F98E
  5
F9E4
331
EA5A
  5
EB15
331
EB36
  5
EC28
331
F325
  5
F4AC
331
F286
  5
F494
331
D495
  5
ED06
331
F238
  5
E5A1
331
F219
  5
F469
331
F1D3
  5
F447
331
F1F2
  5
F450
331
D2CB
  5
E605
331
EE55
  5
EDD7
331
ED47
  5
F0C7
331
EDE6
  5
D2D4
331
D295
  5
E5C3
331
D2AC
  5
E5D7
331
D476
  5
EC4A
331
E6EA
  5
EC08
331
E6AB
  5
EBAD
331
E4C7
  5
EE0A
331
E4E6
  5
EE28
331
E51C
  5
EE5E
331
E7BF
  5
E80C
331
E7DE
  5
E863
331
E7FD
  5
E8A3
331
F948
  5
F97F
331
F4BB
  5
F4C1
331
F474
  5
F3F7
331
F4DA
  5
F4E0
331
FA26
  5
FA26
331
EA5B
  5
EB16
331
EAC8
  5
EAFD
331
EB37
  5
EC29
331
F326
  5
F4AD
331
F287
  5
F495
331
D496
  5
ED07
331
F239
  5
E5A2
331
F21A
  5
F46A
331
F1F3
  5
F451
331
EE56
  5
EDD8
331
ED48
  5
F0C8
331
D296
  5
E5C4
331
D2CC
  5
E606
331
D477
  5
EC4B
331
E6EB
  5
EC09
331
E4E7
  5
EE29
331
E51D
  5
EE5F
331
E6AC
  5
EBAE
331
E7C0
  5
E80D
331
E7DF
  5
E864
331
E7FE
  5
E8A4
331
F949
  5
F980
331
F4BC
  5
F4C2
331
F475
  5
F3F8
331
F4DB
  5
F4E1
331
EAC9
  5
EAFE
331
EB38
  5
EC2A
331
EB67
  5
EB2A
331
F327
  5
F4AE
331
D497
  5
ED08
331
F23A
  5
E5A3
331
F21B
  5
F46C
331
F1F4
  5
F452
331
D30C
  5
EAF9
331
EDE8
  5
D2D7
331
ED49
  5
F0C9
331
ED1A
  5
EDF6
331
10489
  5
10489
331
ED03
  5
EDE6
331
D297
  5
E5C5
331
D2CD
  5
E607
331
D478
  5
EC4C
331
E6EC
  5
EC0A
331
E6AD
  5
EBAF
331
E51E
  5
EE60
331
E7C1
  5
E80E
331
E7E0
  5
E865
331
E7FF
  5
E8A5
331
F94A
  5
F98E
331
F4BD
  5
F4C3
331
F476
  5
F3F9
331
F4DC
  5
F4E2
331
EACA
  5
EAFF
331
EB39
  5
EC2B
331
F328
  5
F4AF
331
D498
  5
ED09
331
F23B
  5
E5A4
331
F21C
  5
F46D
331
F1F5
  5
F453
331
EE58
  5
EDD9
331
EDE9
  5
D39F
331
ED04
  5
EDE7
331
D298
  5
E5C6
331
D2CE
  5
E608
331
D3F2
  5
EC1D
331
D479
  5
EC4D
331
E6AE
  5
EBB0
331
E51F
  5
EE61
331
E79B
  5
E725
331
E7C2
  5
E80F
331
E7E1
  5
E866
331
F4BE
  5
F4C4
331
F477
  5
F3FA
331
F4DD
  5
F4E3
331
EACB
  5
EB00
331
EB3A
  5
EC2C
331
F329
  5
F4B0
331
D499
  5
ED0A
331
F23C
  5
E5A5
331
F1F6
  5
F454
331
ED4B
  5
F0CA
331
EC47
  5
EB9C
331
ECDE
  5
E622
331
ED05
  5
EDE8
331
D299
  5
E5C7
331
D2CF
  5
E609
331
D3F3
  5
EC21
331
D47A
  5
EC4E
331
E6EE
  5
EC0B
331
E6AF
  5
EBB1
331
E79C
  5
E726
331
E7C3
  5
E810
331
E7E2
  5
E867
331
F4BF
  5
F4C5
331
F478
  5
F3FB
331
F4DE
  5
F4E4
331
EB3B
  5
EC2D
331
F32A
  5
F4B1
331
D47B
  5
EC4F
331
F23D
  5
E5A6
331
F21E
  5
E596
331
F1F7
  5
F455
331
D3C5
  5
EBDA
331
EE5A
  5
EDDA
331
ED4C
  5
F0CB
331
ED1D
  5
EDF7
331
D29A
  5
E5C8
331
D2D0
  5
E60A
331
D3F4
  5
EC22
331
D49A
  5
ED0B
331
E6EF
  5
EC0C
331
E79D
  5
E790
331
E7C4
  5
E815
331
E7E3
  5
E868
331
F99C
  5
F9E5
331
F4C0
  5
F4C6
331
45BB
  5
545F
331
F479
  5
F406
331
F4DF
  5
F4E5
331
EAAE
  5
EBDB
331
EB3C
  5
EC2E
331
F32B
  5
F4B2
331
D49B
  5
ED0C
331
D3F5
  5
EC23
331
F1F8
  5
F456
331
F19A
  5
F439
331
D2D1
  5
E60B
331
ED1E
  5
EDF8
331
ED07
  5
EDEB
331
D29B
  5
E5C9
331
D2B2
  5
E5DA
331
D3A7
  5
EBD4
331
D47C
  5
EC50
331
E79E
  5
E798
331
E7C5
  5
E816
331
E7E4
  5
E869
331
102CB
  5
102CB
331
10074
  5
10074
331
F4E0
  5
F4E6
331
F4C1
  5
F4C7
331
EAAF
  5
EBDD
331
EB3D
  5
EC2F
331
F32C
  5
F4B3
331
D49C
  5
ED0D
331
F23F
  5
F46E
331
F228
  5
E597
331
F1F9
  5
F457
331
D3A8
  5
EBD5
331
EE5C
  5
EDDB
331
ED4E
  5
F0CC
331
ED1F
  5
EDF9
331
D29C
  5
E5CA
331
D2B3
  5
E5DB
331
D3C7
  5
EBE9
331
D47D
  5
EC51
331
E79F
  5
E79A
331
E7C6
  5
E817
331
E7E5
  5
E86A
331
102CC
  5
102CC
331
F4E1
  5
F4E7
331
F4C2
  5
F4C8
  0
SORTENTSTABLE
  5
10486
102
{ACAD_REACTORS
330
10485
102
}
330
10485
100
AcDbSortentsTable
330
10474
  0
LAYOUT
  5
F8D7
102
{ACAD_XDICTIONARY
360
1052D
102
}
102
{ACAD_REACTORS
330
1A
102
}
330
1A
100
AcDbPlotSettings
  1

  2
hp LaserJet 1010 Series Driver
  4

  6

 40
0.0
 41
0.0
 42
0.0
 43
0.0
 44
0.0
 45
0.0
 46
0.0
 47
0.0
 48
0.0
 49
0.0
140
0.0
141
0.0
142
1.0
143
1.0
 70
   688
 72
     0
 73
     0
 74
     5
  7
Dart1.ctb
 75
    16
147
1.0
148
0.0
149
0.0
100
AcDbLayout
  1
Layout1
 70
     1
 71
     1
 10
0.0
 20
0.0
 11
12.0
 21
9.0
 12
0.0
 22
0.0
 32
0.0
 14
0.0
 24
0.0
 34
0.0
 15
0.0
 25
0.0
 35
0.0
146
0.0
 13
0.0
 23
0.0
 33
0.0
 16
1.0
 26
0.0
 36
0.0
 17
0.0
 27
1.0
 37
0.0
 76
     0
330
F8D6
  0
LAYOUT
  5
22
102
{ACAD_XDICTIONARY
360
1052B
102
}
102
{ACAD_REACTORS
330
1A
102
}
330
1A
100
AcDbPlotSettings
  1

  2
PDF995
  4
Letter
  6

 40
3.174999952316284
 41
3.174999952316284
 42
3.175003051757812
 43
3.17498779296875
 44
215.8999938964844
 45
279.3999938964844
 46
0.0
 47
0.0
 48
1.570809578957408
 49
3.657146664025759
140
32.90297866818838
141
26.37105672299524
142
1.0
143
2.914620314733771
 70
 11952
 72
     0
 73
     1
 74
     4
  7
Dart1.ctb
 75
     0
147
0.3430978625054093
148
-39.89856330551818
149
-92.89152526625429
100
AcDbLayout
  1
Model
 70
     1
 71
     0
 10
0.0
 20
0.0
 11
12.0
 21
9.0
 12
0.0
 22
0.0
 32
0.0
 14
0.0
 24
0.0
 34
0.0
 15
0.0
 25
0.0
 35
0.0
146
0.0
 13
0.0
 23
0.0
 33
0.0
 16
1.0
 26
0.0
 36
0.0
 17
0.0
 27
1.0
 37
0.0
 76
     0
330
1F
1001
ACAD_PSEXT
1000
PDF995
1000
PDF995 Printer Driver
1000
PDF995PORT
1000

1070
     0
  0
MLINESTYLE
  5
18
102
{ACAD_REACTORS
330
17
102
}
330
17
100
AcDbMlineStyle
  2
STANDARD
 70
     0
  3

 62
   256
 51
90.0
 52
90.0
 71
     2
 49
0.5
 62
   256
  6
BYLAYER
 49
-0.5
 62
   256
  6
BYLAYER
  0
ACDBPLACEHOLDER
  5
F
102
{ACAD_REACTORS
330
E
102
}
330
E
  0
TABLESTYLE
  5
502B
102
{ACAD_REACTORS
330
502A
102
}
330
502A
100
AcDbTableStyle
  3
Standard
 70
     0
 71
     0
 40
0.06
 41
0.06
280
     0
281
     0
  7
Standard
140
0.18
170
     2
 62
     0
 63
     7
283
     0
274
    -2
284
     1
 64
     0
275
    -2
285
     1
 65
     0
276
    -2
286
     1
 66
     0
277
    -2
287
     1
 67
     0
278
    -2
288
     1
 68
     0
279
    -2
289
     1
 69
     0
  7
Standard
140
0.25
170
     5
 62
     0
 63
     7
283
     0
274
    -2
284
     1
 64
     0
275
    -2
285
     1
 65
     0
276
    -2
286
     1
 66
     0
277
    -2
287
     1
 67
     0
278
    -2
288
     1
 68
     0
279
    -2
289
     1
 69
     0
  7
Standard
140
0.18
170
     5
 62
     0
 63
     7
283
     0
274
    -2
284
     1
 64
     0
275
    -2
285
     1
 65
     0
276
    -2
286
     1
 66
     0
277
    -2
287
     1
 67
     0
278
    -2
288
     1
 68
     0
279
    -2
289
     1
 69
     0
  0
DICTIONARYVAR
  5
503A
102
{ACAD_REACTORS
330
5039
102
}
330
5039
100
DictionaryVariables
280
     0
  1
STANDARD
  0
DICTIONARYVAR
  5
505A
102
{ACAD_REACTORS
330
5039
102
}
330
5039
100
DictionaryVariables
280
     0
  1
1
  0
DICTIONARYVAR
  5
505B
102
{ACAD_REACTORS
330
5039
102
}
330
5039
100
DictionaryVariables
280
     0
  1

  0
XRECORD
  5
E3A6
102
{ACAD_REACTORS
330
E3A5
102
}
330
E3A5
100
AcDbXrecord
280
     1
330
E6F9
330
E6FE
330
0
330
0
330
0
330
0
330
0
330
0
330
0
330
0
330
0
330
0
330
0
330
0
330
0
330
0
330
0
330
0
330
0
330
0
330
0
330
0
330
0
330
0
330
0
330
0
330
0
330
0
330
0
330
0
330
0
330
0
330
0
330
0
330
0
330
0
330
0
330
0
330
0
330
0
330
0
330
0
330
0
330
0
330
0
330
0
330
0
330
0
330
0
330
0
330
0
330
0
330
0
330
0
330
0
330
0
330
0
330
0
330
0
330
0
330
D3AF
330
D3B0
330
0
330
D3C5
330
0
330
D3C7
330
D3C8
330
D3C9
330
D3CA
330
0
330
0
330
0
330
0
330
0
330
0
330
0
330
0
330
0
330
0
330
0
330
0
330
E4C3
330
E4C8
330
E520
330
E524
330
0
330
0
330
0
330
0
330
0
330
0
330
0
330
0
330
0
330
0
330
0
330
0
330
0
330
0
  0
DICTIONARY
  5
1052D
330
F8D7
100
AcDbDictionary
280
     1
281
     1
  3
ACAD_XREC_ROUNDTRIP
360
1052E
  0
DICTIONARY
  5
1052B
330
22
100
AcDbDictionary
280
     1
281
     1
  3
ACAD_XREC_ROUNDTRIP
360
1052C
  0
XRECORD
  5
1052E
102
{ACAD_REACTORS
330
1052D
102
}
330
1052D
100
AcDbXrecord
280
     1
102
SHADEPLOT
 70
     0
102
SHADEPLOTRESLEVEL
 70
     2
102
SHADEPLOTCUSTOMDPI
 70
   300
  0
XRECORD
  5
1052C
102
{ACAD_REACTORS
330
1052B
102
}
330
1052B
100
AcDbXrecord
280
     1
102
SHADEPLOT
 70
     0
102
SHADEPLOTRESLEVEL
 70
     2
102
SHADEPLOTCUSTOMDPI
 70
   300
  0
ENDSEC
  0
EOF
