  0
SECTION
  2
HEADER
  9
$ACADVER
  1
AC1024
  9
$ACADMAINTVER
 70
     6
  9
$DWGCODEPAGE
  3
ANSI_1252
  9
$INSBASE
 10
0.0
 20
0.0
 30
0.0
  9
$EXTMIN
 10
121.248034450681
 20
172.4434478843073
 30
0.0
  9
$EXTMAX
 10
352.098446569424
 20
329.0119307225665
 30
0.0
  9
$LIMMIN
 10
-261.6891414091587
 20
-119.7587119816502
  9
$LIMMAX
 10
415.6239464101483
 20
403.6195831514506
  9
$ORTHOMODE
 70
     1
  9
$REGENMODE
 70
     1
  9
$FILLMODE
 70
     1
  9
$QTEXTMODE
 70
     0
  9
$MIRRTEXT
 70
     1
  9
$LTSCALE
 40
1.0
  9
$ATTMODE
 70
     1
  9
$TEXTSIZE
 40
3.9624
  9
$TRACEWID
 40
1.0
  9
$TEXTSTYLE
  7
Standard
  9
$CLAYER
  8
0
  9
$CELTYPE
  6
ByLayer
  9
$CECOLOR
 62
   256
  9
$CELTSCALE
 40
1.0
  9
$DISPSILH
 70
     0
  9
$DIMSCALE
 40
1.0
  9
$DIMASZ
 40
3.302
  9
$DIMEXO
 40
1.27
  9
$DIMDLI
 40
3.75
  9
$DIMRND
 40
0.0
  9
$DIMDLE
 40
0.0
  9
$DIMEXE
 40
3.175
  9
$DIMTP
 40
0.0
  9
$DIMTM
 40
0.0
  9
$DIMTXT
 40
4.0
  9
$DIMCEN
 40
0.0
  9
$DIMTSZ
 40
0.0
  9
$DIMTOL
 70
     0
  9
$DIMLIM
 70
     0
  9
$DIMTIH
 70
     1
  9
$DIMTOH
 70
     1
  9
$DIMSE1
 70
     0
  9
$DIMSE2
 70
     0
  9
$DIMTAD
 70
     0
  9
$DIMZIN
 70
     1
  9
$DIMBLK
  1

  9
$DIMASO
 70
     1
  9
$DIMSHO
 70
     1
  9
$DIMPOST
  1

  9
$DIMAPOST
  1
^B2147483648l^B
  9
$DIMALT
 70
     0
  9
$DIMALTD
 70
     3
  9
$DIMALTF
 40
0.0393700787401575
  9
$DIMLFAC
 40
1.0
  9
$DIMTOFL
 70
     0
  9
$DIMTVP
 40
0.0
  9
$DIMTIX
 70
     0
  9
$DIMSOXD
 70
     0
  9
$DIMSAH
 70
     0
  9
$DIMBLK1
  1

  9
$DIMBLK2
  1

  9
$DIMSTYLE
  2
Standard
  9
$DIMCLRD
 70
     0
  9
$DIMCLRE
 70
     0
  9
$DIMCLRT
 70
     0
  9
$DIMTFAC
 40
1.0
  9
$DIMGAP
 40
1.524
  9
$DIMJUST
 70
     0
  9
$DIMSD1
 70
     0
  9
$DIMSD2
 70
     0
  9
$DIMTOLJ
 70
     0
  9
$DIMTZIN
 70
     1
  9
$DIMALTZ
 70
     0
  9
$DIMALTTZ
 70
     0
  9
$DIMUPT
 70
     0
  9
$DIMDEC
 70
     1
  9
$DIMTDEC
 70
     1
  9
$DIMALTU
 70
     2
  9
$DIMALTTD
 70
     3
  9
$DIMTXSTY
  7
Standard
  9
$DIMAUNIT
 70
     0
  9
$DIMADEC
 70
     2
  9
$DIMALTRND
 40
0.0
  9
$DIMAZIN
 70
     0
  9
$DIMDSEP
 70
    46
  9
$DIMATFIT
 70
     3
  9
$DIMFRAC
 70
     0
  9
$DIMLDRBLK
  1

  9
$DIMLUNIT
 70
     2
  9
$DIMLWD
 70
    -2
  9
$DIMLWE
 70
    -2
  9
$DIMTMOVE
 70
     0
  9
$DIMFXL
 40
1.0
  9
$DIMFXLON
 70
     0
  9
$DIMJOGANG
 40
0.7853981633974483
  9
$DIMTFILL
 70
     0
  9
$DIMTFILLCLR
 70
     0
  9
$DIMARCSYM
 70
     0
  9
$DIMLTYPE
  6
ByBlock
  9
$DIMLTEX1
  6
ByBlock
  9
$DIMLTEX2
  6
ByBlock
  9
$DIMTXTDIRECTION
 70
     0
  9
$LUNITS
 70
     2
  9
$LUPREC
 70
     2
  9
$SKETCHINC
 40
1.0
  9
$FILLETRAD
 40
10.0
  9
$AUNITS
 70
     0
  9
$AUPREC
 70
     2
  9
$MENU
  1
.
  9
$ELEVATION
 40
0.0
  9
$PELEVATION
 40
0.0
  9
$THICKNESS
 40
0.0
  9
$LIMCHECK
 70
     0
  9
$CHAMFERA
 40
0.5
  9
$CHAMFERB
 40
0.5
  9
$CHAMFERC
 40
1.0
  9
$CHAMFERD
 40
0.0
  9
$SKPOLY
 70
     0
  9
$TDCREATE
 40
2458887.713755764
  9
$TDUCREATE
 40
2458887.922089097
  9
$TDUPDATE
 40
2458887.713756458
  9
$TDUUPDATE
 40
2458887.922089792
  9
$TDINDWG
 40
0.0
  9
$TDUSRTIMER
 40
0.0
  9
$USRTIMER
 70
     1
  9
$ANGBASE
 50
0.0
  9
$ANGDIR
 70
     0
  9
$PDMODE
 70
     0
  9
$PDSIZE
 40
-1.0
  9
$PLINEWID
 40
0.0
  9
$SPLFRAME
 70
     0
  9
$SPLINETYPE
 70
     6
  9
$SPLINESEGS
 70
     8
  9
$HANDSEED
  5
434
  9
$SURFTAB1
 70
     6
  9
$SURFTAB2
 70
     6
  9
$SURFTYPE
 70
     6
  9
$SURFU
 70
     6
  9
$SURFV
 70
     6
  9
$UCSBASE
  2

  9
$UCSNAME
  2

  9
$UCSORG
 10
0.0
 20
0.0
 30
0.0
  9
$UCSXDIR
 10
1.0
 20
0.0
 30
0.0
  9
$UCSYDIR
 10
0.0
 20
1.0
 30
0.0
  9
$UCSORTHOREF
  2

  9
$UCSORTHOVIEW
 70
     0
  9
$UCSORGTOP
 10
0.0
 20
0.0
 30
0.0
  9
$UCSORGBOTTOM
 10
0.0
 20
0.0
 30
0.0
  9
$UCSORGLEFT
 10
0.0
 20
0.0
 30
0.0
  9
$UCSORGRIGHT
 10
0.0
 20
0.0
 30
0.0
  9
$UCSORGFRONT
 10
0.0
 20
0.0
 30
0.0
  9
$UCSORGBACK
 10
0.0
 20
0.0
 30
0.0
  9
$PUCSBASE
  2

  9
$PUCSNAME
  2

  9
$PUCSORG
 10
0.0
 20
0.0
 30
0.0
  9
$PUCSXDIR
 10
1.0
 20
0.0
 30
0.0
  9
$PUCSYDIR
 10
0.0
 20
1.0
 30
0.0
  9
$PUCSORTHOREF
  2

  9
$PUCSORTHOVIEW
 70
     0
  9
$PUCSORGTOP
 10
0.0
 20
0.0
 30
0.0
  9
$PUCSORGBOTTOM
 10
0.0
 20
0.0
 30
0.0
  9
$PUCSORGLEFT
 10
0.0
 20
0.0
 30
0.0
  9
$PUCSORGRIGHT
 10
0.0
 20
0.0
 30
0.0
  9
$PUCSORGFRONT
 10
0.0
 20
0.0
 30
0.0
  9
$PUCSORGBACK
 10
0.0
 20
0.0
 30
0.0
  9
$USERI1
 70
     0
  9
$USERI2
 70
     0
  9
$USERI3
 70
     0
  9
$USERI4
 70
     0
  9
$USERI5
 70
     0
  9
$USERR1
 40
0.0
  9
$USERR2
 40
0.0
  9
$USERR3
 40
0.0
  9
$USERR4
 40
0.0
  9
$USERR5
 40
0.0
  9
$WORLDVIEW
 70
     1
  9
$SHADEDGE
 70
     3
  9
$SHADEDIF
 70
    70
  9
$TILEMODE
 70
     1
  9
$MAXACTVP
 70
    64
  9
$PINSBASE
 10
0.0
 20
0.0
 30
0.0
  9
$PLIMCHECK
 70
     0
  9
$PEXTMIN
 10
0.0
 20
0.0
 30
0.0
  9
$PEXTMAX
 10
0.0
 20
0.0
 30
0.0
  9
$PLIMMIN
 10
0.0
 20
0.0
  9
$PLIMMAX
 10
0.0
 20
0.0
  9
$UNITMODE
 70
     0
  9
$VISRETAIN
 70
     1
  9
$PLINEGEN
 70
     0
  9
$PSLTSCALE
 70
     1
  9
$TREEDEPTH
 70
  3020
  9
$CMLSTYLE
  2
Standard
  9
$CMLJUST
 70
     0
  9
$CMLSCALE
 40
1.0
  9
$PROXYGRAPHICS
 70
     1
  9
$MEASUREMENT
 70
     0
  9
$CELWEIGHT
370
    -1
  9
$ENDCAPS
280
     0
  9
$JOINSTYLE
280
     0
  9
$LWDISPLAY
290
     0
  9
$INSUNITS
 70
     4
  9
$HYPERLINKBASE
  1

  9
$STYLESHEET
  1

  9
$XEDIT
290
     1
  9
$CEPSNTYPE
380
     0
  9
$PSTYLEMODE
290
     1
  9
$FINGERPRINTGUID
  2
{BD7EB4F1-4203-4042-AD0D-550595AF3F37}
  9
$VERSIONGUID
  2
{FAEB1C32-E019-11D5-929B-00C0DF256EC4}
  9
$EXTNAMES
290
     1
  9
$PSVPSCALE
 40
0.0
  9
$OLESTARTUP
290
     0
  9
$SORTENTS
280
   127
  9
$INDEXCTL
280
     0
  9
$HIDETEXT
280
     1
  9
$XCLIPFRAME
280
     2
  9
$HALOGAP
280
     0
  9
$OBSCOLOR
 70
   257
  9
$OBSLTYPE
280
     0
  9
$INTERSECTIONDISPLAY
280
     0
  9
$INTERSECTIONCOLOR
 70
   257
  9
$DIMASSOC
280
     2
  9
$PROJECTNAME
  1

  9
$CAMERADISPLAY
290
     0
  9
$LENSLENGTH
 40
50.0
  9
$CAMERAHEIGHT
 40
0.0
  9
$STEPSPERSEC
 40
2.0
  9
$STEPSIZE
 40
6.0
  9
$3DDWFPREC
 40
2.0
  9
$PSOLWIDTH
 40
0.25
  9
$PSOLHEIGHT
 40
4.0
  9
$LOFTANG1
 40
1.570796326794897
  9
$LOFTANG2
 40
1.570796326794897
  9
$LOFTMAG1
 40
0.0
  9
$LOFTMAG2
 40
0.0
  9
$LOFTPARAM
 70
     7
  9
$LOFTNORMALS
280
     1
  9
$LATITUDE
 40
37.795
  9
$LONGITUDE
 40
-122.394
  9
$NORTHDIRECTION
 40
0.0
  9
$TIMEZONE
 70
 -8000
  9
$LIGHTGLYPHDISPLAY
280
     1
  9
$TILEMODELIGHTSYNCH
280
     1
  9
$CMATERIAL
347
3C
  9
$SOLIDHIST
280
     1
  9
$SHOWHIST
280
     1
  9
$DWFFRAME
280
     2
  9
$DGNFRAME
280
     2
  9
$REALWORLDSCALE
290
     1
  9
$INTERFERECOLOR
 62
   256
  9
$CSHADOW
280
     0
  9
$SHADOWPLANELOCATION
 40
0.0
  0
ENDSEC
  0
SECTION
  2
CLASSES
  0
CLASS
  1
ACDBDICTIONARYWDFLT
  2
AcDbDictionaryWithDefault
  3
ObjectDBX Classes
 90
        0
 91
        4
280
     0
281
     0
  0
CLASS
  1
VISUALSTYLE
  2
AcDbVisualStyle
  3
ObjectDBX Classes
 90
     4095
 91
        4
280
     0
281
     0
  0
CLASS
  1
MATERIAL
  2
AcDbMaterial
  3
ObjectDBX Classes
 90
     1153
 91
        4
280
     0
281
     0
  0
CLASS
  1
SUN
  2
AcDbSun
  3
SCENEOE
 90
     1024
 91
        4
280
     0
281
     0
  0
CLASS
  1
AEC_VARS_DWG_SETUP
  2
AecDbVarsDwgSetup
  3
AecBase60
 90
      129
 91
        4
280
     0
281
     0
  0
CLASS
  1
AEC_DISP_REP_2D_SECTION
  2
AecDbDispRep2dSection
  3
AecBase60
 90
      129
 91
        4
280
     0
281
     0
  0
CLASS
  1
AEC_DISP_PROPS_2D_SECTION
  2
AecDbDispProps2dSection
  3
AecBase60
 90
      129
 91
        4
280
     0
281
     0
  0
CLASS
  1
AEC_DISP_REP_CLIP_VOLUME_MODEL
  2
AecDbDispRepClipVolModel
  3
AecBase60
 90
      129
 91
        6
280
     0
281
     0
  0
CLASS
  1
AEC_DISP_PROPS_CLIP_VOLUME
  2
AecDbDispPropsClipVol
  3
AecBase60
 90
      129
 91
        4
280
     0
281
     0
  0
CLASS
  1
AEC_DISP_REP_CLIP_VOLUME_PLAN
  2
AecDbDispRepClipVolPlan
  3
AecBase60
 90
      129
 91
        4
280
     0
281
     0
  0
CLASS
  1
AEC_DISP_REP_CLIP_VOLUME_RESULT
  2
AecDbDispRepClipVolResult
  3
AecBase60
 90
      129
 91
        6
280
     0
281
     0
  0
CLASS
  1
AEC_DISP_REP_CLIP_VOLUME_RESULT_SUBDIV
  2
AecDbDispRepClipVolResSubDiv
  3
AecBase60
 90
      129
 91
        5
280
     0
281
     0
  0
CLASS
  1
AEC_DISP_PROPS_CLIP_VOLUME_RESULT
  2
AecDbDispPropsClipVolResSubDiv
  3
AecBase60
 90
      129
 91
        4
280
     0
281
     0
  0
CLASS
  1
AEC_DISP_REP_DISPLAYTHEME
  2
AecDbDispRepDisplayTheme
  3
AecBase60
 90
      129
 91
        4
280
     0
281
     0
  0
CLASS
  1
AEC_DISP_PROPS_DISPLAYTHEME
  2
AecDbDispPropsDisplayTheme
  3
AecBase60
 90
      129
 91
        4
280
     0
281
     0
  0
CLASS
  1
AEC_DISP_REP_ENT_REF
  2
AecDbDispRepEntRef
  3
AecBase60
 90
      129
 91
        4
280
     0
281
     0
  0
CLASS
  1
AEC_DISP_PROPS_ENT_REF
  2
AecDbDispPropsEntRef
  3
AecBase60
 90
      129
 91
        4
280
     0
281
     0
  0
CLASS
  1
AEC_DISP_REP_LAYOUT_CURVE
  2
AecDbDispRepLayoutCurve
  3
AecBase60
 90
      129
 91
        4
280
     0
281
     0
  0
CLASS
  1
AEC_DISP_PROPS_LAYOUT_CURVE
  2
AecDbDispPropsLayoutCurve
  3
AecBase60
 90
      129
 91
        4
280
     0
281
     0
  0
CLASS
  1
AEC_DISP_REP_LAYOUT_GRID2D
  2
AecDbDispRepLayoutGrid2d
  3
AecBase60
 90
      129
 91
        6
280
     0
281
     0
  0
CLASS
  1
AEC_DISP_PROPS_LAYOUT_GRID2D
  2
AecDbDispPropsLayoutGrid2d
  3
AecBase60
 90
      129
 91
        5
280
     0
281
     0
  0
CLASS
  1
AEC_DISP_REP_LAYOUT_GRID3D
  2
AecDbDispRepLayoutGrid3d
  3
AecBase60
 90
      129
 91
        4
280
     0
281
     0
  0
CLASS
  1
AEC_DISP_PROPS_LAYOUT_GRID3D
  2
AecDbDispPropsLayoutGrid3d
  3
AecBase60
 90
      129
 91
        4
280
     0
281
     0
  0
CLASS
  1
AEC_DISP_REP_MASKBLOCK_REF
  2
AecDbDispRepMaskBlockRef
  3
AecBase60
 90
      129
 91
        5
280
     0
281
     0
  0
CLASS
  1
AEC_DISP_PROPS_MASKBLOCK
  2
AecDbDispPropsMaskBlock
  3
AecBase60
 90
      129
 91
        4
280
     0
281
     0
  0
CLASS
  1
AEC_DISP_REP_MASKBLOCK_REF_RCP
  2
AecDbDispRepMaskBlockRefRcp
  3
AecArchBase60
 90
      129
 91
        4
280
     0
281
     0
  0
CLASS
  1
AEC_DISP_REP_MASS_ELEM_MODEL
  2
AecDbDispRepMassElemModel
  3
AecBase60
 90
      129
 91
        4
280
     0
281
     0
  0
CLASS
  1
AEC_DISP_PROPS_MASS_ELEM_MODEL
  2
AecDbDispPropsMassElem
  3
AecBase60
 90
      129
 91
        5
280
     0
281
     0
  0
CLASS
  1
AEC_DISP_REP_MASS_ELEM_SCHEM
  2
AecDbDispRepMassElemSchem
  3
AecBase60
 90
      129
 91
        5
280
     0
281
     0
  0
CLASS
  1
AEC_DISPREPAECDBDISPREPMASSELEMPLAN50
  2
AecDbDispRepMassElemPlan50
  3
AecArchDACHBase60
 90
      129
 91
        4
280
     0
281
     0
  0
CLASS
  1
AEC_DISPROPSMASSELEMPLANCOMMON
  2
AecDbDispPropsMassElemPlanCommon
  3
AecArchDACHBase60
 90
      129
 91
        4
280
     0
281
     0
  0
CLASS
  1
AEC_DISPREPAECDBDISPREPMASSELEMPLAN100
  2
AecDbDispRepMassElemPlan100
  3
AecArchDACHBase60
 90
      129
 91
        4
280
     0
281
     0
  0
CLASS
  1
AEC_DISP_REP_MASS_ELEM_RCP
  2
AecDbDispRepMassElemRcp
  3
AecArchBase60
 90
      129
 91
        4
280
     0
281
     0
  0
CLASS
  1
AEC_DISP_REP_MASS_GROUP_MODEL
  2
AecDbDispRepMassGroupModel
  3
AecBase60
 90
      129
 91
        4
280
     0
281
     0
  0
CLASS
  1
AEC_DISP_PROPS_MASS_GROUP
  2
AecDbDispPropsMassGroup
  3
AecBase60
 90
      129
 91
        5
280
     0
281
     0
  0
CLASS
  1
AEC_DISP_REP_MASS_GROUP_PLAN
  2
AecDbDispRepMassGroupPlan
  3
AecBase60
 90
      129
 91
        8
280
     0
281
     0
  0
CLASS
  1
AEC_DISPREPAECDBDISPREPMASSGROUPPLAN50
  2
AecDbDispRepMassGroupPlan50
  3
AecArchDACHBase60
 90
      129
 91
        4
280
     0
281
     0
  0
CLASS
  1
AEC_DISPROPSMASSGROUPPLANCOMMON
  2
AecDbDispPropsMassGroupPlanCommon
  3
AecArchDACHBase60
 90
      129
 91
        4
280
     0
281
     0
  0
CLASS
  1
AEC_DISPREPAECDBDISPREPMASSGROUPPLAN100
  2
AecDbDispRepMassGroupPlan100
  3
AecArchDACHBase60
 90
      129
 91
        4
280
     0
281
     0
  0
CLASS
  1
AEC_DISP_REP_MASS_GROUP_RCP
  2
AecDbDispRepMassGroupRcp
  3
AecArchBase60
 90
      129
 91
        4
280
     0
281
     0
  0
CLASS
  1
AEC_DISP_REP_MVBLOCK_REF
  2
AecDbDispRepMvBlockRef
  3
AecBase60
 90
      129
 91
        8
280
     0
281
     0
  0
CLASS
  1
AEC_DISP_REP_MVBLOCK_REF_MODEL
  2
AecDbDispRepMvBlockRefModel
  3
AecBase60
 90
      129
 91
        4
280
     0
281
     0
  0
CLASS
  1
AEC_AECDBDISPREPMVBLOCKREFPLAN100
  2
AecDbDispRepMvBlockRefPlan100
  3
AecBase60
 90
      129
 91
        4
280
     0
281
     0
  0
CLASS
  1
AEC_AECDBDISPREPMVBLOCKREFPLAN50
  2
AecDbDispRepMvBlockRefPlan50
  3
AecBase60
 90
      129
 91
        4
280
     0
281
     0
  0
CLASS
  1
AEC_DISP_REP_POLYGON_MODEL
  2
AecDbDispRepPolygonModel
  3
AecBase60
 90
      129
 91
        4
280
     0
281
     0
  0
CLASS
  1
AEC_DISP_PROPS_POLYGON_MODEL
  2
AecDbDispPropsPolygonModel
  3
AecBase60
 90
      129
 91
        4
280
     0
281
     0
  0
CLASS
  1
AEC_DISP_REP_POLYGON_TRUECOLOUR
  2
AecDbDispRepPolygonTrueColour
  3
AecBase60
 90
      129
 91
        4
280
     0
281
     0
  0
CLASS
  1
AEC_DISP_PROPS_POLYGON_TRUECOLOUR
  2
AecDbDispPropsPolygonTrueColour
  3
AecBase60
 90
      129
 91
        4
280
     0
281
     0
  0
CLASS
  1
AEC_DISP_REP_SLICE
  2
AecDbDispRepSlice
  3
AecBase60
 90
      129
 91
        4
280
     0
281
     0
  0
CLASS
  1
AEC_DISP_PROPS_SLICE
  2
AecDbDispPropsSlice
  3
AecBase60
 90
      129
 91
        4
280
     0
281
     0
  0
CLASS
  1
AEC_DISP_REP_ANCHOR
  2
AecDbDispRepAnchor
  3
AecBase60
 90
      129
 91
        4
280
     0
281
     0
  0
CLASS
  1
AEC_DISP_REP_ANCHOR_ENT_TO_NODE
  2
AecDbDispRepAnchorEntToNode
  3
AecBase60
 90
      129
 91
        5
280
     0
281
     0
  0
CLASS
  1
AEC_DISP_PROPS_ENT
  2
AecDbDispPropsEnt
  3
AecBase60
 90
      129
 91
        4
280
     0
281
     0
  0
CLASS
  1
AEC_DISP_REP_MATERIAL
  2
AecDbDispRepMaterial
  3
AecBase60
 90
      129
 91
        4
280
     0
281
     0
  0
CLASS
  1
AEC_DISP_PROPS_MATERIAL
  2
AecDbDispPropsMaterial
  3
AecBase60
 90
      129
 91
        4
280
     0
281
     0
  0
CLASS
  1
AEC_DISP_REP_EDITINPLACEPROFILE
  2
AecDbDispRepEditInPlaceProfile
  3
AecBase60
 90
      129
 91
        4
280
     0
281
     0
  0
CLASS
  1
AEC_DISP_PROPS_EDITINPLACEPROFILE_MODEL
  2
AecDbDispPropsEditInPlaceProfile
  3
AecBase60
 90
      129
 91
        4
280
     0
281
     0
  0
CLASS
  1
AEC_VARS_ARCHBASE
  2
AecDbVarsArchBase
  3
AecArchBase60
 90
      129
 91
        4
280
     0
281
     0
  0
CLASS
  1
AEC_DISP_REP_BDG_ELEVLINE_PLAN
  2
AecDbDispRepBdgElevLinePlan
  3
AecArchBase60
 90
      129
 91
        7
280
     0
281
     0
  0
CLASS
  1
AEC_DISP_REP_BDG_ELEVLINE_MODEL
  2
AecDbDispRepBdgElevLineModel
  3
AecArchBase60
 90
      129
 91
        4
280
     0
281
     0
  0
CLASS
  1
AEC_DISP_REP_BDG_ELEVLINE_RCP
  2
AecDbDispRepBdgElevLineRcp
  3
AecArchBase60
 90
      129
 91
        4
280
     0
281
     0
  0
CLASS
  1
AEC_AECDBDISPREPBDGELEVLINEPLAN100
  2
AecDbDispRepBdgElevLinePlan100
  3
AecBase60
 90
      129
 91
        4
280
     0
281
     0
  0
CLASS
  1
AEC_AECDBDISPREPBDGELEVLINEPLAN50
  2
AecDbDispRepBdgElevLinePlan50
  3
AecBase60
 90
      129
 91
        4
280
     0
281
     0
  0
CLASS
  1
AEC_DISP_REP_BDG_SECTIONLINE_MODEL
  2
AecDbDispRepBdgSectionLineModel
  3
AecArchBase60
 90
      129
 91
        4
280
     0
281
     0
  0
CLASS
  1
AEC_DISP_REP_BDG_SECTIONLINE_PLAN
  2
AecDbDispRepBdgSectionLinePlan
  3
AecArchBase60
 90
      129
 91
        7
280
     0
281
     0
  0
CLASS
  1
AEC_DISP_REP_BDG_SECTIONLINE_RCP
  2
AecDbDispRepBdgSectionLineRcp
  3
AecArchBase60
 90
      129
 91
        4
280
     0
281
     0
  0
CLASS
  1
AEC_AECDBDISPREPBDGSECTIONLINEPLAN100
  2
AecDbDispRepBdgSectionLinePlan100
  3
AecBase60
 90
      129
 91
        4
280
     0
281
     0
  0
CLASS
  1
AEC_AECDBDISPREPBDGSECTIONLINEPLAN50
  2
AecDbDispRepBdgSectionLinePlan50
  3
AecBase60
 90
      129
 91
        4
280
     0
281
     0
  0
CLASS
  1
AEC_DISP_REP_BDG_SECTION_SUBDIV
  2
AecDbDispRepBdgSectionSubDiv
  3
AecArchBase60
 90
      129
 91
        4
280
     0
281
     0
  0
CLASS
  1
AEC_DISP_REP_BDG_SECTION_MODEL
  2
AecDbDispRepBdgSectionModel
  3
AecArchBase60
 90
      129
 91
        4
280
     0
281
     0
  0
CLASS
  1
AEC_DISP_REP_CEILING_GRID
  2
AecDbDispRepCeilingGrid
  3
AecArchBase60
 90
      893
 91
        8
280
     0
281
     0
  0
CLASS
  1
AEC_DISP_REP_CEILING_GRID_MODEL
  2
AecDbDispRepCeilingGridModel
  3
AecArchBase60
 90
      129
 91
        4
280
     0
281
     0
  0
CLASS
  1
AEC_DISP_REP_CEILING_GRID_RCP
  2
AecDbDispRepCeilingGridRcp
  3
AecArchBase60
 90
      129
 91
        4
280
     0
281
     0
  0
CLASS
  1
AEC_AECDBDISPREPCEILINGGRIDPLAN100
  2
AecDbDispRepCeilingGridPlan100
  3
AecBase60
 90
      129
 91
        4
280
     0
281
     0
  0
CLASS
  1
AEC_AECDBDISPREPCEILINGGRIDPLAN50
  2
AecDbDispRepCeilingGridPlan50
  3
AecBase60
 90
      129
 91
        4
280
     0
281
     0
  0
CLASS
  1
AEC_DISP_REP_CURTAIN_WALL_LAYOUT_MODEL
  2
AecDbDispRepCurtainWallLayoutModel
  3
AecArchBase60
 90
      129
 91
        4
280
     0
281
     0
  0
CLASS
  1
AEC_DISP_PROPS_GRID_ASSEMBLY_MODEL
  2
AecDbDispPropsGridAssemblyModel
  3
AecArchBase60
 90
      129
 91
        4
280
     0
281
     0
  0
CLASS
  1
AEC_DISP_REP_CURTAIN_WALL_LAYOUT_PLAN
  2
AecDbDispRepCurtainWallLayoutPlan
  3
AecArchBase60
 90
      129
 91
        6
280
     0
281
     0
  0
CLASS
  1
AEC_DISP_PROPS_GRID_ASSEMBLY_PLAN
  2
AecDbDispPropsGridAssemblyPlan
  3
AecArchBase60
 90
      129
 91
        4
280
     0
281
     0
  0
CLASS
  1
AEC_AECDBDISPREPCURTAINWALLLAYOUTPLAN100
  2
AecDbDispRepCurtainWallLayoutPlan100
  3
AecBase60
 90
      129
 91
        4
280
     0
281
     0
  0
CLASS
  1
AEC_AECDBDISPREPCURTAINWALLLAYOUTPLAN50
  2
AecDbDispRepCurtainWallLayoutPlan50
  3
AecBase60
 90
      129
 91
        4
280
     0
281
     0
  0
CLASS
  1
AEC_DISP_REP_CURTAIN_WALL_UNIT_MODEL
  2
AecDbDispRepCurtainWallUnitModel
  3
AecArchBase60
 90
      129
 91
        4
280
     0
281
     0
  0
CLASS
  1
AEC_DISP_REP_CURTAIN_WALL_UNIT_PLAN
  2
AecDbDispRepCurtainWallUnitPlan
  3
AecArchBase60
 90
      129
 91
        6
280
     0
281
     0
  0
CLASS
  1
AEC_AECDBDISPREPCURTAINWALLUNITPLAN100
  2
AecDbDispRepCurtainWallUnitPlan100
  3
AecBase60
 90
      129
 91
        4
280
     0
281
     0
  0
CLASS
  1
AEC_AECDBDISPREPCURTAINWALLUNITPLAN50
  2
AecDbDispRepCurtainWallUnitPlan50
  3
AecBase60
 90
      129
 91
        4
280
     0
281
     0
  0
CLASS
  1
AEC_DISP_REP_DOOR_MODEL
  2
AecDbDispRepDoorModel
  3
AecArchBase60
 90
      129
 91
        5
280
     0
281
     0
  0
CLASS
  1
AEC_DISP_PROPS_DOOR
  2
AecDbDispPropsDoor
  3
AecArchBase60
 90
      129
 91
        5
280
     0
281
     0
  0
CLASS
  1
AEC_DISP_REP_DOOR_ELEV
  2
AecDbDispRepDoorElev
  3
AecArchBase60
 90
      129
 91
        4
280
     0
281
     0
  0
CLASS
  1
AEC_DISP_REP_DOOR_PLAN
  2
AecDbDispRepDoorPlan
  3
AecArchBase60
 90
      129
 91
        8
280
     0
281
     0
  0
CLASS
  1
AEC_DISP_REP_DOOR_NOMINAL
  2
AecDbDispRepDoorNominal
  3
AecArchBase60
 90
      129
 91
        4
280
     0
281
     0
  0
CLASS
  1
AEC_DISP_PROPS_DOOR_NOMINAL
  2
AecDbDispPropsDoorNominal
  3
AecArchBase60
 90
      129
 91
        4
280
     0
281
     0
  0
CLASS
  1
AEC_DISP_REP_DOOR_THRESHOLD_PLAN
  2
AecDbDispRepDoorThresholdPlan
  3
AecArchBase60
 90
      129
 91
        4
280
     0
281
     0
  0
CLASS
  1
AEC_DISP_PROPS_DOOR_THRESHOLD_PLAN
  2
AecDbDispPropsDoorThresholdPlan
  3
AecArchBase60
 90
      129
 91
        4
280
     0
281
     0
  0
CLASS
  1
AEC_DISP_REP_DOOR_PLAN_50
  2
AecDbDispRepDoorPlan50
  3
AecArchDACHBase60
 90
      129
 91
        4
280
     0
281
     0
  0
CLASS
  1
AEC_DISP_PROPS_DOOR_PLAN_50
  2
AecDbDispPropsDoorPlan50
  3
AecArchDACHBase60
 90
      129
 91
        4
280
     0
281
     0
  0
CLASS
  1
AEC_DISP_REP_DOOR_PLAN_HEKTO
  2
AecDbDispRepDoorPlanHekto
  3
AecArchDACHBase60
 90
      129
 91
        4
280
     0
281
     0
  0
CLASS
  1
AEC_DISP_PROPS_DOOR_PLAN_100
  2
AecDbDispPropsDoorPlan100
  3
AecArchDACHBase60
 90
      129
 91
        4
280
     0
281
     0
  0
CLASS
  1
AEC_DISP_REP_DOOR_RCP
  2
AecDbDispRepDoorRcp
  3
AecArchBase60
 90
      129
 91
        4
280
     0
281
     0
  0
CLASS
  1
AEC_DISP_REP_DOOR_THRESHOLD_SYMBOL_PLAN
  2
AecDbDispRepDoorThresholdSymbolPlan
  3
AecArchDACHBase60
 90
      129
 91
        4
280
     0
281
     0
  0
CLASS
  1
AEC_DISP_PROPS_DOOR_THRESHOLD_SYMBOL_PLAN
  2
AecDbDispPropsDoorThresholdSymbolPlan
  3
AecArchDACHBase60
 90
      129
 91
        4
280
     0
281
     0
  0
CLASS
  1
AEC_DISP_REP_OPENING
  2
AecDbDispRepOpening
  3
AecArchBase60
 90
      129
 91
        6
280
     0
281
     0
  0
CLASS
  1
AEC_DISP_PROPS_OPENING
  2
AecDbDispPropsOpening
  3
AecArchBase60
 90
      129
 91
        5
280
     0
281
     0
  0
CLASS
  1
AEC_DISP_REP_OPENING_MODEL
  2
AecDbDispRepOpeningModel
  3
AecArchBase60
 90
      129
 91
        4
280
     0
281
     0
  0
CLASS
  1
AEC_DISPREPAECDBDISPREPOPENINGPLAN100
  2
AecDbDispRepOpeningPlan100
  3
AecArchDACHBase60
 90
      129
 91
        4
280
     0
281
     0
  0
CLASS
  1
AEC_DISPROPSOPENINGPLANCOMMONHATCHED
  2
AecDbDispPropsOpeningPlanCommonHatched
  3
AecArchDACHBase60
 90
      129
 91
        4
280
     0
281
     0
  0
CLASS
  1
AEC_DISPREPAECDBDISPREPOPENINGPLAN50
  2
AecDbDispRepOpeningPlan50
  3
AecArchDACHBase60
 90
      129
 91
        4
280
     0
281
     0
  0
CLASS
  1
AEC_DISPREPAECDBDISPREPOPENINGPLANREFLECTED
  2
AecDbDispRepOpeningPlanReflected
  3
AecArchDACHBase60
 90
      129
 91
        4
280
     0
281
     0
  0
CLASS
  1
AEC_DISPROPSOPENINGPLANCOMMON
  2
AecDbDispPropsOpeningPlanCommon
  3
AecArchDACHBase60
 90
      129
 91
        5
280
     0
281
     0
  0
CLASS
  1
AEC_DISPREPAECDBDISPREPOPENINGSILLPLAN
  2
AecDbDispRepOpeningSillPlan
  3
AecArchDACHBase60
 90
      129
 91
        4
280
     0
281
     0
  0
CLASS
  1
AEC_DISPROPSOPENINGSILLPLAN
  2
AecDbDispPropsOpeningSillPlan
  3
AecArchDACHBase60
 90
      129
 91
        4
280
     0
281
     0
  0
CLASS
  1
AEC_DISP_REP_RAILING_MODEL
  2
AecDbDispRepRailingModel
  3
AecArchBase60
 90
      129
 91
        4
280
     0
281
     0
  0
CLASS
  1
AEC_DISP_PROPS_RAILING_MODEL
  2
AecDbDispPropsRailingModel
  3
AecArchBase60
 90
      129
 91
        4
280
     0
281
     0
  0
CLASS
  1
AEC_DISP_REP_RAILING_PLAN
  2
AecDbDispRepRailingPlan
  3
AecArchBase60
 90
      129
 91
        5
280
     0
281
     0
  0
CLASS
  1
AEC_DISP_PROPS_RAILING_PLAN
  2
AecDbDispPropsRailingPlan
  3
AecArchBase60
 90
      129
 91
        5
280
     0
281
     0
  0
CLASS
  1
AEC_DISP_REP_RAILING_PLAN_100
  2
AecDbDispRepRailingPlan100
  3
AecArchDACHBase60
 90
      129
 91
        4
280
     0
281
     0
  0
CLASS
  1
AEC_DISP_ROPS_RAILING_PLAN_100
  2
AecDbDispPropsRailingPlan100
  3
AecArchDACHBase60
 90
      129
 91
        4
280
     0
281
     0
  0
CLASS
  1
AEC_DISP_REP_RAILING_PLAN_50
  2
AecDbDispRepRailingPlan50
  3
AecArchDACHBase60
 90
      129
 91
        4
280
     0
281
     0
  0
CLASS
  1
AEC_DISP_ROPS_RAILING_PLAN_50
  2
AecDbDispPropsRailingPlan50
  3
AecArchDACHBase60
 90
      129
 91
        4
280
     0
281
     0
  0
CLASS
  1
AEC_DISP_REP_ROOF_MODEL
  2
AecDbDispRepRoofModel
  3
AecArchBase60
 90
      129
 91
        4
280
     0
281
     0
  0
CLASS
  1
AEC_DISP_PROPS_ROOF
  2
AecDbDispPropsRoof
  3
AecArchBase60
 90
      129
 91
        4
280
     0
281
     0
  0
CLASS
  1
AEC_DISP_REP_ROOF_PLAN
  2
AecDbDispRepRoofPlan
  3
AecArchBase60
 90
      129
 91
        8
280
     0
281
     0
  0
CLASS
  1
AEC_DISP_REP_ROOF_RCP
  2
AecDbDispRepRoofRcp
  3
AecArchBase60
 90
      129
 91
        4
280
     0
281
     0
  0
CLASS
  1
AEC_AECDBDISPREPROOFPLAN100
  2
AecDbDispRepRoofPlan100
  3
AecBase60
 90
      129
 91
        4
280
     0
281
     0
  0
CLASS
  1
AEC_AECDBDISPREPROOFPLAN50
  2
AecDbDispRepRoofPlan50
  3
AecBase60
 90
      129
 91
        4
280
     0
281
     0
  0
CLASS
  1
AEC_DISP_REP_ROOFSLAB_MODEL
  2
AecDbDispRepRoofSlabModel
  3
AecArchBase60
 90
      129
 91
        4
280
     0
281
     0
  0
CLASS
  1
AEC_DISP_PROPS_ROOFSLAB
  2
AecDbDispPropsRoofSlab
  3
AecArchBase60
 90
      129
 91
        4
280
     0
281
     0
  0
CLASS
  1
AEC_DISP_REP_ROOFSLAB_PLAN
  2
AecDbDispRepRoofSlabPlan
  3
AecArchBase60
 90
      129
 91
        6
280
     0
281
     0
  0
CLASS
  1
AEC_DISP_PROPS_ROOFSLAB_PLAN
  2
AecDbDispPropsRoofSlabPlan
  3
AecArchBase60
 90
      129
 91
        4
280
     0
281
     0
  0
CLASS
  1
AEC_AECDBDISPREPROOFSLABPLAN100
  2
AecDbDispRepRoofSlabPlan100
  3
AecBase60
 90
      129
 91
        4
280
     0
281
     0
  0
CLASS
  1
AEC_AECDBDISPREPROOFSLABPLAN50
  2
AecDbDispRepRoofSlabPlan50
  3
AecBase60
 90
      129
 91
        4
280
     0
281
     0
  0
CLASS
  1
AEC_DISP_REP_SLAB_MODEL
  2
AecDbDispRepSlabModel
  3
AecArchBase60
 90
      129
 91
        5
280
     0
281
     0
  0
CLASS
  1
AEC_DISP_PROPS_SLAB
  2
AecDbDispPropsSlab
  3
AecArchBase60
 90
      129
 91
        6
280
     0
281
     0
  0
CLASS
  1
AEC_DISP_REP_SLAB_PLAN
  2
AecDbDispRepSlabPlan
  3
AecArchBase60
 90
      129
 91
        7
280
     0
281
     0
  0
CLASS
  1
AEC_DISP_PROPS_SLAB_PLAN
  2
AecDbDispPropsSlabPlan
  3
AecArchBase60
 90
      129
 91
        5
280
     0
281
     0
  0
CLASS
  1
AEC_AECDBDISPREPSLABPLAN100
  2
AecDbDispRepSlabPlan100
  3
AecBase60
 90
      129
 91
        4
280
     0
281
     0
  0
CLASS
  1
AEC_AECDBDISPREPSLABPLAN50
  2
AecDbDispRepSlabPlan50
  3
AecBase60
 90
      129
 91
        4
280
     0
281
     0
  0
CLASS
  1
AEC_DISP_REP_SPACE_MODEL
  2
AecDbDispRepSpaceModel
  3
AecArchBase60
 90
      129
 91
        4
280
     0
281
     0
  0
CLASS
  1
AEC_DISP_PROPS_SPACE_MODEL
  2
AecDbDispPropsSpaceModel
  3
AecArchBase60
 90
      129
 91
        4
280
     0
281
     0
  0
CLASS
  1
AEC_DISP_REP_SPACE_PLAN
  2
AecDbDispRepSpacePlan
  3
AecArchBase60
 90
      129
 91
        7
280
     0
281
     0
  0
CLASS
  1
AEC_DISP_PROPS_SPACE_PLAN
  2
AecDbDispPropsSpacePlan
  3
AecArchBase60
 90
      129
 91
        4
280
     0
281
     0
  0
CLASS
  1
AEC_DISP_REP_SPACE_RCP
  2
AecDbDispRepSpaceRcp
  3
AecArchBase60
 90
      129
 91
        4
280
     0
281
     0
  0
CLASS
  1
AEC_DISP_REP_SPACE_VOLUME
  2
AecDbDispRepSpaceVolume
  3
AecArchBase60
 90
      129
 91
        4
280
     0
281
     0
  0
CLASS
  1
AEC_DISP_REP_SPACE_DECOMPOSED
  2
AecDbDispRepSpaceDecomposed
  3
AecArchBase60
 90
      129
 91
        4
280
     0
281
     0
  0
CLASS
  1
AEC_DISP_PROPS_SPACE_DECOMPOSED
  2
AecDbDispPropsSpaceDecomposed
  3
AecArchBase60
 90
      129
 91
        4
280
     0
281
     0
  0
CLASS
  1
AEC_AECDBDISPREPSPACEPLAN100
  2
AecDbDispRepSpacePlan100
  3
AecBase60
 90
      129
 91
        4
280
     0
281
     0
  0
CLASS
  1
AEC_AECDBDISPREPSPACEPLAN50
  2
AecDbDispRepSpacePlan50
  3
AecBase60
 90
      129
 91
        4
280
     0
281
     0
  0
CLASS
  1
AEC_DISP_REP_STAIR_MODEL
  2
AecDbDispRepStairModel
  3
AecArchBase60
 90
      129
 91
        4
280
     0
281
     0
  0
CLASS
  1
AEC_DISP_PROPS_STAIR_MODEL
  2
AecDbDispPropsStairModel
  3
AecArchBase60
 90
      129
 91
        4
280
     0
281
     0
  0
CLASS
  1
AEC_DISP_REP_STAIR_PLAN
  2
AecDbDispRepStairPlan
  3
AecArchBase60
 90
      129
 91
        7
280
     0
281
     0
  0
CLASS
  1
AEC_DISP_PROPS_STAIR_PLAN
  2
AecDbDispPropsStairPlan
  3
AecArchBase60
 90
      129
 91
        6
280
     0
281
     0
  0
CLASS
  1
AEC_DISP_REP_STAIR_RCP
  2
AecDbDispRepStairRcp
  3
AecArchBase60
 90
      129
 91
        4
280
     0
281
     0
  0
CLASS
  1
AEC_DISP_REP_STAIR_PLAN_100
  2
AecDbDispRepStairPlan100
  3
AecArchDACHBase60
 90
      129
 91
        4
280
     0
281
     0
  0
CLASS
  1
AEC_DISP_ROPS_STAIR_PLAN_100
  2
AecDbDispPropsStairPlan100
  3
AecArchDACHBase60
 90
      129
 91
        4
280
     0
281
     0
  0
CLASS
  1
AEC_DISP_REP_STAIR_PLAN_50
  2
AecDbDispRepStairPlan50
  3
AecArchDACHBase60
 90
      129
 91
        4
280
     0
281
     0
  0
CLASS
  1
AEC_DISP_ROPS_STAIR_PLAN_50
  2
AecDbDispPropsStairPlan50
  3
AecArchDACHBase60
 90
      129
 91
        4
280
     0
281
     0
  0
CLASS
  1
AEC_DISP_REP_STAIR_PLAN_OVERLAPPING
  2
AecDbDispRepStairPlanOverlapping
  3
AecArchBase60
 90
      129
 91
        4
280
     0
281
     0
  0
CLASS
  1
AEC_DISP_PROPS_STAIR_PLAN_OVERLAPPING
  2
AecDbDispPropsStairPlanOverlapping
  3
AecArchBase60
 90
      129
 91
        4
280
     0
281
     0
  0
CLASS
  1
AEC_DISP_REP_WALL_GRAPH
  2
AecDbDispRepWallGraph
  3
AecArchBase60
 90
      129
 91
        4
280
     0
281
     0
  0
CLASS
  1
AEC_DISP_PROPS_WALL_GRAPH
  2
AecDbDispPropsWallGraph
  3
AecArchBase60
 90
      129
 91
        4
280
     0
281
     0
  0
CLASS
  1
AEC_DISP_REP_WALL_MODEL
  2
AecDbDispRepWallModel
  3
AecArchBase60
 90
      129
 91
        4
280
     0
281
     0
  0
CLASS
  1
AEC_DISP_PROPS_WALL_MODEL
  2
AecDbDispPropsWallModel
  3
AecArchBase60
 90
      129
 91
        4
280
     0
281
     0
  0
CLASS
  1
AEC_DISP_REP_WALL_PLAN
  2
AecDbDispRepWallPlan
  3
AecArchBase60
 90
      129
 91
        7
280
     0
281
     0
  0
CLASS
  1
AEC_DISP_PROPS_WALL_PLAN
  2
AecDbDispPropsWallPlan
  3
AecArchBase60
 90
      129
 91
        4
280
     0
281
     0
  0
CLASS
  1
AEC_DISP_REP_WALL_RCP
  2
AecDbDispRepWallRcp
  3
AecArchBase60
 90
      129
 91
        4
280
     0
281
     0
  0
CLASS
  1
AEC_DISP_REP_WALL_SCHEM
  2
AecDbDispRepWallSchem
  3
AecArchBase60
 90
      129
 91
        4
280
     0
281
     0
  0
CLASS
  1
AEC_DISP_PROPS_WALL_SCHEM
  2
AecDbDispPropsWallSchem
  3
AecArchBase60
 90
      129
 91
        4
280
     0
281
     0
  0
CLASS
  1
AEC_AECDBDISPREPWALLPLAN100
  2
AecDbDispRepWallPlan100
  3
AecBase60
 90
      129
 91
        4
280
     0
281
     0
  0
CLASS
  1
AEC_AECDBDISPREPWALLPLAN50
  2
AecDbDispRepWallPlan50
  3
AecBase60
 90
      129
 91
        4
280
     0
281
     0
  0
CLASS
  1
AEC_DISP_REP_WINDOW_MODEL
  2
AecDbDispRepWindowModel
  3
AecArchBase60
 90
      129
 91
        5
280
     0
281
     0
  0
CLASS
  1
AEC_DISP_PROPS_WINDOW
  2
AecDbDispPropsWindow
  3
AecArchBase60
 90
      129
 91
        6
280
     0
281
     0
  0
CLASS
  1
AEC_DISP_REP_WINDOW_ELEV
  2
AecDbDispRepWindowElev
  3
AecArchBase60
 90
      129
 91
        4
280
     0
281
     0
  0
CLASS
  1
AEC_DISP_REP_WINDOW_PLAN
  2
AecDbDispRepWindowPlan
  3
AecArchBase60
 90
      129
 91
        8
280
     0
281
     0
  0
CLASS
  1
AEC_DISP_REP_WINDOW_NOMINAL
  2
AecDbDispRepWindowNominal
  3
AecArchBase60
 90
      129
 91
        4
280
     0
281
     0
  0
CLASS
  1
AEC_DISP_PROPS_WINDOW_NOMINAL
  2
AecDbDispPropsWindowNominal
  3
AecArchBase60
 90
      129
 91
        4
280
     0
281
     0
  0
CLASS
  1
AEC_DISP_REP_WINDOW_RCP
  2
AecDbDispRepWindowRcp
  3
AecArchBase60
 90
      129
 91
        4
280
     0
281
     0
  0
CLASS
  1
AEC_DISP_REP_WINDOW_SILL_PLAN
  2
AecDbDispRepWindowSillPlan
  3
AecArchBase60
 90
      129
 91
        4
280
     0
281
     0
  0
CLASS
  1
AEC_DISP_PROPS_WINDOW_SILL_PLAN
  2
AecDbDispPropsWindowSillPlan
  3
AecArchBase60
 90
      129
 91
        4
280
     0
281
     0
  0
CLASS
  1
AEC_DISP_REP_WINDOW_PLAN_100
  2
AecDbDispRepWindowPlan100
  3
AecArchDACHBase60
 90
      129
 91
        4
280
     0
281
     0
  0
CLASS
  1
AEC_DISP_PROPS_WINDOW_PLAN_100
  2
AecDbDispPropsWindowPlan100
  3
AecArchDACHBase60
 90
      129
 91
        4
280
     0
281
     0
  0
CLASS
  1
AEC_DISP_REP_WINDOW_PLAN_50
  2
AecDbDispRepWindowPlan50
  3
AecArchDACHBase60
 90
      129
 91
        4
280
     0
281
     0
  0
CLASS
  1
AEC_DISP_PROPS_WINDOW_PLAN_50
  2
AecDbDispPropsWindowPlan50
  3
AecArchDACHBase60
 90
      129
 91
        4
280
     0
281
     0
  0
CLASS
  1
AEC_DISP_REP_WINDOW_ASSEMBLY_MODEL
  2
AecDbDispRepWindowAssemblyModel
  3
AecArchBase60
 90
      129
 91
        4
280
     0
281
     0
  0
CLASS
  1
AEC_DISP_REP_WINDOW_ASSEMBLY_PLAN
  2
AecDbDispRepWindowAssemblyPlan
  3
AecArchBase60
 90
      129
 91
        6
280
     0
281
     0
  0
CLASS
  1
AEC_DISP_REP_WINDOWASSEMBLY_SILL_PLAN
  2
AecDbDispRepWindowAssemblySillPlan
  3
AecArchBase60
 90
      129
 91
        4
280
     0
281
     0
  0
CLASS
  1
AEC_DISP_PROPS_WINDOW_ASSEMBLY_SILL_PLAN
  2
AecDbDispPropsWindowAssemblySillPlan
  3
AecArchBase60
 90
      129
 91
        4
280
     0
281
     0
  0
CLASS
  1
AEC_AECDBDISPREPWINDOWASSEMBLYPLAN100
  2
AecDbDispRepWindowAssemblyPlan100
  3
AecBase60
 90
      129
 91
        4
280
     0
281
     0
  0
CLASS
  1
AEC_AECDBDISPREPWINDOWASSEMBLYPLAN50
  2
AecDbDispRepWindowAssemblyPlan50
  3
AecBase60
 90
      129
 91
        4
280
     0
281
     0
  0
CLASS
  1
AEC_DB_DISP_REP_DIM_GROUP_PLAN
  2
AecDbDispRepDimGroupPlan
  3
AecArchDACHBase60
 90
      129
 91
        4
280
     0
281
     0
  0
CLASS
  1
AEC_DISP_PROPS_DIM
  2
AecDbDispPropsDimGroup
  3
AecArchDACHBase60
 90
      129
 91
        4
280
     0
281
     0
  0
CLASS
  1
AEC_DB_DISP_REP_DIM_GROUP_PLAN100
  2
AecDbDispRepDimGroupPlan100
  3
AecArchDACHBase60
 90
      129
 91
        4
280
     0
281
     0
  0
CLASS
  1
AEC_DB_DISP_REP_DIM_GROUP_PLAN50
  2
AecDbDispRepDimGroupPlan50
  3
AecArchDACHBase60
 90
      129
 91
        4
280
     0
281
     0
  0
CLASS
  1
AEC_DISP_REP_SCHEDULE_TABLE
  2
AecDbDispRepScheduleTable
  3
AecSchedule50
 90
      129
 91
        4
280
     0
281
     0
  0
CLASS
  1
AEC_DISP_PROPS_SCHEDULE_TABLE
  2
AecDbDispPropsScheduleTable
  3
AecSchedule50
 90
      129
 91
        4
280
     0
281
     0
  0
CLASS
  1
AEC_DISP_REP_ANCHOR_TAG_TO_ENT
  2
AecDbDispRepAnchorTagToEnt
  3
AecScheduleData60
 90
      129
 91
        5
280
     0
281
     0
  0
CLASS
  1
AEC_DISP_REP_ANCHOR_EXT_TAG_TO_ENT
  2
AecDbDispRepAnchorExtendedTagToEnt
  3
AecScheduleData60
 90
      129
 91
        4
280
     0
281
     0
  0
CLASS
  1
AEC_DISP_REP_SET
  2
AecDbDispRepSet
  3
AecBase60
 90
      129
 91
        4
280
     0
281
     0
  0
CLASS
  1
AECS_DISP_REP_MEMBER_MODEL_DESIGN
  2
AecsDbDispRepMemberModelDesign
  3
AecStructureBase60
 90
      129
 91
        4
280
     0
281
     0
  0
CLASS
  1
AECS_DISP_PROPS_MEMBER
  2
AecsDbDispPropsMember
  3
AecStructureBase60
 90
      129
 91
        6
280
     0
281
     0
  0
CLASS
  1
AECS_DISP_REP_MEMBER_PLAN_DESIGN
  2
AecsDbDispRepMemberPlanDesign
  3
AecStructureBase60
 90
      129
 91
        4
280
     0
281
     0
  0
CLASS
  1
AECS_DISP_PROPS_MEMBER_PLAN
  2
AecsDbDispPropsMemberPlan
  3
AecStructureBase60
 90
      129
 91
        5
280
     0
281
     0
  0
CLASS
  1
AEC_DISP_REP_CONFIG
  2
AecDbDispRepConfig
  3
AecBase60
 90
      129
 91
        4
280
     0
281
     0
  0
CLASS
  1
MLEADERSTYLE
  2
AcDbMLeaderStyle
  3
ACDB_MLEADERSTYLE_CLASS
 90
     4095
 91
        4
280
     0
281
     0
  0
CLASS
  1
GEODATA
  2
AcDbGeoData
  3
ObjectDBX Classes
 90
     4095
 91
        4
280
     0
281
     0
  0
CLASS
  1
AEC_WALL_STYLE
  2
AecDbWallStyle
  3
AecArchBase60
 90
      129
 91
        4
280
     0
281
     0
  0
CLASS
  1
AEC_CLEANUP_GROUP_DEF
  2
AecDbCleanupGroupDef
  3
AecArchBase60
 90
      129
 91
        4
280
     0
281
     0
  0
CLASS
  1
AEC_ENDCAP_STYLE
  2
AecDbEndcapStyle
  3
AecArchBase60
 90
      129
 91
        4
280
     0
281
     0
  0
CLASS
  1
AEC_FRAME_DEF
  2
AecDbOpeningEndcapStyle
  3
AecArchBase60
 90
      129
 91
        4
280
     0
281
     0
  0
CLASS
  1
AEC_MATERIAL_DEF
  2
AecDbMaterialDef
  3
AecBase60
 90
      129
 91
        4
280
     0
281
     0
  0
CLASS
  1
TABLESTYLE
  2
AcDbTableStyle
  3
ObjectDBX Classes
 90
     4095
 91
        4
280
     0
281
     0
  0
CLASS
  1
TCOPTIONALDATA
  2
TcOptionalData
  3
ExTcadCustObjs|Description: TurboCAD extension data object
 90
     4095
 91
        4
280
     0
281
     0
  0
CLASS
  1
SCALE
  2
AcDbScale
  3
ObjectDBX Classes
 90
     1153
 91
        4
280
     0
281
     0
  0
CLASS
  1
DICTIONARYVAR
  2
AcDbDictionaryVar
  3
ObjectDBX Classes
 90
        0
 91
        4
280
     0
281
     0
  0
CLASS
  1
CELLSTYLEMAP
  2
AcDbCellStyleMap
  3
ObjectDBX Classes
 90
     1152
 91
        4
280
     0
281
     0
  0
ENDSEC
  0
SECTION
  2
TABLES
  0
TABLE
  2
VPORT
  5
8
330
0
100
AcDbSymbolTable
 70
     1
  0
VPORT
  5
29
330
8
100
AcDbSymbolTableRecord
100
AcDbViewportTableRecord
  2
*Active
 70
     0
 10
0.0
 20
0.0
 11
1.0
 21
1.0
 12
0.0
 22
0.0
 13
0.0
 23
0.0
 14
10.0
 24
10.0
 15
10.0
 25
10.0
 16
0.0
 26
0.0
 36
1.0
 17
286.0880100645464
 27
268.0142200754096
 37
0.0
 40
274.8420596393067
 41
1.792270531400966
 42
50.0
 43
0.0
 44
0.0
 50
0.0
 51
0.0
 71
     0
 72
   100
 73
     1
 74
     3
 75
     0
 76
     0
 77
     0
 78
     0
281
     0
 65
     1
110
0.0
120
0.0
130
0.0
111
1.0
121
0.0
131
0.0
112
0.0
122
1.0
132
0.0
 79
     0
146
0.0
 60
     3
 61
     5
292
     1
282
     1
141
0.0
142
0.0
 63
   250
361
3F
  0
ENDTAB
  0
TABLE
  2
LTYPE
  5
5
330
0
100
AcDbSymbolTable
 70
    14
  0
LTYPE
  5
14
330
5
100
AcDbSymbolTableRecord
100
AcDbLinetypeTableRecord
  2
ByBlock
 70
     0
  3

 72
    65
 73
     0
 40
0.0
  0
LTYPE
  5
15
330
5
100
AcDbSymbolTableRecord
100
AcDbLinetypeTableRecord
  2
ByLayer
 70
     0
  3

 72
    65
 73
     0
 40
0.0
  0
LTYPE
  5
16
330
5
100
AcDbSymbolTableRecord
100
AcDbLinetypeTableRecord
  2
Continuous
 70
     0
  3
Solid line
 72
    65
 73
     0
 40
0.0
  0
LTYPE
  5
155
330
5
100
AcDbSymbolTableRecord
100
AcDbLinetypeTableRecord
  2
BORDER
 70
     0
  3
BORDER
 72
    65
 73
     6
 40
1.75
 49
0.5
 74
     0
 49
-0.25
 74
     0
 49
0.5
 74
     0
 49
-0.25
 74
     0
 49
0.0
 74
     0
 49
-0.25
 74
     0
  0
LTYPE
  5
156
330
5
100
AcDbSymbolTableRecord
100
AcDbLinetypeTableRecord
  2
CENTER
 70
     0
  3
CENTER
 72
    65
 73
     4
 40
10.16
 49
6.35
 74
     0
 49
-1.27
 74
     0
 49
1.27
 74
     0
 49
-1.27
 74
     0
  0
LTYPE
  5
157
330
5
100
AcDbSymbolTableRecord
100
AcDbLinetypeTableRecord
  2
DASHDOT
 70
     0
  3
DASHDOT
 72
    65
 73
     4
 40
1.0
 49
0.5
 74
     0
 49
-0.25
 74
     0
 49
0.0
 74
     0
 49
-0.25
 74
     0
  0
LTYPE
  5
158
330
5
100
AcDbSymbolTableRecord
100
AcDbLinetypeTableRecord
  2
DASHED
 70
     0
  3
DASHED
 72
    65
 73
     2
 40
0.75
 49
0.5
 74
     0
 49
-0.25
 74
     0
  0
LTYPE
  5
159
330
5
100
AcDbSymbolTableRecord
100
AcDbLinetypeTableRecord
  2
DIVIDE
 70
     0
  3
DIVIDE
 72
    65
 73
     6
 40
1.25
 49
0.5
 74
     0
 49
-0.25
 74
     0
 49
0.0
 74
     0
 49
-0.25
 74
     0
 49
0.0
 74
     0
 49
-0.25
 74
     0
  0
LTYPE
  5
15A
330
5
100
AcDbSymbolTableRecord
100
AcDbLinetypeTableRecord
  2
DOT
 70
     0
  3
DOT
 72
    65
 73
     2
 40
0.25
 49
0.0
 74
     0
 49
-0.25
 74
     0
  0
LTYPE
  5
15B
330
5
100
AcDbSymbolTableRecord
100
AcDbLinetypeTableRecord
  2
HIDDEN
 70
     0
  3
HIDDEN
 72
    65
 73
     2
 40
0.375
 49
0.25
 74
     0
 49
-0.125
 74
     0
  0
LTYPE
  5
15C
330
5
100
AcDbSymbolTableRecord
100
AcDbLinetypeTableRecord
  2
PHANTOM
 70
     0
  3
PHANTOM
 72
    65
 73
     6
 40
2.5
 49
1.25
 74
     0
 49
-0.25
 74
     0
 49
0.25
 74
     0
 49
-0.25
 74
     0
 49
0.25
 74
     0
 49
-0.25
 74
     0
  0
LTYPE
  5
15D
330
5
100
AcDbSymbolTableRecord
100
AcDbLinetypeTableRecord
  2
$INVISIBLE
 70
     0
  3
$INVISIBLE
 72
    65
 73
     2
 40
200.0
 49
-100.0
 74
     0
 49
-100.0
 74
     0
  0
LTYPE
  5
15E
330
5
100
AcDbSymbolTableRecord
100
AcDbLinetypeTableRecord
  2
CENTERX2
 70
     0
  3
CENTERX2
 72
    65
 73
     4
 40
20.32
 49
12.7
 74
     0
 49
-2.54
 74
     0
 49
2.54
 74
     0
 49
-2.54
 74
     0
  0
LTYPE
  5
15F
330
5
100
AcDbSymbolTableRecord
100
AcDbLinetypeTableRecord
  2
$CONSTRUCTION
 70
     0
  3
$CONSTRUCTION
 72
    65
 73
     4
 40
0.3
 49
0.2
 74
     0
 49
-0.05
 74
     0
 49
0.0
 74
     0
 49
-0.05
 74
     0
  0
LTYPE
  5
160
330
5
100
AcDbSymbolTableRecord
100
AcDbLinetypeTableRecord
  2
$AUXILIARY
 70
     0
  3
$AUXILIARY
 72
    65
 73
     2
 40
0.1
 49
0.05
 74
     0
 49
-0.05
 74
     0
  0
LTYPE
  5
161
330
5
100
AcDbSymbolTableRecord
100
AcDbLinetypeTableRecord
  2
$SNAPEXT
 70
     0
  3
$SNAPEXT
 72
    65
 73
     2
 40
0.04
 49
0.02
 74
     0
 49
-0.02
 74
     0
  0
ENDTAB
  0
TABLE
  2
LAYER
  5
2
330
0
100
AcDbSymbolTable
 70
     3
  0
LAYER
  5
10
330
2
100
AcDbSymbolTableRecord
100
AcDbLayerTableRecord
  2
0
 70
     0
 62
     7
  6
Continuous
370
     0
390
F
347
3E
  0
LAYER
  5
162
330
2
100
AcDbSymbolTableRecord
100
AcDbLayerTableRecord
  2
SLD-0
 70
     0
 62
     7
  6
Continuous
370
     0
390
F
347
3E
  0
LAYER
  5
163
330
2
100
AcDbSymbolTableRecord
100
AcDbLayerTableRecord
  2
Defpoints
 70
     0
 62
     7
  6
Continuous
290
     0
370
     0
390
F
347
3E
  0
ENDTAB
  0
TABLE
  2
STYLE
  5
3
330
0
100
AcDbSymbolTable
 70
     5
  0
STYLE
  5
11
330
3
100
AcDbSymbolTableRecord
100
AcDbTextStyleTableRecord
  2
Standard
 70
     0
 40
0.0
 41
1.0
 50
0.0
 71
     0
 42
3.962400197982788
  3

  4

1001
ACAD
1000
Arial
1071
       34
  0
STYLE
  5
165
330
3
100
AcDbSymbolTableRecord
100
AcDbTextStyleTableRecord
  2
SLDTEXTSTYLE0
 70
     0
 40
0.0
 41
0.699999988079071
 50
0.0
 71
     0
 42
3.962400197982788
  3
TXT.SHX
  4

  0
STYLE
  5
166
330
3
100
AcDbSymbolTableRecord
100
AcDbTextStyleTableRecord
  2
SLDTEXTSTYLE2
 70
     0
 40
0.0
 41
0.9700000286102295
 50
0.0
 71
     0
 42
3.962399959564209
  3
ROMANS.SHX
  4

  0
STYLE
  5
167
330
3
100
AcDbSymbolTableRecord
100
AcDbTextStyleTableRecord
  2
SLDTEXTSTYLE4
 70
     0
 40
0.0
 41
0.75
 50
0.0
 71
     0
 42
3.962400197982788
  3
TXT.SHX
  4

  0
STYLE
  5
168
330
3
100
AcDbSymbolTableRecord
100
AcDbTextStyleTableRecord
  2
SLDTEXTSTYLE8
 70
     0
 40
0.0
 41
0.695652186870575
 50
0.0
 71
     0
 42
3.962400197982788
  3
TXT.SHX
  4

  0
ENDTAB
  0
TABLE
  2
VIEW
  5
6
330
0
100
AcDbSymbolTable
 70
     1
  0
VIEW
  5
164
330
6
100
AcDbSymbolTableRecord
100
AcDbViewTableRecord
  2
View_0
 70
     0
 40
8.267716535433072
 10
5.846456692913386
 20
4.133858267716536
 41
11.69291338582677
 11
0.0
 21
0.0
 31
1.0
 12
0.0
 22
0.0
 32
0.0
 42
50.0
 43
0.0
 44
0.0
 50
0.0
 71
     0
281
     0
 72
     0
 73
     0
  0
ENDTAB
  0
TABLE
  2
UCS
  5
7
330
0
100
AcDbSymbolTable
 70
     0
  0
ENDTAB
  0
TABLE
  2
APPID
  5
9
330
0
100
AcDbSymbolTable
 70
     6
  0
APPID
  5
12
330
9
100
AcDbSymbolTableRecord
100
AcDbRegAppTableRecord
  2
ACAD
 70
     0
  0
APPID
  5
40
330
9
100
AcDbSymbolTableRecord
100
AcDbRegAppTableRecord
  2
TCAD
 70
     0
  0
APPID
  5
16B
330
9
100
AcDbSymbolTableRecord
100
AcDbRegAppTableRecord
  2
ACAD_MLEADERVER
 70
     0
  0
ENDTAB
  0
TABLE
  2
DIMSTYLE
  5
A
330
0
100
AcDbSymbolTable
 70
     1
100
AcDbDimStyleTable
  0
DIMSTYLE
105
27
102
{ACAD_REACTORS
330
307
330
313
330
321
330
3B0
330
3C1
330
3D1
330
3E1
330
3FB
102
}
330
A
100
AcDbSymbolTableRecord
100
AcDbDimStyleTableRecord
  2
Standard
 70
     0
  4
^B2147483648l^B
 41
3.302
 42
1.27
 43
3.75
 44
3.175
 78
     1
140
4.0
141
0.0
143
0.0393700787401575
147
1.524
171
     3
178
     0
179
     2
271
     1
272
     1
274
     3
283
     0
284
     1
340
11
345
14
346
14
347
14
  0
ENDTAB
  0
TABLE
  2
BLOCK_RECORD
  5
1
330
0
100
AcDbSymbolTable
 70
    20
  0
BLOCK_RECORD
  5
1F
102
{ACAD_XDICTIONARY
360
16C
102
}
330
1
100
AcDbSymbolTableRecord
100
AcDbBlockTableRecord
  2
*Model_Space
340
22
 70
     0
280
     1
281
     0
  0
BLOCK_RECORD
  5
1B
330
1
100
AcDbSymbolTableRecord
100
AcDbBlockTableRecord
  2
*Paper_Space
340
1E
 70
     0
280
     1
281
     0
  0
BLOCK_RECORD
  5
151
330
1
100
AcDbSymbolTableRecord
100
AcDbBlockTableRecord
  2
*Paper_Space2
340
152
 70
     0
280
     1
281
     0
  0
BLOCK_RECORD
  5
17A
330
1
100
AcDbSymbolTableRecord
100
AcDbBlockTableRecord
  2
SW_CENTERMARKSYMBOL_0
340
0
102
{BLKREFS
331
32F
102
}
 70
     0
280
     1
281
     0
  0
BLOCK_RECORD
  5
188
330
1
100
AcDbSymbolTableRecord
100
AcDbBlockTableRecord
  2
SW_CENTERMARKSYMBOL_1
340
0
102
{BLKREFS
331
330
102
}
 70
     0
280
     1
281
     0
  0
BLOCK_RECORD
  5
20F
330
1
100
AcDbSymbolTableRecord
100
AcDbBlockTableRecord
  2
_D
340
0
 70
     0
280
     1
281
     0
  0
BLOCK_RECORD
  5
21F
330
1
100
AcDbSymbolTableRecord
100
AcDbBlockTableRecord
  2
_D_1
340
0
 70
     0
280
     1
281
     0
  0
BLOCK_RECORD
  5
235
330
1
100
AcDbSymbolTableRecord
100
AcDbBlockTableRecord
  2
_D_2
340
0
 70
     0
280
     1
281
     0
  0
BLOCK_RECORD
  5
24B
330
1
100
AcDbSymbolTableRecord
100
AcDbBlockTableRecord
  2
_D_3
340
0
 70
     0
280
     1
281
     0
  0
BLOCK_RECORD
  5
264
330
1
100
AcDbSymbolTableRecord
100
AcDbBlockTableRecord
  2
_D_4
340
0
 70
     0
280
     1
281
     0
  0
BLOCK_RECORD
  5
27D
330
1
100
AcDbSymbolTableRecord
100
AcDbBlockTableRecord
  2
_D_5
340
0
 70
     0
280
     1
281
     0
  0
BLOCK_RECORD
  5
296
330
1
100
AcDbSymbolTableRecord
100
AcDbBlockTableRecord
  2
_D_6
340
0
 70
     0
280
     1
281
     0
  0
BLOCK_RECORD
  5
30A
330
1
100
AcDbSymbolTableRecord
100
AcDbBlockTableRecord
  2
*D12
340
0
 70
     0
280
     1
281
     0
  0
BLOCK_RECORD
  5
316
330
1
100
AcDbSymbolTableRecord
100
AcDbBlockTableRecord
  2
*D13
340
0
 70
     0
280
     1
281
     0
  0
BLOCK_RECORD
  5
324
330
1
100
AcDbSymbolTableRecord
100
AcDbBlockTableRecord
  2
*D14
340
0
 70
     0
280
     1
281
     0
  0
BLOCK_RECORD
  5
3B3
330
1
100
AcDbSymbolTableRecord
100
AcDbBlockTableRecord
  2
*D15
340
0
 70
     0
280
     1
281
     0
  0
BLOCK_RECORD
  5
3C4
330
1
100
AcDbSymbolTableRecord
100
AcDbBlockTableRecord
  2
*D16
340
0
 70
     0
280
     1
281
     0
  0
BLOCK_RECORD
  5
3D4
330
1
100
AcDbSymbolTableRecord
100
AcDbBlockTableRecord
  2
*D17
340
0
 70
     0
280
     1
281
     0
  0
BLOCK_RECORD
  5
3E4
330
1
100
AcDbSymbolTableRecord
100
AcDbBlockTableRecord
  2
*D18
340
0
 70
     0
280
     1
281
     0
  0
BLOCK_RECORD
  5
3FE
330
1
100
AcDbSymbolTableRecord
100
AcDbBlockTableRecord
  2
*D19
340
0
 70
     0
280
     1
281
     0
  0
ENDTAB
  0
ENDSEC
  0
SECTION
  2
BLOCKS
  0
BLOCK
  5
20
330
1F
100
AcDbEntity
  8
0
100
AcDbBlockBegin
  2
*Model_Space
 70
     0
 10
0.0
 20
0.0
 30
0.0
  3
*Model_Space
  1

  0
ENDBLK
  5
21
330
1F
100
AcDbEntity
  8
0
100
AcDbBlockEnd
  0
BLOCK
  5
1C
330
1B
100
AcDbEntity
 67
     1
  8
0
100
AcDbBlockBegin
  2
*Paper_Space
 70
     0
 10
0.0
 20
0.0
 30
0.0
  3
*Paper_Space
  1

  0
ENDBLK
  5
1D
330
1B
100
AcDbEntity
 67
     1
  8
0
100
AcDbBlockEnd
  0
BLOCK
  5
153
330
151
100
AcDbEntity
  8
0
100
AcDbBlockBegin
  2
*Paper_Space2
 70
     0
 10
0.0
 20
0.0
 30
0.0
  3
*Paper_Space2
  1

  0
VIEWPORT
  5
40B
330
151
100
AcDbEntity
  8
0
100
AcDbViewport
 10
76.96740250049479
 20
141.9304355849002
 30
0.0
 40
677.3130878193069
 41
523.3782951331008
 68
     1
 69
     1
 12
76.96740250049479
 22
141.9304355849002
 13
0.0
 23
0.0
 14
0.5
 24
0.5
 15
0.5
 25
0.5
 16
0.0
 26
0.0
 36
1.0
 17
0.0
 27
0.0
 37
0.0
 42
50.0
 43
0.0
 44
0.0
 45
523.3782951331008
 50
0.0
 51
0.0
 72
  1000
 90
    32800
  1

281
     0
 71
     1
 74
     0
110
0.0
120
0.0
130
0.0
111
1.0
121
0.0
131
0.0
112
0.0
122
1.0
132
0.0
 79
     0
146
0.0
170
     0
 61
     5
292
     1
282
     1
141
0.0
142
0.0
 63
   256
  0
ENDBLK
  5
154
330
151
100
AcDbEntity
  8
0
100
AcDbBlockEnd
  0
BLOCK
  5
17B
330
17A
100
AcDbEntity
  8
0
100
AcDbBlockBegin
  2
SW_CENTERMARKSYMBOL_0
 70
     0
 10
0.0
 20
0.0
 30
0.0
  3
SW_CENTERMARKSYMBOL_0
  1

  0
LINE
  5
17C
102
{ACAD_XDICTIONARY
360
17D
102
}
330
17A
100
AcDbEntity
  8
SLD-0
 62
     0
100
AcDbLine
 10
0.0
 20
0.0
 30
0.0
 11
0.0
 21
4.000000000000004
 31
0.0
  0
LINE
  5
17F
102
{ACAD_XDICTIONARY
360
180
102
}
330
17A
100
AcDbEntity
  8
SLD-0
 62
     0
100
AcDbLine
 10
0.0
 20
0.0
 30
0.0
 11
-4.000000000000004
 21
0.0
 31
0.0
  0
LINE
  5
182
102
{ACAD_XDICTIONARY
360
183
102
}
330
17A
100
AcDbEntity
  8
SLD-0
 62
     0
100
AcDbLine
 10
0.0
 20
0.0
 30
0.0
 11
0.0
 21
-4.000000000000004
 31
0.0
  0
LINE
  5
185
102
{ACAD_XDICTIONARY
360
186
102
}
330
17A
100
AcDbEntity
  8
SLD-0
 62
     0
100
AcDbLine
 10
0.0
 20
0.0
 30
0.0
 11
4.000000000000004
 21
0.0
 31
0.0
  0
ENDBLK
  5
18A
330
17A
100
AcDbEntity
  8
0
100
AcDbBlockEnd
  0
BLOCK
  5
189
330
188
100
AcDbEntity
  8
0
100
AcDbBlockBegin
  2
SW_CENTERMARKSYMBOL_1
 70
     0
 10
0.0
 20
0.0
 30
0.0
  3
SW_CENTERMARKSYMBOL_1
  1

  0
ARC
  5
18B
102
{ACAD_XDICTIONARY
360
18C
102
}
330
188
100
AcDbEntity
  8
SLD-0
 62
     0
100
AcDbCircle
 10
-42.59177032830289
 20
-17.64208891546287
 30
0.0
 40
46.10100000000001
100
AcDbArc
 50
22.49999999999982
 51
25.65679225967379
  0
ARC
  5
18E
102
{ACAD_XDICTIONARY
360
18F
102
}
330
188
100
AcDbEntity
  8
SLD-0
 62
     0
100
AcDbCircle
 10
-42.59177032830289
 20
-17.64208891546287
 30
0.0
 40
46.101
100
AcDbArc
 50
19.34320774032591
 51
22.49999999999982
  0
ARC
  5
191
102
{ACAD_XDICTIONARY
360
192
102
}
330
188
100
AcDbEntity
  8
SLD-0
 62
     0
100
AcDbCircle
 10
-42.59177032830289
 20
-17.64208891546287
 30
0.0
 40
46.10099999999998
100
AcDbArc
 50
67.49999999999994
 51
70.65679225967392
  0
ARC
  5
194
102
{ACAD_XDICTIONARY
360
195
102
}
330
188
100
AcDbEntity
  8
SLD-0
 62
     0
100
AcDbCircle
 10
-42.59177032830289
 20
-17.64208891546287
 30
0.0
 40
46.10100000000001
100
AcDbArc
 50
64.34320774032598
 51
67.49999999999994
  0
ARC
  5
197
102
{ACAD_XDICTIONARY
360
198
102
}
330
188
100
AcDbEntity
  8
SLD-0
 62
     0
100
AcDbCircle
 10
-42.59177032830289
 20
-17.64208891546287
 30
0.0
 40
46.10099999999999
100
AcDbArc
 50
337.5000000000006
 51
340.6567922596745
  0
ARC
  5
19A
102
{ACAD_XDICTIONARY
360
19B
102
}
330
188
100
AcDbEntity
  8
SLD-0
 62
     0
100
AcDbCircle
 10
-42.59177032830289
 20
-17.64208891546287
 30
0.0
 40
46.10100000000001
100
AcDbArc
 50
334.3432077403266
 51
337.5000000000006
  0
ARC
  5
19D
102
{ACAD_XDICTIONARY
360
19E
102
}
330
188
100
AcDbEntity
  8
SLD-0
 62
     0
100
AcDbCircle
 10
-42.59177032830289
 20
-17.64208891546287
 30
0.0
 40
46.101
100
AcDbArc
 50
292.5000000000005
 51
295.6567922596744
  0
ARC
  5
1A0
102
{ACAD_XDICTIONARY
360
1A1
102
}
330
188
100
AcDbEntity
  8
SLD-0
 62
     0
100
AcDbCircle
 10
-42.59177032830289
 20
-17.64208891546287
 30
0.0
 40
46.101
100
AcDbArc
 50
289.3432077403265
 51
292.5000000000005
  0
ARC
  5
1A3
102
{ACAD_XDICTIONARY
360
1A4
102
}
330
188
100
AcDbEntity
  8
SLD-0
 62
     0
100
AcDbCircle
 10
-42.59177032830289
 20
-17.64208891546287
 30
0.0
 40
46.10100000000001
100
AcDbArc
 50
247.5000000000004
 51
250.6567922596743
  0
ARC
  5
1A6
102
{ACAD_XDICTIONARY
360
1A7
102
}
330
188
100
AcDbEntity
  8
SLD-0
 62
     0
100
AcDbCircle
 10
-42.59177032830289
 20
-17.64208891546287
 30
0.0
 40
46.10100000000001
100
AcDbArc
 50
244.3432077403264
 51
247.5000000000004
  0
ARC
  5
1A9
102
{ACAD_XDICTIONARY
360
1AA
102
}
330
188
100
AcDbEntity
  8
SLD-0
 62
     0
100
AcDbCircle
 10
-42.59177032830289
 20
-17.64208891546287
 30
0.0
 40
46.10100000000001
100
AcDbArc
 50
202.5000000000002
 51
205.6567922596741
  0
ARC
  5
1AC
102
{ACAD_XDICTIONARY
360
1AD
102
}
330
188
100
AcDbEntity
  8
SLD-0
 62
     0
100
AcDbCircle
 10
-42.59177032830289
 20
-17.64208891546287
 30
0.0
 40
46.101
100
AcDbArc
 50
199.3432077403263
 51
202.5000000000002
  0
ARC
  5
1AF
102
{ACAD_XDICTIONARY
360
1B0
102
}
330
188
100
AcDbEntity
  8
SLD-0
 62
     0
100
AcDbCircle
 10
-42.59177032830289
 20
-17.64208891546287
 30
0.0
 40
46.101
100
AcDbArc
 50
157.4999999999994
 51
160.6567922596733
  0
ARC
  5
1B2
102
{ACAD_XDICTIONARY
360
1B3
102
}
330
188
100
AcDbEntity
  8
SLD-0
 62
     0
100
AcDbCircle
 10
-42.59177032830289
 20
-17.64208891546287
 30
0.0
 40
46.101
100
AcDbArc
 50
154.3432077403254
 51
157.4999999999994
  0
ARC
  5
1B5
102
{ACAD_XDICTIONARY
360
1B6
102
}
330
188
100
AcDbEntity
  8
SLD-0
 62
     0
100
AcDbCircle
 10
-42.59177032830289
 20
-17.64208891546287
 30
0.0
 40
46.10100000000003
100
AcDbArc
 50
112.4999999999993
 51
115.6567922596732
  0
ARC
  5
1B8
102
{ACAD_XDICTIONARY
360
1B9
102
}
330
188
100
AcDbEntity
  8
SLD-0
 62
     0
100
AcDbCircle
 10
-42.59177032830289
 20
-17.64208891546287
 30
0.0
 40
46.10100000000003
100
AcDbArc
 50
109.3432077403253
 51
112.4999999999993
  0
ARC
  5
1BB
102
{ACAD_XDICTIONARY
360
1BC
102
}
330
188
100
AcDbEntity
  8
SLD-0
 62
     0
100
AcDbCircle
 10
-42.59177032830289
 20
-17.64208891546287
 30
0.0
 40
46.10100000000001
100
AcDbArc
 50
28.81358451934776
 51
61.18641548065202
  0
ARC
  5
1BE
102
{ACAD_XDICTIONARY
360
1BF
102
}
330
188
100
AcDbEntity
  8
SLD-0
 62
     0
100
AcDbCircle
 10
-42.59177032830289
 20
-17.64208891546287
 30
0.0
 40
46.10100000000001
100
AcDbArc
 50
73.8135845193479
 51
106.1864154806513
  0
ARC
  5
1C1
102
{ACAD_XDICTIONARY
360
1C2
102
}
330
188
100
AcDbEntity
  8
SLD-0
 62
     0
100
AcDbCircle
 10
-42.59177032830289
 20
-17.64208891546287
 30
0.0
 40
46.10100000000001
100
AcDbArc
 50
118.8135845193472
 51
151.1864154806514
  0
ARC
  5
1C4
102
{ACAD_XDICTIONARY
360
1C5
102
}
330
188
100
AcDbEntity
  8
SLD-0
 62
     0
100
AcDbCircle
 10
-42.59177032830289
 20
-17.64208891546287
 30
0.0
 40
46.101
100
AcDbArc
 50
163.8135845193472
 51
196.1864154806523
  0
ARC
  5
1C7
102
{ACAD_XDICTIONARY
360
1C8
102
}
330
188
100
AcDbEntity
  8
SLD-0
 62
     0
100
AcDbCircle
 10
-42.59177032830289
 20
-17.64208891546287
 30
0.0
 40
46.10099999999999
100
AcDbArc
 50
208.8135845193482
 51
241.1864154806524
  0
ARC
  5
1CA
102
{ACAD_XDICTIONARY
360
1CB
102
}
330
188
100
AcDbEntity
  8
SLD-0
 62
     0
100
AcDbCircle
 10
-42.59177032830289
 20
-17.64208891546287
 30
0.0
 40
46.10100000000001
100
AcDbArc
 50
253.8135845193483
 51
286.1864154806526
  0
ARC
  5
1CD
102
{ACAD_XDICTIONARY
360
1CE
102
}
330
188
100
AcDbEntity
  8
SLD-0
 62
     0
100
AcDbCircle
 10
-42.59177032830289
 20
-17.64208891546287
 30
0.0
 40
46.10100000000001
100
AcDbArc
 50
298.8135845193484
 51
331.1864154806527
  0
ARC
  5
1D0
102
{ACAD_XDICTIONARY
360
1D1
102
}
330
188
100
AcDbEntity
  8
SLD-0
 62
     0
100
AcDbCircle
 10
-42.59177032830289
 20
-17.64208891546287
 30
0.0
 40
46.10100000000001
100
AcDbArc
 50
343.8135845193485
 51
16.18641548065197
  0
LINE
  5
1D3
102
{ACAD_XDICTIONARY
360
1D4
102
}
330
188
100
AcDbEntity
  8
SLD-0
 62
     0
100
AcDbLine
 10
0.0
 20
0.0
 30
0.0
 11
2.346654012578664
 21
0.9720159182073362
 31
0.0
  0
LINE
  5
1D6
102
{ACAD_XDICTIONARY
360
1D7
102
}
330
188
100
AcDbEntity
  8
SLD-0
 62
     0
100
AcDbLine
 10
0.0
 20
0.0
 30
0.0
 11
-2.346654012578692
 21
-0.9720159182072807
 31
0.0
  0
LINE
  5
1D9
102
{ACAD_XDICTIONARY
360
1DA
102
}
330
188
100
AcDbEntity
  8
SLD-0
 62
     0
100
AcDbLine
 10
-42.59177032830289
 20
-17.64208891546287
 30
0.0
 11
-42.59177032830289
 21
-15.10208891546289
 31
0.0
  0
LINE
  5
1DC
102
{ACAD_XDICTIONARY
360
1DD
102
}
330
188
100
AcDbEntity
  8
SLD-0
 62
     0
100
AcDbLine
 10
-42.59177032830289
 20
-17.64208891546287
 30
0.0
 11
-45.13177032830287
 21
-17.64208891546287
 31
0.0
  0
LINE
  5
1DF
102
{ACAD_XDICTIONARY
360
1E0
102
}
330
188
100
AcDbEntity
  8
SLD-0
 62
     0
100
AcDbLine
 10
-42.59177032830289
 20
-17.64208891546287
 30
0.0
 11
-42.59177032830289
 21
-20.18208891546286
 31
0.0
  0
LINE
  5
1E2
102
{ACAD_XDICTIONARY
360
1E3
102
}
330
188
100
AcDbEntity
  8
SLD-0
 62
     0
100
AcDbLine
 10
-42.59177032830289
 20
-17.64208891546287
 30
0.0
 11
-40.0517703283029
 21
-17.64208891546287
 31
0.0
  0
LINE
  5
1E5
102
{ACAD_XDICTIONARY
360
1E6
102
}
330
188
100
AcDbEntity
  8
SLD-0
 62
     0
100
AcDbLine
 10
-24.94968141283985
 20
24.94968141283993
 30
0.0
 11
-23.97766549463251
 21
27.29633542541859
 31
0.0
  0
LINE
  5
1E8
102
{ACAD_XDICTIONARY
360
1E9
102
}
330
188
100
AcDbEntity
  8
SLD-0
 62
     0
100
AcDbLine
 10
-24.94968141283985
 20
24.94968141283993
 30
0.0
 11
-25.92169733104718
 21
22.60302740026127
 31
0.0
  0
LINE
  5
1EB
102
{ACAD_XDICTIONARY
360
1EC
102
}
330
188
100
AcDbEntity
  8
SLD-0
 62
     0
100
AcDbLine
 10
-0.0000000000001388
 20
-35.28417783092605
 30
0.0
 11
2.346654012578525
 21
-36.25619374913342
 31
0.0
  0
LINE
  5
1EE
102
{ACAD_XDICTIONARY
360
1EF
102
}
330
188
100
AcDbEntity
  8
SLD-0
 62
     0
100
AcDbLine
 10
-0.0000000000001388
 20
-35.28417783092605
 30
0.0
 11
-2.346654012578803
 21
-34.31216191271871
 31
0.0
  0
LINE
  5
1F1
102
{ACAD_XDICTIONARY
360
1F2
102
}
330
188
100
AcDbEntity
  8
SLD-0
 62
     0
100
AcDbLine
 10
-24.94968141284015
 20
-60.23385924376581
 30
0.0
 11
-23.97766549463282
 21
-62.5805132563445
 31
0.0
  0
LINE
  5
1F4
102
{ACAD_XDICTIONARY
360
1F5
102
}
330
188
100
AcDbEntity
  8
SLD-0
 62
     0
100
AcDbLine
 10
-24.94968141284015
 20
-60.23385924376581
 30
0.0
 11
-25.92169733104746
 21
-57.88720523118712
 31
0.0
  0
LINE
  5
1F7
102
{ACAD_XDICTIONARY
360
1F8
102
}
330
188
100
AcDbEntity
  8
SLD-0
 62
     0
100
AcDbLine
 10
-60.23385924376623
 20
-60.23385924376556
 30
0.0
 11
-61.20587516197357
 21
-62.58051325634423
 31
0.0
  0
LINE
  5
1FA
102
{ACAD_XDICTIONARY
360
1FB
102
}
330
188
100
AcDbEntity
  8
SLD-0
 62
     0
100
AcDbLine
 10
-60.23385924376623
 20
-60.23385924376556
 30
0.0
 11
-59.26184332555886
 21
-57.8872052311869
 31
0.0
  0
LINE
  5
1FD
102
{ACAD_XDICTIONARY
360
1FE
102
}
330
188
100
AcDbEntity
  8
SLD-0
 62
     0
100
AcDbLine
 10
-85.18354065660589
 20
-35.28417783092547
 30
0.0
 11
-87.53019466918458
 21
-36.25619374913278
 31
0.0
  0
LINE
  5
200
102
{ACAD_XDICTIONARY
360
201
102
}
330
188
100
AcDbEntity
  8
SLD-0
 62
     0
100
AcDbLine
 10
-85.18354065660589
 20
-35.28417783092547
 30
0.0
 11
-82.83688664402719
 21
-34.31216191271816
 31
0.0
  0
LINE
  5
203
102
{ACAD_XDICTIONARY
360
204
102
}
330
188
100
AcDbEntity
  8
SLD-0
 62
     0
100
AcDbLine
 10
-85.18354065660552
 20
0.0000000000006106
 30
0.0
 11
-87.53019466918418
 21
0.9720159182079469
 31
0.0
  0
LINE
  5
206
102
{ACAD_XDICTIONARY
360
207
102
}
330
188
100
AcDbEntity
  8
SLD-0
 62
     0
100
AcDbLine
 10
-85.18354065660552
 20
0.0000000000006106
 30
0.0
 11
-82.83688664402686
 21
-0.9720159182067256
 31
0.0
  0
LINE
  5
209
102
{ACAD_XDICTIONARY
360
20A
102
}
330
188
100
AcDbEntity
  8
SLD-0
 62
     0
100
AcDbLine
 10
-60.23385924376534
 20
24.94968141284021
 30
0.0
 11
-61.20587516197262
 21
27.29633542541887
 31
0.0
  0
LINE
  5
20C
102
{ACAD_XDICTIONARY
360
20D
102
}
330
188
100
AcDbEntity
  8
SLD-0
 62
     0
100
AcDbLine
 10
-60.23385924376534
 20
24.94968141284021
 30
0.0
 11
-59.26184332555803
 21
22.60302740026149
 31
0.0
  0
ENDBLK
  5
211
330
188
100
AcDbEntity
  8
0
100
AcDbBlockEnd
  0
BLOCK
  5
210
330
20F
100
AcDbEntity
  8
0
100
AcDbBlockBegin
  2
_D
 70
     0
 10
0.0
 20
0.0
 30
0.0
  3
_D
  1

  0
LINE
  5
212
102
{ACAD_XDICTIONARY
360
213
102
}
330
20F
100
AcDbEntity
  8
SLD-0
 62
     0
370
    -2
100
AcDbLine
 10
233.1382782306241
 20
303.453156172019
 30
0.0
 11
218.4372920158597
 21
303.453156172019
 31
0.0
  0
LINE
  5
215
102
{ACAD_XDICTIONARY
360
216
102
}
330
20F
100
AcDbEntity
  8
SLD-0
 62
     0
370
    -2
100
AcDbLine
 10
218.4372920158597
 20
303.453156172019
 30
0.0
 11
202.3662732841422
 21
294.17454918111
 31
0.0
  0
MTEXT
  5
218
102
{ACAD_XDICTIONARY
360
219
102
}
330
20F
100
AcDbEntity
  8
SLD-0
 62
     0
100
AcDbMText
 10
234.6622782306242
 20
309.4890815568563
 30
0.0
 40
4.000000148349338
 41
0.0
 46
0.0
 71
     1
 72
     1
  1
8X ∅8.4\P [∅0.33] THRU\P
 73
     1
 44
1.0
  0
LWPOLYLINE
  5
21B
102
{ACAD_REACTORS
330
21C
102
}
330
20F
100
AcDbEntity
  8
SLD-0
 62
     0
100
AcDbPolyline
 90
        4
 70
   129
 43
0.0
 10
202.0911066174756
 20
294.6511518283261
 10
202.6414399508089
 20
293.697946533894
 10
199.506657400846
 20
292.52354918111
 10
199.506657400846
 20
292.52354918111
  0
HATCH
  5
21C
330
20F
100
AcDbEntity
  8
SLD-0
  6
Continuous
 62
     0
370
     0
100
AcDbHatch
 10
0.0
 20
0.0
 30
0.0
210
0.0
220
0.0
230
1.0
  2
SOLID
 70
     1
 71
     1
 91
        1
 92
        3
 72
     0
 73
     1
 93
        3
 10
202.0911066174756
 20
294.6511518283261
 10
202.6414399508089
 20
293.697946533894
 10
199.506657400846
 20
292.52354918111
 97
        1
330
21B
 75
     0
 76
     1
 98
        0
  0
POINT
  5
21D
330
20F
100
AcDbEntity
  8
Defpoints
  6
Continuous
 62
     0
100
AcDbPoint
 10
199.506657400846
 20
292.52354918111
 30
0.0
  0
POINT
  5
21E
330
20F
100
AcDbEntity
  8
Defpoints
  6
Continuous
 62
     0
100
AcDbPoint
 10
192.2036383758127
 20
288.3071491811098
 30
0.0
  0
ENDBLK
  5
221
330
20F
100
AcDbEntity
  8
0
100
AcDbBlockEnd
  0
BLOCK
  5
220
330
21F
100
AcDbEntity
  8
0
100
AcDbBlockBegin
  2
_D_1
 70
     0
 10
0.0
 20
0.0
 30
0.0
  3
_D_1
  1

  0
LINE
  5
222
102
{ACAD_XDICTIONARY
360
223
102
}
330
21F
100
AcDbEntity
  8
SLD-0
 62
     0
370
    -2
100
AcDbLine
 10
205.1411256049504
 20
322.5884822084759
 30
0.0
 11
198.2462544492084
 21
322.5884822084759
 31
0.0
  0
LINE
  5
225
102
{ACAD_XDICTIONARY
360
226
102
}
330
21F
100
AcDbEntity
  8
SLD-0
 62
     0
370
    -2
100
AcDbLine
 10
198.2462544492084
 20
322.5884822084759
 30
0.0
 11
193.7605778312196
 21
305.8477091638178
 31
0.0
  0
MTEXT
  5
228
102
{ACAD_XDICTIONARY
360
229
102
}
330
21F
100
AcDbEntity
  8
SLD-0
 62
     0
100
AcDbMText
 10
206.6651256049504
 20
328.6244075933132
 30
0.0
 40
4.000000148349338
 41
0.0
 46
0.0
 71
     1
 72
     1
  1
∅113.5\P [∅4.47]
 73
     1
 44
1.0
  0
LWPOLYLINE
  5
22B
102
{ACAD_REACTORS
330
22C
102
}
330
21F
100
AcDbEntity
  8
SLD-0
 62
     0
100
AcDbPolyline
 90
        4
 70
   129
 43
0.0
 10
193.2289966514852
 20
305.9901459116392
 10
194.292159010954
 20
305.7052724159964
 10
192.9059573442912
 20
302.6582220854113
 10
192.9059573442912
 20
302.6582220854113
  0
HATCH
  5
22C
330
21F
100
AcDbEntity
  8
SLD-0
  6
Continuous
 62
     0
370
     0
100
AcDbHatch
 10
0.0
 20
0.0
 30
0.0
210
0.0
220
0.0
230
1.0
  2
SOLID
 70
     1
 71
     1
 91
        1
 92
        3
 72
     0
 73
     1
 93
        3
 10
193.2289966514852
 20
305.9901459116392
 10
194.292159010954
 20
305.7052724159964
 10
192.9059573442912
 20
302.6582220854113
 97
        1
330
22B
 75
     0
 76
     1
 98
        0
  0
LINE
  5
22D
102
{ACAD_XDICTIONARY
360
22E
102
}
330
21F
100
AcDbEntity
  8
SLD-0
 62
     0
370
    -2
100
AcDbLine
 10
175.7130589728663
 20
247.8235788528071
 30
0.0
 11
180.7130589728663
 21
247.8235788528071
 31
0.0
  0
LINE
  5
230
102
{ACAD_XDICTIONARY
360
231
102
}
330
21F
100
AcDbEntity
  8
SLD-0
 62
     0
370
    -2
100
AcDbLine
 10
178.2130589728663
 20
245.3235788528071
 30
0.0
 11
178.2130589728663
 21
250.3235788528071
 31
0.0
  0
POINT
  5
233
330
21F
100
AcDbEntity
  8
Defpoints
  6
Continuous
 62
     0
100
AcDbPoint
 10
192.9059573442912
 20
302.6582220854113
 30
0.0
  0
POINT
  5
234
330
21F
100
AcDbEntity
  8
Defpoints
  6
Continuous
 62
     0
100
AcDbPoint
 10
163.5201606014414
 20
192.9889356202029
 30
0.0
  0
ENDBLK
  5
237
330
21F
100
AcDbEntity
  8
0
100
AcDbBlockEnd
  0
BLOCK
  5
236
330
235
100
AcDbEntity
  8
0
100
AcDbBlockBegin
  2
_D_2
 70
     0
 10
0.0
 20
0.0
 30
0.0
  3
_D_2
  1

  0
LINE
  5
238
102
{ACAD_XDICTIONARY
360
239
102
}
330
235
100
AcDbEntity
  8
SLD-0
 62
     0
370
    -2
100
AcDbLine
 10
241.6307748199827
 20
281.3102539525412
 30
0.0
 11
236.213681622157
 21
281.3102539525412
 31
0.0
  0
LINE
  5
23B
102
{ACAD_XDICTIONARY
360
23C
102
}
330
235
100
AcDbEntity
  8
SLD-0
 62
     0
370
    -2
100
AcDbLine
 10
236.213681622157
 20
281.3102539525412
 30
0.0
 11
220.9973119960289
 21
272.5250788528072
 31
0.0
  0
MTEXT
  5
23E
102
{ACAD_XDICTIONARY
360
23F
102
}
330
235
100
AcDbEntity
  8
SLD-0
 62
     0
100
AcDbMText
 10
243.1547748199827
 20
287.3461793373785
 30
0.0
 40
4.000000148349338
 41
0.0
 46
0.0
 71
     1
 72
     1
  1
∅92.2\P [∅3.63]
 73
     1
 44
1.0
  0
LWPOLYLINE
  5
241
102
{ACAD_REACTORS
330
242
102
}
330
235
100
AcDbEntity
  8
SLD-0
 62
     0
100
AcDbPolyline
 90
        4
 70
   129
 43
0.0
 10
220.7221453293623
 20
273.0016815000232
 10
221.2724786626956
 20
272.0484762055912
 10
218.1376961127327
 20
270.8740788528072
 10
218.1376961127327
 20
270.8740788528072
  0
HATCH
  5
242
330
235
100
AcDbEntity
  8
SLD-0
  6
Continuous
 62
     0
370
     0
100
AcDbHatch
 10
0.0
 20
0.0
 30
0.0
210
0.0
220
0.0
230
1.0
  2
SOLID
 70
     1
 71
     1
 91
        1
 92
        3
 72
     0
 73
     1
 93
        3
 10
220.7221453293623
 20
273.0016815000232
 10
221.2724786626956
 20
272.0484762055912
 10
218.1376961127327
 20
270.8740788528072
 97
        1
330
241
 75
     0
 76
     1
 98
        0
  0
LINE
  5
243
102
{ACAD_XDICTIONARY
360
244
102
}
330
235
100
AcDbEntity
  8
SLD-0
 62
     0
370
    -2
100
AcDbLine
 10
175.7130589728663
 20
247.8235788528071
 30
0.0
 11
180.7130589728663
 21
247.8235788528071
 31
0.0
  0
LINE
  5
246
102
{ACAD_XDICTIONARY
360
247
102
}
330
235
100
AcDbEntity
  8
SLD-0
 62
     0
370
    -2
100
AcDbLine
 10
178.2130589728663
 20
245.3235788528071
 30
0.0
 11
178.2130589728663
 21
250.3235788528071
 31
0.0
  0
POINT
  5
249
330
235
100
AcDbEntity
  8
Defpoints
  6
Continuous
 62
     0
100
AcDbPoint
 10
218.1376961127327
 20
270.8740788528072
 30
0.0
  0
POINT
  5
24A
330
235
100
AcDbEntity
  8
Defpoints
  6
Continuous
 62
     0
100
AcDbPoint
 10
138.288421833
 20
224.773078852807
 30
0.0
  0
ENDBLK
  5
24D
330
235
100
AcDbEntity
  8
0
100
AcDbBlockEnd
  0
BLOCK
  5
24C
330
24B
100
AcDbEntity
  8
0
100
AcDbBlockBegin
  2
_D_3
 70
     0
 10
0.0
 20
0.0
 30
0.0
  3
_D_3
  1

  0
LINE
  5
24E
102
{ACAD_XDICTIONARY
360
24F
102
}
330
24B
100
AcDbEntity
  8
SLD-0
 62
     0
370
    -2
100
AcDbLine
 10
312.5210467353118
 20
271.5535788528072
 30
0.0
 11
312.5210467353118
 21
258.0945368746772
 31
0.0
  0
LINE
  5
251
102
{ACAD_XDICTIONARY
360
252
102
}
330
24B
100
AcDbEntity
  8
SLD-0
 62
     0
370
    -2
100
AcDbLine
 10
312.4710467353118
 20
271.5535788528072
 30
0.0
 11
312.4710467353118
 21
258.0945368746772
 31
0.0
  0
LINE
  5
254
102
{ACAD_XDICTIONARY
360
255
102
}
330
24B
100
AcDbEntity
  8
SLD-0
 62
     0
370
    -2
100
AcDbLine
 10
315.8230467353118
 20
261.2695368746772
 30
0.0
 11
319.1250467353117
 21
261.2695368746772
 31
0.0
  0
LINE
  5
257
102
{ACAD_XDICTIONARY
360
258
102
}
330
24B
100
AcDbEntity
  8
SLD-0
 62
     0
370
    -2
100
AcDbLine
 10
309.1690467353118
 20
261.2695368746772
 30
0.0
 11
303.3098280685389
 21
261.2695368746772
 31
0.0
  0
LWPOLYLINE
  5
25A
102
{ACAD_REACTORS
330
25B
102
}
330
24B
100
AcDbEntity
  8
SLD-0
 62
     0
100
AcDbPolyline
 90
        4
 70
   129
 43
0.0
 10
315.8230467353118
 20
261.8198702080106
 10
315.8230467353118
 20
260.7192035413439
 10
312.5210467353118
 20
261.2695368746772
 10
312.5210467353118
 20
261.2695368746772
  0
HATCH
  5
25B
330
24B
100
AcDbEntity
  8
SLD-0
  6
Continuous
 62
     0
370
     0
100
AcDbHatch
 10
0.0
 20
0.0
 30
0.0
210
0.0
220
0.0
230
1.0
  2
SOLID
 70
     1
 71
     1
 91
        1
 92
        3
 72
     0
 73
     1
 93
        3
 10
315.8230467353118
 20
261.8198702080106
 10
315.8230467353118
 20
260.7192035413439
 10
312.5210467353118
 20
261.2695368746772
 97
        1
330
25A
 75
     0
 76
     1
 98
        0
  0
LWPOLYLINE
  5
25C
102
{ACAD_REACTORS
330
25D
102
}
330
24B
100
AcDbEntity
  8
SLD-0
 62
     0
100
AcDbPolyline
 90
        4
 70
   129
 43
0.0
 10
309.1690467353118
 20
261.8198702080106
 10
309.1690467353118
 20
260.7192035413439
 10
312.4710467353118
 20
261.2695368746772
 10
312.4710467353118
 20
261.2695368746772
  0
HATCH
  5
25D
330
24B
100
AcDbEntity
  8
SLD-0
  6
Continuous
 62
     0
370
     0
100
AcDbHatch
 10
0.0
 20
0.0
 30
0.0
210
0.0
220
0.0
230
1.0
  2
SOLID
 70
     1
 71
     1
 91
        1
 92
        3
 72
     0
 73
     1
 93
        3
 10
309.1690467353118
 20
261.8198702080106
 10
309.1690467353118
 20
260.7192035413439
 10
312.4710467353118
 20
261.2695368746772
 97
        1
330
25C
 75
     0
 76
     1
 98
        0
  0
MTEXT
  5
25E
102
{ACAD_XDICTIONARY
360
25F
102
}
330
24B
100
AcDbEntity
  8
SLD-0
 62
     0
100
AcDbMText
 10
301.7858280685389
 20
266.6806327915745
 30
0.0
 40
4.000000148349338
 41
0.0
 46
0.0
 71
     3
 72
     1
  1
0.05\PWINDOW
 73
     1
 44
1.0
  0
POINT
  5
261
330
24B
100
AcDbEntity
  8
Defpoints
  6
Continuous
 62
     0
100
AcDbPoint
 10
312.5210467353118
 20
272.8235788528071
 30
0.0
  0
POINT
  5
262
330
24B
100
AcDbEntity
  8
Defpoints
  6
Continuous
 62
     0
100
AcDbPoint
 10
312.4710467353118
 20
272.8235788528071
 30
0.0
  0
POINT
  5
263
330
24B
100
AcDbEntity
  8
Defpoints
  6
Continuous
 62
     0
100
AcDbPoint
 10
312.4710467353118
 20
261.2695368746772
 30
0.0
  0
ENDBLK
  5
266
330
24B
100
AcDbEntity
  8
0
100
AcDbBlockEnd
  0
BLOCK
  5
265
330
264
100
AcDbEntity
  8
0
100
AcDbBlockBegin
  2
_D_4
 70
     0
 10
0.0
 20
0.0
 30
0.0
  3
_D_4
  1

  0
LINE
  5
267
102
{ACAD_XDICTIONARY
360
268
102
}
330
264
100
AcDbEntity
  8
SLD-0
 62
     0
370
    -2
100
AcDbLine
 10
308.3510467353118
 20
272.9235788528072
 30
0.0
 11
269.1136187511043
 21
272.9235788528072
 31
0.0
  0
LINE
  5
26A
102
{ACAD_XDICTIONARY
360
26B
102
}
330
264
100
AcDbEntity
  8
SLD-0
 62
     0
370
    -2
100
AcDbLine
 10
308.3510467353118
 20
222.7235788528071
 30
0.0
 11
269.1136187511043
 21
222.7235788528071
 31
0.0
  0
LINE
  5
26D
102
{ACAD_XDICTIONARY
360
26E
102
}
330
264
100
AcDbEntity
  8
SLD-0
 62
     0
370
    -2
100
AcDbLine
 10
272.2886187511043
 20
269.6215788528071
 30
0.0
 11
272.2886187511043
 21
251.7147051549148
 31
0.0
  0
LINE
  5
270
102
{ACAD_XDICTIONARY
360
271
102
}
330
264
100
AcDbEntity
  8
SLD-0
 62
     0
370
    -2
100
AcDbLine
 10
272.2886187511043
 20
226.0255788528071
 30
0.0
 11
272.2886187511043
 21
244.3583831903855
 31
0.0
  0
LWPOLYLINE
  5
273
102
{ACAD_REACTORS
330
274
102
}
330
264
100
AcDbEntity
  8
SLD-0
 62
     0
100
AcDbPolyline
 90
        4
 70
   129
 43
0.0
 10
271.738285417771
 20
269.6215788528071
 10
272.8389520844377
 20
269.6215788528071
 10
272.2886187511043
 20
272.9235788528072
 10
272.2886187511043
 20
272.9235788528072
  0
HATCH
  5
274
330
264
100
AcDbEntity
  8
SLD-0
  6
Continuous
 62
     0
370
     0
100
AcDbHatch
 10
0.0
 20
0.0
 30
0.0
210
0.0
220
0.0
230
1.0
  2
SOLID
 70
     1
 71
     1
 91
        1
 92
        3
 72
     0
 73
     1
 93
        3
 10
271.738285417771
 20
269.6215788528071
 10
272.8389520844377
 20
269.6215788528071
 10
272.2886187511043
 20
272.9235788528072
 97
        1
330
273
 75
     0
 76
     1
 98
        0
  0
LWPOLYLINE
  5
275
102
{ACAD_REACTORS
330
276
102
}
330
264
100
AcDbEntity
  8
SLD-0
 62
     0
100
AcDbPolyline
 90
        4
 70
   129
 43
0.0
 10
271.738285417771
 20
226.0255788528071
 10
272.8389520844377
 20
226.0255788528071
 10
272.2886187511043
 20
222.7235788528071
 10
272.2886187511043
 20
222.7235788528071
  0
HATCH
  5
276
330
264
100
AcDbEntity
  8
SLD-0
  6
Continuous
 62
     0
370
     0
100
AcDbHatch
 10
0.0
 20
0.0
 30
0.0
210
0.0
220
0.0
230
1.0
  2
SOLID
 70
     1
 71
     1
 91
        1
 92
        3
 72
     0
 73
     1
 93
        3
 10
271.738285417771
 20
226.0255788528071
 10
272.8389520844377
 20
226.0255788528071
 10
272.2886187511043
 20
222.7235788528071
 97
        1
330
275
 75
     0
 76
     1
 98
        0
  0
MTEXT
  5
277
102
{ACAD_XDICTIONARY
360
278
102
}
330
264
100
AcDbEntity
  8
SLD-0
 62
     0
100
AcDbMText
 10
272.2886187511043
 20
250.1907051191064
 30
0.0
 40
4.000000148349338
 41
0.0
 46
0.0
 71
     2
 72
     1
  1
%%c50.2
 73
     1
 44
1.0
  0
POINT
  5
27A
330
264
100
AcDbEntity
  8
Defpoints
  6
Continuous
 62
     0
100
AcDbPoint
 10
309.6210467353118
 20
272.9235788528072
 30
0.0
  0
POINT
  5
27B
330
264
100
AcDbEntity
  8
Defpoints
  6
Continuous
 62
     0
100
AcDbPoint
 10
309.6210467353118
 20
222.7235788528071
 30
0.0
  0
POINT
  5
27C
330
264
100
AcDbEntity
  8
Defpoints
  6
Continuous
 62
     0
100
AcDbPoint
 10
272.2886187511043
 20
222.7235788528071
 30
0.0
  0
ENDBLK
  5
27F
330
264
100
AcDbEntity
  8
0
100
AcDbBlockEnd
  0
BLOCK
  5
27E
330
27D
100
AcDbEntity
  8
0
100
AcDbBlockBegin
  2
_D_5
 70
     0
 10
0.0
 20
0.0
 30
0.0
  3
_D_5
  1

  0
LINE
  5
280
102
{ACAD_XDICTIONARY
360
281
102
}
330
27D
100
AcDbEntity
  8
SLD-0
 62
     0
370
    -2
100
AcDbLine
 10
326.9946467353118
 20
269.8235788528071
 30
0.0
 11
347.7087911164574
 21
269.8235788528071
 31
0.0
  0
LINE
  5
283
102
{ACAD_XDICTIONARY
360
284
102
}
330
27D
100
AcDbEntity
  8
SLD-0
 62
     0
370
    -2
100
AcDbLine
 10
326.9946467353118
 20
225.8235788528071
 30
0.0
 11
347.7087911164574
 21
225.8235788528071
 31
0.0
  0
LINE
  5
286
102
{ACAD_XDICTIONARY
360
287
102
}
330
27D
100
AcDbEntity
  8
SLD-0
 62
     0
370
    -2
100
AcDbLine
 10
344.5337911164574
 20
266.5215788528071
 30
0.0
 11
344.5337911164574
 21
251.714705154915
 31
0.0
  0
LINE
  5
289
102
{ACAD_XDICTIONARY
360
28A
102
}
330
27D
100
AcDbEntity
  8
SLD-0
 62
     0
370
    -2
100
AcDbLine
 10
344.5337911164574
 20
229.1255788528071
 30
0.0
 11
344.5337911164574
 21
244.3583831903856
 31
0.0
  0
LWPOLYLINE
  5
28C
102
{ACAD_REACTORS
330
28D
102
}
330
27D
100
AcDbEntity
  8
SLD-0
 62
     0
100
AcDbPolyline
 90
        4
 70
   129
 43
0.0
 10
343.983457783124
 20
266.5215788528071
 10
345.0841244497907
 20
266.5215788528071
 10
344.5337911164574
 20
269.8235788528071
 10
344.5337911164574
 20
269.8235788528071
  0
HATCH
  5
28D
330
27D
100
AcDbEntity
  8
SLD-0
  6
Continuous
 62
     0
370
     0
100
AcDbHatch
 10
0.0
 20
0.0
 30
0.0
210
0.0
220
0.0
230
1.0
  2
SOLID
 70
     1
 71
     1
 91
        1
 92
        3
 72
     0
 73
     1
 93
        3
 10
343.983457783124
 20
266.5215788528071
 10
345.0841244497907
 20
266.5215788528071
 10
344.5337911164574
 20
269.8235788528071
 97
        1
330
28C
 75
     0
 76
     1
 98
        0
  0
LWPOLYLINE
  5
28E
102
{ACAD_REACTORS
330
28F
102
}
330
27D
100
AcDbEntity
  8
SLD-0
 62
     0
100
AcDbPolyline
 90
        4
 70
   129
 43
0.0
 10
343.983457783124
 20
229.1255788528071
 10
345.0841244497907
 20
229.1255788528071
 10
344.5337911164574
 20
225.8235788528071
 10
344.5337911164574
 20
225.8235788528071
  0
HATCH
  5
28F
330
27D
100
AcDbEntity
  8
SLD-0
  6
Continuous
 62
     0
370
     0
100
AcDbHatch
 10
0.0
 20
0.0
 30
0.0
210
0.0
220
0.0
230
1.0
  2
SOLID
 70
     1
 71
     1
 91
        1
 92
        3
 72
     0
 73
     1
 93
        3
 10
343.983457783124
 20
229.1255788528071
 10
345.0841244497907
 20
229.1255788528071
 10
344.5337911164574
 20
225.8235788528071
 97
        1
330
28E
 75
     0
 76
     1
 98
        0
  0
MTEXT
  5
290
102
{ACAD_XDICTIONARY
360
291
102
}
330
27D
100
AcDbEntity
  8
SLD-0
 62
     0
100
AcDbMText
 10
344.5337911164573
 20
250.1907051191066
 30
0.0
 40
4.000000148349338
 41
0.0
 46
0.0
 71
     2
 72
     1
  1
%%c44.0
 73
     1
 44
1.0
  0
POINT
  5
293
330
27D
100
AcDbEntity
  8
Defpoints
  6
Continuous
 62
     0
100
AcDbPoint
 10
325.7246467353118
 20
269.8235788528071
 30
0.0
  0
POINT
  5
294
330
27D
100
AcDbEntity
  8
Defpoints
  6
Continuous
 62
     0
100
AcDbPoint
 10
325.7246467353118
 20
225.8235788528071
 30
0.0
  0
POINT
  5
295
330
27D
100
AcDbEntity
  8
Defpoints
  6
Continuous
 62
     0
100
AcDbPoint
 10
344.5337911164574
 20
225.8235788528071
 30
0.0
  0
ENDBLK
  5
298
330
27D
100
AcDbEntity
  8
0
100
AcDbBlockEnd
  0
BLOCK
  5
297
330
296
100
AcDbEntity
  8
0
100
AcDbBlockBegin
  2
_D_6
 70
     0
 10
0.0
 20
0.0
 30
0.0
  3
_D_6
  1

  0
LINE
  5
299
102
{ACAD_XDICTIONARY
360
29A
102
}
330
296
100
AcDbEntity
  8
SLD-0
 62
     0
370
    -2
100
AcDbLine
 10
312.4710467353118
 20
274.0935788528071
 30
0.0
 11
312.4710467353118
 21
315.9320927758686
 31
0.0
  0
LINE
  5
29C
102
{ACAD_XDICTIONARY
360
29D
102
}
330
296
100
AcDbEntity
  8
SLD-0
 62
     0
370
    -2
100
AcDbLine
 10
308.4526467353118
 20
305.0688288528222
 30
0.0
 11
308.4526467353118
 21
315.9320927758686
 31
0.0
  0
LINE
  5
29F
102
{ACAD_XDICTIONARY
360
2A0
102
}
330
296
100
AcDbEntity
  8
SLD-0
 62
     0
370
    -2
100
AcDbLine
 10
315.7730467353118
 20
312.7570927758686
 30
0.0
 11
319.0750467353118
 21
312.7570927758686
 31
0.0
  0
LINE
  5
2A2
102
{ACAD_XDICTIONARY
360
2A3
102
}
330
296
100
AcDbEntity
  8
SLD-0
 62
     0
370
    -2
100
AcDbLine
 10
305.1506467353118
 20
312.7570927758686
 30
0.0
 11
295.4618197070904
 21
312.7570927758686
 31
0.0
  0
LWPOLYLINE
  5
2A5
102
{ACAD_REACTORS
330
2A6
102
}
330
296
100
AcDbEntity
  8
SLD-0
 62
     0
100
AcDbPolyline
 90
        4
 70
   129
 43
0.0
 10
315.7730467353118
 20
313.307426109202
 10
315.7730467353118
 20
312.2067594425353
 10
312.4710467353118
 20
312.7570927758686
 10
312.4710467353118
 20
312.7570927758686
  0
HATCH
  5
2A6
330
296
100
AcDbEntity
  8
SLD-0
  6
Continuous
 62
     0
370
     0
100
AcDbHatch
 10
0.0
 20
0.0
 30
0.0
210
0.0
220
0.0
230
1.0
  2
SOLID
 70
     1
 71
     1
 91
        1
 92
        3
 72
     0
 73
     1
 93
        3
 10
315.7730467353118
 20
313.307426109202
 10
315.7730467353118
 20
312.2067594425353
 10
312.4710467353118
 20
312.7570927758686
 97
        1
330
2A5
 75
     0
 76
     1
 98
        0
  0
LWPOLYLINE
  5
2A7
102
{ACAD_REACTORS
330
2A8
102
}
330
296
100
AcDbEntity
  8
SLD-0
 62
     0
100
AcDbPolyline
 90
        4
 70
   129
 43
0.0
 10
305.1506467353118
 20
313.307426109202
 10
305.1506467353118
 20
312.2067594425353
 10
308.4526467353118
 20
312.7570927758686
 10
308.4526467353118
 20
312.7570927758686
  0
HATCH
  5
2A8
330
296
100
AcDbEntity
  8
SLD-0
  6
Continuous
 62
     0
370
     0
100
AcDbHatch
 10
0.0
 20
0.0
 30
0.0
210
0.0
220
0.0
230
1.0
  2
SOLID
 70
     1
 71
     1
 91
        1
 92
        3
 72
     0
 73
     1
 93
        3
 10
305.1506467353118
 20
313.307426109202
 10
305.1506467353118
 20
312.2067594425353
 10
308.4526467353118
 20
312.7570927758686
 97
        1
330
2A7
 75
     0
 76
     1
 98
        0
  0
MTEXT
  5
2A9
102
{ACAD_XDICTIONARY
360
2AA
102
}
330
296
100
AcDbEntity
  8
SLD-0
 62
     0
100
AcDbMText
 10
290.222949311456
 20
314.7993846909469
 30
0.0
 40
4.000000148349338
 41
0.0
 46
0.0
 71
     2
 72
     1
  1
4.0
 73
     1
 44
1.0
  0
POINT
  5
2AC
330
296
100
AcDbEntity
  8
Defpoints
  6
Continuous
 62
     0
100
AcDbPoint
 10
312.4710467353118
 20
272.8235788528071
 30
0.0
  0
POINT
  5
2AD
330
296
100
AcDbEntity
  8
Defpoints
  6
Continuous
 62
     0
100
AcDbPoint
 10
308.4526467353118
 20
303.7988288528222
 30
0.0
  0
POINT
  5
2AE
330
296
100
AcDbEntity
  8
Defpoints
  6
Continuous
 62
     0
100
AcDbPoint
 10
308.4526467353118
 20
312.7570927758686
 30
0.0
  0
ENDBLK
  5
2AF
330
296
100
AcDbEntity
  8
0
100
AcDbBlockEnd
  0
BLOCK
  5
30B
330
30A
100
AcDbEntity
  8
0
100
AcDbBlockBegin
  2
*D12
 70
     1
 10
0.0
 20
0.0
 30
0.0
  3
*D12
  1

  0
LINE
  5
30D
330
30A
100
AcDbEntity
  8
SLD-0
  6
ByBlock
 62
     0
370
    -2
100
AcDbLine
 10
221.7392920158597
 20
303.4531561720189
 30
0.0
 11
218.4372920158597
 21
303.4531561720189
 31
0.0
  0
LINE
  5
30E
330
30A
100
AcDbEntity
  8
SLD-0
  6
ByBlock
 62
     0
370
    -2
100
AcDbLine
 10
218.4372920158597
 20
303.4531561720189
 30
0.0
 11
202.3662732841422
 21
294.17454918111
 31
0.0
  0
MTEXT
  5
30F
330
30A
100
AcDbEntity
  8
SLD-0
 62
     0
100
AcDbMText
 10
241.5012920158597
 20
303.4531561720189
 30
0.0
 40
4.0
 41
0.0
 46
0.0
 71
     5
 72
     1
  1
8X %%c8.4\P [%%c0.33] THRU\P
 73
     1
 44
1.0
  0
SOLID
  5
310
330
30A
100
AcDbEntity
  8
SLD-0
 62
     0
100
AcDbTrace
 10
202.0911066174755
 20
294.6511518283261
 30
0.0
 11
202.6414399508089
 21
293.697946533894
 31
0.0
 12
199.506657400846
 22
292.52354918111
 32
0.0
 13
199.506657400846
 23
292.52354918111
 33
0.0
  0
POINT
  5
311
330
30A
100
AcDbEntity
  8
Defpoints
 62
     0
100
AcDbPoint
 10
199.506657400846
 20
292.52354918111
 30
0.0
  0
POINT
  5
312
330
30A
100
AcDbEntity
  8
Defpoints
 62
     0
100
AcDbPoint
 10
192.2036383758126
 20
288.3071491811098
 30
0.0
  0
ENDBLK
  5
30C
330
30A
100
AcDbEntity
  8
0
100
AcDbBlockEnd
  0
BLOCK
  5
317
330
316
100
AcDbEntity
  8
0
100
AcDbBlockBegin
  2
*D13
 70
     1
 10
0.0
 20
0.0
 30
0.0
  3
*D13
  1

  0
LINE
  5
319
330
316
100
AcDbEntity
  8
SLD-0
  6
ByBlock
 62
     0
370
    -2
100
AcDbLine
 10
201.5482544492085
 20
322.5884822084759
 30
0.0
 11
198.2462544492085
 21
322.5884822084759
 31
0.0
  0
LINE
  5
31A
330
316
100
AcDbEntity
  8
SLD-0
  6
ByBlock
 62
     0
370
    -2
100
AcDbLine
 10
198.2462544492085
 20
322.5884822084759
 30
0.0
 11
193.7605778312197
 21
305.8477091638178
 31
0.0
  0
MTEXT
  5
31B
330
316
100
AcDbEntity
  8
SLD-0
 62
     0
100
AcDbMText
 10
212.8222544492085
 20
322.5884822084759
 30
0.0
 40
4.0
 41
0.0
 46
0.0
 71
     5
 72
     1
  1
%%c113.5\P [%%c4.47]
 73
     1
 44
1.0
  0
SOLID
  5
31C
330
316
100
AcDbEntity
  8
SLD-0
 62
     0
100
AcDbTrace
 10
193.2289966514853
 20
305.9901459116392
 30
0.0
 11
194.2921590109541
 21
305.7052724159964
 31
0.0
 12
192.9059573442912
 22
302.6582220854113
 32
0.0
 13
192.9059573442912
 23
302.6582220854113
 33
0.0
  0
LINE
  5
31D
330
316
100
AcDbEntity
  8
SLD-0
  6
ByBlock
 62
     0
370
    -2
100
AcDbLine
 10
175.7130589728663
 20
247.8235788528071
 30
0.0
 11
180.7130589728663
 21
247.8235788528071
 31
0.0
  0
LINE
  5
31E
330
316
100
AcDbEntity
  8
SLD-0
  6
ByBlock
 62
     0
370
    -2
100
AcDbLine
 10
178.2130589728663
 20
245.3235788528071
 30
0.0
 11
178.2130589728663
 21
250.3235788528071
 31
0.0
  0
POINT
  5
31F
330
316
100
AcDbEntity
  8
Defpoints
 62
     0
100
AcDbPoint
 10
192.9059573442912
 20
302.6582220854113
 30
0.0
  0
POINT
  5
320
330
316
100
AcDbEntity
  8
Defpoints
 62
     0
100
AcDbPoint
 10
163.5201606014414
 20
192.9889356202029
 30
0.0
  0
ENDBLK
  5
318
330
316
100
AcDbEntity
  8
0
100
AcDbBlockEnd
  0
BLOCK
  5
325
330
324
100
AcDbEntity
  8
0
100
AcDbBlockBegin
  2
*D14
 70
     1
 10
0.0
 20
0.0
 30
0.0
  3
*D14
  1

  0
LINE
  5
327
330
324
100
AcDbEntity
  8
SLD-0
  6
ByBlock
 62
     0
370
    -2
100
AcDbLine
 10
239.5156816221571
 20
281.3102539525412
 30
0.0
 11
236.2136816221571
 21
281.3102539525412
 31
0.0
  0
LINE
  5
328
330
324
100
AcDbEntity
  8
SLD-0
  6
ByBlock
 62
     0
370
    -2
100
AcDbLine
 10
236.2136816221571
 20
281.3102539525412
 30
0.0
 11
220.9973119960289
 21
272.5250788528072
 31
0.0
  0
MTEXT
  5
329
330
324
100
AcDbEntity
  8
SLD-0
 62
     0
100
AcDbMText
 10
250.7896816221571
 20
281.3102539525412
 30
0.0
 40
4.0
 41
0.0
 46
0.0
 71
     5
 72
     1
  1
%%c92.2\P [%%c3.63]
 73
     1
 44
1.0
  0
SOLID
  5
32A
330
324
100
AcDbEntity
  8
SLD-0
 62
     0
100
AcDbTrace
 10
220.7221453293623
 20
273.0016815000233
 30
0.0
 11
221.2724786626956
 21
272.0484762055912
 31
0.0
 12
218.1376961127327
 22
270.8740788528072
 32
0.0
 13
218.1376961127327
 23
270.8740788528072
 33
0.0
  0
LINE
  5
32B
330
324
100
AcDbEntity
  8
SLD-0
  6
ByBlock
 62
     0
370
    -2
100
AcDbLine
 10
175.7130589728663
 20
247.8235788528071
 30
0.0
 11
180.7130589728663
 21
247.8235788528071
 31
0.0
  0
LINE
  5
32C
330
324
100
AcDbEntity
  8
SLD-0
  6
ByBlock
 62
     0
370
    -2
100
AcDbLine
 10
178.2130589728663
 20
245.3235788528071
 30
0.0
 11
178.2130589728663
 21
250.3235788528071
 31
0.0
  0
POINT
  5
32D
330
324
100
AcDbEntity
  8
Defpoints
 62
     0
100
AcDbPoint
 10
218.1376961127327
 20
270.8740788528072
 30
0.0
  0
POINT
  5
32E
330
324
100
AcDbEntity
  8
Defpoints
 62
     0
100
AcDbPoint
 10
138.288421833
 20
224.773078852807
 30
0.0
  0
ENDBLK
  5
326
330
324
100
AcDbEntity
  8
0
100
AcDbBlockEnd
  0
BLOCK
  5
3B4
330
3B3
100
AcDbEntity
  8
0
100
AcDbBlockBegin
  2
*D15
 70
     1
 10
0.0
 20
0.0
 30
0.0
  3
*D15
  1

  0
LINE
  5
3B6
330
3B3
100
AcDbEntity
  8
SLD-0
  6
ByBlock
 62
     0
370
    -2
100
AcDbLine
 10
312.5210467353118
 20
271.5535788528072
 30
0.0
 11
312.5210467353118
 21
258.0945368746772
 31
0.0
  0
LINE
  5
3B7
330
3B3
100
AcDbEntity
  8
SLD-0
  6
ByBlock
 62
     0
370
    -2
100
AcDbLine
 10
312.4710467353118
 20
271.5535788528072
 30
0.0
 11
312.4710467353118
 21
258.0945368746772
 31
0.0
  0
LINE
  5
3B8
330
3B3
100
AcDbEntity
  8
SLD-0
  6
ByBlock
 62
     0
370
    -2
100
AcDbLine
 10
312.4710467353118
 20
261.2695368746772
 30
0.0
 11
305.8670467353118
 21
261.2695368746772
 31
0.0
  0
LINE
  5
3B9
330
3B3
100
AcDbEntity
  8
SLD-0
  6
ByBlock
 62
     0
370
    -2
100
AcDbLine
 10
315.8230467353118
 20
261.2695368746772
 30
0.0
 11
319.1250467353118
 21
261.2695368746772
 31
0.0
  0
LINE
  5
3BA
330
3B3
100
AcDbEntity
  8
SLD-0
  6
ByBlock
 62
     0
370
    -2
100
AcDbLine
 10
309.1690467353118
 20
261.2695368746772
 30
0.0
 11
305.8670467353118
 21
261.2695368746772
 31
0.0
  0
SOLID
  5
3BB
330
3B3
100
AcDbEntity
  8
SLD-0
 62
     0
100
AcDbTrace
 10
315.8230467353118
 20
261.8198702080106
 30
0.0
 11
315.8230467353118
 21
260.7192035413439
 31
0.0
 12
312.5210467353118
 22
261.2695368746772
 32
0.0
 13
312.5210467353118
 23
261.2695368746772
 33
0.0
  0
SOLID
  5
3BC
330
3B3
100
AcDbEntity
  8
SLD-0
 62
     0
100
AcDbTrace
 10
309.1690467353118
 20
260.7192035413439
 30
0.0
 11
309.1690467353118
 21
261.8198702080106
 31
0.0
 12
312.4710467353118
 22
261.2695368746772
 32
0.0
 13
312.4710467353118
 23
261.2695368746772
 33
0.0
  0
MTEXT
  5
3BD
330
3B3
100
AcDbEntity
  8
SLD-0
 62
     0
100
AcDbMText
 10
292.1570467353118
 20
261.2695368746772
 30
0.0
 40
4.0
 41
0.0
 46
0.0
 71
     5
 72
     1
  1
0.05\PWINDOW
 73
     1
 44
1.0
  0
POINT
  5
3BE
330
3B3
100
AcDbEntity
  8
Defpoints
 62
     0
100
AcDbPoint
 10
312.5210467353118
 20
272.8235788528071
 30
0.0
  0
POINT
  5
3BF
330
3B3
100
AcDbEntity
  8
Defpoints
 62
     0
100
AcDbPoint
 10
312.4710467353118
 20
272.8235788528071
 30
0.0
  0
POINT
  5
3C0
330
3B3
100
AcDbEntity
  8
Defpoints
 62
     0
100
AcDbPoint
 10
312.4710467353118
 20
261.2695368746772
 30
0.0
  0
ENDBLK
  5
3B5
330
3B3
100
AcDbEntity
  8
0
100
AcDbBlockEnd
  0
BLOCK
  5
3C5
330
3C4
100
AcDbEntity
  8
0
100
AcDbBlockBegin
  2
*D16
 70
     1
 10
0.0
 20
0.0
 30
0.0
  3
*D16
  1

  0
LINE
  5
3C7
330
3C4
100
AcDbEntity
  8
SLD-0
  6
ByBlock
 62
     0
370
    -2
100
AcDbLine
 10
308.3510467353118
 20
272.9235788528072
 30
0.0
 11
269.1136187511042
 21
272.9235788528072
 31
0.0
  0
LINE
  5
3C8
330
3C4
100
AcDbEntity
  8
SLD-0
  6
ByBlock
 62
     0
370
    -2
100
AcDbLine
 10
308.3510467353118
 20
222.7235788528071
 30
0.0
 11
269.1136187511042
 21
222.7235788528071
 31
0.0
  0
LINE
  5
3C9
330
3C4
100
AcDbEntity
  8
SLD-0
  6
ByBlock
 62
     0
370
    -2
100
AcDbLine
 10
272.2886187511043
 20
269.6215788528071
 30
0.0
 11
272.2886187511043
 21
251.7125441726502
 31
0.0
  0
LINE
  5
3CA
330
3C4
100
AcDbEntity
  8
SLD-0
  6
ByBlock
 62
     0
370
    -2
100
AcDbLine
 10
272.2886187511043
 20
226.0255788528071
 30
0.0
 11
272.2886187511043
 21
244.3605441726502
 31
0.0
  0
SOLID
  5
3CB
330
3C4
100
AcDbEntity
  8
SLD-0
 62
     0
100
AcDbTrace
 10
272.8389520844376
 20
269.6215788528071
 30
0.0
 11
271.7382854177709
 21
269.6215788528071
 31
0.0
 12
272.2886187511043
 22
272.9235788528072
 32
0.0
 13
272.2886187511043
 23
272.9235788528072
 33
0.0
  0
SOLID
  5
3CC
330
3C4
100
AcDbEntity
  8
SLD-0
 62
     0
100
AcDbTrace
 10
271.7382854177709
 20
226.0255788528071
 30
0.0
 11
272.8389520844376
 21
226.0255788528071
 31
0.0
 12
272.2886187511043
 22
222.7235788528071
 32
0.0
 13
272.2886187511043
 23
222.7235788528071
 33
0.0
  0
MTEXT
  5
3CD
330
3C4
100
AcDbEntity
  8
SLD-0
 62
     0
100
AcDbMText
 10
272.2886187511043
 20
248.0365441726502
 30
0.0
 40
4.0
 41
0.0
 46
0.0
 71
     5
 72
     1
  1
%%c50.2
 73
     1
 44
1.0
  0
POINT
  5
3CE
330
3C4
100
AcDbEntity
  8
Defpoints
 62
     0
100
AcDbPoint
 10
309.6210467353118
 20
272.9235788528072
 30
0.0
  0
POINT
  5
3CF
330
3C4
100
AcDbEntity
  8
Defpoints
 62
     0
100
AcDbPoint
 10
309.6210467353118
 20
222.7235788528071
 30
0.0
  0
POINT
  5
3D0
330
3C4
100
AcDbEntity
  8
Defpoints
 62
     0
100
AcDbPoint
 10
272.2886187511043
 20
222.7235788528071
 30
0.0
  0
ENDBLK
  5
3C6
330
3C4
100
AcDbEntity
  8
0
100
AcDbBlockEnd
  0
BLOCK
  5
3D5
330
3D4
100
AcDbEntity
  8
0
100
AcDbBlockBegin
  2
*D17
 70
     1
 10
0.0
 20
0.0
 30
0.0
  3
*D17
  1

  0
LINE
  5
3D7
330
3D4
100
AcDbEntity
  8
SLD-0
  6
ByBlock
 62
     0
370
    -2
100
AcDbLine
 10
326.9946467353118
 20
269.8235788528071
 30
0.0
 11
347.7087911164573
 21
269.8235788528071
 31
0.0
  0
LINE
  5
3D8
330
3D4
100
AcDbEntity
  8
SLD-0
  6
ByBlock
 62
     0
370
    -2
100
AcDbLine
 10
326.9946467353118
 20
225.8235788528071
 30
0.0
 11
347.7087911164573
 21
225.8235788528071
 31
0.0
  0
LINE
  5
3D9
330
3D4
100
AcDbEntity
  8
SLD-0
  6
ByBlock
 62
     0
370
    -2
100
AcDbLine
 10
344.5337911164573
 20
266.5215788528071
 30
0.0
 11
344.5337911164573
 21
251.7125441726503
 31
0.0
  0
LINE
  5
3DA
330
3D4
100
AcDbEntity
  8
SLD-0
  6
ByBlock
 62
     0
370
    -2
100
AcDbLine
 10
344.5337911164573
 20
229.1255788528071
 30
0.0
 11
344.5337911164573
 21
244.3605441726503
 31
0.0
  0
SOLID
  5
3DB
330
3D4
100
AcDbEntity
  8
SLD-0
 62
     0
100
AcDbTrace
 10
345.0841244497907
 20
266.5215788528071
 30
0.0
 11
343.983457783124
 21
266.5215788528071
 31
0.0
 12
344.5337911164573
 22
269.8235788528071
 32
0.0
 13
344.5337911164573
 23
269.8235788528071
 33
0.0
  0
SOLID
  5
3DC
330
3D4
100
AcDbEntity
  8
SLD-0
 62
     0
100
AcDbTrace
 10
343.983457783124
 20
229.1255788528071
 30
0.0
 11
345.0841244497907
 21
229.1255788528071
 31
0.0
 12
344.5337911164573
 22
225.8235788528071
 32
0.0
 13
344.5337911164573
 23
225.8235788528071
 33
0.0
  0
MTEXT
  5
3DD
330
3D4
100
AcDbEntity
  8
SLD-0
 62
     0
100
AcDbMText
 10
344.5337911164573
 20
248.0365441726503
 30
0.0
 40
4.0
 41
0.0
 46
0.0
 71
     5
 72
     1
  1
%%c44.0
 73
     1
 44
1.0
  0
POINT
  5
3DE
330
3D4
100
AcDbEntity
  8
Defpoints
 62
     0
100
AcDbPoint
 10
325.7246467353118
 20
269.8235788528071
 30
0.0
  0
POINT
  5
3DF
330
3D4
100
AcDbEntity
  8
Defpoints
 62
     0
100
AcDbPoint
 10
325.7246467353118
 20
225.8235788528071
 30
0.0
  0
POINT
  5
3E0
330
3D4
100
AcDbEntity
  8
Defpoints
 62
     0
100
AcDbPoint
 10
344.5337911164573
 20
225.8235788528071
 30
0.0
  0
ENDBLK
  5
3D6
330
3D4
100
AcDbEntity
  8
0
100
AcDbBlockEnd
  0
BLOCK
  5
3E5
330
3E4
100
AcDbEntity
  8
0
100
AcDbBlockBegin
  2
*D18
 70
     1
 10
0.0
 20
0.0
 30
0.0
  3
*D18
  1

  0
LINE
  5
3E7
330
3E4
100
AcDbEntity
  8
SLD-0
  6
ByBlock
 62
     0
370
    -2
100
AcDbLine
 10
312.4710467353118
 20
274.0935788528071
 30
0.0
 11
312.4710467353118
 21
315.9320927758686
 31
0.0
  0
LINE
  5
3E8
330
3E4
100
AcDbEntity
  8
SLD-0
  6
ByBlock
 62
     0
370
    -2
100
AcDbLine
 10
308.4526467353118
 20
305.0688288528222
 30
0.0
 11
308.4526467353118
 21
315.9320927758686
 31
0.0
  0
LINE
  5
3E9
330
3E4
100
AcDbEntity
  8
SLD-0
  6
ByBlock
 62
     0
370
    -2
100
AcDbLine
 10
308.4526467353118
 20
312.7570927758686
 30
0.0
 11
295.456949311456
 21
312.7570927758686
 31
0.0
  0
LINE
  5
3EA
330
3E4
100
AcDbEntity
  8
SLD-0
  6
ByBlock
 62
     0
370
    -2
100
AcDbLine
 10
315.7730467353118
 20
312.7570927758686
 30
0.0
 11
319.0750467353118
 21
312.7570927758686
 31
0.0
  0
LINE
  5
3EB
330
3E4
100
AcDbEntity
  8
SLD-0
  6
ByBlock
 62
     0
370
    -2
100
AcDbLine
 10
305.1506467353118
 20
312.7570927758686
 30
0.0
 11
301.8486467353118
 21
312.7570927758686
 31
0.0
  0
SOLID
  5
3EC
330
3E4
100
AcDbEntity
  8
SLD-0
 62
     0
100
AcDbTrace
 10
315.7730467353118
 20
313.307426109202
 30
0.0
 11
315.7730467353118
 21
312.2067594425353
 31
0.0
 12
312.4710467353118
 22
312.7570927758686
 32
0.0
 13
312.4710467353118
 23
312.7570927758686
 33
0.0
  0
SOLID
  5
3ED
330
3E4
100
AcDbEntity
  8
SLD-0
 62
     0
100
AcDbTrace
 10
305.1506467353118
 20
312.2067594425353
 30
0.0
 11
305.1506467353118
 21
313.307426109202
 31
0.0
 12
308.4526467353118
 22
312.7570927758686
 32
0.0
 13
308.4526467353118
 23
312.7570927758686
 33
0.0
  0
MTEXT
  5
3EE
330
3E4
100
AcDbEntity
  8
SLD-0
 62
     0
100
AcDbMText
 10
290.222949311456
 20
312.7570927758686
 30
0.0
 40
4.0
 41
0.0
 46
0.0
 71
     5
 72
     1
  1
4.0
 73
     1
 44
1.0
  0
POINT
  5
3EF
330
3E4
100
AcDbEntity
  8
Defpoints
 62
     0
100
AcDbPoint
 10
312.4710467353118
 20
272.8235788528071
 30
0.0
  0
POINT
  5
3F0
330
3E4
100
AcDbEntity
  8
Defpoints
 62
     0
100
AcDbPoint
 10
308.4526467353118
 20
303.7988288528222
 30
0.0
  0
POINT
  5
3F1
330
3E4
100
AcDbEntity
  8
Defpoints
 62
     0
100
AcDbPoint
 10
308.4526467353118
 20
312.7570927758686
 30
0.0
  0
ENDBLK
  5
3E6
330
3E4
100
AcDbEntity
  8
0
100
AcDbBlockEnd
  0
BLOCK
  5
3FF
330
3FE
100
AcDbEntity
  8
0
100
AcDbBlockBegin
  2
*D19
 70
     1
 10
0.0
 20
0.0
 30
0.0
  3
*D19
  1

  0
LINE
  5
401
330
3FE
100
AcDbEntity
  8
0
  6
ByBlock
 62
     0
370
    -2
100
AcDbLine
 10
308.4526467353118
 20
305.0688288528222
 30
0.0
 11
308.4526467353118
 21
325.4121925092858
 31
0.0
  0
LINE
  5
402
330
3FE
100
AcDbEntity
  8
0
  6
ByBlock
 62
     0
370
    -2
100
AcDbLine
 10
325.7246467353118
 20
305.0688288528223
 30
0.0
 11
325.7246467353118
 21
325.4121925092858
 31
0.0
  0
LINE
  5
403
330
3FE
100
AcDbEntity
  8
0
  6
ByBlock
 62
     0
370
    -2
100
AcDbLine
 10
325.7246467353118
 20
322.2371925092858
 30
0.0
 11
329.0266467353118
 21
322.2371925092858
 31
0.0
  0
LINE
  5
404
330
3FE
100
AcDbEntity
  8
0
  6
ByBlock
 62
     0
370
    -2
100
AcDbLine
 10
311.7546467353118
 20
322.2371925092858
 30
0.0
 11
322.4226467353117
 21
322.2371925092858
 31
0.0
  0
SOLID
  5
405
330
3FE
100
AcDbEntity
  8
0
 62
     0
100
AcDbTrace
 10
311.7546467353118
 20
322.7875258426191
 30
0.0
 11
311.7546467353118
 21
321.6868591759524
 31
0.0
 12
308.4526467353118
 22
322.2371925092858
 32
0.0
 13
308.4526467353118
 23
322.2371925092858
 33
0.0
  0
SOLID
  5
406
330
3FE
100
AcDbEntity
  8
0
 62
     0
100
AcDbTrace
 10
322.4226467353117
 20
321.6868591759524
 30
0.0
 11
322.4226467353117
 21
322.7875258426191
 31
0.0
 12
325.7246467353118
 22
322.2371925092858
 32
0.0
 13
325.7246467353118
 23
322.2371925092858
 33
0.0
  0
MTEXT
  5
407
330
3FE
100
AcDbEntity
  8
0
 62
     0
100
AcDbMText
 10
339.6806467353118
 20
322.2371925092858
 30
0.0
 40
4.0
 41
0.0
 46
0.0
 71
     5
 72
     1
  1
17.3\P [0.680]
 73
     1
 44
1.0
  0
POINT
  5
408
330
3FE
100
AcDbEntity
  8
Defpoints
 62
     0
100
AcDbPoint
 10
308.4526467353118
 20
303.7988288528222
 30
0.0
  0
POINT
  5
409
330
3FE
100
AcDbEntity
  8
Defpoints
 62
     0
100
AcDbPoint
 10
325.7246467353118
 20
303.7988288528223
 30
0.0
  0
POINT
  5
40A
330
3FE
100
AcDbEntity
  8
Defpoints
 62
     0
100
AcDbPoint
 10
325.7246467353118
 20
322.2371925092858
 30
0.0
  0
ENDBLK
  5
400
330
3FE
100
AcDbEntity
  8
0
100
AcDbBlockEnd
  0
ENDSEC
  0
SECTION
  2
ENTITIES
  0
CIRCLE
  5
2B0
102
{ACAD_XDICTIONARY
360
2B1
102
}
330
1F
100
AcDbEntity
  8
0
  6
Continuous
 62
     7
370
    25
100
AcDbCircle
 10
178.2130589728664
 20
247.8235788528071
 30
0.0
 40
25.0
  0
CIRCLE
  5
2B3
102
{ACAD_XDICTIONARY
360
2B4
102
}
330
1F
100
AcDbEntity
  8
0
  6
Continuous
 62
     7
370
    25
100
AcDbCircle
 10
160.5709700574039
 20
290.4153491811102
 30
0.0
 40
4.216400000000021
  0
CIRCLE
  5
2B6
102
{ACAD_XDICTIONARY
360
2B7
102
}
330
1F
100
AcDbEntity
  8
0
  6
Continuous
 62
     7
370
    25
100
AcDbCircle
 10
220.8048293011692
 20
265.46566776827
 30
0.0
 40
4.216400000000021
  0
LINE
  5
2B9
102
{ACAD_XDICTIONARY
360
2BA
102
}
330
1F
100
AcDbEntity
  8
0
  6
Continuous
 62
     7
370
    25
100
AcDbLine
 10
234.1826808538626
 20
248.6173288528072
 30
0.0
 11
219.4804260555565
 21
248.6173288528072
 31
0.0
  0
ARC
  5
2BC
102
{ACAD_XDICTIONARY
360
2BD
102
}
330
1F
100
AcDbEntity
  8
0
  6
Continuous
 62
     7
370
    25
100
AcDbCircle
 10
178.2130589728664
 20
247.8235788528071
 30
0.0
 40
55.97525000001509
100
AcDbArc
 50
0.8125028344896612
 51
179.1874971655103
  0
CIRCLE
  5
2BF
102
{ACAD_XDICTIONARY
360
2C0
102
}
330
1F
100
AcDbEntity
  8
0
  6
Continuous
 62
     7
370
    25
100
AcDbCircle
 10
195.8551478883294
 20
290.4153491811099
 30
0.0
 40
4.216400000000021
  0
CIRCLE
  5
2C2
102
{ACAD_XDICTIONARY
360
2C3
102
}
330
1F
100
AcDbEntity
  8
0
  6
Continuous
 62
     7
370
    25
100
AcDbCircle
 10
135.6212886445637
 20
265.4656677682706
 30
0.0
 40
4.216399999999979
  0
LINE
  5
2C5
102
{ACAD_XDICTIONARY
360
2C6
102
}
330
1F
100
AcDbEntity
  8
0
  6
Continuous
 62
     7
370
    25
100
AcDbLine
 10
136.9456918901762
 20
248.6173288528072
 30
0.0
 11
122.2434370918702
 21
248.6173288528072
 31
0.0
  0
ARC
  5
2C8
102
{ACAD_XDICTIONARY
360
2C9
102
}
330
1F
100
AcDbEntity
  8
0
  6
Continuous
 62
     7
370
    25
100
AcDbCircle
 10
178.2130589728664
 20
247.8235788528071
 30
0.0
 40
41.27499999999998
100
AcDbArc
 50
1.101909839337082
 51
178.8980901606629
  0
LINE
  5
2CB
102
{ACAD_XDICTIONARY
360
2CC
102
}
330
1F
100
AcDbEntity
  8
0
  6
Continuous
 62
     7
370
    25
100
AcDbLine
 10
219.4804260555565
 20
247.0298288528072
 30
0.0
 11
234.1826808538626
 21
247.0298288528072
 31
0.0
  0
ARC
  5
2CE
102
{ACAD_XDICTIONARY
360
2CF
102
}
330
1F
100
AcDbEntity
  8
0
  6
Continuous
 62
     7
370
    25
100
AcDbCircle
 10
178.2130589728664
 20
247.8235788528071
 30
0.0
 40
55.97525000001508
100
AcDbArc
 50
180.8125028344905
 51
359.1874971655112
  0
LINE
  5
2D1
102
{ACAD_XDICTIONARY
360
2D2
102
}
330
1F
100
AcDbEntity
  8
0
  6
Continuous
 62
     7
370
    25
100
AcDbLine
 10
122.2434370918702
 20
247.0298288528072
 30
0.0
 11
136.9456918901762
 21
247.0298288528072
 31
0.0
  0
CIRCLE
  5
2D4
102
{ACAD_XDICTIONARY
360
2D5
102
}
330
1F
100
AcDbEntity
  8
0
  6
Continuous
 62
     7
370
    25
100
AcDbCircle
 10
160.570970057403
 20
205.2318085245045
 30
0.0
 40
4.216400000000021
  0
CIRCLE
  5
2D7
102
{ACAD_XDICTIONARY
360
2D8
102
}
330
1F
100
AcDbEntity
  8
0
  6
Continuous
 62
     7
370
    25
100
AcDbCircle
 10
220.8048293011691
 20
230.181489937344
 30
0.0
 40
4.216400000000021
  0
CIRCLE
  5
2DA
102
{ACAD_XDICTIONARY
360
2DB
102
}
330
1F
100
AcDbEntity
  8
0
  6
Continuous
 62
     7
370
    25
100
AcDbCircle
 10
195.8551478883291
 20
205.2318085245042
 30
0.0
 40
4.216400000000021
  0
CIRCLE
  5
2DD
102
{ACAD_XDICTIONARY
360
2DE
102
}
330
1F
100
AcDbEntity
  8
0
  6
Continuous
 62
     7
370
    25
100
AcDbCircle
 10
135.6212886445634
 20
230.1814899373446
 30
0.0
 40
4.216400000000021
  0
ARC
  5
2E0
102
{ACAD_XDICTIONARY
360
2E1
102
}
330
1F
100
AcDbEntity
  8
0
  6
Continuous
 62
     7
370
    25
100
AcDbCircle
 10
178.2130589728664
 20
247.8235788528071
 30
0.0
 40
41.27499999999998
100
AcDbArc
 50
181.1019098393378
 51
358.8980901606637
  0
LINE
  5
2E3
102
{ACAD_XDICTIONARY
360
2E4
102
}
330
1F
100
AcDbEntity
  8
0
  6
Continuous
 62
     7
370
    25
100
AcDbLine
 10
234.9765095545347
 20
247.0298288528072
 30
0.0
 11
234.1826808538626
 21
247.0298288528072
 31
0.0
  0
ARC
  5
2E6
102
{ACAD_XDICTIONARY
360
2E7
102
}
330
1F
100
AcDbEntity
  8
0
  6
Continuous
 62
     7
370
    25
100
AcDbCircle
 10
178.2130589728664
 20
247.8235788528071
 30
0.0
 40
56.76900000000001
100
AcDbArc
 50
180.8011415905656
 51
359.198858409436
  0
LINE
  5
2E9
102
{ACAD_XDICTIONARY
360
2EA
102
}
330
1F
100
AcDbEntity
  8
0
  6
Continuous
 62
     7
370
    25
100
AcDbLine
 10
122.2434370918702
 20
247.0298288528072
 30
0.0
 11
121.4496083911981
 21
247.0298288528072
 31
0.0
  0
LINE
  5
2EC
102
{ACAD_XDICTIONARY
360
2ED
102
}
330
1F
100
AcDbEntity
  8
0
  6
Continuous
 62
     7
370
    25
100
AcDbLine
 10
234.1826808538626
 20
248.6173288528072
 30
0.0
 11
234.9765095545347
 21
248.6173288528072
 31
0.0
  0
ARC
  5
2EF
102
{ACAD_XDICTIONARY
360
2F0
102
}
330
1F
100
AcDbEntity
  8
0
  6
Continuous
 62
     7
370
    25
100
AcDbCircle
 10
178.2130589728664
 20
247.8235788528071
 30
0.0
 40
56.76900000000002
100
AcDbArc
 50
0.8011415905648818
 51
179.1988584094351
  0
LINE
  5
2F2
102
{ACAD_XDICTIONARY
360
2F3
102
}
330
1F
100
AcDbEntity
  8
0
  6
Continuous
 62
     7
370
    25
100
AcDbLine
 10
121.4496083911981
 20
248.6173288528072
 30
0.0
 11
122.2434370918702
 21
248.6173288528072
 31
0.0
  0
CIRCLE
  5
2F5
102
{ACAD_XDICTIONARY
360
2F6
102
}
330
1F
100
AcDbEntity
  8
0
  6
Continuous
 62
     7
370
    25
100
AcDbCircle
 10
178.2130589728664
 20
247.8235788528071
 30
0.0
 40
38.60799999999993
  0
CIRCLE
  5
2F8
102
{ACAD_XDICTIONARY
360
2F9
102
}
330
1F
100
AcDbEntity
  8
0
  6
Continuous
 62
     7
370
    25
100
AcDbCircle
 10
178.2130589728664
 20
247.8235788528071
 30
0.0
 40
25.10000000000002
  0
ARC
  5
2FB
102
{ACAD_XDICTIONARY
360
2FC
102
}
330
1F
100
AcDbEntity
  8
0
  6
Continuous
 62
     7
370
    25
100
AcDbCircle
 10
178.2130589728664
 20
247.8235788528071
 30
0.0
 40
56.76900000000001
100
AcDbArc
 50
179.1988584094351
 51
180.8011415905656
  0
ARC
  5
2FE
102
{ACAD_XDICTIONARY
360
2FF
102
}
330
1F
100
AcDbEntity
  8
0
  6
Continuous
 62
     7
370
    25
100
AcDbCircle
 10
178.2130589728664
 20
247.8235788528071
 30
0.0
 40
41.27499999999998
100
AcDbArc
 50
178.8980901606629
 51
181.1019098393378
  0
ARC
  5
301
102
{ACAD_XDICTIONARY
360
302
102
}
330
1F
100
AcDbEntity
  8
0
  6
Continuous
 62
     7
370
    25
100
AcDbCircle
 10
178.2130589728664
 20
247.8235788528071
 30
0.0
 40
56.76899999999998
100
AcDbArc
 50
359.198858409436
 51
0.801141590564883
  0
ARC
  5
304
102
{ACAD_XDICTIONARY
360
305
102
}
330
1F
100
AcDbEntity
  8
0
  6
Continuous
 62
     7
370
    25
100
AcDbCircle
 10
178.2130589728664
 20
247.8235788528071
 30
0.0
 40
41.27499999999998
100
AcDbArc
 50
358.8980901606637
 51
1.101909839337083
  0
DIMENSION
  5
307
102
{ACAD_XDICTIONARY
360
308
102
}
330
1F
100
AcDbEntity
  8
SLD-0
  6
Continuous
100
AcDbDimension
280
     0
  2
*D12
 10
192.2036383758126
 20
288.3071491811098
 30
0.0
 11
241.5012920158597
 21
303.4531561720189
 31
0.0
 70
   163
  1
8X <> THRU\P
 71
     5
 42
8.432800000000048
 73
     0
 74
     0
 75
     0
  3
Standard
100
AcDbDiametricDimension
 15
199.506657400846
 25
292.52354918111
 35
0.0
 40
0.0
1001
ACAD
1000
DSTYLE
1002
{
1070
   179
1070
     1
1070
   170
1070
     1
1070
   171
1070
     2
1070
   148
1040
0.0000001
1070
   274
1070
     2
1070
     4
1000

1070
     3
1000
\X
1070
    45
1040
0.0000001
1002
}
  0
DIMENSION
  5
313
102
{ACAD_XDICTIONARY
360
314
102
}
330
1F
100
AcDbEntity
  8
SLD-0
  6
Continuous
100
AcDbDimension
280
     0
  2
*D13
 10
163.5201606014414
 20
192.9889356202029
 30
0.0
 11
212.8222544492085
 21
322.5884822084759
 31
0.0
 70
   163
  1
<>
 71
     5
 42
113.5380000000001
 73
     0
 74
     0
 75
     0
  3
Standard
100
AcDbDiametricDimension
 15
192.9059573442912
 25
302.6582220854113
 35
0.0
 40
0.0
1001
ACAD
1000
DSTYLE
1002
{
1070
   179
1070
     1
1070
   170
1070
     1
1070
   171
1070
     2
1070
   148
1040
0.0000001
1070
   274
1070
     2
1070
     4
1000

1070
   141
1040
2.5
1070
     3
1000
\X
1070
    45
1040
0.0000001
1002
}
  0
DIMENSION
  5
321
102
{ACAD_XDICTIONARY
360
322
102
}
330
1F
100
AcDbEntity
  8
SLD-0
  6
Continuous
100
AcDbDimension
280
     0
  2
*D14
 10
138.288421833
 20
224.773078852807
 30
0.0
 11
250.7896816221571
 21
281.3102539525412
 31
0.0
 70
   163
  1
<>
 71
     5
 42
92.20200000000006
 73
     0
 74
     0
 75
     0
  3
Standard
100
AcDbDiametricDimension
 15
218.1376961127327
 25
270.8740788528072
 35
0.0
 40
0.0
1001
ACAD
1000
DSTYLE
1002
{
1070
   179
1070
     1
1070
   170
1070
     1
1070
   171
1070
     2
1070
   148
1040
0.0000001
1070
   274
1070
     2
1070
     4
1000

1070
   141
1040
2.5
1070
     3
1000
\X
1070
    45
1040
0.0000001
1002
}
  0
INSERT
  5
32F
330
1F
100
AcDbEntity
  8
SLD-0
100
AcDbBlockReference
  2
SW_CENTERMARKSYMBOL_0
 10
178.2130589728664
 20
247.8235788528071
 30
0.0
  0
INSERT
  5
330
330
1F
100
AcDbEntity
  8
SLD-0
100
AcDbBlockReference
  2
SW_CENTERMARKSYMBOL_1
 10
220.8048293011693
 20
265.46566776827
 30
0.0
  0
LINE
  5
331
102
{ACAD_XDICTIONARY
360
332
102
}
330
1F
100
AcDbEntity
  8
0
  6
CENTER
 62
     7
370
    18
100
AcDbLine
 10
178.2130589728664
 20
318.2171388528072
 30
0.0
 11
178.2130589728664
 21
177.4300188528072
 31
0.0
  0
LINE
  5
334
102
{ACAD_XDICTIONARY
360
335
102
}
330
1F
100
AcDbEntity
  8
0
  6
Continuous
 62
     7
370
    18
100
AcDbLine
 10
178.2130589728664
 20
318.2171388528072
 30
0.0
 11
165.5130589728664
 21
318.2171388528072
 31
0.0
  0
LWPOLYLINE
  5
337
102
{ACAD_REACTORS
330
338
102
}
330
1F
100
AcDbEntity
  8
0
  6
Continuous
 62
     7
370
    18
100
AcDbPolyline
 90
        4
 70
   129
 43
0.0
 10
165.5130589728664
 20
318.2171388528072
 10
171.8630589728664
 20
317.2011388528072
 10
171.8630589728664
 20
319.2331388528072
 10
171.8630589728664
 20
319.2331388528072
  0
HATCH
  5
338
330
1F
100
AcDbEntity
  8
0
  6
Continuous
 62
     7
370
     0
100
AcDbHatch
 10
0.0
 20
0.0
 30
0.0
210
0.0
220
0.0
230
1.0
  2
SOLID
 70
     1
 71
     1
 91
        1
 92
        3
 72
     0
 73
     1
 93
        3
 10
165.5130589728664
 20
318.2171388528072
 10
171.8630589728664
 20
317.2011388528072
 10
171.8630589728664
 20
319.2331388528072
 97
        1
330
337
 75
     0
 76
     1
 98
        0
  0
LINE
  5
339
102
{ACAD_XDICTIONARY
360
33A
102
}
330
1F
100
AcDbEntity
  8
0
  6
Continuous
 62
     7
370
    18
100
AcDbLine
 10
178.2130589728664
 20
177.4300188528072
 30
0.0
 11
165.5130589728664
 21
177.4300188528072
 31
0.0
  0
LWPOLYLINE
  5
33C
102
{ACAD_REACTORS
330
33D
102
}
330
1F
100
AcDbEntity
  8
0
  6
Continuous
 62
     7
370
    18
100
AcDbPolyline
 90
        4
 70
   129
 43
0.0
 10
165.5130589728664
 20
177.4300188528072
 10
171.8630589728664
 20
176.4140188528072
 10
171.8630589728664
 20
178.4460188528072
 10
171.8630589728664
 20
178.4460188528072
  0
HATCH
  5
33D
330
1F
100
AcDbEntity
  8
0
  6
Continuous
 62
     7
370
     0
100
AcDbHatch
 10
0.0
 20
0.0
 30
0.0
210
0.0
220
0.0
230
1.0
  2
SOLID
 70
     1
 71
     1
 91
        1
 92
        3
 72
     0
 73
     1
 93
        3
 10
165.5130589728664
 20
177.4300188528072
 10
171.8630589728664
 20
176.4140188528072
 10
171.8630589728664
 20
178.4460188528072
 97
        1
330
33C
 75
     0
 76
     1
 98
        0
  0
MTEXT
  5
33E
102
{ACAD_XDICTIONARY
360
33F
102
}
330
1F
100
AcDbEntity
  8
0
  6
Continuous
 62
     7
100
AcDbMText
 10
159.0780631531326
 20
180.0075741992608
 30
0.0
 40
5.000000031789144
 41
0.0
 46
0.0
 71
     1
 72
     1
  1
A
 73
     1
 44
1.0
  0
LINE
  5
341
102
{ACAD_XDICTIONARY
360
342
102
}
330
1F
100
AcDbEntity
  8
0
  6
Continuous
 62
     7
370
    25
100
AcDbLine
 10
312.5210467353117
 20
272.8235788528071
 30
0.0
 11
312.4710467353117
 21
272.8235788528071
 31
0.0
  0
LINE
  5
344
102
{ACAD_XDICTIONARY
360
345
102
}
330
1F
100
AcDbEntity
  8
0
  6
Continuous
 62
     7
370
    25
100
AcDbLine
 10
312.4710467353117
 20
222.8235788528071
 30
0.0
 11
312.5210467353117
 21
222.8235788528071
 31
0.0
  0
LINE
  5
347
102
{ACAD_XDICTIONARY
360
348
102
}
330
1F
100
AcDbEntity
  8
0
  6
Continuous
 62
     7
370
    25
100
AcDbLine
 10
312.5210467353117
 20
222.8235788528071
 30
0.0
 11
312.5210467353117
 21
272.8235788528071
 31
0.0
  0
LINE
  5
34A
102
{ACAD_XDICTIONARY
360
34B
102
}
330
1F
100
AcDbEntity
  8
0
  6
Continuous
 62
     7
370
    25
100
AcDbLine
 10
312.4710467353117
 20
222.8235788528071
 30
0.0
 11
312.4710467353117
 21
272.8235788528071
 31
0.0
  0
LINE
  5
34D
102
{ACAD_XDICTIONARY
360
34E
102
}
330
1F
100
AcDbEntity
  8
0
  6
Continuous
 62
     7
370
    25
100
AcDbLine
 10
308.4526467353118
 20
191.8483288527921
 30
0.0
 11
309.2463967352966
 21
191.0545788528072
 31
0.0
  0
LINE
  5
350
102
{ACAD_XDICTIONARY
360
351
102
}
330
1F
100
AcDbEntity
  8
0
  6
Continuous
 62
     7
370
    25
100
AcDbLine
 10
309.6210467353118
 20
209.2155788528072
 30
0.0
 11
309.1130467353119
 21
209.2155788528072
 31
0.0
  0
LINE
  5
353
102
{ACAD_XDICTIONARY
360
354
102
}
330
1F
100
AcDbEntity
  8
0
  6
Continuous
 62
     7
370
    25
100
AcDbLine
 10
309.1130467353119
 20
286.4315788528071
 30
0.0
 11
309.1130467353119
 21
209.2155788528072
 31
0.0
  0
LINE
  5
356
102
{ACAD_XDICTIONARY
360
357
102
}
330
1F
100
AcDbEntity
  8
0
  6
Continuous
 62
     7
370
    25
100
AcDbLine
 10
309.1130467353119
 20
286.4315788528071
 30
0.0
 11
309.6210467353118
 21
286.4315788528071
 31
0.0
  0
LINE
  5
359
102
{ACAD_XDICTIONARY
360
35A
102
}
330
1F
100
AcDbEntity
  8
0
  6
Continuous
 62
     7
370
    25
100
AcDbLine
 10
312.6210467353118
 20
222.7235788528071
 30
0.0
 11
309.6210467353118
 21
222.7235788528071
 31
0.0
  0
LINE
  5
35C
102
{ACAD_XDICTIONARY
360
35D
102
}
330
1F
100
AcDbEntity
  8
0
  6
Continuous
 62
     7
370
    25
100
AcDbLine
 10
309.6210467353118
 20
272.9235788528072
 30
0.0
 11
312.6210467353118
 21
272.9235788528072
 31
0.0
  0
LINE
  5
35F
102
{ACAD_XDICTIONARY
360
360
102
}
330
1F
100
AcDbEntity
  8
0
  6
Continuous
 62
     7
370
    25
100
AcDbLine
 10
309.6210467353118
 20
272.9235788528072
 30
0.0
 11
309.6210467353118
 21
222.7235788528071
 31
0.0
  0
LINE
  5
362
102
{ACAD_XDICTIONARY
360
363
102
}
330
1F
100
AcDbEntity
  8
0
  6
Continuous
 62
     7
370
    25
100
AcDbLine
 10
325.7246467353118
 20
269.8235788528071
 30
0.0
 11
325.7246467353118
 21
225.8235788528071
 31
0.0
  0
LINE
  5
365
102
{ACAD_XDICTIONARY
360
366
102
}
330
1F
100
AcDbEntity
  8
0
  6
Continuous
 62
     7
370
    25
100
AcDbLine
 10
325.7246467353118
 20
225.8235788528071
 30
0.0
 11
312.6210467353118
 21
225.8235788528071
 31
0.0
  0
LINE
  5
368
102
{ACAD_XDICTIONARY
360
369
102
}
330
1F
100
AcDbEntity
  8
0
  6
Continuous
 62
     7
370
    25
100
AcDbLine
 10
312.6210467353118
 20
269.8235788528071
 30
0.0
 11
325.7246467353118
 21
269.8235788528071
 31
0.0
  0
LINE
  5
36B
102
{ACAD_XDICTIONARY
360
36C
102
}
330
1F
100
AcDbEntity
  8
0
  6
Continuous
 62
     7
370
    25
100
AcDbLine
 10
312.6210467353118
 20
269.8235788528071
 30
0.0
 11
312.6210467353118
 21
225.8235788528071
 31
0.0
  0
LINE
  5
36E
102
{ACAD_XDICTIONARY
360
36F
102
}
330
1F
100
AcDbEntity
  8
0
  6
Continuous
 62
     7
370
    25
100
AcDbLine
 10
324.9308967353268
 20
191.0545788528072
 30
0.0
 11
325.7246467353118
 21
191.848328852792
 31
0.0
  0
LINE
  5
371
102
{ACAD_XDICTIONARY
360
372
102
}
330
1F
100
AcDbEntity
  8
0
  6
Continuous
 62
     7
370
    25
100
AcDbLine
 10
325.7246467353118
 20
303.7988288528223
 30
0.0
 11
324.9308967353268
 21
304.5925788528072
 31
0.0
  0
LINE
  5
374
102
{ACAD_XDICTIONARY
360
375
102
}
330
1F
100
AcDbEntity
  8
0
  6
Continuous
 62
     7
370
    25
100
AcDbLine
 10
309.2463967352966
 20
191.0545788528072
 30
0.0
 11
324.9308967353268
 21
191.0545788528072
 31
0.0
  0
LINE
  5
377
102
{ACAD_XDICTIONARY
360
378
102
}
330
1F
100
AcDbEntity
  8
0
  6
Continuous
 62
     7
370
    25
100
AcDbLine
 10
324.9308967353268
 20
304.5925788528072
 30
0.0
 11
309.2463967352966
 21
304.5925788528072
 31
0.0
  0
LINE
  5
37A
102
{ACAD_XDICTIONARY
360
37B
102
}
330
1F
100
AcDbEntity
  8
0
  6
Continuous
 62
     7
370
    25
100
AcDbLine
 10
309.2463967352966
 20
304.5925788528072
 30
0.0
 11
308.4526467353118
 21
303.7988288528222
 31
0.0
  0
LINE
  5
37D
102
{ACAD_XDICTIONARY
360
37E
102
}
330
1F
100
AcDbEntity
  8
0
  6
Continuous
 62
     7
370
    25
100
AcDbLine
 10
310.0837553500999
 20
206.5485788528071
 30
0.0
 11
308.4526467353118
 21
206.5485788528071
 31
0.0
  0
LINE
  5
380
102
{ACAD_XDICTIONARY
360
381
102
}
330
1F
100
AcDbEntity
  8
0
  6
Continuous
 62
     7
370
    25
100
AcDbLine
 10
309.1130467353119
 20
247.0298288528072
 30
0.0
 11
308.4526467353118
 21
247.0298288528072
 31
0.0
  0
LINE
  5
383
102
{ACAD_XDICTIONARY
360
384
102
}
330
1F
100
AcDbEntity
  8
0
  6
Continuous
 62
     7
370
    25
100
AcDbLine
 10
308.4526467353118
 20
248.6173288528072
 30
0.0
 11
309.1130467353119
 21
248.6173288528072
 31
0.0
  0
LINE
  5
386
102
{ACAD_XDICTIONARY
360
387
102
}
330
1F
100
AcDbEntity
  8
0
  6
Continuous
 62
     7
370
    25
100
AcDbLine
 10
308.4526467353118
 20
289.0985788528072
 30
0.0
 11
310.0837553500999
 21
289.0985788528072
 31
0.0
  0
LINE
  5
389
102
{ACAD_XDICTIONARY
360
38A
102
}
330
1F
100
AcDbEntity
  8
0
  6
Continuous
 62
     7
370
    25
100
AcDbLine
 10
308.4526467353118
 20
289.0985788528072
 30
0.0
 11
308.4526467353118
 21
248.6173288528072
 31
0.0
  0
LINE
  5
38C
102
{ACAD_XDICTIONARY
360
38D
102
}
330
1F
100
AcDbEntity
  8
0
  6
Continuous
 62
     7
370
    25
100
AcDbLine
 10
308.4526467353118
 20
247.0298288528072
 30
0.0
 11
308.4526467353118
 21
206.5485788528071
 31
0.0
  0
LINE
  5
38F
102
{ACAD_XDICTIONARY
360
390
102
}
330
1F
100
AcDbEntity
  8
0
  6
Continuous
 62
     7
370
    25
100
AcDbLine
 10
310.0837553500999
 20
289.0985788528072
 30
0.0
 11
309.1130467353119
 21
286.4315788528071
 31
0.0
  0
LINE
  5
392
102
{ACAD_XDICTIONARY
360
393
102
}
330
1F
100
AcDbEntity
  8
0
  6
Continuous
 62
     7
370
    25
100
AcDbLine
 10
309.1130467353119
 20
209.2155788528072
 30
0.0
 11
310.0837553500999
 21
206.5485788528071
 31
0.0
  0
LINE
  5
395
102
{ACAD_XDICTIONARY
360
396
102
}
330
1F
100
AcDbEntity
  8
0
  6
Continuous
 62
     7
370
    25
100
AcDbLine
 10
325.7246467353118
 20
269.8235788528071
 30
0.0
 11
325.7246467353118
 21
303.7988288528223
 31
0.0
  0
LINE
  5
398
102
{ACAD_XDICTIONARY
360
399
102
}
330
1F
100
AcDbEntity
  8
0
  6
Continuous
 62
     7
370
    25
100
AcDbLine
 10
312.6210467353118
 20
272.9235788528072
 30
0.0
 11
312.6210467353118
 21
269.8235788528071
 31
0.0
  0
LINE
  5
39B
102
{ACAD_XDICTIONARY
360
39C
102
}
330
1F
100
AcDbEntity
  8
0
  6
Continuous
 62
     7
370
    25
100
AcDbLine
 10
309.6210467353118
 20
286.4315788528071
 30
0.0
 11
309.6210467353118
 21
272.9235788528072
 31
0.0
  0
LINE
  5
39E
102
{ACAD_XDICTIONARY
360
39F
102
}
330
1F
100
AcDbEntity
  8
0
  6
Continuous
 62
     7
370
    25
100
AcDbLine
 10
308.4526467353118
 20
303.7988288528222
 30
0.0
 11
308.4526467353118
 21
289.0985788528072
 31
0.0
  0
LINE
  5
3A1
102
{ACAD_XDICTIONARY
360
3A2
102
}
330
1F
100
AcDbEntity
  8
0
  6
Continuous
 62
     7
370
    25
100
AcDbLine
 10
325.7246467353118
 20
191.848328852792
 30
0.0
 11
325.7246467353118
 21
225.8235788528071
 31
0.0
  0
LINE
  5
3A4
102
{ACAD_XDICTIONARY
360
3A5
102
}
330
1F
100
AcDbEntity
  8
0
  6
Continuous
 62
     7
370
    25
100
AcDbLine
 10
312.6210467353118
 20
225.8235788528071
 30
0.0
 11
312.6210467353118
 21
222.7235788528071
 31
0.0
  0
LINE
  5
3A7
102
{ACAD_XDICTIONARY
360
3A8
102
}
330
1F
100
AcDbEntity
  8
0
  6
Continuous
 62
     7
370
    25
100
AcDbLine
 10
309.6210467353118
 20
222.7235788528071
 30
0.0
 11
309.6210467353118
 21
209.2155788528072
 31
0.0
  0
LINE
  5
3AA
102
{ACAD_XDICTIONARY
360
3AB
102
}
330
1F
100
AcDbEntity
  8
0
  6
Continuous
 62
     7
370
    25
100
AcDbLine
 10
308.4526467353118
 20
206.5485788528071
 30
0.0
 11
308.4526467353118
 21
191.8483288527921
 31
0.0
  0
HATCH
  5
3AD
330
1F
100
AcDbEntity
  8
0
  6
Continuous
 62
     7
370
     0
100
AcDbHatch
 10
0.0
 20
0.0
 30
0.0
210
0.0
220
0.0
230
1.0
  2
ANSI31
 70
     0
 71
     0
 91
        1
 92
        3
 72
     0
 73
     1
 93
       12
 10
310.0837553500999
 20
289.0985788528072
 10
309.1130467353119
 20
286.4315788528071
 10
309.6210467353118
 20
286.4315788528071
 10
309.6210467353118
 20
272.9235788528072
 10
312.6210467353118
 20
272.9235788528072
 10
312.6210467353118
 20
269.8235788528071
 10
325.7246467353118
 20
269.8235788528071
 10
325.7246467353118
 20
303.7988288528223
 10
324.9308967353269
 20
304.5925788528072
 10
309.2463967352966
 20
304.5925788528072
 10
308.4526467353118
 20
303.7988288528222
 10
308.4526467353118
 20
289.0985788528072
 97
        0
 75
     0
 76
     1
 52
0.0
 41
1.0
 77
     0
 78
     1
 53
45.0
 43
0.0
 44
0.0
 45
-2.245064030267288
 46
2.245064030267288
 79
     1
 49
1.0
 98
        0
  0
HATCH
  5
3AE
330
1F
100
AcDbEntity
  8
0
  6
Continuous
 62
     7
370
     0
100
AcDbHatch
 10
0.0
 20
0.0
 30
0.0
210
0.0
220
0.0
230
1.0
  2
ANSI31
 70
     0
 71
     0
 91
        1
 92
        3
 72
     0
 73
     1
 93
       12
 10
325.7246467353118
 20
225.8235788528071
 10
312.6210467353118
 20
225.8235788528071
 10
312.6210467353118
 20
222.7235788528071
 10
309.6210467353118
 20
222.7235788528071
 10
309.6210467353118
 20
209.2155788528072
 10
309.1130467353119
 20
209.2155788528072
 10
310.0837553500999
 20
206.5485788528071
 10
308.4526467353118
 20
206.5485788528071
 10
308.4526467353118
 20
191.8483288527921
 10
309.2463967352966
 20
191.0545788528072
 10
324.9308967353269
 20
191.0545788528072
 10
325.7246467353118
 20
191.848328852792
 97
        0
 75
     0
 76
     1
 52
0.0
 41
1.0
 77
     0
 78
     1
 53
45.0
 43
0.0
 44
0.0
 45
-2.245064030267288
 46
2.245064030267288
 79
     1
 49
1.0
 98
        0
  0
HATCH
  5
3AF
330
1F
100
AcDbEntity
  8
0
  6
Continuous
 62
     7
370
     0
100
AcDbHatch
 10
0.0
 20
0.0
 30
0.0
210
0.0
220
0.0
230
1.0
  2
ANSI32
 70
     0
 71
     0
 91
        1
 92
        3
 72
     0
 73
     1
 93
        4
 10
312.5210467353118
 20
272.8235788528071
 10
312.4710467353118
 20
272.8235788528071
 10
312.4710467353118
 20
222.8235788528071
 10
312.5210467353118
 20
222.8235788528071
 97
        0
 75
     0
 76
     1
 52
0.0
 41
1.0
 77
     0
 78
     2
 53
45.0
 43
0.0
 44
0.0
 45
-6.735192090801865
 46
6.735192090801866
 79
     1
 49
1.0
 53
45.0
 43
4.49013
 44
0.0
 45
-6.735192090801865
 46
6.735192090801866
 79
     1
 49
1.0
 98
        0
  0
DIMENSION
  5
3B0
102
{ACAD_XDICTIONARY
360
3B1
102
}
330
1F
100
AcDbEntity
  8
SLD-0
100
AcDbDimension
280
     0
  2
*D15
 10
312.4710467353118
 20
261.2695368746772
 30
0.0
 11
292.1570467353118
 21
261.2695368746772
 31
0.0
 70
   160
  1
<>\PWINDOW
 71
     5
 42
0.0499999999999545
 73
     0
 74
     0
 75
     0
  3
Standard
100
AcDbAlignedDimension
 13
312.5210467353118
 23
272.8235788528071
 33
0.0
 14
312.4710467353118
 24
272.8235788528071
 34
0.0
100
AcDbRotatedDimension
1001
ACAD
1000
DSTYLE
1002
{
1070
   148
1040
0.0000001
1070
     4
1000

1070
   141
1040
2.5
1070
   271
1070
     2
1070
    45
1040
0.0000001
1070
   272
1070
     2
1002
}
  0
DIMENSION
  5
3C1
102
{ACAD_XDICTIONARY
360
3C2
102
}
330
1F
100
AcDbEntity
  8
SLD-0
100
AcDbDimension
280
     0
  2
*D16
 10
272.2886187511043
 20
222.7235788528071
 30
0.0
 11
272.2886187511043
 21
248.0365441726502
 31
0.0
 70
   160
  1
%%c<>
 71
     5
 42
50.20000000000005
 73
     0
 74
     0
 75
     0
  3
Standard
100
AcDbAlignedDimension
 13
309.6210467353118
 23
272.9235788528072
 33
0.0
 14
309.6210467353118
 24
222.7235788528071
 34
0.0
 50
90.0
100
AcDbRotatedDimension
1001
ACAD
1000
DSTYLE
1002
{
1070
   179
1070
     1
1070
   148
1040
0.0000001
1070
     4
1000

1070
   141
1040
2.5
1070
    45
1040
0.0000001
1002
}
  0
DIMENSION
  5
3D1
102
{ACAD_XDICTIONARY
360
3D2
102
}
330
1F
100
AcDbEntity
  8
SLD-0
100
AcDbDimension
280
     0
  2
*D17
 10
344.5337911164573
 20
225.8235788528071
 30
0.0
 11
344.5337911164573
 21
248.0365441726503
 31
0.0
 70
   160
  1
%%c<>
 71
     5
 42
44.0
 73
     0
 74
     0
 75
     0
  3
Standard
100
AcDbAlignedDimension
 13
325.7246467353118
 23
269.8235788528071
 33
0.0
 14
325.7246467353118
 24
225.8235788528071
 34
0.0
 50
90.0
100
AcDbRotatedDimension
1001
ACAD
1000
DSTYLE
1002
{
1070
   179
1070
     1
1070
   148
1040
0.0000001
1070
     4
1000

1070
   141
1040
2.5
1070
    45
1040
0.0000001
1002
}
  0
DIMENSION
  5
3E1
102
{ACAD_XDICTIONARY
360
3E2
102
}
330
1F
100
AcDbEntity
  8
SLD-0
100
AcDbDimension
280
     0
  2
*D18
 10
308.4526467353118
 20
312.7570927758686
 30
0.0
 11
290.222949311456
 21
312.7570927758686
 31
0.0
 70
   160
  1
<>
 71
     5
 42
4.018399999999986
 73
     0
 74
     0
 75
     0
  3
Standard
100
AcDbAlignedDimension
 13
312.4710467353118
 23
272.8235788528071
 33
0.0
 14
308.4526467353118
 24
303.7988288528222
 34
0.0
100
AcDbRotatedDimension
1001
ACAD
1000
DSTYLE
1002
{
1070
   179
1070
     1
1070
   148
1040
0.0000001
1070
     4
1000

1070
   141
1040
2.5
1070
    45
1040
0.0000001
1002
}
  0
MTEXT
  5
3F2
102
{ACAD_XDICTIONARY
360
3F3
102
}
330
1F
100
AcDbEntity
  8
SLD-0
100
AcDbMText
 10
316.7539236054433
 20
177.6848273890409
 30
0.0
 40
4.000000148349338
 41
0.0
 46
0.0
 71
     2
 72
     1
  1
SECTION A-A
 73
     1
 44
1.0
  0
LINE
  5
3F5
102
{ACAD_XDICTIONARY
360
3F6
102
}
330
1F
100
AcDbEntity
  8
SLD-0
  6
CENTERX2
370
    18
100
AcDbLine
 10
302.1026467353118
 20
247.8235788528071
 30
0.0
 11
332.0746467353118
 21
247.8235788528071
 31
0.0
  0
MTEXT
  5
3F8
102
{ACAD_XDICTIONARY
360
3F9
102
}
330
1F
100
AcDbEntity
  8
0
  6
Continuous
 62
     7
100
AcDbMText
 10
159.0780631531326
 20
320.5552530894781
 30
0.0
 40
5.000000031789144
 41
0.0
 46
0.0
 71
     1
 72
     1
  1
A
 73
     1
 44
1.0
  0
DIMENSION
  5
3FB
102
{ACAD_XDICTIONARY
360
3FC
102
}
330
1F
100
AcDbEntity
  8
0
100
AcDbDimension
280
     0
  2
*D19
 10
325.7246467353118
 20
322.2371925092858
 30
0.0
 11
339.6806467353118
 21
322.2371925092858
 31
0.0
 70
   160
  1
<>
 71
     5
 42
17.27199999999993
 73
     0
 74
     0
 75
     0
  3
Standard
100
AcDbAlignedDimension
 13
308.4526467353118
 23
303.7988288528222
 33
0.0
 14
325.7246467353118
 24
303.7988288528223
 34
0.0
100
AcDbRotatedDimension
1001
ACAD
1000
DSTYLE
1002
{
1070
   179
1070
     1
1070
   170
1070
     1
1070
   148
1040
0.0000001
1070
     4
1000

1070
     3
1000
\X
1070
    45
1040
0.0000001
1002
}
  0
VIEWPORT
  5
40C
330
1B
100
AcDbEntity
 67
     1
  8
0
100
AcDbViewport
 10
76.96740250049479
 20
141.9304355849002
 30
0.0
 40
677.3130878193069
 41
523.3782951331008
 68
     1
 69
     1
 12
76.96740250049479
 22
141.9304355849002
 13
0.0
 23
0.0
 14
0.5
 24
0.5
 15
0.5
 25
0.5
 16
0.0
 26
0.0
 36
1.0
 17
0.0
 27
0.0
 37
0.0
 42
50.0
 43
0.0
 44
0.0
 45
523.3782951331008
 50
0.0
 51
0.0
 72
  1000
 90
    32800
  1

281
     0
 71
     1
 74
     0
110
0.0
120
0.0
130
0.0
111
1.0
121
0.0
131
0.0
112
0.0
122
1.0
132
0.0
 79
     0
146
0.0
170
     0
 61
     5
292
     1
282
     1
141
0.0
142
0.0
 63
   256
  0
ENDSEC
  0
SECTION
  2
OBJECTS
  0
DICTIONARY
  5
C
330
0
100
AcDbDictionary
281
     1
  3
ACAD_GROUP
350
D
  3
ACAD_LAYOUT
350
1A
  3
ACAD_MATERIAL
350
3B
  3
ACAD_MLEADERSTYLE
350
169
  3
ACAD_MLINESTYLE
350
17
  3
ACAD_PLOTSETTINGS
350
19
  3
ACAD_PLOTSTYLENAME
350
E
  3
ACAD_SCALELIST
350
40D
  3
ACAD_TABLESTYLE
350
178
  3
ACAD_VISUALSTYLE
350
2A
  3
ACDB_RECOMPOSE_DATA
350
433
  3
AcDbVariableDictionary
350
42F
  0
SUN
  5
3F
330
29
100
AcDbSun
 90
        1
290
     0
 63
     7
421
 16777215
 40
1.0
291
     1
 91
  2455826
 92
 54000000
292
     0
 70
     2
 71
   256
280
     1
  0
DICTIONARY
  5
16C
330
1F
100
AcDbDictionary
280
     1
281
     1
  3
ACAD_GEOGRAPHICDATA
360
16D
  0
DICTIONARY
  5
17D
330
17C
100
AcDbDictionary
280
     1
281
     1
  3
TC_EXTENDED_DATA
360
17E
  0
DICTIONARY
  5
180
330
17F
100
AcDbDictionary
280
     1
281
     1
  3
TC_EXTENDED_DATA
360
181
  0
DICTIONARY
  5
183
330
182
100
AcDbDictionary
280
     1
281
     1
  3
TC_EXTENDED_DATA
360
184
  0
DICTIONARY
  5
186
330
185
100
AcDbDictionary
280
     1
281
     1
  3
TC_EXTENDED_DATA
360
187
  0
DICTIONARY
  5
18C
330
18B
100
AcDbDictionary
280
     1
281
     1
  3
TC_EXTENDED_DATA
360
18D
  0
DICTIONARY
  5
18F
330
18E
100
AcDbDictionary
280
     1
281
     1
  3
TC_EXTENDED_DATA
360
190
  0
DICTIONARY
  5
192
330
191
100
AcDbDictionary
280
     1
281
     1
  3
TC_EXTENDED_DATA
360
193
  0
DICTIONARY
  5
195
330
194
100
AcDbDictionary
280
     1
281
     1
  3
TC_EXTENDED_DATA
360
196
  0
DICTIONARY
  5
198
330
197
100
AcDbDictionary
280
     1
281
     1
  3
TC_EXTENDED_DATA
360
199
  0
DICTIONARY
  5
19B
330
19A
100
AcDbDictionary
280
     1
281
     1
  3
TC_EXTENDED_DATA
360
19C
  0
DICTIONARY
  5
19E
330
19D
100
AcDbDictionary
280
     1
281
     1
  3
TC_EXTENDED_DATA
360
19F
  0
DICTIONARY
  5
1A1
330
1A0
100
AcDbDictionary
280
     1
281
     1
  3
TC_EXTENDED_DATA
360
1A2
  0
DICTIONARY
  5
1A4
330
1A3
100
AcDbDictionary
280
     1
281
     1
  3
TC_EXTENDED_DATA
360
1A5
  0
DICTIONARY
  5
1A7
330
1A6
100
AcDbDictionary
280
     1
281
     1
  3
TC_EXTENDED_DATA
360
1A8
  0
DICTIONARY
  5
1AA
330
1A9
100
AcDbDictionary
280
     1
281
     1
  3
TC_EXTENDED_DATA
360
1AB
  0
DICTIONARY
  5
1AD
330
1AC
100
AcDbDictionary
280
     1
281
     1
  3
TC_EXTENDED_DATA
360
1AE
  0
DICTIONARY
  5
1B0
330
1AF
100
AcDbDictionary
280
     1
281
     1
  3
TC_EXTENDED_DATA
360
1B1
  0
DICTIONARY
  5
1B3
330
1B2
100
AcDbDictionary
280
     1
281
     1
  3
TC_EXTENDED_DATA
360
1B4
  0
DICTIONARY
  5
1B6
330
1B5
100
AcDbDictionary
280
     1
281
     1
  3
TC_EXTENDED_DATA
360
1B7
  0
DICTIONARY
  5
1B9
330
1B8
100
AcDbDictionary
280
     1
281
     1
  3
TC_EXTENDED_DATA
360
1BA
  0
DICTIONARY
  5
1BC
330
1BB
100
AcDbDictionary
280
     1
281
     1
  3
TC_EXTENDED_DATA
360
1BD
  0
DICTIONARY
  5
1BF
330
1BE
100
AcDbDictionary
280
     1
281
     1
  3
TC_EXTENDED_DATA
360
1C0
  0
DICTIONARY
  5
1C2
330
1C1
100
AcDbDictionary
280
     1
281
     1
  3
TC_EXTENDED_DATA
360
1C3
  0
DICTIONARY
  5
1C5
330
1C4
100
AcDbDictionary
280
     1
281
     1
  3
TC_EXTENDED_DATA
360
1C6
  0
DICTIONARY
  5
1C8
330
1C7
100
AcDbDictionary
280
     1
281
     1
  3
TC_EXTENDED_DATA
360
1C9
  0
DICTIONARY
  5
1CB
330
1CA
100
AcDbDictionary
280
     1
281
     1
  3
TC_EXTENDED_DATA
360
1CC
  0
DICTIONARY
  5
1CE
330
1CD
100
AcDbDictionary
280
     1
281
     1
  3
TC_EXTENDED_DATA
360
1CF
  0
DICTIONARY
  5
1D1
330
1D0
100
AcDbDictionary
280
     1
281
     1
  3
TC_EXTENDED_DATA
360
1D2
  0
DICTIONARY
  5
1D4
330
1D3
100
AcDbDictionary
280
     1
281
     1
  3
TC_EXTENDED_DATA
360
1D5
  0
DICTIONARY
  5
1D7
330
1D6
100
AcDbDictionary
280
     1
281
     1
  3
TC_EXTENDED_DATA
360
1D8
  0
DICTIONARY
  5
1DA
330
1D9
100
AcDbDictionary
280
     1
281
     1
  3
TC_EXTENDED_DATA
360
1DB
  0
DICTIONARY
  5
1DD
330
1DC
100
AcDbDictionary
280
     1
281
     1
  3
TC_EXTENDED_DATA
360
1DE
  0
DICTIONARY
  5
1E0
330
1DF
100
AcDbDictionary
280
     1
281
     1
  3
TC_EXTENDED_DATA
360
1E1
  0
DICTIONARY
  5
1E3
330
1E2
100
AcDbDictionary
280
     1
281
     1
  3
TC_EXTENDED_DATA
360
1E4
  0
DICTIONARY
  5
1E6
330
1E5
100
AcDbDictionary
280
     1
281
     1
  3
TC_EXTENDED_DATA
360
1E7
  0
DICTIONARY
  5
1E9
330
1E8
100
AcDbDictionary
280
     1
281
     1
  3
TC_EXTENDED_DATA
360
1EA
  0
DICTIONARY
  5
1EC
330
1EB
100
AcDbDictionary
280
     1
281
     1
  3
TC_EXTENDED_DATA
360
1ED
  0
DICTIONARY
  5
1EF
330
1EE
100
AcDbDictionary
280
     1
281
     1
  3
TC_EXTENDED_DATA
360
1F0
  0
DICTIONARY
  5
1F2
330
1F1
100
AcDbDictionary
280
     1
281
     1
  3
TC_EXTENDED_DATA
360
1F3
  0
DICTIONARY
  5
1F5
330
1F4
100
AcDbDictionary
280
     1
281
     1
  3
TC_EXTENDED_DATA
360
1F6
  0
DICTIONARY
  5
1F8
330
1F7
100
AcDbDictionary
280
     1
281
     1
  3
TC_EXTENDED_DATA
360
1F9
  0
DICTIONARY
  5
1FB
330
1FA
100
AcDbDictionary
280
     1
281
     1
  3
TC_EXTENDED_DATA
360
1FC
  0
DICTIONARY
  5
1FE
330
1FD
100
AcDbDictionary
280
     1
281
     1
  3
TC_EXTENDED_DATA
360
1FF
  0
DICTIONARY
  5
201
330
200
100
AcDbDictionary
280
     1
281
     1
  3
TC_EXTENDED_DATA
360
202
  0
DICTIONARY
  5
204
330
203
100
AcDbDictionary
280
     1
281
     1
  3
TC_EXTENDED_DATA
360
205
  0
DICTIONARY
  5
207
330
206
100
AcDbDictionary
280
     1
281
     1
  3
TC_EXTENDED_DATA
360
208
  0
DICTIONARY
  5
20A
330
209
100
AcDbDictionary
280
     1
281
     1
  3
TC_EXTENDED_DATA
360
20B
  0
DICTIONARY
  5
20D
330
20C
100
AcDbDictionary
280
     1
281
     1
  3
TC_EXTENDED_DATA
360
20E
  0
DICTIONARY
  5
213
330
212
100
AcDbDictionary
280
     1
281
     1
  3
TC_EXTENDED_DATA
360
214
  0
DICTIONARY
  5
216
330
215
100
AcDbDictionary
280
     1
281
     1
  3
TC_EXTENDED_DATA
360
217
  0
DICTIONARY
  5
219
330
218
100
AcDbDictionary
280
     1
281
     1
  3
TC_EXTENDED_DATA
360
21A
  0
DICTIONARY
  5
223
330
222
100
AcDbDictionary
280
     1
281
     1
  3
TC_EXTENDED_DATA
360
224
  0
DICTIONARY
  5
226
330
225
100
AcDbDictionary
280
     1
281
     1
  3
TC_EXTENDED_DATA
360
227
  0
DICTIONARY
  5
229
330
228
100
AcDbDictionary
280
     1
281
     1
  3
TC_EXTENDED_DATA
360
22A
  0
DICTIONARY
  5
22E
330
22D
100
AcDbDictionary
280
     1
281
     1
  3
TC_EXTENDED_DATA
360
22F
  0
DICTIONARY
  5
231
330
230
100
AcDbDictionary
280
     1
281
     1
  3
TC_EXTENDED_DATA
360
232
  0
DICTIONARY
  5
239
330
238
100
AcDbDictionary
280
     1
281
     1
  3
TC_EXTENDED_DATA
360
23A
  0
DICTIONARY
  5
23C
330
23B
100
AcDbDictionary
280
     1
281
     1
  3
TC_EXTENDED_DATA
360
23D
  0
DICTIONARY
  5
23F
330
23E
100
AcDbDictionary
280
     1
281
     1
  3
TC_EXTENDED_DATA
360
240
  0
DICTIONARY
  5
244
330
243
100
AcDbDictionary
280
     1
281
     1
  3
TC_EXTENDED_DATA
360
245
  0
DICTIONARY
  5
247
330
246
100
AcDbDictionary
280
     1
281
     1
  3
TC_EXTENDED_DATA
360
248
  0
DICTIONARY
  5
24F
330
24E
100
AcDbDictionary
280
     1
281
     1
  3
TC_EXTENDED_DATA
360
250
  0
DICTIONARY
  5
252
330
251
100
AcDbDictionary
280
     1
281
     1
  3
TC_EXTENDED_DATA
360
253
  0
DICTIONARY
  5
255
330
254
100
AcDbDictionary
280
     1
281
     1
  3
TC_EXTENDED_DATA
360
256
  0
DICTIONARY
  5
258
330
257
100
AcDbDictionary
280
     1
281
     1
  3
TC_EXTENDED_DATA
360
259
  0
DICTIONARY
  5
25F
330
25E
100
AcDbDictionary
280
     1
281
     1
  3
TC_EXTENDED_DATA
360
260
  0
DICTIONARY
  5
268
330
267
100
AcDbDictionary
280
     1
281
     1
  3
TC_EXTENDED_DATA
360
269
  0
DICTIONARY
  5
26B
330
26A
100
AcDbDictionary
280
     1
281
     1
  3
TC_EXTENDED_DATA
360
26C
  0
DICTIONARY
  5
26E
330
26D
100
AcDbDictionary
280
     1
281
     1
  3
TC_EXTENDED_DATA
360
26F
  0
DICTIONARY
  5
271
330
270
100
AcDbDictionary
280
     1
281
     1
  3
TC_EXTENDED_DATA
360
272
  0
DICTIONARY
  5
278
330
277
100
AcDbDictionary
280
     1
281
     1
  3
TC_EXTENDED_DATA
360
279
  0
DICTIONARY
  5
281
330
280
100
AcDbDictionary
280
     1
281
     1
  3
TC_EXTENDED_DATA
360
282
  0
DICTIONARY
  5
284
330
283
100
AcDbDictionary
280
     1
281
     1
  3
TC_EXTENDED_DATA
360
285
  0
DICTIONARY
  5
287
330
286
100
AcDbDictionary
280
     1
281
     1
  3
TC_EXTENDED_DATA
360
288
  0
DICTIONARY
  5
28A
330
289
100
AcDbDictionary
280
     1
281
     1
  3
TC_EXTENDED_DATA
360
28B
  0
DICTIONARY
  5
291
330
290
100
AcDbDictionary
280
     1
281
     1
  3
TC_EXTENDED_DATA
360
292
  0
DICTIONARY
  5
29A
330
299
100
AcDbDictionary
280
     1
281
     1
  3
TC_EXTENDED_DATA
360
29B
  0
DICTIONARY
  5
29D
330
29C
100
AcDbDictionary
280
     1
281
     1
  3
TC_EXTENDED_DATA
360
29E
  0
DICTIONARY
  5
2A0
330
29F
100
AcDbDictionary
280
     1
281
     1
  3
TC_EXTENDED_DATA
360
2A1
  0
DICTIONARY
  5
2A3
330
2A2
100
AcDbDictionary
280
     1
281
     1
  3
TC_EXTENDED_DATA
360
2A4
  0
DICTIONARY
  5
2AA
330
2A9
100
AcDbDictionary
280
     1
281
     1
  3
TC_EXTENDED_DATA
360
2AB
  0
DICTIONARY
  5
2B1
330
2B0
100
AcDbDictionary
280
     1
281
     1
  3
TC_EXTENDED_DATA
360
2B2
  0
DICTIONARY
  5
2B4
330
2B3
100
AcDbDictionary
280
     1
281
     1
  3
TC_EXTENDED_DATA
360
2B5
  0
DICTIONARY
  5
2B7
330
2B6
100
AcDbDictionary
280
     1
281
     1
  3
TC_EXTENDED_DATA
360
2B8
  0
DICTIONARY
  5
2BA
330
2B9
100
AcDbDictionary
280
     1
281
     1
  3
TC_EXTENDED_DATA
360
2BB
  0
DICTIONARY
  5
2BD
330
2BC
100
AcDbDictionary
280
     1
281
     1
  3
TC_EXTENDED_DATA
360
2BE
  0
DICTIONARY
  5
2C0
330
2BF
100
AcDbDictionary
280
     1
281
     1
  3
TC_EXTENDED_DATA
360
2C1
  0
DICTIONARY
  5
2C3
330
2C2
100
AcDbDictionary
280
     1
281
     1
  3
TC_EXTENDED_DATA
360
2C4
  0
DICTIONARY
  5
2C6
330
2C5
100
AcDbDictionary
280
     1
281
     1
  3
TC_EXTENDED_DATA
360
2C7
  0
DICTIONARY
  5
2C9
330
2C8
100
AcDbDictionary
280
     1
281
     1
  3
TC_EXTENDED_DATA
360
2CA
  0
DICTIONARY
  5
2CC
330
2CB
100
AcDbDictionary
280
     1
281
     1
  3
TC_EXTENDED_DATA
360
2CD
  0
DICTIONARY
  5
2CF
330
2CE
100
AcDbDictionary
280
     1
281
     1
  3
TC_EXTENDED_DATA
360
2D0
  0
DICTIONARY
  5
2D2
330
2D1
100
AcDbDictionary
280
     1
281
     1
  3
TC_EXTENDED_DATA
360
2D3
  0
DICTIONARY
  5
2D5
330
2D4
100
AcDbDictionary
280
     1
281
     1
  3
TC_EXTENDED_DATA
360
2D6
  0
DICTIONARY
  5
2D8
330
2D7
100
AcDbDictionary
280
     1
281
     1
  3
TC_EXTENDED_DATA
360
2D9
  0
DICTIONARY
  5
2DB
330
2DA
100
AcDbDictionary
280
     1
281
     1
  3
TC_EXTENDED_DATA
360
2DC
  0
DICTIONARY
  5
2DE
330
2DD
100
AcDbDictionary
280
     1
281
     1
  3
TC_EXTENDED_DATA
360
2DF
  0
DICTIONARY
  5
2E1
330
2E0
100
AcDbDictionary
280
     1
281
     1
  3
TC_EXTENDED_DATA
360
2E2
  0
DICTIONARY
  5
2E4
330
2E3
100
AcDbDictionary
280
     1
281
     1
  3
TC_EXTENDED_DATA
360
2E5
  0
DICTIONARY
  5
2E7
330
2E6
100
AcDbDictionary
280
     1
281
     1
  3
TC_EXTENDED_DATA
360
2E8
  0
DICTIONARY
  5
2EA
330
2E9
100
AcDbDictionary
280
     1
281
     1
  3
TC_EXTENDED_DATA
360
2EB
  0
DICTIONARY
  5
2ED
330
2EC
100
AcDbDictionary
280
     1
281
     1
  3
TC_EXTENDED_DATA
360
2EE
  0
DICTIONARY
  5
2F0
330
2EF
100
AcDbDictionary
280
     1
281
     1
  3
TC_EXTENDED_DATA
360
2F1
  0
DICTIONARY
  5
2F3
330
2F2
100
AcDbDictionary
280
     1
281
     1
  3
TC_EXTENDED_DATA
360
2F4
  0
DICTIONARY
  5
2F6
330
2F5
100
AcDbDictionary
280
     1
281
     1
  3
TC_EXTENDED_DATA
360
2F7
  0
DICTIONARY
  5
2F9
330
2F8
100
AcDbDictionary
280
     1
281
     1
  3
TC_EXTENDED_DATA
360
2FA
  0
DICTIONARY
  5
2FC
330
2FB
100
AcDbDictionary
280
     1
281
     1
  3
TC_EXTENDED_DATA
360
2FD
  0
DICTIONARY
  5
2FF
330
2FE
100
AcDbDictionary
280
     1
281
     1
  3
TC_EXTENDED_DATA
360
300
  0
DICTIONARY
  5
302
330
301
100
AcDbDictionary
280
     1
281
     1
  3
TC_EXTENDED_DATA
360
303
  0
DICTIONARY
  5
305
330
304
100
AcDbDictionary
280
     1
281
     1
  3
TC_EXTENDED_DATA
360
306
  0
DICTIONARY
  5
308
330
307
100
AcDbDictionary
280
     1
281
     1
  3
TC_EXTENDED_DATA
360
309
  0
DICTIONARY
  5
314
330
313
100
AcDbDictionary
280
     1
281
     1
  3
TC_EXTENDED_DATA
360
315
  0
DICTIONARY
  5
322
330
321
100
AcDbDictionary
280
     1
281
     1
  3
TC_EXTENDED_DATA
360
323
  0
DICTIONARY
  5
332
330
331
100
AcDbDictionary
280
     1
281
     1
  3
TC_EXTENDED_DATA
360
333
  0
DICTIONARY
  5
335
330
334
100
AcDbDictionary
280
     1
281
     1
  3
TC_EXTENDED_DATA
360
336
  0
DICTIONARY
  5
33A
330
339
100
AcDbDictionary
280
     1
281
     1
  3
TC_EXTENDED_DATA
360
33B
  0
DICTIONARY
  5
33F
330
33E
100
AcDbDictionary
280
     1
281
     1
  3
TC_EXTENDED_DATA
360
340
  0
DICTIONARY
  5
342
330
341
100
AcDbDictionary
280
     1
281
     1
  3
TC_EXTENDED_DATA
360
343
  0
DICTIONARY
  5
345
330
344
100
AcDbDictionary
280
     1
281
     1
  3
TC_EXTENDED_DATA
360
346
  0
DICTIONARY
  5
348
330
347
100
AcDbDictionary
280
     1
281
     1
  3
TC_EXTENDED_DATA
360
349
  0
DICTIONARY
  5
34B
330
34A
100
AcDbDictionary
280
     1
281
     1
  3
TC_EXTENDED_DATA
360
34C
  0
DICTIONARY
  5
34E
330
34D
100
AcDbDictionary
280
     1
281
     1
  3
TC_EXTENDED_DATA
360
34F
  0
DICTIONARY
  5
351
330
350
100
AcDbDictionary
280
     1
281
     1
  3
TC_EXTENDED_DATA
360
352
  0
DICTIONARY
  5
354
330
353
100
AcDbDictionary
280
     1
281
     1
  3
TC_EXTENDED_DATA
360
355
  0
DICTIONARY
  5
357
330
356
100
AcDbDictionary
280
     1
281
     1
  3
TC_EXTENDED_DATA
360
358
  0
DICTIONARY
  5
35A
330
359
100
AcDbDictionary
280
     1
281
     1
  3
TC_EXTENDED_DATA
360
35B
  0
DICTIONARY
  5
35D
330
35C
100
AcDbDictionary
280
     1
281
     1
  3
TC_EXTENDED_DATA
360
35E
  0
DICTIONARY
  5
360
330
35F
100
AcDbDictionary
280
     1
281
     1
  3
TC_EXTENDED_DATA
360
361
  0
DICTIONARY
  5
363
330
362
100
AcDbDictionary
280
     1
281
     1
  3
TC_EXTENDED_DATA
360
364
  0
DICTIONARY
  5
366
330
365
100
AcDbDictionary
280
     1
281
     1
  3
TC_EXTENDED_DATA
360
367
  0
DICTIONARY
  5
369
330
368
100
AcDbDictionary
280
     1
281
     1
  3
TC_EXTENDED_DATA
360
36A
  0
DICTIONARY
  5
36C
330
36B
100
AcDbDictionary
280
     1
281
     1
  3
TC_EXTENDED_DATA
360
36D
  0
DICTIONARY
  5
36F
330
36E
100
AcDbDictionary
280
     1
281
     1
  3
TC_EXTENDED_DATA
360
370
  0
DICTIONARY
  5
372
330
371
100
AcDbDictionary
280
     1
281
     1
  3
TC_EXTENDED_DATA
360
373
  0
DICTIONARY
  5
375
330
374
100
AcDbDictionary
280
     1
281
     1
  3
TC_EXTENDED_DATA
360
376
  0
DICTIONARY
  5
378
330
377
100
AcDbDictionary
280
     1
281
     1
  3
TC_EXTENDED_DATA
360
379
  0
DICTIONARY
  5
37B
330
37A
100
AcDbDictionary
280
     1
281
     1
  3
TC_EXTENDED_DATA
360
37C
  0
DICTIONARY
  5
37E
330
37D
100
AcDbDictionary
280
     1
281
     1
  3
TC_EXTENDED_DATA
360
37F
  0
DICTIONARY
  5
381
330
380
100
AcDbDictionary
280
     1
281
     1
  3
TC_EXTENDED_DATA
360
382
  0
DICTIONARY
  5
384
330
383
100
AcDbDictionary
280
     1
281
     1
  3
TC_EXTENDED_DATA
360
385
  0
DICTIONARY
  5
387
330
386
100
AcDbDictionary
280
     1
281
     1
  3
TC_EXTENDED_DATA
360
388
  0
DICTIONARY
  5
38A
330
389
100
AcDbDictionary
280
     1
281
     1
  3
TC_EXTENDED_DATA
360
38B
  0
DICTIONARY
  5
38D
330
38C
100
AcDbDictionary
280
     1
281
     1
  3
TC_EXTENDED_DATA
360
38E
  0
DICTIONARY
  5
390
330
38F
100
AcDbDictionary
280
     1
281
     1
  3
TC_EXTENDED_DATA
360
391
  0
DICTIONARY
  5
393
330
392
100
AcDbDictionary
280
     1
281
     1
  3
TC_EXTENDED_DATA
360
394
  0
DICTIONARY
  5
396
330
395
100
AcDbDictionary
280
     1
281
     1
  3
TC_EXTENDED_DATA
360
397
  0
DICTIONARY
  5
399
330
398
100
AcDbDictionary
280
     1
281
     1
  3
TC_EXTENDED_DATA
360
39A
  0
DICTIONARY
  5
39C
330
39B
100
AcDbDictionary
280
     1
281
     1
  3
TC_EXTENDED_DATA
360
39D
  0
DICTIONARY
  5
39F
330
39E
100
AcDbDictionary
280
     1
281
     1
  3
TC_EXTENDED_DATA
360
3A0
  0
DICTIONARY
  5
3A2
330
3A1
100
AcDbDictionary
280
     1
281
     1
  3
TC_EXTENDED_DATA
360
3A3
  0
DICTIONARY
  5
3A5
330
3A4
100
AcDbDictionary
280
     1
281
     1
  3
TC_EXTENDED_DATA
360
3A6
  0
DICTIONARY
  5
3A8
330
3A7
100
AcDbDictionary
280
     1
281
     1
  3
TC_EXTENDED_DATA
360
3A9
  0
DICTIONARY
  5
3AB
330
3AA
100
AcDbDictionary
280
     1
281
     1
  3
TC_EXTENDED_DATA
360
3AC
  0
DICTIONARY
  5
3B1
330
3B0
100
AcDbDictionary
280
     1
281
     1
  3
TC_EXTENDED_DATA
360
3B2
  0
DICTIONARY
  5
3C2
330
3C1
100
AcDbDictionary
280
     1
281
     1
  3
TC_EXTENDED_DATA
360
3C3
  0
DICTIONARY
  5
3D2
330
3D1
100
AcDbDictionary
280
     1
281
     1
  3
TC_EXTENDED_DATA
360
3D3
  0
DICTIONARY
  5
3E2
330
3E1
100
AcDbDictionary
280
     1
281
     1
  3
TC_EXTENDED_DATA
360
3E3
  0
DICTIONARY
  5
3F3
330
3F2
100
AcDbDictionary
280
     1
281
     1
  3
TC_EXTENDED_DATA
360
3F4
  0
DICTIONARY
  5
3F6
330
3F5
100
AcDbDictionary
280
     1
281
     1
  3
TC_EXTENDED_DATA
360
3F7
  0
DICTIONARY
  5
3F9
330
3F8
100
AcDbDictionary
280
     1
281
     1
  3
TC_EXTENDED_DATA
360
3FA
  0
DICTIONARY
  5
3FC
330
3FB
100
AcDbDictionary
280
     1
281
     1
  3
TC_EXTENDED_DATA
360
3FD
  0
DICTIONARY
  5
D
102
{ACAD_REACTORS
330
C
102
}
330
C
100
AcDbDictionary
281
     1
  0
DICTIONARY
  5
1A
102
{ACAD_REACTORS
330
C
102
}
330
C
100
AcDbDictionary
281
     1
  3
Layout1
350
152
  3
Layout2
350
1E
  3
Model
350
22
  0
DICTIONARY
  5
3B
102
{ACAD_REACTORS
330
C
102
}
330
C
100
AcDbDictionary
281
     1
  3
ByBlock
350
3D
  3
ByLayer
350
3C
  3
Global
350
3E
  0
DICTIONARY
  5
169
102
{ACAD_REACTORS
330
C
102
}
330
C
100
AcDbDictionary
281
     1
  3
Standard
350
16A
  0
DICTIONARY
  5
17
102
{ACAD_REACTORS
330
C
102
}
330
C
100
AcDbDictionary
281
     1
  3
Standard
350
18
  0
DICTIONARY
  5
19
102
{ACAD_REACTORS
330
C
102
}
330
C
100
AcDbDictionary
281
     1
  0
ACDBDICTIONARYWDFLT
  5
E
102
{ACAD_REACTORS
330
C
102
}
330
C
100
AcDbDictionary
281
     1
  3
Normal
350
F
100
AcDbDictionaryWithDefault
340
F
  0
DICTIONARY
  5
40D
102
{ACAD_REACTORS
330
C
102
}
330
C
100
AcDbDictionary
281
     1
  3
A0
350
40E
  3
A1
350
40F
  3
A2
350
410
  3
A3
350
411
  3
A4
350
412
  3
A5
350
413
  3
A6
350
414
  3
A7
350
415
  3
A8
350
416
  3
A9
350
417
  3
B0
350
418
  3
B1
350
419
  3
B2
350
41A
  3
B3
350
41B
  3
B4
350
41C
  3
B5
350
41D
  3
B6
350
41E
  3
B7
350
41F
  3
B8
350
420
  3
B9
350
421
  3
C0
350
422
  3
C1
350
423
  3
C2
350
424
  3
C3
350
425
  3
C4
350
426
  3
C5
350
427
  3
C6
350
428
  3
C7
350
429
  3
C8
350
42A
  3
C9
350
42B
  3
D0
350
42C
  3
D1
350
42D
  3
D2
350
42E
  0
DICTIONARY
  5
178
102
{ACAD_REACTORS
330
C
102
}
330
C
100
AcDbDictionary
281
     1
  3
Standard
350
179
  0
DICTIONARY
  5
2A
102
{ACAD_REACTORS
330
C
102
}
330
C
100
AcDbDictionary
281
     1
  3
2dWireframe
350
2F
  3
3D Hidden
350
31
  3
3dWireframe
350
30
  3
Basic
350
32
  3
Brighten
350
36
  3
ColorChange
350
3A
  3
Conceptual
350
34
  3
Dim
350
35
  3
Facepattern
350
39
  3
Flat
350
2B
  3
FlatWithEdges
350
2C
  3
Gouraud
350
2D
  3
GouraudWithEdges
350
2E
  3
Linepattern
350
38
  3
Realistic
350
33
  3
Thicken
350
37
  0
XRECORD
  5
433
102
{ACAD_REACTORS
330
C
102
}
330
C
100
AcDbXrecord
280
     1
 90
        1
330
179
  0
DICTIONARY
  5
42F
102
{ACAD_REACTORS
330
C
102
}
330
C
100
AcDbDictionary
281
     1
  3
CANNOSCALE
350
430
  0
GEODATA
  5
16D
102
{ACAD_REACTORS
330
16C
102
}
330
16C
100
AcDbGeoData
 90
        2
330
1F
 70
     1
 10
0.0
 20
0.0
 30
0.0
 11
-122.394
 21
37.795
 31
0.0
 40
1.0
 91
        6
 41
1.0
 92
        6
210
0.0
220
0.0
230
1.0
 12
0.0
 22
1.0
 95
        3
141
1.0
294
     0
142
0.0
143
0.0
301

302
<georss:point>37.7950 -122.3940</georss:point>
305

306

307

 93
        0
 96
        0
  0
TCOPTIONALDATA
  5
17E
102
{ACAD_REACTORS
330
17D
102
}
330
17D
100
TcOptionalData
 70
     2
 70
    32
 40
3.0
  0
TCOPTIONALDATA
  5
181
102
{ACAD_REACTORS
330
180
102
}
330
180
100
TcOptionalData
 70
     2
 70
    32
 40
3.0
  0
TCOPTIONALDATA
  5
184
102
{ACAD_REACTORS
330
183
102
}
330
183
100
TcOptionalData
 70
     2
 70
    32
 40
3.0
  0
TCOPTIONALDATA
  5
187
102
{ACAD_REACTORS
330
186
102
}
330
186
100
TcOptionalData
 70
     2
 70
    32
 40
3.0
  0
TCOPTIONALDATA
  5
18D
102
{ACAD_REACTORS
330
18C
102
}
330
18C
100
TcOptionalData
 70
     2
 70
    32
 40
3.0
  0
TCOPTIONALDATA
  5
190
102
{ACAD_REACTORS
330
18F
102
}
330
18F
100
TcOptionalData
 70
     2
 70
    32
 40
3.0
  0
TCOPTIONALDATA
  5
193
102
{ACAD_REACTORS
330
192
102
}
330
192
100
TcOptionalData
 70
     2
 70
    32
 40
3.0
  0
TCOPTIONALDATA
  5
196
102
{ACAD_REACTORS
330
195
102
}
330
195
100
TcOptionalData
 70
     2
 70
    32
 40
3.0
  0
TCOPTIONALDATA
  5
199
102
{ACAD_REACTORS
330
198
102
}
330
198
100
TcOptionalData
 70
     2
 70
    32
 40
3.0
  0
TCOPTIONALDATA
  5
19C
102
{ACAD_REACTORS
330
19B
102
}
330
19B
100
TcOptionalData
 70
     2
 70
    32
 40
3.0
  0
TCOPTIONALDATA
  5
19F
102
{ACAD_REACTORS
330
19E
102
}
330
19E
100
TcOptionalData
 70
     2
 70
    32
 40
3.0
  0
TCOPTIONALDATA
  5
1A2
102
{ACAD_REACTORS
330
1A1
102
}
330
1A1
100
TcOptionalData
 70
     2
 70
    32
 40
3.0
  0
TCOPTIONALDATA
  5
1A5
102
{ACAD_REACTORS
330
1A4
102
}
330
1A4
100
TcOptionalData
 70
     2
 70
    32
 40
3.0
  0
TCOPTIONALDATA
  5
1A8
102
{ACAD_REACTORS
330
1A7
102
}
330
1A7
100
TcOptionalData
 70
     2
 70
    32
 40
3.0
  0
TCOPTIONALDATA
  5
1AB
102
{ACAD_REACTORS
330
1AA
102
}
330
1AA
100
TcOptionalData
 70
     2
 70
    32
 40
3.0
  0
TCOPTIONALDATA
  5
1AE
102
{ACAD_REACTORS
330
1AD
102
}
330
1AD
100
TcOptionalData
 70
     2
 70
    32
 40
3.0
  0
TCOPTIONALDATA
  5
1B1
102
{ACAD_REACTORS
330
1B0
102
}
330
1B0
100
TcOptionalData
 70
     2
 70
    32
 40
3.0
  0
TCOPTIONALDATA
  5
1B4
102
{ACAD_REACTORS
330
1B3
102
}
330
1B3
100
TcOptionalData
 70
     2
 70
    32
 40
3.0
  0
TCOPTIONALDATA
  5
1B7
102
{ACAD_REACTORS
330
1B6
102
}
330
1B6
100
TcOptionalData
 70
     2
 70
    32
 40
3.0
  0
TCOPTIONALDATA
  5
1BA
102
{ACAD_REACTORS
330
1B9
102
}
330
1B9
100
TcOptionalData
 70
     2
 70
    32
 40
3.0
  0
TCOPTIONALDATA
  5
1BD
102
{ACAD_REACTORS
330
1BC
102
}
330
1BC
100
TcOptionalData
 70
     2
 70
    32
 40
3.0
  0
TCOPTIONALDATA
  5
1C0
102
{ACAD_REACTORS
330
1BF
102
}
330
1BF
100
TcOptionalData
 70
     2
 70
    32
 40
3.0
  0
TCOPTIONALDATA
  5
1C3
102
{ACAD_REACTORS
330
1C2
102
}
330
1C2
100
TcOptionalData
 70
     2
 70
    32
 40
3.0
  0
TCOPTIONALDATA
  5
1C6
102
{ACAD_REACTORS
330
1C5
102
}
330
1C5
100
TcOptionalData
 70
     2
 70
    32
 40
3.0
  0
TCOPTIONALDATA
  5
1C9
102
{ACAD_REACTORS
330
1C8
102
}
330
1C8
100
TcOptionalData
 70
     2
 70
    32
 40
3.0
  0
TCOPTIONALDATA
  5
1CC
102
{ACAD_REACTORS
330
1CB
102
}
330
1CB
100
TcOptionalData
 70
     2
 70
    32
 40
3.0
  0
TCOPTIONALDATA
  5
1CF
102
{ACAD_REACTORS
330
1CE
102
}
330
1CE
100
TcOptionalData
 70
     2
 70
    32
 40
3.0
  0
TCOPTIONALDATA
  5
1D2
102
{ACAD_REACTORS
330
1D1
102
}
330
1D1
100
TcOptionalData
 70
     2
 70
    32
 40
3.0
  0
TCOPTIONALDATA
  5
1D5
102
{ACAD_REACTORS
330
1D4
102
}
330
1D4
100
TcOptionalData
 70
     2
 70
    32
 40
3.0
  0
TCOPTIONALDATA
  5
1D8
102
{ACAD_REACTORS
330
1D7
102
}
330
1D7
100
TcOptionalData
 70
     2
 70
    32
 40
3.0
  0
TCOPTIONALDATA
  5
1DB
102
{ACAD_REACTORS
330
1DA
102
}
330
1DA
100
TcOptionalData
 70
     2
 70
    32
 40
3.0
  0
TCOPTIONALDATA
  5
1DE
102
{ACAD_REACTORS
330
1DD
102
}
330
1DD
100
TcOptionalData
 70
     2
 70
    32
 40
3.0
  0
TCOPTIONALDATA
  5
1E1
102
{ACAD_REACTORS
330
1E0
102
}
330
1E0
100
TcOptionalData
 70
     2
 70
    32
 40
3.0
  0
TCOPTIONALDATA
  5
1E4
102
{ACAD_REACTORS
330
1E3
102
}
330
1E3
100
TcOptionalData
 70
     2
 70
    32
 40
3.0
  0
TCOPTIONALDATA
  5
1E7
102
{ACAD_REACTORS
330
1E6
102
}
330
1E6
100
TcOptionalData
 70
     2
 70
    32
 40
3.0
  0
TCOPTIONALDATA
  5
1EA
102
{ACAD_REACTORS
330
1E9
102
}
330
1E9
100
TcOptionalData
 70
     2
 70
    32
 40
3.0
  0
TCOPTIONALDATA
  5
1ED
102
{ACAD_REACTORS
330
1EC
102
}
330
1EC
100
TcOptionalData
 70
     2
 70
    32
 40
3.0
  0
TCOPTIONALDATA
  5
1F0
102
{ACAD_REACTORS
330
1EF
102
}
330
1EF
100
TcOptionalData
 70
     2
 70
    32
 40
3.0
  0
TCOPTIONALDATA
  5
1F3
102
{ACAD_REACTORS
330
1F2
102
}
330
1F2
100
TcOptionalData
 70
     2
 70
    32
 40
3.0
  0
TCOPTIONALDATA
  5
1F6
102
{ACAD_REACTORS
330
1F5
102
}
330
1F5
100
TcOptionalData
 70
     2
 70
    32
 40
3.0
  0
TCOPTIONALDATA
  5
1F9
102
{ACAD_REACTORS
330
1F8
102
}
330
1F8
100
TcOptionalData
 70
     2
 70
    32
 40
3.0
  0
TCOPTIONALDATA
  5
1FC
102
{ACAD_REACTORS
330
1FB
102
}
330
1FB
100
TcOptionalData
 70
     2
 70
    32
 40
3.0
  0
TCOPTIONALDATA
  5
1FF
102
{ACAD_REACTORS
330
1FE
102
}
330
1FE
100
TcOptionalData
 70
     2
 70
    32
 40
3.0
  0
TCOPTIONALDATA
  5
202
102
{ACAD_REACTORS
330
201
102
}
330
201
100
TcOptionalData
 70
     2
 70
    32
 40
3.0
  0
TCOPTIONALDATA
  5
205
102
{ACAD_REACTORS
330
204
102
}
330
204
100
TcOptionalData
 70
     2
 70
    32
 40
3.0
  0
TCOPTIONALDATA
  5
208
102
{ACAD_REACTORS
330
207
102
}
330
207
100
TcOptionalData
 70
     2
 70
    32
 40
3.0
  0
TCOPTIONALDATA
  5
20B
102
{ACAD_REACTORS
330
20A
102
}
330
20A
100
TcOptionalData
 70
     2
 70
    32
 40
3.0
  0
TCOPTIONALDATA
  5
20E
102
{ACAD_REACTORS
330
20D
102
}
330
20D
100
TcOptionalData
 70
     2
 70
    32
 40
3.0
  0
TCOPTIONALDATA
  5
214
102
{ACAD_REACTORS
330
213
102
}
330
213
100
TcOptionalData
 70
     2
 70
    32
 40
4.0
  0
TCOPTIONALDATA
  5
217
102
{ACAD_REACTORS
330
216
102
}
330
216
100
TcOptionalData
 70
     2
 70
    32
 40
4.0
  0
TCOPTIONALDATA
  5
21A
102
{ACAD_REACTORS
330
219
102
}
330
219
100
TcOptionalData
 70
     2
 70
     2
 10
234.6622782306242
 20
310.454598834044
 30
0.0
  0
TCOPTIONALDATA
  5
224
102
{ACAD_REACTORS
330
223
102
}
330
223
100
TcOptionalData
 70
     2
 70
    32
 40
4.0
  0
TCOPTIONALDATA
  5
227
102
{ACAD_REACTORS
330
226
102
}
330
226
100
TcOptionalData
 70
     2
 70
    32
 40
4.0
  0
TCOPTIONALDATA
  5
22A
102
{ACAD_REACTORS
330
229
102
}
330
229
100
TcOptionalData
 70
     2
 70
     2
 10
206.6651256049504
 20
329.589924870501
 30
0.0
  0
TCOPTIONALDATA
  5
22F
102
{ACAD_REACTORS
330
22E
102
}
330
22E
100
TcOptionalData
 70
     2
 70
    32
 40
4.0
  0
TCOPTIONALDATA
  5
232
102
{ACAD_REACTORS
330
231
102
}
330
231
100
TcOptionalData
 70
     2
 70
    32
 40
4.0
  0
TCOPTIONALDATA
  5
23A
102
{ACAD_REACTORS
330
239
102
}
330
239
100
TcOptionalData
 70
     2
 70
    32
 40
4.0
  0
TCOPTIONALDATA
  5
23D
102
{ACAD_REACTORS
330
23C
102
}
330
23C
100
TcOptionalData
 70
     2
 70
    32
 40
4.0
  0
TCOPTIONALDATA
  5
240
102
{ACAD_REACTORS
330
23F
102
}
330
23F
100
TcOptionalData
 70
     2
 70
     2
 10
243.1547748199827
 20
288.3116966145662
 30
0.0
  0
TCOPTIONALDATA
  5
245
102
{ACAD_REACTORS
330
244
102
}
330
244
100
TcOptionalData
 70
     2
 70
    32
 40
4.0
  0
TCOPTIONALDATA
  5
248
102
{ACAD_REACTORS
330
247
102
}
330
247
100
TcOptionalData
 70
     2
 70
    32
 40
4.0
  0
TCOPTIONALDATA
  5
250
102
{ACAD_REACTORS
330
24F
102
}
330
24F
100
TcOptionalData
 70
     2
 70
    32
 40
4.0
  0
TCOPTIONALDATA
  5
253
102
{ACAD_REACTORS
330
252
102
}
330
252
100
TcOptionalData
 70
     2
 70
    32
 40
4.0
  0
TCOPTIONALDATA
  5
256
102
{ACAD_REACTORS
330
255
102
}
330
255
100
TcOptionalData
 70
     2
 70
    32
 40
4.0
  0
TCOPTIONALDATA
  5
259
102
{ACAD_REACTORS
330
258
102
}
330
258
100
TcOptionalData
 70
     2
 70
    32
 40
4.0
  0
TCOPTIONALDATA
  5
260
102
{ACAD_REACTORS
330
25F
102
}
330
25F
100
TcOptionalData
 70
     2
 70
     2
 10
301.7858280685389
 20
267.6461500687623
 30
0.0
  0
TCOPTIONALDATA
  5
269
102
{ACAD_REACTORS
330
268
102
}
330
268
100
TcOptionalData
 70
     2
 70
    32
 40
4.0
  0
TCOPTIONALDATA
  5
26C
102
{ACAD_REACTORS
330
26B
102
}
330
26B
100
TcOptionalData
 70
     2
 70
    32
 40
4.0
  0
TCOPTIONALDATA
  5
26F
102
{ACAD_REACTORS
330
26E
102
}
330
26E
100
TcOptionalData
 70
     2
 70
    32
 40
4.0
  0
TCOPTIONALDATA
  5
272
102
{ACAD_REACTORS
330
271
102
}
330
271
100
TcOptionalData
 70
     2
 70
    32
 40
4.0
  0
TCOPTIONALDATA
  5
279
102
{ACAD_REACTORS
330
278
102
}
330
278
100
TcOptionalData
 70
     2
 70
     2
 10
272.2886187511043
 20
251.1562223962941
 30
0.0
  0
TCOPTIONALDATA
  5
282
102
{ACAD_REACTORS
330
281
102
}
330
281
100
TcOptionalData
 70
     2
 70
    32
 40
4.0
  0
TCOPTIONALDATA
  5
285
102
{ACAD_REACTORS
330
284
102
}
330
284
100
TcOptionalData
 70
     2
 70
    32
 40
4.0
  0
TCOPTIONALDATA
  5
288
102
{ACAD_REACTORS
330
287
102
}
330
287
100
TcOptionalData
 70
     2
 70
    32
 40
4.0
  0
TCOPTIONALDATA
  5
28B
102
{ACAD_REACTORS
330
28A
102
}
330
28A
100
TcOptionalData
 70
     2
 70
    32
 40
4.0
  0
TCOPTIONALDATA
  5
292
102
{ACAD_REACTORS
330
291
102
}
330
291
100
TcOptionalData
 70
     2
 70
     2
 10
344.5337911164573
 20
251.1562223962943
 30
0.0
  0
TCOPTIONALDATA
  5
29B
102
{ACAD_REACTORS
330
29A
102
}
330
29A
100
TcOptionalData
 70
     2
 70
    32
 40
4.0
  0
TCOPTIONALDATA
  5
29E
102
{ACAD_REACTORS
330
29D
102
}
330
29D
100
TcOptionalData
 70
     2
 70
    32
 40
4.0
  0
TCOPTIONALDATA
  5
2A1
102
{ACAD_REACTORS
330
2A0
102
}
330
2A0
100
TcOptionalData
 70
     2
 70
    32
 40
4.0
  0
TCOPTIONALDATA
  5
2A4
102
{ACAD_REACTORS
330
2A3
102
}
330
2A3
100
TcOptionalData
 70
     2
 70
    32
 40
4.0
  0
TCOPTIONALDATA
  5
2AB
102
{ACAD_REACTORS
330
2AA
102
}
330
2AA
100
TcOptionalData
 70
     2
 70
     2
 10
290.222949311456
 20
315.7649019681347
 30
0.0
  0
TCOPTIONALDATA
  5
2B2
102
{ACAD_REACTORS
330
2B1
102
}
330
2B1
100
TcOptionalData
 70
     2
 70
    32
 40
-0.0098425196483731
  0
TCOPTIONALDATA
  5
2B5
102
{ACAD_REACTORS
330
2B4
102
}
330
2B4
100
TcOptionalData
 70
     2
 70
    32
 40
-0.0098425196483731
  0
TCOPTIONALDATA
  5
2B8
102
{ACAD_REACTORS
330
2B7
102
}
330
2B7
100
TcOptionalData
 70
     2
 70
    32
 40
-0.0098425196483731
  0
TCOPTIONALDATA
  5
2BB
102
{ACAD_REACTORS
330
2BA
102
}
330
2BA
100
TcOptionalData
 70
     2
 70
    32
 40
-0.0098425196483731
  0
TCOPTIONALDATA
  5
2BE
102
{ACAD_REACTORS
330
2BD
102
}
330
2BD
100
TcOptionalData
 70
     2
 70
    32
 40
-0.0098425196483731
  0
TCOPTIONALDATA
  5
2C1
102
{ACAD_REACTORS
330
2C0
102
}
330
2C0
100
TcOptionalData
 70
     2
 70
    32
 40
-0.0098425196483731
  0
TCOPTIONALDATA
  5
2C4
102
{ACAD_REACTORS
330
2C3
102
}
330
2C3
100
TcOptionalData
 70
     2
 70
    32
 40
-0.0098425196483731
  0
TCOPTIONALDATA
  5
2C7
102
{ACAD_REACTORS
330
2C6
102
}
330
2C6
100
TcOptionalData
 70
     2
 70
    32
 40
-0.0098425196483731
  0
TCOPTIONALDATA
  5
2CA
102
{ACAD_REACTORS
330
2C9
102
}
330
2C9
100
TcOptionalData
 70
     2
 70
    32
 40
-0.0098425196483731
  0
TCOPTIONALDATA
  5
2CD
102
{ACAD_REACTORS
330
2CC
102
}
330
2CC
100
TcOptionalData
 70
     2
 70
    32
 40
-0.0098425196483731
  0
TCOPTIONALDATA
  5
2D0
102
{ACAD_REACTORS
330
2CF
102
}
330
2CF
100
TcOptionalData
 70
     2
 70
    32
 40
-0.0098425196483731
  0
TCOPTIONALDATA
  5
2D3
102
{ACAD_REACTORS
330
2D2
102
}
330
2D2
100
TcOptionalData
 70
     2
 70
    32
 40
-0.0098425196483731
  0
TCOPTIONALDATA
  5
2D6
102
{ACAD_REACTORS
330
2D5
102
}
330
2D5
100
TcOptionalData
 70
     2
 70
    32
 40
-0.0098425196483731
  0
TCOPTIONALDATA
  5
2D9
102
{ACAD_REACTORS
330
2D8
102
}
330
2D8
100
TcOptionalData
 70
     2
 70
    32
 40
-0.0098425196483731
  0
TCOPTIONALDATA
  5
2DC
102
{ACAD_REACTORS
330
2DB
102
}
330
2DB
100
TcOptionalData
 70
     2
 70
    32
 40
-0.0098425196483731
  0
TCOPTIONALDATA
  5
2DF
102
{ACAD_REACTORS
330
2DE
102
}
330
2DE
100
TcOptionalData
 70
     2
 70
    32
 40
-0.0098425196483731
  0
TCOPTIONALDATA
  5
2E2
102
{ACAD_REACTORS
330
2E1
102
}
330
2E1
100
TcOptionalData
 70
     2
 70
    32
 40
-0.0098425196483731
  0
TCOPTIONALDATA
  5
2E5
102
{ACAD_REACTORS
330
2E4
102
}
330
2E4
100
TcOptionalData
 70
     2
 70
    32
 40
-0.0098425196483731
  0
TCOPTIONALDATA
  5
2E8
102
{ACAD_REACTORS
330
2E7
102
}
330
2E7
100
TcOptionalData
 70
     2
 70
    32
 40
-0.0098425196483731
  0
TCOPTIONALDATA
  5
2EB
102
{ACAD_REACTORS
330
2EA
102
}
330
2EA
100
TcOptionalData
 70
     2
 70
    32
 40
-0.0098425196483731
  0
TCOPTIONALDATA
  5
2EE
102
{ACAD_REACTORS
330
2ED
102
}
330
2ED
100
TcOptionalData
 70
     2
 70
    32
 40
-0.0098425196483731
  0
TCOPTIONALDATA
  5
2F1
102
{ACAD_REACTORS
330
2F0
102
}
330
2F0
100
TcOptionalData
 70
     2
 70
    32
 40
-0.0098425196483731
  0
TCOPTIONALDATA
  5
2F4
102
{ACAD_REACTORS
330
2F3
102
}
330
2F3
100
TcOptionalData
 70
     2
 70
    32
 40
-0.0098425196483731
  0
TCOPTIONALDATA
  5
2F7
102
{ACAD_REACTORS
330
2F6
102
}
330
2F6
100
TcOptionalData
 70
     2
 70
    32
 40
-0.0098425196483731
  0
TCOPTIONALDATA
  5
2FA
102
{ACAD_REACTORS
330
2F9
102
}
330
2F9
100
TcOptionalData
 70
     2
 70
    32
 40
-0.0098425196483731
  0
TCOPTIONALDATA
  5
2FD
102
{ACAD_REACTORS
330
2FC
102
}
330
2FC
100
TcOptionalData
 70
     2
 70
    32
 40
-0.0098425196483731
  0
TCOPTIONALDATA
  5
300
102
{ACAD_REACTORS
330
2FF
102
}
330
2FF
100
TcOptionalData
 70
     2
 70
    32
 40
-0.0098425196483731
  0
TCOPTIONALDATA
  5
303
102
{ACAD_REACTORS
330
302
102
}
330
302
100
TcOptionalData
 70
     2
 70
    32
 40
-0.0098425196483731
  0
TCOPTIONALDATA
  5
306
102
{ACAD_REACTORS
330
305
102
}
330
305
100
TcOptionalData
 70
     2
 70
    32
 40
-0.0098425196483731
  0
TCOPTIONALDATA
  5
309
102
{ACAD_REACTORS
330
308
102
}
330
308
100
TcOptionalData
 70
     2
 70
    32
 40
3.0
  0
TCOPTIONALDATA
  5
315
102
{ACAD_REACTORS
330
314
102
}
330
314
100
TcOptionalData
 70
     2
 70
    32
 40
3.0
  0
TCOPTIONALDATA
  5
323
102
{ACAD_REACTORS
330
322
102
}
330
322
100
TcOptionalData
 70
     2
 70
    32
 40
3.0
  0
TCOPTIONALDATA
  5
333
102
{ACAD_REACTORS
330
332
102
}
330
332
100
TcOptionalData
 70
     2
 70
    32
 40
-0.0070866141468287
  0
TCOPTIONALDATA
  5
336
102
{ACAD_REACTORS
330
335
102
}
330
335
100
TcOptionalData
 70
     2
 70
    32
 40
-0.0070866141468287
  0
TCOPTIONALDATA
  5
33B
102
{ACAD_REACTORS
330
33A
102
}
330
33A
100
TcOptionalData
 70
     2
 70
    32
 40
-0.0070866141468287
  0
TCOPTIONALDATA
  5
340
102
{ACAD_REACTORS
330
33F
102
}
330
33F
100
TcOptionalData
 70
     2
 70
     2
 10
159.0780631531326
 20
181.2144707586582
 30
0.0
  0
TCOPTIONALDATA
  5
343
102
{ACAD_REACTORS
330
342
102
}
330
342
100
TcOptionalData
 70
     2
 70
    32
 40
-0.0098425196483731
  0
TCOPTIONALDATA
  5
346
102
{ACAD_REACTORS
330
345
102
}
330
345
100
TcOptionalData
 70
     2
 70
    32
 40
-0.0098425196483731
  0
TCOPTIONALDATA
  5
349
102
{ACAD_REACTORS
330
348
102
}
330
348
100
TcOptionalData
 70
     2
 70
    32
 40
-0.0098425196483731
  0
TCOPTIONALDATA
  5
34C
102
{ACAD_REACTORS
330
34B
102
}
330
34B
100
TcOptionalData
 70
     2
 70
    32
 40
-0.0098425196483731
  0
TCOPTIONALDATA
  5
34F
102
{ACAD_REACTORS
330
34E
102
}
330
34E
100
TcOptionalData
 70
     2
 70
    32
 40
-0.0098425196483731
  0
TCOPTIONALDATA
  5
352
102
{ACAD_REACTORS
330
351
102
}
330
351
100
TcOptionalData
 70
     2
 70
    32
 40
-0.0098425196483731
  0
TCOPTIONALDATA
  5
355
102
{ACAD_REACTORS
330
354
102
}
330
354
100
TcOptionalData
 70
     2
 70
    32
 40
-0.0098425196483731
  0
TCOPTIONALDATA
  5
358
102
{ACAD_REACTORS
330
357
102
}
330
357
100
TcOptionalData
 70
     2
 70
    32
 40
-0.0098425196483731
  0
TCOPTIONALDATA
  5
35B
102
{ACAD_REACTORS
330
35A
102
}
330
35A
100
TcOptionalData
 70
     2
 70
    32
 40
-0.0098425196483731
  0
TCOPTIONALDATA
  5
35E
102
{ACAD_REACTORS
330
35D
102
}
330
35D
100
TcOptionalData
 70
     2
 70
    32
 40
-0.0098425196483731
  0
TCOPTIONALDATA
  5
361
102
{ACAD_REACTORS
330
360
102
}
330
360
100
TcOptionalData
 70
     2
 70
    32
 40
-0.0098425196483731
  0
TCOPTIONALDATA
  5
364
102
{ACAD_REACTORS
330
363
102
}
330
363
100
TcOptionalData
 70
     2
 70
    32
 40
-0.0098425196483731
  0
TCOPTIONALDATA
  5
367
102
{ACAD_REACTORS
330
366
102
}
330
366
100
TcOptionalData
 70
     2
 70
    32
 40
-0.0098425196483731
  0
TCOPTIONALDATA
  5
36A
102
{ACAD_REACTORS
330
369
102
}
330
369
100
TcOptionalData
 70
     2
 70
    32
 40
-0.0098425196483731
  0
TCOPTIONALDATA
  5
36D
102
{ACAD_REACTORS
330
36C
102
}
330
36C
100
TcOptionalData
 70
     2
 70
    32
 40
-0.0098425196483731
  0
TCOPTIONALDATA
  5
370
102
{ACAD_REACTORS
330
36F
102
}
330
36F
100
TcOptionalData
 70
     2
 70
    32
 40
-0.0098425196483731
  0
TCOPTIONALDATA
  5
373
102
{ACAD_REACTORS
330
372
102
}
330
372
100
TcOptionalData
 70
     2
 70
    32
 40
-0.0098425196483731
  0
TCOPTIONALDATA
  5
376
102
{ACAD_REACTORS
330
375
102
}
330
375
100
TcOptionalData
 70
     2
 70
    32
 40
-0.0098425196483731
  0
TCOPTIONALDATA
  5
379
102
{ACAD_REACTORS
330
378
102
}
330
378
100
TcOptionalData
 70
     2
 70
    32
 40
-0.0098425196483731
  0
TCOPTIONALDATA
  5
37C
102
{ACAD_REACTORS
330
37B
102
}
330
37B
100
TcOptionalData
 70
     2
 70
    32
 40
-0.0098425196483731
  0
TCOPTIONALDATA
  5
37F
102
{ACAD_REACTORS
330
37E
102
}
330
37E
100
TcOptionalData
 70
     2
 70
    32
 40
-0.0098425196483731
  0
TCOPTIONALDATA
  5
382
102
{ACAD_REACTORS
330
381
102
}
330
381
100
TcOptionalData
 70
     2
 70
    32
 40
-0.0098425196483731
  0
TCOPTIONALDATA
  5
385
102
{ACAD_REACTORS
330
384
102
}
330
384
100
TcOptionalData
 70
     2
 70
    32
 40
-0.0098425196483731
  0
TCOPTIONALDATA
  5
388
102
{ACAD_REACTORS
330
387
102
}
330
387
100
TcOptionalData
 70
     2
 70
    32
 40
-0.0098425196483731
  0
TCOPTIONALDATA
  5
38B
102
{ACAD_REACTORS
330
38A
102
}
330
38A
100
TcOptionalData
 70
     2
 70
    32
 40
-0.0098425196483731
  0
TCOPTIONALDATA
  5
38E
102
{ACAD_REACTORS
330
38D
102
}
330
38D
100
TcOptionalData
 70
     2
 70
    32
 40
-0.0098425196483731
  0
TCOPTIONALDATA
  5
391
102
{ACAD_REACTORS
330
390
102
}
330
390
100
TcOptionalData
 70
     2
 70
    32
 40
-0.0098425196483731
  0
TCOPTIONALDATA
  5
394
102
{ACAD_REACTORS
330
393
102
}
330
393
100
TcOptionalData
 70
     2
 70
    32
 40
-0.0098425196483731
  0
TCOPTIONALDATA
  5
397
102
{ACAD_REACTORS
330
396
102
}
330
396
100
TcOptionalData
 70
     2
 70
    32
 40
-0.0098425196483731
  0
TCOPTIONALDATA
  5
39A
102
{ACAD_REACTORS
330
399
102
}
330
399
100
TcOptionalData
 70
     2
 70
    32
 40
-0.0098425196483731
  0
TCOPTIONALDATA
  5
39D
102
{ACAD_REACTORS
330
39C
102
}
330
39C
100
TcOptionalData
 70
     2
 70
    32
 40
-0.0098425196483731
  0
TCOPTIONALDATA
  5
3A0
102
{ACAD_REACTORS
330
39F
102
}
330
39F
100
TcOptionalData
 70
     2
 70
    32
 40
-0.0098425196483731
  0
TCOPTIONALDATA
  5
3A3
102
{ACAD_REACTORS
330
3A2
102
}
330
3A2
100
TcOptionalData
 70
     2
 70
    32
 40
-0.0098425196483731
  0
TCOPTIONALDATA
  5
3A6
102
{ACAD_REACTORS
330
3A5
102
}
330
3A5
100
TcOptionalData
 70
     2
 70
    32
 40
-0.0098425196483731
  0
TCOPTIONALDATA
  5
3A9
102
{ACAD_REACTORS
330
3A8
102
}
330
3A8
100
TcOptionalData
 70
     2
 70
    32
 40
-0.0098425196483731
  0
TCOPTIONALDATA
  5
3AC
102
{ACAD_REACTORS
330
3AB
102
}
330
3AB
100
TcOptionalData
 70
     2
 70
    32
 40
-0.0098425196483731
  0
TCOPTIONALDATA
  5
3B2
102
{ACAD_REACTORS
330
3B1
102
}
330
3B1
100
TcOptionalData
 70
     2
 70
    32
 40
3.0
  0
TCOPTIONALDATA
  5
3C3
102
{ACAD_REACTORS
330
3C2
102
}
330
3C2
100
TcOptionalData
 70
     2
 70
    32
 40
3.0
  0
TCOPTIONALDATA
  5
3D3
102
{ACAD_REACTORS
330
3D2
102
}
330
3D2
100
TcOptionalData
 70
     2
 70
    32
 40
3.0
  0
TCOPTIONALDATA
  5
3E3
102
{ACAD_REACTORS
330
3E2
102
}
330
3E2
100
TcOptionalData
 70
     2
 70
    32
 40
3.0
  0
TCOPTIONALDATA
  5
3F4
102
{ACAD_REACTORS
330
3F3
102
}
330
3F3
100
TcOptionalData
 70
     2
 70
     2
 10
316.7539236054433
 20
178.6503446662287
 30
0.0
  0
TCOPTIONALDATA
  5
3F7
102
{ACAD_REACTORS
330
3F6
102
}
330
3F6
100
TcOptionalData
 70
     2
 70
    32
 40
-0.0070866141468287
  0
TCOPTIONALDATA
  5
3FA
102
{ACAD_REACTORS
330
3F9
102
}
330
3F9
100
TcOptionalData
 70
     2
 70
     2
 10
159.0780631531326
 20
321.7621496488754
 30
0.0
  0
TCOPTIONALDATA
  5
3FD
102
{ACAD_REACTORS
330
3FC
102
}
330
3FC
100
TcOptionalData
 70
     2
 70
    32
 40
3.0
  0
LAYOUT
  5
152
102
{ACAD_REACTORS
330
1A
102
}
330
1A
100
AcDbPlotSettings
  1

  2
TCAD_Plot
  4
420.00 x 297.00 Inches
  6

 40
6.35
 41
6.35
 42
6.35000508
 43
6.35000508
 44
10668.0
 45
7543.799999999999
 46
0.0
 47
0.0
 48
0.0
 49
0.0
140
0.0
141
0.0
142
1.0
143
1.0
 70
   672
 72
     0
 73
     0
 74
     5
  7

 75
    16
 76
     0
 77
     2
 78
   300
147
1.0
148
-6.35
149
-6.35
100
AcDbLayout
  1
Layout1
 70
     1
 71
     1
 10
0.0
 20
0.0
 11
420.0
 21
297.0
 12
0.0
 22
0.0
 32
0.0
 14
0.0
 24
0.0
 34
0.0
 15
0.0
 25
0.0
 35
0.0
146
0.0
 13
0.0
 23
0.0
 33
0.0
 16
1.0
 26
0.0
 36
0.0
 17
0.0
 27
1.0
 37
0.0
 76
     0
330
151
331
40B
  0
LAYOUT
  5
1E
102
{ACAD_REACTORS
330
1A
102
}
330
1A
100
AcDbPlotSettings
  1

  2
TCAD_Plot
  4
279.40 x 215.90 Inches
  6

 40
0.0
 41
0.0
 42
0.0
 43
0.0
 44
7096.759893328601
 45
5483.8599175721
 46
0.0
 47
0.0
 48
0.0
 49
0.0
140
0.0
141
0.0
142
1.0
143
1.0
 70
   672
 72
     0
 73
     0
 74
     5
  7

 75
    16
 76
     0
 77
     2
 78
   300
147
1.0
148
0.0
149
0.0
100
AcDbLayout
  1
Layout2
 70
     1
 71
     2
 10
0.0
 20
0.0
 11
0.0
 21
0.0
 12
0.0
 22
0.0
 32
0.0
 14
0.0
 24
0.0
 34
0.0
 15
0.0
 25
0.0
 35
0.0
146
0.0
 13
0.0
 23
0.0
 33
0.0
 16
1.0
 26
0.0
 36
0.0
 17
0.0
 27
1.0
 37
0.0
 76
     0
330
1B
331
40C
  0
LAYOUT
  5
22
102
{ACAD_REACTORS
330
1A
102
}
330
1A
100
AcDbPlotSettings
  1

  2
TCAD_Plot
  4
279.40 x 215.90 Inches
  6

 40
0.0
 41
0.0
 42
0.0
 43
0.0
 44
7096.759893328601
 45
5483.8599175721
 46
0.0
 47
0.0
 48
-338.6565439096535
 49
-261.6891475665504
140
338.6565439096535
141
261.6891475665504
142
1.0
143
2.42417
 70
  1696
 72
     0
 73
     0
 74
     4
  7

 75
     0
 76
     0
 77
     2
 78
   300
147
0.5672044594129128
148
8601.876215305198
149
6646.904348190379
100
AcDbLayout
  1
Model
 70
     1
 71
     0
 10
-261.6891414091587
 20
-119.7587119816502
 11
415.6239464101483
 21
403.6195831514506
 12
0.0
 22
0.0
 32
0.0
 14
121.248034450681
 24
172.4434478843073
 34
0.0
 15
352.098446569424
 25
329.0119307225665
 35
0.0
146
0.0
 13
0.0
 23
0.0
 33
0.0
 16
1.0
 26
0.0
 36
0.0
 17
0.0
 27
1.0
 37
0.0
 76
     0
330
1F
331
29
  0
MATERIAL
  5
3D
102
{ACAD_REACTORS
330
3B
102
}
330
3B
100
AcDbMaterial
  1
ByBlock
 72
     1
 94
      127
  0
MATERIAL
  5
3C
102
{ACAD_REACTORS
330
3B
102
}
330
3B
100
AcDbMaterial
  1
ByLayer
 72
     1
 94
      127
  0
MATERIAL
  5
3E
102
{ACAD_REACTORS
330
3B
102
}
330
3B
100
AcDbMaterial
  1
Global
 72
     1
 94
      127
  0
MLEADERSTYLE
  5
16A
102
{ACAD_REACTORS
330
169
102
}
330
169
100
AcDbMLeaderStyle
179
     2
170
     2
171
     1
172
     0
 90
        2
 40
0.0
 41
0.0
173
     1
 91
-1056964608
340
14
 92
       -2
290
     1
 42
0.25
291
     1
 43
0.25
  3

341
0
 44
0.25
300

342
11
174
     1
178
     1
175
     1
176
     0
 93
-1056964608
 45
0.1611111111111111
292
     0
297
     0
 46
0.18
343
0
 94
-1056964608
 47
1.0
 49
1.0
140
1.0
293
     1
141
0.0
294
     1
177
     0
142
1.0
295
     0
296
     0
143
0.125
271
     0
272
     9
273
     9
1001
ACAD_MLEADERVER
1070
     2
  0
MLINESTYLE
  5
18
102
{ACAD_REACTORS
330
17
102
}
330
17
100
AcDbMlineStyle
  2
Standard
 70
     0
  3

 62
     0
 51
90.0
 52
90.0
 71
     2
 49
0.5
 62
   256
  6
BYLAYER
 49
-0.5
 62
   256
  6
BYLAYER
  0
ACDBPLACEHOLDER
  5
F
102
{ACAD_REACTORS
330
E
102
}
330
E
  0
SCALE
  5
40E
102
{ACAD_REACTORS
330
40D
102
}
330
40D
100
AcDbScale
 70
     0
300
1:1
140
1.0
141
1.0
290
     1
  0
SCALE
  5
40F
102
{ACAD_REACTORS
330
40D
102
}
330
40D
100
AcDbScale
 70
     0
300
1:2
140
1.0
141
2.0
290
     0
  0
SCALE
  5
410
102
{ACAD_REACTORS
330
40D
102
}
330
40D
100
AcDbScale
 70
     0
300
1:4
140
1.0
141
4.0
290
     0
  0
SCALE
  5
411
102
{ACAD_REACTORS
330
40D
102
}
330
40D
100
AcDbScale
 70
     0
300
1:5
140
1.0
141
5.0
290
     0
  0
SCALE
  5
412
102
{ACAD_REACTORS
330
40D
102
}
330
40D
100
AcDbScale
 70
     0
300
1:8
140
1.0
141
8.0
290
     0
  0
SCALE
  5
413
102
{ACAD_REACTORS
330
40D
102
}
330
40D
100
AcDbScale
 70
     0
300
1:10
140
1.0
141
10.0
290
     0
  0
SCALE
  5
414
102
{ACAD_REACTORS
330
40D
102
}
330
40D
100
AcDbScale
 70
     0
300
1:16
140
1.0
141
16.0
290
     0
  0
SCALE
  5
415
102
{ACAD_REACTORS
330
40D
102
}
330
40D
100
AcDbScale
 70
     0
300
1:20
140
1.0
141
20.0
290
     0
  0
SCALE
  5
416
102
{ACAD_REACTORS
330
40D
102
}
330
40D
100
AcDbScale
 70
     0
300
1:30
140
1.0
141
30.0
290
     0
  0
SCALE
  5
417
102
{ACAD_REACTORS
330
40D
102
}
330
40D
100
AcDbScale
 70
     0
300
1:40
140
1.0
141
40.0
290
     0
  0
SCALE
  5
418
102
{ACAD_REACTORS
330
40D
102
}
330
40D
100
AcDbScale
 70
     0
300
1:50
140
1.0
141
50.0
290
     0
  0
SCALE
  5
419
102
{ACAD_REACTORS
330
40D
102
}
330
40D
100
AcDbScale
 70
     0
300
1:100
140
1.0
141
100.0
290
     0
  0
SCALE
  5
41A
102
{ACAD_REACTORS
330
40D
102
}
330
40D
100
AcDbScale
 70
     0
300
2:1
140
2.0
141
1.0
290
     0
  0
SCALE
  5
41B
102
{ACAD_REACTORS
330
40D
102
}
330
40D
100
AcDbScale
 70
     0
300
4:1
140
4.0
141
1.0
290
     0
  0
SCALE
  5
41C
102
{ACAD_REACTORS
330
40D
102
}
330
40D
100
AcDbScale
 70
     0
300
8:1
140
8.0
141
1.0
290
     0
  0
SCALE
  5
41D
102
{ACAD_REACTORS
330
40D
102
}
330
40D
100
AcDbScale
 70
     0
300
10:1
140
10.0
141
1.0
290
     0
  0
SCALE
  5
41E
102
{ACAD_REACTORS
330
40D
102
}
330
40D
100
AcDbScale
 70
     0
300
100:1
140
100.0
141
1.0
290
     0
  0
SCALE
  5
41F
102
{ACAD_REACTORS
330
40D
102
}
330
40D
100
AcDbScale
 70
     0
300
1/128" = 1'-0"
140
0.0078125
141
12.0
290
     0
  0
SCALE
  5
420
102
{ACAD_REACTORS
330
40D
102
}
330
40D
100
AcDbScale
 70
     0
300
1/64" = 1'-0"
140
0.015625
141
12.0
290
     0
  0
SCALE
  5
421
102
{ACAD_REACTORS
330
40D
102
}
330
40D
100
AcDbScale
 70
     0
300
1/32" = 1'-0"
140
0.03125
141
12.0
290
     0
  0
SCALE
  5
422
102
{ACAD_REACTORS
330
40D
102
}
330
40D
100
AcDbScale
 70
     0
300
1/16" = 1'-0"
140
0.0625
141
12.0
290
     0
  0
SCALE
  5
423
102
{ACAD_REACTORS
330
40D
102
}
330
40D
100
AcDbScale
 70
     0
300
3/32" = 1'-0"
140
0.09375
141
12.0
290
     0
  0
SCALE
  5
424
102
{ACAD_REACTORS
330
40D
102
}
330
40D
100
AcDbScale
 70
     0
300
1/8" = 1'-0"
140
0.125
141
12.0
290
     0
  0
SCALE
  5
425
102
{ACAD_REACTORS
330
40D
102
}
330
40D
100
AcDbScale
 70
     0
300
3/16" = 1'-0"
140
0.1875
141
12.0
290
     0
  0
SCALE
  5
426
102
{ACAD_REACTORS
330
40D
102
}
330
40D
100
AcDbScale
 70
     0
300
1/4" = 1'-0"
140
0.25
141
12.0
290
     0
  0
SCALE
  5
427
102
{ACAD_REACTORS
330
40D
102
}
330
40D
100
AcDbScale
 70
     0
300
3/8" = 1'-0"
140
0.375
141
12.0
290
     0
  0
SCALE
  5
428
102
{ACAD_REACTORS
330
40D
102
}
330
40D
100
AcDbScale
 70
     0
300
1/2" = 1'-0"
140
0.5
141
12.0
290
     0
  0
SCALE
  5
429
102
{ACAD_REACTORS
330
40D
102
}
330
40D
100
AcDbScale
 70
     0
300
3/4" = 1'-0"
140
0.75
141
12.0
290
     0
  0
SCALE
  5
42A
102
{ACAD_REACTORS
330
40D
102
}
330
40D
100
AcDbScale
 70
     0
300
1" = 1'-0"
140
1.0
141
12.0
290
     0
  0
SCALE
  5
42B
102
{ACAD_REACTORS
330
40D
102
}
330
40D
100
AcDbScale
 70
     0
300
1-1/2" = 1'-0"
140
1.5
141
12.0
290
     0
  0
SCALE
  5
42C
102
{ACAD_REACTORS
330
40D
102
}
330
40D
100
AcDbScale
 70
     0
300
3" = 1'-0"
140
3.0
141
12.0
290
     0
  0
SCALE
  5
42D
102
{ACAD_REACTORS
330
40D
102
}
330
40D
100
AcDbScale
 70
     0
300
6" = 1'-0"
140
6.0
141
12.0
290
     0
  0
SCALE
  5
42E
102
{ACAD_REACTORS
330
40D
102
}
330
40D
100
AcDbScale
 70
     0
300
1'-0" = 1'-0"
140
12.0
141
12.0
290
     0
  0
TABLESTYLE
  5
179
102
{ACAD_REACTORS
330
178
102
}
102
{ACAD_XDICTIONARY
360
431
102
}
330
178
100
AcDbTableStyle
  3

 70
     0
 71
     0
 40
1.5
 41
1.5
280
     0
281
     0
  7
Standard
140
4.5
170
     2
 62
     0
 63
   257
283
     0
 90
        4
 91
        0
  1

274
    -2
284
     1
 64
     0
275
    -2
285
     1
 65
     0
276
    -2
286
     1
 66
     0
277
    -2
287
     1
 67
     0
278
    -2
288
     1
 68
     0
279
    -2
289
     1
 69
     0
  7
Standard
140
6.0
170
     5
 62
     0
 63
   257
283
     0
 90
        4
 91
        0
  1

274
    -2
284
     1
 64
     0
275
    -2
285
     1
 65
     0
276
    -2
286
     1
 66
     0
277
    -2
287
     1
 67
     0
278
    -2
288
     1
 68
     0
279
    -2
289
     1
 69
     0
  7
Standard
140
4.5
170
     5
 62
     0
 63
   257
283
     0
 90
        4
 91
        0
  1

274
    -2
284
     1
 64
     0
275
    -2
285
     1
 65
     0
276
    -2
286
     1
 66
     0
277
    -2
287
     1
 67
     0
278
    -2
288
     1
 68
     0
279
    -2
289
     1
 69
     0
  0
VISUALSTYLE
  5
2F
102
{ACAD_REACTORS
330
2A
102
}
330
2A
100
AcDbVisualStyle
  2
2dWireframe
 70
     4
177
     2
291
     0
 71
     0
176
     1
 72
     2
176
     1
 73
     0
176
     1
 90
        0
176
     1
 40
-0.6
176
     1
 41
-30.0
176
     1
 62
     5
 63
     7
421
 16777215
176
     1
 74
     1
176
     1
 91
        4
176
     1
 64
     7
176
     1
 65
   257
176
     1
 75
     1
176
     1
175
     1
176
     1
 42
1.0
176
     1
 92
        0
176
     1
 66
   257
176
     1
 43
1.0
176
     1
 76
     1
176
     1
 77
     6
176
     1
 78
     2
176
     1
 67
     7
176
     1
 79
     5
176
     1
170
     0
176
     1
171
     0
176
     1
290
     0
176
     1
 93
        1
176
     1
 44
0.0
176
     1
173
     0
176
     1
  0
VISUALSTYLE
  5
31
102
{ACAD_REACTORS
330
2A
102
}
330
2A
100
AcDbVisualStyle
  2
3D Hidden
 70
     6
177
     2
291
     0
 71
     1
176
     1
 72
     2
176
     1
 73
     2
176
     1
 90
        0
176
     1
 40
-0.6
176
     1
 41
-30.0
176
     1
 62
     5
 63
     7
421
 16777215
176
     1
 74
     2
176
     1
 91
        2
176
     1
 64
     7
176
     1
 65
   257
176
     1
 75
     2
176
     1
175
     1
176
     1
 42
40.0
176
     1
 92
        0
176
     1
 66
   257
176
     1
 43
1.0
176
     1
 76
     1
176
     1
 77
     6
176
     1
 78
     2
176
     1
 67
     7
176
     1
 79
     3
176
     1
170
     0
176
     1
171
     0
176
     1
290
     0
176
     1
 93
        1
176
     1
 44
0.0
176
     1
173
     0
176
     1
  0
VISUALSTYLE
  5
30
102
{ACAD_REACTORS
330
2A
102
}
330
2A
100
AcDbVisualStyle
  2
3dWireframe
 70
     5
177
     2
291
     0
 71
     0
176
     1
 72
     2
176
     1
 73
     0
176
     1
 90
        0
176
     1
 40
-0.6
176
     1
 41
-30.0
176
     1
 62
     5
 63
     7
421
 16777215
176
     1
 74
     1
176
     1
 91
        4
176
     1
 64
     7
176
     1
 65
   257
176
     1
 75
     1
176
     1
175
     1
176
     1
 42
1.0
176
     1
 92
        0
176
     1
 66
   257
176
     1
 43
1.0
176
     1
 76
     1
176
     1
 77
     6
176
     1
 78
     2
176
     1
 67
     7
176
     1
 79
     5
176
     1
170
     0
176
     1
171
     0
176
     1
290
     0
176
     1
 93
        1
176
     1
 44
0.0
176
     1
173
     0
176
     1
  0
VISUALSTYLE
  5
32
102
{ACAD_REACTORS
330
2A
102
}
330
2A
100
AcDbVisualStyle
  2
Basic
 70
     7
177
     2
291
     1
 71
     1
176
     1
 72
     0
176
     1
 73
     1
176
     1
 90
        0
176
     1
 40
-0.6
176
     1
 41
-30.0
176
     1
 62
     5
 63
     7
421
 16777215
176
     1
 74
     0
176
     1
 91
        4
176
     1
 64
     7
176
     1
 65
   257
176
     1
 75
     1
176
     1
175
     1
176
     1
 42
1.0
176
     1
 92
        8
176
     1
 66
     7
176
     1
 43
1.0
176
     1
 76
     1
176
     1
 77
     6
176
     1
 78
     2
176
     1
 67
     7
176
     1
 79
     5
176
     1
170
     0
176
     1
171
     0
176
     1
290
     0
176
     1
 93
        1
176
     1
 44
0.0
176
     1
173
     0
176
     1
  0
VISUALSTYLE
  5
36
102
{ACAD_REACTORS
330
2A
102
}
330
2A
100
AcDbVisualStyle
  2
Brighten
 70
    12
177
     2
291
     1
 71
     2
176
     1
 72
     2
176
     1
 73
     0
176
     1
 90
        0
176
     1
 40
-0.6
176
     1
 41
-30.0
176
     1
 62
     5
 63
     7
421
 16777215
176
     1
 74
     1
176
     1
 91
        4
176
     1
 64
     7
176
     1
 65
   257
176
     1
 75
     1
176
     1
175
     1
176
     1
 42
1.0
176
     1
 92
        8
176
     1
 66
     7
176
     1
 43
1.0
176
     1
 76
     1
176
     1
 77
     6
176
     1
 78
     2
176
     1
 67
     7
176
     1
 79
     5
176
     1
170
     0
176
     1
171
     0
176
     1
290
     0
176
     1
 93
        1
176
     1
 44
50.0
176
     1
173
     0
176
     1
  0
VISUALSTYLE
  5
3A
102
{ACAD_REACTORS
330
2A
102
}
330
2A
100
AcDbVisualStyle
  2
ColorChange
 70
    16
177
     2
291
     1
 71
     2
176
     1
 72
     2
176
     1
 73
     3
176
     1
 90
        0
176
     1
 40
-0.6
176
     1
 41
-30.0
176
     1
 62
     5
 63
     8
421
  8421504
176
     1
 74
     1
176
     1
 91
        4
176
     1
 64
     7
176
     1
 65
   257
176
     1
 75
     1
176
     1
175
     1
176
     1
 42
1.0
176
     1
 92
        8
176
     1
 66
     8
424
  8421504
176
     1
 43
1.0
176
     1
 76
     1
176
     1
 77
     6
176
     1
 78
     2
176
     1
 67
     7
176
     1
 79
     5
176
     1
170
     0
176
     1
171
     0
176
     1
290
     0
176
     1
 93
        1
176
     1
 44
0.0
176
     1
173
     0
176
     1
  0
VISUALSTYLE
  5
34
102
{ACAD_REACTORS
330
2A
102
}
330
2A
100
AcDbVisualStyle
  2
Conceptual
 70
     9
177
     2
291
     0
 71
     3
176
     1
 72
     2
176
     1
 73
     0
176
     1
 90
        0
176
     1
 40
-0.6
176
     1
 41
-30.0
176
     1
 62
     5
 63
     7
421
 16777215
176
     1
 74
     2
176
     1
 91
        2
176
     1
 64
     7
176
     1
 65
   257
176
     1
 75
     1
176
     1
175
     1
176
     1
 42
40.0
176
     1
 92
        8
176
     1
 66
     7
176
     1
 43
1.0
176
     1
 76
     1
176
     1
 77
     6
176
     1
 78
     2
176
     1
 67
     7
176
     1
 79
     3
176
     1
170
     0
176
     1
171
     0
176
     1
290
     0
176
     1
 93
        1
176
     1
 44
0.0
176
     1
173
     0
176
     1
  0
VISUALSTYLE
  5
35
102
{ACAD_REACTORS
330
2A
102
}
330
2A
100
AcDbVisualStyle
  2
Dim
 70
    11
177
     2
291
     1
 71
     2
176
     1
 72
     2
176
     1
 73
     0
176
     1
 90
        0
176
     1
 40
-0.6
176
     1
 41
-30.0
176
     1
 62
     5
 63
     7
421
 16777215
176
     1
 74
     1
176
     1
 91
        4
176
     1
 64
     7
176
     1
 65
   257
176
     1
 75
     1
176
     1
175
     1
176
     1
 42
1.0
176
     1
 92
        8
176
     1
 66
     7
176
     1
 43
1.0
176
     1
 76
     1
176
     1
 77
     6
176
     1
 78
     2
176
     1
 67
     7
176
     1
 79
     5
176
     1
170
     0
176
     1
171
     0
176
     1
290
     0
176
     1
 93
        1
176
     1
 44
-50.0
176
     1
173
     0
176
     1
  0
VISUALSTYLE
  5
39
102
{ACAD_REACTORS
330
2A
102
}
330
2A
100
AcDbVisualStyle
  2
Facepattern
 70
    15
177
     2
291
     1
 71
     2
176
     1
 72
     2
176
     1
 73
     0
176
     1
 90
        0
176
     1
 40
-0.6
176
     1
 41
-30.0
176
     1
 62
     5
 63
     7
421
 16777215
176
     1
 74
     1
176
     1
 91
        4
176
     1
 64
     7
176
     1
 65
   257
176
     1
 75
     1
176
     1
175
     1
176
     1
 42
1.0
176
     1
 92
        8
176
     1
 66
     7
176
     1
 43
1.0
176
     1
 76
     1
176
     1
 77
     6
176
     1
 78
     2
176
     1
 67
     7
176
     1
 79
     5
176
     1
170
     0
176
     1
171
     0
176
     1
290
     0
176
     1
 93
        1
176
     1
 44
0.0
176
     1
173
     0
176
     1
  0
VISUALSTYLE
  5
2B
102
{ACAD_REACTORS
330
2A
102
}
330
2A
100
AcDbVisualStyle
  2
Flat
 70
     0
177
     2
291
     1
 71
     2
176
     1
 72
     1
176
     1
 73
     1
176
     1
 90
        2
176
     1
 40
-0.6
176
     1
 41
30.0
176
     1
 62
     5
 63
     7
421
 16777215
176
     1
 74
     0
176
     1
 91
        4
176
     1
 64
     7
176
     1
 65
   257
176
     1
 75
     1
176
     1
175
     1
176
     1
 42
1.0
176
     1
 92
        8
176
     1
 66
     7
176
     1
 43
1.0
176
     1
 76
     1
176
     1
 77
     6
176
     1
 78
     2
176
     1
 67
     7
176
     1
 79
     5
176
     1
170
     0
176
     1
171
     0
176
     1
290
     0
176
     1
 93
       13
176
     1
 44
0.0
176
     1
173
     0
176
     1
  0
VISUALSTYLE
  5
2C
102
{ACAD_REACTORS
330
2A
102
}
330
2A
100
AcDbVisualStyle
  2
FlatWithEdges
 70
     1
177
     2
291
     1
 71
     2
176
     1
 72
     1
176
     1
 73
     1
176
     1
 90
        2
176
     1
 40
-0.6
176
     1
 41
30.0
176
     1
 62
     5
 63
     7
421
 16777215
176
     1
 74
     1
176
     1
 91
        4
176
     1
 64
     7
176
     1
 65
   257
176
     1
 75
     1
176
     1
175
     1
176
     1
 42
1.0
176
     1
 92
        0
176
     1
 66
   257
176
     1
 43
1.0
176
     1
 76
     1
176
     1
 77
     6
176
     1
 78
     2
176
     1
 67
     7
176
     1
 79
     5
176
     1
170
     0
176
     1
171
     0
176
     1
290
     0
176
     1
 93
       13
176
     1
 44
0.0
176
     1
173
     0
176
     1
  0
VISUALSTYLE
  5
2D
102
{ACAD_REACTORS
330
2A
102
}
330
2A
100
AcDbVisualStyle
  2
Gouraud
 70
     2
177
     2
291
     1
 71
     2
176
     1
 72
     2
176
     1
 73
     1
176
     1
 90
        2
176
     1
 40
-0.6
176
     1
 41
30.0
176
     1
 62
     5
 63
     7
421
 16777215
176
     1
 74
     0
176
     1
 91
        4
176
     1
 64
     7
176
     1
 65
   257
176
     1
 75
     1
176
     1
175
     1
176
     1
 42
1.0
176
     1
 92
        0
176
     1
 66
     7
176
     1
 43
1.0
176
     1
 76
     1
176
     1
 77
     6
176
     1
 78
     2
176
     1
 67
     7
176
     1
 79
     5
176
     1
170
     0
176
     1
171
     0
176
     1
290
     0
176
     1
 93
       13
176
     1
 44
0.0
176
     1
173
     0
176
     1
  0
VISUALSTYLE
  5
2E
102
{ACAD_REACTORS
330
2A
102
}
330
2A
100
AcDbVisualStyle
  2
GouraudWithEdges
 70
     3
177
     2
291
     1
 71
     2
176
     1
 72
     2
176
     1
 73
     1
176
     1
 90
        2
176
     1
 40
-0.6
176
     1
 41
30.0
176
     1
 62
     5
 63
     7
421
 16777215
176
     1
 74
     1
176
     1
 91
        4
176
     1
 64
     7
176
     1
 65
   257
176
     1
 75
     1
176
     1
175
     1
176
     1
 42
1.0
176
     1
 92
        0
176
     1
 66
   257
176
     1
 43
1.0
176
     1
 76
     1
176
     1
 77
     6
176
     1
 78
     2
176
     1
 67
     7
176
     1
 79
     5
176
     1
170
     0
176
     1
171
     0
176
     1
290
     0
176
     1
 93
       13
176
     1
 44
0.0
176
     1
173
     0
176
     1
  0
VISUALSTYLE
  5
38
102
{ACAD_REACTORS
330
2A
102
}
330
2A
100
AcDbVisualStyle
  2
Linepattern
 70
    14
177
     2
291
     1
 71
     2
176
     1
 72
     2
176
     1
 73
     0
176
     1
 90
        0
176
     1
 40
-0.6
176
     1
 41
-30.0
176
     1
 62
     5
 63
     7
421
 16777215
176
     1
 74
     1
176
     1
 91
        4
176
     1
 64
     7
176
     1
 65
   257
176
     1
 75
     7
176
     1
175
     7
176
     1
 42
1.0
176
     1
 92
        8
176
     1
 66
     7
176
     1
 43
1.0
176
     1
 76
     1
176
     1
 77
     6
176
     1
 78
     2
176
     1
 67
     7
176
     1
 79
     5
176
     1
170
     0
176
     1
171
     0
176
     1
290
     0
176
     1
 93
        1
176
     1
 44
0.0
176
     1
173
     0
176
     1
  0
VISUALSTYLE
  5
33
102
{ACAD_REACTORS
330
2A
102
}
330
2A
100
AcDbVisualStyle
  2
Realistic
 70
     8
177
     2
291
     0
 71
     2
176
     1
 72
     2
176
     1
 73
     0
176
     1
 90
        0
176
     1
 40
-0.6
176
     1
 41
-30.0
176
     1
 62
     5
 63
     7
421
 16777215
176
     1
 74
     1
176
     1
 91
        0
176
     1
 64
     7
176
     1
 65
   257
176
     1
 75
     1
176
     1
175
     1
176
     1
 42
1.0
176
     1
 92
        8
176
     1
 66
     8
424
  7895160
176
     1
 43
1.0
176
     1
 76
     1
176
     1
 77
     6
176
     1
 78
     2
176
     1
 67
     7
176
     1
 79
     5
176
     1
170
     0
176
     1
171
     0
176
     1
290
     0
176
     1
 93
       13
176
     1
 44
0.0
176
     1
173
     0
176
     1
  0
VISUALSTYLE
  5
37
102
{ACAD_REACTORS
330
2A
102
}
330
2A
100
AcDbVisualStyle
  2
Thicken
 70
    13
177
     2
291
     1
 71
     2
176
     1
 72
     2
176
     1
 73
     0
176
     1
 90
        0
176
     1
 40
-0.6
176
     1
 41
-30.0
176
     1
 62
     5
 63
     7
421
 16777215
176
     1
 74
     1
176
     1
 91
        4
176
     1
 64
     7
176
     1
 65
   257
176
     1
 75
     1
176
     1
175
     1
176
     1
 42
1.0
176
     1
 92
       12
176
     1
 66
     7
176
     1
 43
1.0
176
     1
 76
     1
176
     1
 77
     6
176
     1
 78
     2
176
     1
 67
     7
176
     1
 79
     5
176
     1
170
     0
176
     1
171
     0
176
     1
290
     0
176
     1
 93
        1
176
     1
 44
0.0
176
     1
173
     0
176
     1
  0
DICTIONARYVAR
  5
430
102
{ACAD_REACTORS
330
42F
102
}
330
42F
100
DictionaryVariables
280
     0
  1
1:1
  0
DICTIONARY
  5
431
330
179
100
AcDbDictionary
280
     1
281
     1
  3
ACAD_ROUNDTRIP_2008_TABLESTYLE_CELLSTYLEMAP
360
432
  0
CELLSTYLEMAP
  5
432
102
{ACAD_REACTORS
330
431
102
}
330
431
100
AcDbCellStyleMap
 90
        3
300
CELLSTYLE
  1
TABLEFORMAT_BEGIN
 90
        5
170
     1
 91
        0
 92
        0
 62
   257
 93
        1
300
CONTENTFORMAT
  1
CONTENTFORMAT_BEGIN
 90
        0
 91
        0
 92
        4
 93
        0
300

 40
0.0
140
1.0
 94
        5
 62
     0
340
11
144
6.0
309
CONTENTFORMAT_END
171
     0
 94
        6
 95
        1
302
GRIDFORMAT
  1
GRIDFORMAT_BEGIN
 90
        0
 91
        1
 62
     0
 92
       -2
340
0
 93
        0
 40
0.045
309
GRIDFORMAT_END
 95
        2
302
GRIDFORMAT
  1
GRIDFORMAT_BEGIN
 90
        0
 91
        1
 62
     0
 92
       -2
340
0
 93
        0
 40
0.045
309
GRIDFORMAT_END
 95
        4
302
GRIDFORMAT
  1
GRIDFORMAT_BEGIN
 90
        0
 91
        1
 62
     0
 92
       -2
340
0
 93
        0
 40
0.045
309
GRIDFORMAT_END
 95
        8
302
GRIDFORMAT
  1
GRIDFORMAT_BEGIN
 90
        0
 91
        1
 62
     0
 92
       -2
340
0
 93
        0
 40
0.045
309
GRIDFORMAT_END
 95
       16
302
GRIDFORMAT
  1
GRIDFORMAT_BEGIN
 90
        0
 91
        1
 62
     0
 92
       -2
340
0
 93
        0
 40
0.045
309
GRIDFORMAT_END
 95
       32
302
GRIDFORMAT
  1
GRIDFORMAT_BEGIN
 90
        0
 91
        1
 62
     0
 92
       -2
340
0
 93
        0
 40
0.045
309
GRIDFORMAT_END
309
TABLEFORMAT_END
  1
CELLSTYLE_BEGIN
 90
        1
 91
        1
300
_TITLE
309
CELLSTYLE_END
300
CELLSTYLE
  1
TABLEFORMAT_BEGIN
 90
        5
170
     1
 91
        0
 92
        0
 62
   257
 93
        1
300
CONTENTFORMAT
  1
CONTENTFORMAT_BEGIN
 90
        0
 91
        0
 92
        4
 93
        0
300

 40
0.0
140
1.0
 94
        5
 62
     0
340
11
144
4.5
309
CONTENTFORMAT_END
171
     0
 94
        6
 95
        1
302
GRIDFORMAT
  1
GRIDFORMAT_BEGIN
 90
        0
 91
        1
 62
     0
 92
       -2
340
0
 93
        0
 40
0.045
309
GRIDFORMAT_END
 95
        2
302
GRIDFORMAT
  1
GRIDFORMAT_BEGIN
 90
        0
 91
        1
 62
     0
 92
       -2
340
0
 93
        0
 40
0.045
309
GRIDFORMAT_END
 95
        4
302
GRIDFORMAT
  1
GRIDFORMAT_BEGIN
 90
        0
 91
        1
 62
     0
 92
       -2
340
0
 93
        0
 40
0.045
309
GRIDFORMAT_END
 95
        8
302
GRIDFORMAT
  1
GRIDFORMAT_BEGIN
 90
        0
 91
        1
 62
     0
 92
       -2
340
0
 93
        0
 40
0.045
309
GRIDFORMAT_END
 95
       16
302
GRIDFORMAT
  1
GRIDFORMAT_BEGIN
 90
        0
 91
        1
 62
     0
 92
       -2
340
0
 93
        0
 40
0.045
309
GRIDFORMAT_END
 95
       32
302
GRIDFORMAT
  1
GRIDFORMAT_BEGIN
 90
        0
 91
        1
 62
     0
 92
       -2
340
0
 93
        0
 40
0.045
309
GRIDFORMAT_END
309
TABLEFORMAT_END
  1
CELLSTYLE_BEGIN
 90
        2
 91
        1
300
_HEADER
309
CELLSTYLE_END
300
CELLSTYLE
  1
TABLEFORMAT_BEGIN
 90
        5
170
     1
 91
        0
 92
        0
 62
   257
 93
        1
300
CONTENTFORMAT
  1
CONTENTFORMAT_BEGIN
 90
        0
 91
        0
 92
        4
 93
        0
300

 40
0.0
140
1.0
 94
        2
 62
     0
340
11
144
4.5
309
CONTENTFORMAT_END
171
     0
 94
        6
 95
        1
302
GRIDFORMAT
  1
GRIDFORMAT_BEGIN
 90
        0
 91
        1
 62
     0
 92
       -2
340
0
 93
        0
 40
0.045
309
GRIDFORMAT_END
 95
        2
302
GRIDFORMAT
  1
GRIDFORMAT_BEGIN
 90
        0
 91
        1
 62
     0
 92
       -2
340
0
 93
        0
 40
0.045
309
GRIDFORMAT_END
 95
        4
302
GRIDFORMAT
  1
GRIDFORMAT_BEGIN
 90
        0
 91
        1
 62
     0
 92
       -2
340
0
 93
        0
 40
0.045
309
GRIDFORMAT_END
 95
        8
302
GRIDFORMAT
  1
GRIDFORMAT_BEGIN
 90
        0
 91
        1
 62
     0
 92
       -2
340
0
 93
        0
 40
0.045
309
GRIDFORMAT_END
 95
       16
302
GRIDFORMAT
  1
GRIDFORMAT_BEGIN
 90
        0
 91
        1
 62
     0
 92
       -2
340
0
 93
        0
 40
0.045
309
GRIDFORMAT_END
 95
       32
302
GRIDFORMAT
  1
GRIDFORMAT_BEGIN
 90
        0
 91
        1
 62
     0
 92
       -2
340
0
 93
        0
 40
0.045
309
GRIDFORMAT_END
309
TABLEFORMAT_END
  1
CELLSTYLE_BEGIN
 90
        3
 91
        2
300
_DATA
309
CELLSTYLE_END
  0
ENDSEC
  0
SECTION
  2
THUMBNAILIMAGE
 90
    16364
310
28000000B40000005500000001000800000000000000000000000000000000000000000000000000FFFFFF000000FF0000FFFF0000FF0000FFFF0000FF000000FF00FF000000000080808000C0C0C0000000FF007F7FFF000000A5005252A50000007F003F3F7F0000004C0026264C000000260013132600003FFF007F9FFF
310
000029A5005267A500001F7F003F4F7F0000134C00262F4C000009260013172600007FFF007FBFFF000052A500527CA500003F7F003F5F7F0000264C0026394C0000132600131C260000BFFF007FDFFF00007CA5005291A500005F7F003F6F7F0000394C0026424C00001C26001321260000FFFF007FFFFF0000A5A50052A5
310
A500007F7F003F7F7F00004C4C00264C4C00002626001326260000FFBF007FFFDF0000A57C0052A59100007F5F003F7F6F00004C3900264C420000261C001326210000FF7F007FFFBF0000A5520052A57C00007F3F003F7F5F00004C2600264C39000026130013261C0000FF3F007FFF9F0000A5290052A56700007F1F003F
310
7F4F00004C1300264C2F00002609001326170000FF00007FFF7F0000A5000052A55200007F00003F7F3F00004C0000264C260000260000132613003FFF00009FFF7F0029A5000067A552001F7F00004F7F3F00134C00002F4C260009260000172613007FFF0000BFFF7F0052A500007CA552003F7F00005F7F3F00264C0000
310
394C2600132600001C261300BFFF0000DFFF7F007CA5000091A552005F7F00006F7F3F00394C0000424C26001C26000021261300FFFF0000FFFF7F00A5A50000A5A552007F7F00007F7F3F004C4C00004C4C26002626000026261300FFBF0000FFDF7F00A57C0000A59152007F5F00007F6F3F004C3900004C422600261C00
310
0026211300FF7F0000FFBF7F00A5520000A57C52007F3F00007F5F3F004C2600004C39260026130000261C1300FF3F0000FF9F7F00A5290000A56752007F1F00007F4F3F004C1300004C2F26002609000026171300FF000000FF7F7F00A5000000A55252007F0000007F3F3F004C0000004C2626002600000026131300FF00
310
3F00FF7F9F00A5002900A55267007F001F007F3F4F004C0013004C262F002600090026131700FF007F00FF7FBF00A5005200A5527C007F003F007F3F5F004C0026004C2639002600130026131C00FF00BF00FF7FDF00A5007C00A55291007F005F007F3F6F004C0039004C26420026001C0026132100FF00FF00FF7FFF00A5
310
00A500A552A5007F007F007F3F7F004C004C004C264C002600260026132600BF00FF00DF7FFF007C00A5009152A5005F007F006F3F7F0039004C0042264C001C002600211326007F00FF00BF7FFF005200A5007C52A5003F007F005F3F7F0026004C0039264C00130026001C1326003F00FF009F7FFF002900A5006752A500
310
1F007F004F3F7F0013004C002F264C000900260017132600000000002D2D2D005B5B5B0089898900B7B7B700B3B3B30000000000000000000000000000000000000000000000000000000000000000000000000000000000000000000000000000000000000000000000000000000000000000000000000000000000000000
310
00000000000000000000000000000000000000000000000000000000000000000000000000000000000000000000000000000000000000000000000000000000000000000000000000000000000000000000000000000000000000000000000000000000000000000000000000000000000000000000000000000000000000
310
00000000000000000000000000000000000000000000000000000000000000000000000000000000000000000000000000000000000000000000000000000000000000000000000000000000000000000000000000000000000000000000000000000000000000000000000000000000000000000000000000000000000000
310
00000000000000000000000000000000000000000000000000000000000000000000000000000000000000000000000000000000000000000000000000000000000000000000000000000000000000000000000000000000000000000000000000000000000000000000000000000000000000000000000000000000000000
310
00000000000000000000000000000000000000000000000000000000000000000000000000000000000000000000000000000000000000000000000000000000000000000000000000000000000000000000000000000000000000000000000000000000000000000000000000000000000000000000000000000000000000
310
00000000000000000000000000000000000000000000000000000000000000000000000000000000000000000000000000000000000000000000000000000000000000000000000000000000000000000000000000000000000000000000000000000000000000000000000000000000000000000000000000000000000000
310
00000000000000000000000000000000000000000000000000000000000000000000000000000000000000000000000000000000000000000000000000000000000000000000000000000000000000000000000000000000000000000000000000000000000000000000000000000000000000000000000000000000000000
310
00000000000000000000000000000000000000000000000000000000000000000000000000000000000000000000000000000000000000000000000000000000000000000000000000000000000000000000000000000000000000000000000000000000000000000000000000000000000000000000000000000000000000
310
00000000000000000000000000000000000000000000000000000000000000000000000000000000000000000000000000000000000000000000000000000000000000000000000000000000000000000000000000000000000000000000000000000000000000000000000000000000000000000000000000000000000000
310
00000000000000000000000000000000000000000000000000000000000000000000000000000000000000000000000000000000000000000000000000000000000000000000000000000000000000000000000000000000000000000000000000000000000000000000000000000000000000000000000000000000000000
310
00000000000000000000000000000000000000000000000000000000000000000000000000000000000000000000000000000000000000000000000000000000000000000000000000000000000000000000000000000000000000000000000000000000000000000000000000000000000000000000000000000000000000
310
00000000000000000000000000000000000000000000000000000000000000000000000000000000000000000000000000000000000000000000000000000000000000000000000000000000000000000000000000000000000000000000000000000000000000000000000000000000000000000000000000000000000000
310
00000000000000000000000000000000000000000000000000000000000000000000000000000000000000000000000000000000000000000000000000000000000000000000000000000000000000000000000000000000000000000000000000000000000000000000000000000000000000000000000000000000000000
310
00000000000000000000000000000000000000000000000000000000000000000000000000000000000000000000000000000000000000000000000000000000000000000000000000000000000000000000000000000000000000000000000000000000000000000000000000000000000000000000000000000000000000
310
00000000000000000000000000000000000000000000000000000000000000000000000000000000000000000000000000000000000000000000000000000000000000000000000000000000000000000000000000000000000000000000000000000000000000000000000000000000000000000000000000000000000000
310
00000000000000000000000000000000000000000000000000000000000000000000000000000000000000000000000000000000000000000000000000000000000000000000000000000000000000000000000000000000000000000000000000000000000000000000000000000000000000000000000000000000000000
310
00000000000000000000000000000000000000000000000000000000000000000000000000000000000000000000000000000000000000000000000000000000000000000000000000000000000000000000000000000000000000000000000000000000000000000000000000000000000000000000000000000000000000
310
00000000000000000000000000000000000000000000000000000000000000000000000000000000000000000000000000000000000000000000000000000000000000000000000000000000000000000000000000000000000000000000000000000000000000000000000000000000000000000000000000000000000000
310
00000000000000000000000000000000070707070707070707070707000000000000000000000000000000000000000000000000000000000000000000000000000000000000000000000000000000000000000000000000000000000000000000000000000000000000000000000000000000000000000000000000000000
310
00000000000000000000000000000000000000000000000000000707070707070700000000000000000000000000000000000000000000000000000000000000000000000007070707070707070707070700000000000000000000000000000000000000000000000000000000000000000000000000000000000000000000
310
00000000000000000000000000000000000000000000000000000000000000000000000000000000000000000000000000000000000000000000000000000000000000000000000000000000000000070700070700070000000000000000000000000000000000000000000000000000000000000000000000000707070707
310
07070700070700000000000000000000000000000000000000000000000000000000000000000000000000000000000000000000000000000000000000000000000000000000000000000000000000000000000000000000000000000000000000000000000000000000000000000000000000000000000000000000000000
310
00000000000000000000000700000000000000000000000000000000000000000000000000000000000000000000000000000000000000000000000000000000000000000000000000000000000000000000000000000000000000000000000000000000000000000000000000000000000000000000000000000000000000
310
00000000000000000000000000000000000000000000000000000000000000000000000000000000000000000000000000000000000000000000000000000000070000000000000000000000000000000000000000000000000000000000000000000000000000000000000000000000000000000000000000000000000000
310
00000000000000000000000000000000000000000000000000000000000000000000000000000000000000000000000000000000000000000000000000000000000000000000000000000000000000000000000000000000000000000000000000000000000000000000000000000000000000000007000000000000000000
310
00000000000000000000000000000000000000000000000000000000000000000000000000000000000000000000000000000000000000000000000000000000000000000000000000000000000000000000000000000000000000000000000000000000000000000000000000000000000000000000000000000000000000
310
00000000000000000000000000000000000000000000000000000000000000000000000000000707070707070707070707000000000000000000000000000000000000000000000000000000000000000000000707070707070000000000000000000000000000000000000000000000000000000000000000000000000000
310
00000000000000000000000000000000000000000000000000000000000000000000000000000000000000000000000000000000000000000000000000000000000000000000000000000000000000000000000000000000000707070000000007000000070707070000000000000000000000000000000000000000000000
310
00000000000000000007070707070700000000000000000000000000000000000000000000000000000000000000000000000000000000000000000000000000000000000000000000000000000000000000000000000000000000000000000000000000000000000000000000000000000000000000000000000000000000
310
00000000000000000000000000070707000000000000070000000000070707070000000000000000000000000000000000000000000000000000000000000707070707070000000000000000000000000000000000000000000000000000000000000000000000000000000000000000000000000000000000000000000000
310
00000000000000000000000000000000000000000000000000000000000000000000000000000000000000000000000000000000000000000000000000000000070707000707070000000707070000070707000707070700000000000000000000000000000000000000000000000000000000070707070707000000000000
310
00000000000000000000000000000000000000000000000000000000000000000000000000000000000000000000000000000000000000000000000000000000000000000000000000000000000000000000000000000000000000000000000000000000000000000000000000000000000000000707000000070707070707
310
07070707070707070000000700070000000000000000000000000000000000000000000000000000000707070707070000000000000000000000000000000000000000000000000000000000000000000000000000000000000000000000000000000000000000000000000000000000000000000000000000000000000000
310
00000000000000000000000000000000000000000000000000000000000000000000000000000000000707000000000707070707070707070707070707070000000707000000000000000000000000000000000000000000000000000000070707070707000000000000000000000000000000000000000000000000000000
310
00000000000000000000000000000000000000000000000000000000000000000000000000000000000000000000000000000000000000000000000000000000000000000000000000000000000000000000000000000000000000000007070000000707070707070707000700070700070700070700000707000000000000
310
00000000000000000000000000000000000000000707070707070000000000000000000000000000000000000000000000000000000000000000000000000000000000000000000000000000000000000000000000000000000000000000000000000000000000000000000000000000000000000000000000000000000000
310
00000000000000000000000000000000000000070000000700070007000000000007000000070700070000070007000700000000000000000000000000000000000000000000000000070707070707000000000000000000000000000000000000000000000000000000000000000000000000000000000000000000000000
310
00000000000000000000000000000000000000000000000000000000000000000000000000000000000000000000000000000000000000000000000000000000000000000000000707000007000700070000000000000700000000000707070000070007070000000000000000000000000000000000000000000000000007
310
07070707070000000000000000000000000000000000000000000000000000000000000000000000000000000000000000000000000000000000000000000000000000000000000000000000000000000000000000000000000000000000000000000000000000000000000000000000000000000000000000000007070000
310
07000007070000000000000007000000000000000707000700000707000000000000000000000000070707070707070707070707070707070707000000000000000000000000000000000000000000000000000000000000000000000000000000000000000000000000000000000000000000000000000000000000000000
310
00000000000000000000000000000000000000000000000000000000000000000000000000000000000000000000000000070007070000070700000000000007070700000000000000070007000707000700000000000000000000000000070000000000000000000007070707070707070707070707000000000000000000
310
00000000000000000000000000000000000000000000000000000000000000000000000000000000000000000000000000000000000000000000000000000000000000000000000000000000000000000000000000000000000000000000000000000000000707000707000707000000000007070000070707070700000000
310
07000707000707000000000000000000000000000700000000000000000000070700000007000000000007000000000000000000000000000000000000000000000000000000000000000000000000000000000000000000000000000000000000000000000000000000000000000000000000000000000000000000000000
310
00000000000000000000000000000000000000000000000000000007000707070707070000000707000000000700000000070000000007070707070007000000000000000000000000070000000000000000000007070000000700000000000700000000000000000000000000000000000000000000000000000000000000
310
00000000000000000000000000000000000000000000000000000000000000000000000000000000000000000000000000000000000000000000000000000000000000000000000000000000000000000700000707070700000000070000000000070000000007000000000707070707000700000000000000000000000007
310
00000000000000000000070700000007000000000007000000000000000000000000000000000000000000000000000000000000000000000000000000000000000000000000000000000000000000000000000000000000000000000000000000000000000000000000000000000000000000000000000000000000000000
310
00000000000007000007000707000000070000000000000700000000000700000000070007000007000000000000000000000000070000000000000000000007070000000700000000000700000000000000000000000000000000000000000000000000000000000000000000000000000000000000000000000000000000
310
00000000000000000000000000000000000000000000000000000000000000000000000000000000000000000000000000000000000000000000070700070000070700000007000000000000070000000000000700000007070700000700000000000000000000000007000000000000000000000707000000070000000000
310
07000000000000000000000000000000000000000000000000000000000000000000000000000000000000000000000000000000000000000000000000000000000000000000000000000000000000000000000000000000000000000000000000000000000000000000000000000007000007000707000000070000000000
310
00000700000000000007000000070700070000070000000000000000000000070000000000000000000007070000000700000000000700000000000000000000000000000000000000000000000000000000000000000000000000000000000000000000000000000000000000000000000000000000000000000000000000
310
00000000000000000000000000000000000000000000000000000000000000000000000000070707070707070000000700000000000707070700000000000700000007070707070707000000000000000007070707070700000000000007070707070707070707000707070707000000000000000000000000000000000000
310
00000000000000000000000000000000000000000000000000000000000000000000000000000000000000000000000000000000000000000000000000000000000000000000000000000000000000000000000000000000000007070707070707000000070000000000000007000000000000070000000707070707070700
310
00000000000000000707070707000000000000000007070000000700000007070707070000000000000000000000000000000000000000000000000000000000000000000000000000000000000000000000000000000000000000000000000000000000000000000000000000000000000000000000000000000000000000
310
00000000000000000000000000000000070000070007000700000007000000000000070000000000000700000007070700000007000000000000000000000007000000000000000000000707000000070000000000070000000000000000000000000000000000000000000000000000000000000000000000000000000000
310
00000000000000000000000000000000000000000000000000000000000000000000000000000000000000000000000000000000000000000000000000000000000000000000070000070007070000000700000000000007000000000000070000000707070000070000000000000000000000000700070707070707070700
310
07070000000700000000000700000000000000000000000000000000000000000000000000000000000000000000000000000000000000000000000000000000000000000000000000000000000000000000000000000000000000000000000000000000000000000000000000000000000000000000000000000007000007
310
00070700000000070000000000070000000000070000000007000700000700000000000000000000000007000707070707070707070707070700070000000000070000000000000000000000000000000000000000000000000000000000000000000000000000000000000000000000000000000000000000000000000000
310
00000000000000000000000000000000000000000000000000000000000000000000000000000000000000000000000000070000070707070000000007000000000007000000000700000000070707070700070000000000000000000000000700000007070707000000070707000007000000000007000000000000000000
310
00000000000000000000000000000000000000000000000000000000000000000000000000000000000000000000000000000000000000000000000000000000000000000000000000000000000000000000000000000000000000000000000000000000000007000707070707070000000007000000000700000000070000
310
00070007070707000700000000000000000000000007000000070707070000000707000000070000000000070000000000000000000000000000000000000000000000000000000000000000000000000000000000000000000000000000000000000000000000000000000000000000000000000000000000000000000000
310
00000000000000000000000000000000000000000000000000000000000700070700070700000000000707000007000707070000000007000707070707000000000000000000000000000700000000000000000000070707070707070707070707070000000000000000000000000000000000000000000000000000000000
310
00000000000000000000000000000000000000000000000000000000000000000000000000000000000000000000000000000000000000000000000000000000000000000000000000000000000000000000070000000700070700000000000007070707000000000000070007070007000700000000000000000000000007
310
07070707070707070707070707070707070000000000000000000000000000000000000000000000000000000000000000000000000000000000000000000000000000000000000000000000000000000000000000000000000000000000000000000000000000000000000000000000000000000000000000000000000000
310
00000000000000000007000000070007070700000000000007000000000000070707000700000707000000000707070707070000000000000000000000000000070707070707000000000000000000000000000000000000000000000000000000000000000000000000000000000000000000000000000000000000000000
310
00000000000000000000000000000000000000000000000000000000000000000000000000000000000000000000000000000000000000000000000000000007000000070007000700000000000700000000070707000007000007070007070000070707070707000000000000000000000000000007070707070700000000
310
00000000000000000000000000000000000000000000000000000000000000000000000000000000000000000000000000000000000000000000000000000000000000000000000000000000000000000000000000000000000000000000000000000000000000000000000000000000000000000700000000070007070707
310
07000007000007070707000007000007070000000007070707070707000000000000000000000000000000070707070707000000000000000000000000000000000000000000000000000000000000000000000000000000000000000000000000000000000000000000000000000000000000000000000000000000000000
310
00000000000000000000000000000000000000000000000000000000000000000000000000000000000000070000000007000707070707070707070707070000070000000700000000000000070707070700000000000000000000000000000007070707070700000000000000000000000000000000000000000000000000
310
00000000000000000000000000000000000000000000000000000000000000000000000000000000000000000000000000000000000000000000000000000000000000000000000000000000000000000000000000000000000000000000000000070000000007070700000007070700000707070700000007070000000000
310
00000000000000000000000000000000000000000000070707070707000000000000000000000000000000000000000000000000000000000000000000000000000000000000000000000000000000000000000000000000000000000000000000000000000000000000000000000000000000000000000000000000000000
310
00000000000000000000000000000000000000000000000007070000070707070700000700000707070707000707070000000000000000000000000000000000000000000000000000000007070707070700000000000000000000000000000000000000000000000000000000000000000000000000000000000000000000
310
00000000000000000000000000000000000000000000000000000000000000000000000000000000000000000000000000000000000000000000000000000000000000000000000000000000000000070700070000000707070707000007000707070000000000000000000000000000000000000000000000000000000000
310
00070707070707000000000000000000000000000000000000000000000000000000000000000000000000000000000000000000000000000000000000000000000000000000000000000000000000000000000000000000000000000000000000000000000000000000000000000000000000000000000000000000000000
310
00000000000000070700000000000700000000070707000707000000070707070707070707070707000000000000000000000000000007070707070700000000000000000000000000000000000000000000000000000000000000000000000000000000000000000000000000000000000000000000000000000000000000
310
00000000000000000000000000000000000000000000000000000000000000000000000000000000000000000000000000000000000000000000000000000707070707070707070707000000000007070707070707070707070707070700000000000000000000000000000707070707070000000000000000000000000000
310
00000000000000000000000000000000000000000000000000000000000000000000000000000000000000000000000000000000000000000000000000000000000000000000000000000000000000000000000000000000000000000000000000000000000000000000000000000000000000000000000007000000070700
310
00000000000000000007070707070707000000000000000000000000000000000007070707070700000000000000000000000000000000000000000000000000000000000000000000000000000000000000000000000000000000000000000000000000000000000000000000000000000000000000000000000000000000
310
00000000000000000000000000000000000000000000000000000000000000000000000000000000000000000000070000000700000000000000000000000707070707070700000000000000000000000000000000000707000000070000000000000000000000000000000000000000000000000000000000000000000000
310
00000000000000000000000000000000000000000000000000000000000000000000000000000000000000000000000000000000000000000000000000000000000000000000000000000000000000000000000000000000000000000000000000000007000000000700000000000000000000000000000000000000000000
310
00000000000707070707070707070707000700000000000000000000000000000000000000000000000000000000000000000000000000000000000000000000000000000000000000000000000000000000000000000000000000000000000000000000000000000000000000000000000000000000000000000000000000
310
00000000000000000000000000000000000000070700000000070000000007000000000000000000000000000000000000000000000000000000000707000000070707070000070007070000000700000000000000000000000000000000000000000000000000000000000000000000000000000000000000000000000000
310
00000000000000000000000000000000000000000000000000000000000000000000000000000000000000000000000000000000000000000000000000000000000000000000000007070707070707000000000007000707070707070000000000000000000000000000000000000000000000000000070000000007000707
310
07070707000000000000000000000000000000000000000000000000000000000000000000000000000000000000000000000000000000000000000000000000000000000000000000000000000000000000000000000000000000000000000000000000000000000000000000000000000000000000000000000000000707
310
00000000000000000000070707070700070700000000000000000000000000000000000000000000000000000707070707070707070707070700000000000000000000000000000000000000000000000000000000000000000000000000000000000000000000000000000000000000000000000000000000000000000000
310
00000000000000000000000000000000000000000000000000000000000000000000000000000000000000000000000000000000000000000000000000000000000707070707070000000000000000000000000000000000000000000000000000070000000007000007070707000000000000000000000000000000000000
310
00000000000000000000000000000000000000000000000000000000000000000000000000000000000000000000000000000000000000000000000000000000000000000000000000000000000000000000000000000000000000000000000000000000000000000000000000000000000000000000070707070707000000
310
00000000000000000000000000000000000000000000000000000000000000070707070000000000000000000000000000000000000000000000000000000000000000000000000000000000000000000000000000000000000000000000000000000000000000000000000000000000000000000000000000000000000000
310
00000000000000000000000000000000000000000000000000000000000000000000000000000000000000000000000000000000000000000000000000000000000000000000000000000000000000000000000000000000000000000000000000000000000000000000000000000000000000000000000000000000000000
310
00000000000000000000000000000000000000000000000000000000000000000000000000000000000000000000000000000000000000000000000000000000000000000000000000000000000000000000000000000000000000000000000000000000000000000000000000000000000000000000000000000000000000
310
00000000000000000000000000000000000000000000000000000000000000000000000000000000000000000000000000000000000000000000000000000000000000000000000000000000000000000000000000000000000000000000000000000000000000000000000000000000000000000000000000000000000000
310
00000000000000000000000000000000000000000000000000000000000000000000000000000000000000000000000000000000000000000000000000000000000000000000000000000000000000000000000000000000000000000000000000000000000000000000000000000000000000000000000000000000000000
310
00000000000000000000000000000000000000000000000000000000000000000000000000000000000000000000000000000000000000000000000000000000000000000000000000000000000000000000000000000000000000000000000000000000000000000000000000000000000000000000000000000000000000
310
00000000000000000000000000000000000000000000000000000000000000000000000000000000000000000000000000000000000000000000000000000000000000000000000000000000000000000000000000000000000000000000000000000000000000000000000000000000000000000000000000000000000000
310
00000000000000000000000000000000000000000000000000000000000000000000000000000000000000000000000000000000000000000000000000000000000000000000000000000000000000000000000000000000000000000000000000000000000000000000000000000000000000000000000000000000000000
310
00000000000000000000000000000000000000000000000000000000000000000000000000000000000000000000000000000000000000000000000000000000000000000000000000000000000000000000000000000000000000000000000000000000000000000000000000000000000000000000000000000000000000
310
00000000000000000000000000000000000000000000000000000000000000000000000000000000000000000000000000000000000000000000000000000000000000000000000000000000000000000000000000000000000000000000000000000000000000000000000000000000000000000000000000000000000000
310
00000000000000000000000000000000000000000000000000000000000000000000000000000000000000000000000000000000000000000000000000000000000000000000000000000000000000000000000000000000000000000000000000000000000000000000000000000000000000000000000000000000000000
310
00000000000000000000000000000000000000000000000000000000000000000000000000000000000000000000000000000000000000000000000000000000000000000000000000000000000000000000000000000000000000000000000000000000000000000000000000000000000000000000000000000000000000
310
00000000000000000000000000000000000000000000000000000000000000000000000000000000000000000000000000000000000000000000000000000000000000000000000000000000000000000000000000000000000000000000000000000000000000000000000000000000000000000000000000000000000000
310
00000000000000000000000000000000000000000000000000000000000000000000000000000000000000000000000000000000000000000000000000000000000000000000000000000000000000000000000000000000000000000000000000000000000000000000000000000000000000000000000000000000000000
310
00000000000000000000000000000000000000000000000000000000000000000000000000000000000000000000000000000000000000000000000000000000000000000000000000000000000000000000000000000000000000000000000000000000000000000000000000000000000000000000000000000000000000
310
00000000000000000000000000000000000000000000000000000000000000000000000000000000000000000000000000000000000000000000000000000000000000000000000000000000000000000000000000000000000000000000000000000000000000000000000000000000000000000000000000000000000000
310
00000000000000000000000000000000000000000000000000000000000000000000000000000000000000000000000000000000000000000000000000000000000000000000000000000000000000000000000000000000000000000000000000000000000000000000000000000000000000000000000000000000000000
310
00000000000000000000000000000000000000000000000000000000000000000000000000000000000000000000000000000000000000000000000000000000000000000000000000000000000000000000000000000000000000000000000000000000000000000000000000000000000000000000000000000000000000
310
00000000000000000000000000000000000000000000000000000000000000000000000000000000000000000000000000000000000000000000000000000000000000000000000000000000000000000000000000000000000000000000000000000000000000000000000000000000000000000000000000000000000000
310
00000000000000000000000000000000000000000000000000000000000000000000000000000000000000000000000000000000000000000000000000000000000000000000000000000000000000000000000000000000000000000000000000000000000000000000000000000000000000000000000000000000000000
310
00000000000000000000000000000000000000000000000000000000000000000000000000000000000000000000000000000000000000000000000000000000000000000000000000000000000000000000000000000000000000000000000000000000000000000000000000000000000000000000000000000000000000
310
00000000000000000000000000000000000000000000000000000000000000000000000000000000000000000000000000000000000000000000000000000000000000000000000000000000000000000000000000000000000000000000000000000000000000000000000000000000000000000000000000000000000000
310
00000000000000000000000000000000000000000000000000000000000000000000000000000000000000000000000000000000000000000000000000000000000000000000000000000000000000000000000000000000000000000000000000000000000000000000000000000000000000000000000000000000000000
310
00000000000000000000000000000000000000000000000000000000000000000000000000000000000000000000000000000000000000000000000000000000000000000000000000000000000000000000000000000000000000000000000000000000000000000000000000000000000000000000000000000000000000
310
00000000000000000000000000000000000000000000000000000000000000000000000000000000000000000000000000000000000000000000000000000000000000000000000000000000000000000000000000000000000000000000000000000000000000000000000000000000000000000000000000000000000000
310
00000000000000000000000000000000000000000000000000000000000000000000000000000000000000000000000000000000000000000000000000000000000000000000000000000000000000000000000000000000000000000000000000000000000000000000000000000000000000000000000000000000000000
310
00000000000000000000000000000000000000000000000000000000000000000000000000000000000000000000000000000000000000000000000000000000000000000000000000000000000000000000000000000000000000000000000000000000000000000000000000000000000000000000000000000000000000
310
00000000000000000000000000000000000000000000000000000000000000000000000000000000000000000000000000000000000000000000000000000000000000000000000000000000000000000000000000000000000000000000000000000000000000000000000000000000000000000000000000000000000000
310
00000000000000000000000000000000000000000000000000000000000000000000000000000000000000000000000000000000000000000000000000000000000000000000000000000000000000000000000000000000000000000000000000000000000000000000000000000000000000000000000000000000000000
310
00000000000000000000000000000000000000000000000000000000000000000000000000000000000000000000000000000000000000000000000000000000000000000000000000000000000000000000000000000000000000000000000000000000000000000000000000000000000000000000000000000000000000
310
00000000000000000000000000000000000000000000000000000000000000000000000000000000000000000000000000000000000000000000000000000000000000000000000000000000000000000000000000000000000000000000000000000000000000000000000000000000000000000000000000000000000000
310
00000000000000000000000000000000000000000000000000000000000000000000000000000000000000000000000000000000000000000000000000000000000000000000000000000000000000000000000000000000000000000000000000000000000000000000000000000000000000000000000000000000000000
310
00000000000000000000000000000000000000000000000000000000000000000000000000000000000000000000000000000000000000000000000000000000000000000000000000000000000000000000000000000000000000000000000000000000000000000000000000000000000000000000000000000000000000
310
00000000000000000000000000000000000000000000000000000000000000000000000000000000000000000000000000000000000000000000000000000000000000000000000000000000000000000000000000000000000000000000000000000000000000000000000000000000000000000000000000000000000000
310
000000000000000000000000000000000000000000000000000000000000000000000000000000000000000000000000000000000000000000000000000000000000000000000000000000000000000000000000000000000000000000000000000000000000000000000000
  0
ENDSEC
  0
EOF
