  0
SECTION
  2
HEADER
  9
$ACADVER
  1
AC1018
  9
$ACADMAINTVER
 70
    39
  9
$DWGCODEPAGE
  3
ANSI_1252
  9
$INSBASE
 10
0.0
 20
0.0
 30
0.0
  9
$EXTMIN
 10
34.79737495785588
 20
58.24376183625184
 30
0.0
  9
$EXTMAX
 10
542.4527709430087
 20
375.1663192194537
 30
0.0
  9
$LIMMIN
 10
0.0
 20
0.0
  9
$LIMMAX
 10
594.0
 20
420.0
  9
$ORTHOMODE
 70
     0
  9
$REGENMODE
 70
     1
  9
$FILLMODE
 70
     1
  9
$QTEXTMODE
 70
     0
  9
$MIRRTEXT
 70
     1
  9
$LTSCALE
 40
1.0
  9
$ATTMODE
 70
     1
  9
$TEXTSIZE
 40
3.962399999999999
  9
$TRACEWID
 40
1.0
  9
$TEXTSTYLE
  7
Standard
  9
$CLAYER
  8
0
  9
$CELTYPE
  6
ByLayer
  9
$CECOLOR
 62
   256
  9
$CELTSCALE
 40
1.0
  9
$DISPSILH
 70
     0
  9
$DIMSCALE
 40
1.0
  9
$DIMASZ
 40
3.301999999999999
  9
$DIMEXO
 40
1.27
  9
$DIMDLI
 40
3.75
  9
$DIMRND
 40
0.0
  9
$DIMDLE
 40
0.0
  9
$DIMEXE
 40
3.174999999999999
  9
$DIMTP
 40
0.0
  9
$DIMTM
 40
0.0
  9
$DIMTXT
 40
4.0
  9
$DIMCEN
 40
2.5
  9
$DIMTSZ
 40
0.0
  9
$DIMTOL
 70
     0
  9
$DIMLIM
 70
     0
  9
$DIMTIH
 70
     1
  9
$DIMTOH
 70
     1
  9
$DIMSE1
 70
     0
  9
$DIMSE2
 70
     0
  9
$DIMTAD
 70
     0
  9
$DIMZIN
 70
     1
  9
$DIMBLK
  1

  9
$DIMASO
 70
     1
  9
$DIMSHO
 70
     1
  9
$DIMPOST
  1

  9
$DIMAPOST
  1

  9
$DIMALT
 70
     0
  9
$DIMALTD
 70
     3
  9
$DIMALTF
 40
0.0393700787401575
  9
$DIMLFAC
 40
1.0
  9
$DIMTOFL
 70
     0
  9
$DIMTVP
 40
0.0
  9
$DIMTIX
 70
     1
  9
$DIMSOXD
 70
     0
  9
$DIMSAH
 70
     0
  9
$DIMBLK1
  1

  9
$DIMBLK2
  1

  9
$DIMSTYLE
  2
STANDARD
  9
$DIMCLRD
 70
     0
  9
$DIMCLRE
 70
     0
  9
$DIMCLRT
 70
     0
  9
$DIMTFAC
 40
1.0
  9
$DIMGAP
 40
1.524
  9
$DIMJUST
 70
     0
  9
$DIMSD1
 70
     0
  9
$DIMSD2
 70
     0
  9
$DIMTOLJ
 70
     0
  9
$DIMTZIN
 70
     1
  9
$DIMALTZ
 70
     0
  9
$DIMALTTZ
 70
     0
  9
$DIMUPT
 70
     0
  9
$DIMDEC
 70
     1
  9
$DIMTDEC
 70
     1
  9
$DIMALTU
 70
     2
  9
$DIMALTTD
 70
     3
  9
$DIMTXSTY
  7
Standard
  9
$DIMAUNIT
 70
     0
  9
$DIMADEC
 70
     2
  9
$DIMALTRND
 40
0.0
  9
$DIMAZIN
 70
     0
  9
$DIMDSEP
 70
    46
  9
$DIMATFIT
 70
     3
  9
$DIMFRAC
 70
     0
  9
$DIMLDRBLK
  1

  9
$DIMLUNIT
 70
     2
  9
$DIMLWD
 70
    -2
  9
$DIMLWE
 70
    -2
  9
$DIMTMOVE
 70
     0
  9
$LUNITS
 70
     2
  9
$LUPREC
 70
     2
  9
$SKETCHINC
 40
1.0
  9
$FILLETRAD
 40
10.0
  9
$AUNITS
 70
     0
  9
$AUPREC
 70
     2
  9
$MENU
  1
.
  9
$ELEVATION
 40
0.0
  9
$PELEVATION
 40
0.0
  9
$THICKNESS
 40
0.0
  9
$LIMCHECK
 70
     0
  9
$CHAMFERA
 40
0.0
  9
$CHAMFERB
 40
0.0
  9
$CHAMFERC
 40
0.0
  9
$CHAMFERD
 40
0.0
  9
$SKPOLY
 70
     0
  9
$TDCREATE
 40
2457064.678484109
  9
$TDUCREATE
 40
2457064.845150775
  9
$TDUPDATE
 40
2457098.706311574
  9
$TDUUPDATE
 40
2457098.872978241
  9
$TDINDWG
 40
0.0686371296
  9
$TDUSRTIMER
 40
0.0686371296
  9
$USRTIMER
 70
     1
  9
$ANGBASE
 50
0.0
  9
$ANGDIR
 70
     0
  9
$PDMODE
 70
     0
  9
$PDSIZE
 40
-1.0
  9
$PLINEWID
 40
0.0
  9
$SPLFRAME
 70
     0
  9
$SPLINETYPE
 70
     6
  9
$SPLINESEGS
 70
     8
  9
$HANDSEED
  5
DFC
  9
$SURFTAB1
 70
     6
  9
$SURFTAB2
 70
     6
  9
$SURFTYPE
 70
     6
  9
$SURFU
 70
     6
  9
$SURFV
 70
     6
  9
$UCSBASE
  2

  9
$UCSNAME
  2

  9
$UCSORG
 10
0.0
 20
0.0
 30
0.0
  9
$UCSXDIR
 10
1.0
 20
0.0
 30
0.0
  9
$UCSYDIR
 10
0.0
 20
1.0
 30
0.0
  9
$UCSORTHOREF
  2

  9
$UCSORTHOVIEW
 70
     0
  9
$UCSORGTOP
 10
0.0
 20
0.0
 30
0.0
  9
$UCSORGBOTTOM
 10
0.0
 20
0.0
 30
0.0
  9
$UCSORGLEFT
 10
0.0
 20
0.0
 30
0.0
  9
$UCSORGRIGHT
 10
0.0
 20
0.0
 30
0.0
  9
$UCSORGFRONT
 10
0.0
 20
0.0
 30
0.0
  9
$UCSORGBACK
 10
0.0
 20
0.0
 30
0.0
  9
$PUCSBASE
  2

  9
$PUCSNAME
  2

  9
$PUCSORG
 10
0.0
 20
0.0
 30
0.0
  9
$PUCSXDIR
 10
1.0
 20
0.0
 30
0.0
  9
$PUCSYDIR
 10
0.0
 20
1.0
 30
0.0
  9
$PUCSORTHOREF
  2

  9
$PUCSORTHOVIEW
 70
     0
  9
$PUCSORGTOP
 10
0.0
 20
0.0
 30
0.0
  9
$PUCSORGBOTTOM
 10
0.0
 20
0.0
 30
0.0
  9
$PUCSORGLEFT
 10
0.0
 20
0.0
 30
0.0
  9
$PUCSORGRIGHT
 10
0.0
 20
0.0
 30
0.0
  9
$PUCSORGFRONT
 10
0.0
 20
0.0
 30
0.0
  9
$PUCSORGBACK
 10
0.0
 20
0.0
 30
0.0
  9
$USERI1
 70
     0
  9
$USERI2
 70
     0
  9
$USERI3
 70
     0
  9
$USERI4
 70
     0
  9
$USERI5
 70
     0
  9
$USERR1
 40
0.0
  9
$USERR2
 40
0.0
  9
$USERR3
 40
0.0
  9
$USERR4
 40
0.0
  9
$USERR5
 40
0.0
  9
$WORLDVIEW
 70
     1
  9
$SHADEDGE
 70
     3
  9
$SHADEDIF
 70
    70
  9
$TILEMODE
 70
     1
  9
$MAXACTVP
 70
    64
  9
$PINSBASE
 10
0.0
 20
0.0
 30
0.0
  9
$PLIMCHECK
 70
     0
  9
$PEXTMIN
 10
1.000000000000000E+20
 20
1.000000000000000E+20
 30
1.000000000000000E+20
  9
$PEXTMAX
 10
-1.000000000000000E+20
 20
-1.000000000000000E+20
 30
-1.000000000000000E+20
  9
$PLIMMIN
 10
0.0
 20
0.0
  9
$PLIMMAX
 10
420.0
 20
297.0
  9
$UNITMODE
 70
     0
  9
$VISRETAIN
 70
     1
  9
$PLINEGEN
 70
     0
  9
$PSLTSCALE
 70
     1
  9
$TREEDEPTH
 70
  3020
  9
$CMLSTYLE
  2
Standard
  9
$CMLJUST
 70
     0
  9
$CMLSCALE
 40
20.0
  9
$PROXYGRAPHICS
 70
     1
  9
$MEASUREMENT
 70
     1
  9
$CELWEIGHT
370
    -1
  9
$ENDCAPS
280
     0
  9
$JOINSTYLE
280
     0
  9
$LWDISPLAY
290
     1
  9
$INSUNITS
 70
     4
  9
$HYPERLINKBASE
  1

  9
$STYLESHEET
  1

  9
$XEDIT
290
     1
  9
$CEPSNTYPE
380
     0
  9
$PSTYLEMODE
290
     1
  9
$FINGERPRINTGUID
  2
{F7C73BC8-0B00-4273-BCBD-7A17A940162A}
  9
$VERSIONGUID
  2
{371BD31D-4E47-48E9-A3EA-1EF4F4594231}
  9
$EXTNAMES
290
     1
  9
$PSVPSCALE
 40
0.0
  9
$OLESTARTUP
290
     0
  9
$SORTENTS
280
   127
  9
$INDEXCTL
280
     0
  9
$HIDETEXT
280
     0
  9
$XCLIPFRAME
290
     0
  9
$HALOGAP
280
     0
  9
$OBSCOLOR
 70
   257
  9
$OBSLTYPE
280
     0
  9
$INTERSECTIONDISPLAY
280
     0
  9
$INTERSECTIONCOLOR
 70
   257
  9
$DIMASSOC
280
     1
  9
$PROJECTNAME
  1

  0
ENDSEC
  0
SECTION
  2
CLASSES
  0
CLASS
  1
ACDBDICTIONARYWDFLT
  2
AcDbDictionaryWithDefault
  3
ObjectDBX Classes
 90
        0
 91
        1
280
     0
281
     0
  0
CLASS
  1
VISUALSTYLE
  2
AcDbVisualStyle
  3
ObjectDBX Classes
 90
     4095
 91
        0
280
     0
281
     0
  0
CLASS
  1
MATERIAL
  2
AcDbMaterial
  3
ObjectDBX Classes
 90
        0
 91
        0
280
     0
281
     0
  0
CLASS
  1
SCALE
  2
AcDbScale
  3
ObjectDBX Classes
 90
     1153
 91
       34
280
     0
281
     0
  0
CLASS
  1
SUN
  2
AcDbSun
  3
SCENEOE
 90
     1153
 91
        0
280
     0
281
     0
  0
CLASS
  1
ACDBPLACEHOLDER
  2
AcDbPlaceHolder
  3
ObjectDBX Classes
 90
        0
 91
        1
280
     0
281
     0
  0
CLASS
  1
LAYOUT
  2
AcDbLayout
  3
ObjectDBX Classes
 90
        0
 91
        3
280
     0
281
     0
  0
CLASS
  1
TABLESTYLE
  2
AcDbTableStyle
  3
ObjectDBX Classes
 90
     2047
 91
        1
280
     0
281
     0
  0
CLASS
  1
DICTIONARYVAR
  2
AcDbDictionaryVar
  3
ObjectDBX Classes
 90
        0
 91
        1
280
     0
281
     0
  0
CLASS
  1
SORTENTSTABLE
  2
AcDbSortentsTable
  3
ObjectDBX Classes
 90
        0
 91
        1
280
     0
281
     0
  0
ENDSEC
  0
SECTION
  2
TABLES
  0
TABLE
  2
VPORT
  5
8
330
0
100
AcDbSymbolTable
 70
     2
  0
VPORT
  5
DFB
330
8
100
AcDbSymbolTableRecord
100
AcDbViewportTableRecord
  2
*Active
 70
     0
 10
0.0
 20
0.0
 11
1.0
 21
1.0
 12
223.1876412897695
 22
247.0866590038263
 13
0.0
 23
0.0
 14
10.0
 24
10.0
 15
10.0
 25
10.0
 16
0.0
 26
0.0
 36
1.0
 17
0.0
 27
0.0
 37
0.0
 40
494.5789083713959
 41
1.931147540983606
 42
50.0
 43
0.0
 44
0.0
 50
0.0
 51
0.0
 71
     0
 72
  2000
 73
     1
 74
     3
 75
     0
 76
     0
 77
     0
 78
     0
281
     0
 65
     1
110
0.0
120
0.0
130
0.0
111
1.0
121
0.0
131
0.0
112
0.0
122
1.0
132
0.0
 79
     0
146
0.0
  0
ENDTAB
  0
TABLE
  2
LTYPE
  5
5
330
0
100
AcDbSymbolTable
 70
     2
  0
LTYPE
  5
14
330
5
100
AcDbSymbolTableRecord
100
AcDbLinetypeTableRecord
  2
ByBlock
 70
     0
  3

 72
    65
 73
     0
 40
0.0
  0
LTYPE
  5
15
330
5
100
AcDbSymbolTableRecord
100
AcDbLinetypeTableRecord
  2
ByLayer
 70
     0
  3

 72
    65
 73
     0
 40
0.0
  0
LTYPE
  5
16
330
5
100
AcDbSymbolTableRecord
100
AcDbLinetypeTableRecord
  2
Continuous
 70
     0
  3
Solid line
 72
    65
 73
     0
 40
0.0
  0
LTYPE
  5
6D
330
5
100
AcDbSymbolTableRecord
100
AcDbLinetypeTableRecord
  2
CENTERX2
 70
     0
  3
Center (2x) ________  __  ________  __  _____
 72
    65
 73
     4
 40
20.32
 49
12.7
 74
     0
 49
-2.54
 74
     0
 49
2.54
 74
     0
 49
-2.54
 74
     0
  0
ENDTAB
  0
TABLE
  2
LAYER
  5
2
102
{ACAD_XDICTIONARY
360
724
102
}
330
0
100
AcDbSymbolTable
 70
     3
  0
LAYER
  5
10
330
2
100
AcDbSymbolTableRecord
100
AcDbLayerTableRecord
  2
0
 70
     0
 62
     7
  6
Continuous
370
    -3
390
F
  0
LAYER
  5
70
330
2
100
AcDbSymbolTableRecord
100
AcDbLayerTableRecord
  2
SLD-0
 70
     0
 62
     7
  6
Continuous
370
    -3
390
F
  0
LAYER
  5
7E6
330
2
100
AcDbSymbolTableRecord
100
AcDbLayerTableRecord
  2
Defpoints
 70
     0
 62
     7
  6
Continuous
290
     0
370
    -3
390
F
  0
ENDTAB
  0
TABLE
  2
STYLE
  5
3
330
0
100
AcDbSymbolTable
 70
     1
  0
STYLE
  5
11
330
3
100
AcDbSymbolTableRecord
100
AcDbTextStyleTableRecord
  2
Standard
 70
     0
 40
0.0
 41
1.0
 50
0.0
 71
     0
 42
3.962399999999999
  3
ARIAL.TTF
  4

1001
ACAD
1000
Arial
1071
       34
  0
ENDTAB
  0
TABLE
  2
VIEW
  5
6
330
0
100
AcDbSymbolTable
 70
     0
  0
ENDTAB
  0
TABLE
  2
UCS
  5
7
330
0
100
AcDbSymbolTable
 70
     0
  0
ENDTAB
  0
TABLE
  2
APPID
  5
9
330
0
100
AcDbSymbolTable
 70
     2
  0
APPID
  5
12
330
9
100
AcDbSymbolTableRecord
100
AcDbRegAppTableRecord
  2
ACAD
 70
     0
  0
APPID
  5
72A
330
9
100
AcDbSymbolTableRecord
100
AcDbRegAppTableRecord
  2
ACAD_DSTYLE_DIMTEXT_FILL
 70
     0
  0
ENDTAB
  0
TABLE
  2
DIMSTYLE
  5
A
330
0
100
AcDbSymbolTable
 70
     3
100
AcDbDimStyleTable
 71
     2
340
79C
340
923
  0
DIMSTYLE
105
2F1
330
A
100
AcDbSymbolTableRecord
100
AcDbDimStyleTableRecord
  2
SLDDIMSTYLE3
 70
     0
 41
3.301999999999999
 44
0.0
 45
0.000000001
146
3.301999999999999
147
0.0
173
     1
271
     0
272
     0
276
     2
340
11
  0
DIMSTYLE
105
79C
102
{ACAD_REACTORS
330
261
330
278
330
26D
330
255
330
2CF
330
2E6
330
2DB
330
60F
330
684
330
678
330
69C
330
690
330
6CC
330
604
330
6A8
330
DDC
102
}
330
A
100
AcDbSymbolTableRecord
100
AcDbDimStyleTableRecord
  2
STANDARD
 70
     0
 41
3.301999999999999
 42
1.27
 43
3.75
 44
3.174999999999999
 78
     1
140
4.0
141
2.5
143
0.0393700787401575
147
1.524
171
     3
179
     2
271
     1
272
     1
274
     3
283
     0
284
     1
340
11
  0
DIMSTYLE
105
923
102
{ACAD_REACTORS
330
AE6
330
6BB
102
}
330
A
100
AcDbSymbolTableRecord
100
AcDbDimStyleTableRecord
  2
TOL
 70
     0
 41
3.301999999999999
 42
1.27
 43
3.75
 44
3.174999999999999
 47
0.05
 48
-0.02
 72
     1
 78
     1
140
4.0
141
2.5
143
0.0393700787401575
147
1.524
171
     3
179
     2
271
     2
272
     2
274
     3
283
     0
284
     1
340
11
  0
ENDTAB
  0
TABLE
  2
BLOCK_RECORD
  5
1
330
0
100
AcDbSymbolTable
 70
    27
  0
BLOCK_RECORD
  5
1F
102
{ACAD_XDICTIONARY
360
C6A
102
}
330
1
100
AcDbSymbolTableRecord
100
AcDbBlockTableRecord
  2
*Model_Space
340
22
  0
BLOCK_RECORD
  5
1B
330
1
100
AcDbSymbolTableRecord
100
AcDbBlockTableRecord
  2
*Paper_Space
340
1E
  0
BLOCK_RECORD
  5
23
330
1
100
AcDbSymbolTableRecord
100
AcDbBlockTableRecord
  2
*Paper_Space0
340
26
  0
BLOCK_RECORD
  5
257
330
1
100
AcDbSymbolTableRecord
100
AcDbBlockTableRecord
  2
_D
340
0
  0
BLOCK_RECORD
  5
263
330
1
100
AcDbSymbolTableRecord
100
AcDbBlockTableRecord
  2
_D_1
340
0
  0
BLOCK_RECORD
  5
26E
330
1
100
AcDbSymbolTableRecord
100
AcDbBlockTableRecord
  2
_D_2
340
0
  0
BLOCK_RECORD
  5
279
330
1
100
AcDbSymbolTableRecord
100
AcDbBlockTableRecord
  2
_D_3
340
0
  0
BLOCK_RECORD
  5
2D1
330
1
100
AcDbSymbolTableRecord
100
AcDbBlockTableRecord
  2
_D_4
340
0
  0
BLOCK_RECORD
  5
2DC
330
1
100
AcDbSymbolTableRecord
100
AcDbBlockTableRecord
  2
_D_5
340
0
  0
BLOCK_RECORD
  5
2E7
330
1
100
AcDbSymbolTableRecord
100
AcDbBlockTableRecord
  2
_D_6
340
0
  0
BLOCK_RECORD
  5
605
330
1
100
AcDbSymbolTableRecord
100
AcDbBlockTableRecord
  2
_D_7
340
0
  0
BLOCK_RECORD
  5
610
330
1
100
AcDbSymbolTableRecord
100
AcDbBlockTableRecord
  2
_D_8
340
0
  0
BLOCK_RECORD
  5
679
330
1
100
AcDbSymbolTableRecord
100
AcDbBlockTableRecord
  2
_D_9
340
0
  0
BLOCK_RECORD
  5
685
330
1
100
AcDbSymbolTableRecord
100
AcDbBlockTableRecord
  2
_D_10
340
0
  0
BLOCK_RECORD
  5
691
330
1
100
AcDbSymbolTableRecord
100
AcDbBlockTableRecord
  2
_D_11
340
0
  0
BLOCK_RECORD
  5
69D
330
1
100
AcDbSymbolTableRecord
100
AcDbBlockTableRecord
  2
_D_12
340
0
  0
BLOCK_RECORD
  5
6AA
330
1
100
AcDbSymbolTableRecord
100
AcDbBlockTableRecord
  2
_D_13
340
0
  0
BLOCK_RECORD
  5
6BD
330
1
100
AcDbSymbolTableRecord
100
AcDbBlockTableRecord
  2
_D_14
340
0
  0
BLOCK_RECORD
  5
6CE
330
1
100
AcDbSymbolTableRecord
100
AcDbBlockTableRecord
  2
_D_15
340
0
  0
BLOCK_RECORD
  5
6E7
330
1
100
AcDbSymbolTableRecord
100
AcDbBlockTableRecord
  2
SW_CENTERMARKSYMBOL_0
340
0
102
{BLKREFS
331
6EE
102
}
  0
BLOCK_RECORD
  5
6EF
330
1
100
AcDbSymbolTableRecord
100
AcDbBlockTableRecord
  2
SW_CENTERMARKSYMBOL_1
340
0
102
{BLKREFS
331
6F6
102
}
  0
BLOCK_RECORD
  5
6F7
330
1
100
AcDbSymbolTableRecord
100
AcDbBlockTableRecord
  2
SW_CENTERMARKSYMBOL_2
340
0
102
{BLKREFS
331
6FE
102
}
  0
BLOCK_RECORD
  5
6FF
330
1
100
AcDbSymbolTableRecord
100
AcDbBlockTableRecord
  2
SW_CENTERMARKSYMBOL_3
340
0
102
{BLKREFS
331
706
102
}
  0
BLOCK_RECORD
  5
707
330
1
100
AcDbSymbolTableRecord
100
AcDbBlockTableRecord
  2
SW_CENTERMARKSYMBOL_4
340
0
102
{BLKREFS
331
70E
102
}
  0
BLOCK_RECORD
  5
70F
330
1
100
AcDbSymbolTableRecord
100
AcDbBlockTableRecord
  2
SW_CENTERMARKSYMBOL_5
340
0
102
{BLKREFS
331
716
102
}
  0
BLOCK_RECORD
  5
AE7
330
1
100
AcDbSymbolTableRecord
100
AcDbBlockTableRecord
  2
*D23
340
0
  0
BLOCK_RECORD
  5
DDD
330
1
100
AcDbSymbolTableRecord
100
AcDbBlockTableRecord
  2
*D26
340
0
  0
ENDTAB
  0
ENDSEC
  0
SECTION
  2
BLOCKS
  0
BLOCK
  5
20
330
1F
100
AcDbEntity
  8
0
100
AcDbBlockBegin
  2
*Model_Space
 70
     0
 10
0.0
 20
0.0
 30
0.0
  3
*Model_Space
  1

  0
ENDBLK
  5
21
330
1F
100
AcDbEntity
  8
0
100
AcDbBlockEnd
  0
BLOCK
  5
1C
330
1B
100
AcDbEntity
 67
     1
  8
0
100
AcDbBlockBegin
  2
*Paper_Space
 70
     0
 10
0.0
 20
0.0
 30
0.0
  3
*Paper_Space
  1

  0
ENDBLK
  5
1D
330
1B
100
AcDbEntity
 67
     1
  8
0
100
AcDbBlockEnd
  0
BLOCK
  5
24
330
23
100
AcDbEntity
  8
0
100
AcDbBlockBegin
  2
*Paper_Space0
 70
     0
 10
0.0
 20
0.0
 30
0.0
  3
*Paper_Space0
  1

  0
ENDBLK
  5
25
330
23
100
AcDbEntity
  8
0
100
AcDbBlockEnd
  0
BLOCK
  5
258
330
257
100
AcDbEntity
  8
0
100
AcDbBlockBegin
  2
_D
 70
     0
 10
0.0
 20
0.0
 30
0.0
  3
_D
  1

  0
LINE
  5
805
330
257
100
AcDbEntity
  8
SLD-0
 62
     0
370
    -2
100
AcDbLine
 10
63.95972147900309
 20
228.1039316248681
 30
0.0
 11
63.95972147900309
 21
204.6244039057237
 31
0.0
  0
LINE
  5
806
330
257
100
AcDbEntity
  8
SLD-0
 62
     0
370
    -2
100
AcDbLine
 10
182.159721479003
 20
228.1039316248689
 30
0.0
 11
182.159721479003
 21
204.6244039057237
 31
0.0
  0
LINE
  5
807
330
257
100
AcDbEntity
  8
SLD-0
 62
     0
370
    -2
100
AcDbLine
 10
67.26172147900308
 20
207.7994039057237
 30
0.0
 11
113.4950726628555
 21
207.7994039057237
 31
0.0
  0
LINE
  5
808
330
257
100
AcDbEntity
  8
SLD-0
 62
     0
370
    -2
100
AcDbLine
 10
178.8577214790031
 20
207.7994039057237
 30
0.0
 11
129.6235637951884
 21
207.7994039057237
 31
0.0
  0
SOLID
  5
809
330
257
100
AcDbEntity
  8
SLD-0
 62
     0
100
AcDbTrace
 10
67.26172147900308
 20
208.349737239057
 30
0.0
 11
67.26172147900308
 21
207.2490705723903
 31
0.0
 12
63.95972147900309
 22
207.7994039057237
 32
0.0
 13
63.95972147900309
 23
207.7994039057237
 33
0.0
  0
SOLID
  5
80A
330
257
100
AcDbEntity
  8
SLD-0
 62
     0
100
AcDbTrace
 10
178.8577214790031
 20
208.349737239057
 30
0.0
 11
178.8577214790031
 21
207.2490705723903
 31
0.0
 12
182.159721479003
 22
207.7994039057237
 32
0.0
 13
182.159721479003
 23
207.7994039057237
 33
0.0
  0
MTEXT
  5
80B
330
257
100
AcDbEntity
  8
SLD-0
 62
     0
100
AcDbMText
 10
121.5593182290219
 20
209.8416958566104
 30
0.0
 40
4.0
 41
0.0
 71
     2
 72
     1
  1
118.2
 73
     1
 44
1.0
  0
POINT
  5
80C
330
257
100
AcDbEntity
  8
Defpoints
 62
     0
100
AcDbPoint
 10
63.95972147900309
 20
229.3739316248681
 30
0.0
  0
POINT
  5
80D
330
257
100
AcDbEntity
  8
Defpoints
 62
     0
100
AcDbPoint
 10
182.159721479003
 20
229.3739316248689
 30
0.0
  0
POINT
  5
80E
330
257
100
AcDbEntity
  8
Defpoints
 62
     0
100
AcDbPoint
 10
182.159721479003
 20
207.7994039057237
 30
0.0
  0
ENDBLK
  5
259
330
257
100
AcDbEntity
  8
0
100
AcDbBlockEnd
  0
BLOCK
  5
264
330
263
100
AcDbEntity
  8
0
100
AcDbBlockBegin
  2
_D_1
 70
     0
 10
0.0
 20
0.0
 30
0.0
  3
_D_1
  1

  0
LINE
  5
7E7
330
263
100
AcDbEntity
  8
SLD-0
 62
     0
370
    -2
100
AcDbLine
 10
64.28972147900307
 20
227.7739316248681
 30
0.0
 11
38.7847214790019
 21
227.7739316248681
 31
0.0
  0
LINE
  5
7E8
330
263
100
AcDbEntity
  8
SLD-0
 62
     0
370
    -2
100
AcDbLine
 10
64.28972147900275
 20
339.7739316248684
 30
0.0
 11
38.78472147900192
 21
339.7739316248684
 31
0.0
  0
LINE
  5
7E9
330
263
100
AcDbEntity
  8
SLD-0
 62
     0
370
    -2
100
AcDbLine
 10
41.95972147900189
 20
231.0759316248681
 30
0.0
 11
41.95972147900191
 21
281.5579544582202
 31
0.0
  0
LINE
  5
7EA
330
263
100
AcDbEntity
  8
SLD-0
 62
     0
370
    -2
100
AcDbLine
 10
41.95972147900191
 20
336.4719316248684
 30
0.0
 11
41.95972147900191
 21
288.6905383599937
 31
0.0
  0
SOLID
  5
7EB
330
263
100
AcDbEntity
  8
SLD-0
 62
     0
100
AcDbTrace
 10
41.40938814566855
 20
231.0759316248681
 30
0.0
 11
42.51005481233522
 21
231.0759316248681
 31
0.0
 12
41.95972147900189
 22
227.7739316248681
 32
0.0
 13
41.95972147900189
 23
227.7739316248681
 33
0.0
  0
SOLID
  5
7EC
330
263
100
AcDbEntity
  8
SLD-0
 62
     0
100
AcDbTrace
 10
41.40938814566858
 20
336.4719316248684
 30
0.0
 11
42.51005481233526
 21
336.4719316248684
 31
0.0
 12
41.95972147900191
 22
339.7739316248684
 32
0.0
 13
41.95972147900191
 23
339.7739316248684
 33
0.0
  0
MTEXT
  5
7ED
330
263
100
AcDbEntity
  8
SLD-0
 62
     0
100
AcDbMText
 10
41.95972147900185
 20
287.1665383599937
 30
0.0
 40
4.0
 41
0.0
 71
     2
 72
     1
  1
112.0
 73
     1
 44
1.0
  0
POINT
  5
7EE
330
263
100
AcDbEntity
  8
Defpoints
 62
     0
100
AcDbPoint
 10
65.55972147900307
 20
227.7739316248681
 30
0.0
  0
POINT
  5
7EF
330
263
100
AcDbEntity
  8
Defpoints
 62
     0
100
AcDbPoint
 10
65.55972147900274
 20
339.7739316248684
 30
0.0
  0
POINT
  5
7F0
330
263
100
AcDbEntity
  8
Defpoints
 62
     0
100
AcDbPoint
 10
41.95972147900191
 20
339.7739316248684
 30
0.0
  0
ENDBLK
  5
265
330
263
100
AcDbEntity
  8
0
100
AcDbBlockEnd
  0
BLOCK
  5
26F
330
26E
100
AcDbEntity
  8
0
100
AcDbBlockBegin
  2
_D_2
 70
     0
 10
0.0
 20
0.0
 30
0.0
  3
_D_2
  1

  0
LINE
  5
7FB
330
26E
100
AcDbEntity
  8
SLD-0
 62
     0
370
    -2
100
AcDbLine
 10
123.0597214790032
 20
231.5039316248685
 30
0.0
 11
123.0597214790032
 21
214.5989316248676
 31
0.0
  0
LINE
  5
7FC
330
26E
100
AcDbEntity
  8
SLD-0
 62
     0
370
    -2
100
AcDbLine
 10
63.95972147900309
 20
228.1039316248681
 30
0.0
 11
63.95972147900309
 21
214.5989316248676
 31
0.0
  0
LINE
  5
7FD
330
26E
100
AcDbEntity
  8
SLD-0
 62
     0
370
    -2
100
AcDbLine
 10
119.7577214790032
 20
217.7739316248676
 30
0.0
 11
102.7812032749837
 21
217.7739316248676
 31
0.0
  0
LINE
  5
7FE
330
26E
100
AcDbEntity
  8
SLD-0
 62
     0
370
    -2
100
AcDbLine
 10
67.26172147900308
 20
217.7739316248676
 30
0.0
 11
90.11519508944479
 21
217.7739316248676
 31
0.0
  0
SOLID
  5
7FF
330
26E
100
AcDbEntity
  8
SLD-0
 62
     0
100
AcDbTrace
 10
119.7577214790032
 20
218.3242649582009
 30
0.0
 11
119.7577214790032
 21
217.2235982915343
 31
0.0
 12
123.0597214790032
 22
217.7739316248676
 32
0.0
 13
123.0597214790032
 23
217.7739316248676
 33
0.0
  0
SOLID
  5
800
330
26E
100
AcDbEntity
  8
SLD-0
 62
     0
100
AcDbTrace
 10
67.26172147900308
 20
218.3242649582009
 30
0.0
 11
67.26172147900308
 21
217.2235982915343
 31
0.0
 12
63.95972147900309
 22
217.7739316248676
 32
0.0
 13
63.95972147900309
 23
217.7739316248676
 33
0.0
  0
MTEXT
  5
801
330
26E
100
AcDbEntity
  8
SLD-0
 62
     0
100
AcDbMText
 10
96.44819918221422
 20
219.8162235757544
 30
0.0
 40
4.0
 41
0.0
 71
     2
 72
     1
  1
59.1
 73
     1
 44
1.0
  0
POINT
  5
802
330
26E
100
AcDbEntity
  8
Defpoints
 62
     0
100
AcDbPoint
 10
123.0597214790032
 20
232.7739316248685
 30
0.0
  0
POINT
  5
803
330
26E
100
AcDbEntity
  8
Defpoints
 62
     0
100
AcDbPoint
 10
63.95972147900309
 20
229.3739316248681
 30
0.0
  0
POINT
  5
804
330
26E
100
AcDbEntity
  8
Defpoints
 62
     0
100
AcDbPoint
 10
63.95972147900309
 20
217.7739316248676
 30
0.0
  0
ENDBLK
  5
270
330
26E
100
AcDbEntity
  8
0
100
AcDbBlockEnd
  0
BLOCK
  5
27A
330
279
100
AcDbEntity
  8
0
100
AcDbBlockBegin
  2
_D_3
 70
     0
 10
0.0
 20
0.0
 30
0.0
  3
_D_3
  1

  0
LINE
  5
7F1
330
279
100
AcDbEntity
  8
SLD-0
 62
     0
370
    -2
100
AcDbLine
 10
70.7897214790027
 20
283.7739316248681
 30
0.0
 11
50.78472147900208
 21
283.7739316248681
 31
0.0
  0
LINE
  5
7F2
330
279
100
AcDbEntity
  8
SLD-0
 62
     0
370
    -2
100
AcDbLine
 10
64.28972147900307
 20
227.7739316248681
 30
0.0
 11
50.78472147900207
 21
227.7739316248681
 31
0.0
  0
LINE
  5
7F3
330
279
100
AcDbEntity
  8
SLD-0
 62
     0
370
    -2
100
AcDbLine
 10
53.95972147900208
 20
280.4719316248681
 30
0.0
 11
53.95972147900208
 21
262.8382584904264
 31
0.0
  0
LINE
  5
7F4
330
279
100
AcDbEntity
  8
SLD-0
 62
     0
370
    -2
100
AcDbLine
 10
53.95972147900207
 20
231.0759316248681
 30
0.0
 11
53.95972147900208
 21
255.7056745886529
 31
0.0
  0
SOLID
  5
7F5
330
279
100
AcDbEntity
  8
SLD-0
 62
     0
100
AcDbTrace
 10
53.40938814566875
 20
280.4719316248681
 30
0.0
 11
54.51005481233542
 21
280.4719316248681
 31
0.0
 12
53.95972147900208
 22
283.7739316248681
 32
0.0
 13
53.95972147900208
 23
283.7739316248681
 33
0.0
  0
SOLID
  5
7F6
330
279
100
AcDbEntity
  8
SLD-0
 62
     0
100
AcDbTrace
 10
53.40938814566873
 20
231.0759316248681
 30
0.0
 11
54.5100548123354
 21
231.0759316248681
 31
0.0
 12
53.95972147900207
 22
227.7739316248681
 32
0.0
 13
53.95972147900207
 23
227.7739316248681
 33
0.0
  0
MTEXT
  5
7F7
330
279
100
AcDbEntity
  8
SLD-0
 62
     0
100
AcDbMText
 10
53.95972147900203
 20
261.3142584904264
 30
0.0
 40
4.0
 41
0.0
 71
     2
 72
     1
  1
56.0
 73
     1
 44
1.0
  0
POINT
  5
7F8
330
279
100
AcDbEntity
  8
Defpoints
 62
     0
100
AcDbPoint
 10
72.05972147900268
 20
283.7739316248681
 30
0.0
  0
POINT
  5
7F9
330
279
100
AcDbEntity
  8
Defpoints
 62
     0
100
AcDbPoint
 10
65.55972147900307
 20
227.7739316248681
 30
0.0
  0
POINT
  5
7FA
330
279
100
AcDbEntity
  8
Defpoints
 62
     0
100
AcDbPoint
 10
53.95972147900207
 20
227.7739316248681
 30
0.0
  0
ENDBLK
  5
27B
330
279
100
AcDbEntity
  8
0
100
AcDbBlockEnd
  0
BLOCK
  5
2D2
330
2D1
100
AcDbEntity
  8
0
100
AcDbBlockBegin
  2
_D_4
 70
     0
 10
0.0
 20
0.0
 30
0.0
  3
_D_4
  1

  0
LINE
  5
80F
330
2D1
100
AcDbEntity
  8
SLD-0
 62
     0
370
    -2
100
AcDbLine
 10
228.0696238108915
 20
228.1039316248689
 30
0.0
 11
228.0696238108915
 21
208.5989316248676
 31
0.0
  0
LINE
  5
810
330
2D1
100
AcDbEntity
  8
SLD-0
 62
     0
370
    -2
100
AcDbLine
 10
347.0696238108915
 20
228.1039316248689
 30
0.0
 11
347.0696238108915
 21
208.5989316248676
 31
0.0
  0
LINE
  5
811
330
2D1
100
AcDbEntity
  8
SLD-0
 62
     0
370
    -2
100
AcDbLine
 10
231.3716238108914
 20
211.7739316248676
 30
0.0
 11
283.7794674518871
 21
211.7739316248676
 31
0.0
  0
LINE
  5
812
330
2D1
100
AcDbEntity
  8
SLD-0
 62
     0
370
    -2
100
AcDbLine
 10
343.7676238108914
 20
211.7739316248676
 30
0.0
 11
299.9352437138244
 21
211.7739316248676
 31
0.0
  0
SOLID
  5
813
330
2D1
100
AcDbEntity
  8
SLD-0
 62
     0
100
AcDbTrace
 10
231.3716238108914
 20
212.324264958201
 30
0.0
 11
231.3716238108914
 21
211.2235982915343
 31
0.0
 12
228.0696238108915
 22
211.7739316248676
 32
0.0
 13
228.0696238108915
 23
211.7739316248676
 33
0.0
  0
SOLID
  5
814
330
2D1
100
AcDbEntity
  8
SLD-0
 62
     0
100
AcDbTrace
 10
343.7676238108914
 20
212.324264958201
 30
0.0
 11
343.7676238108914
 21
211.2235982915343
 31
0.0
 12
347.0696238108915
 22
211.7739316248676
 32
0.0
 13
347.0696238108915
 23
211.7739316248676
 33
0.0
  0
MTEXT
  5
815
330
2D1
100
AcDbEntity
  8
SLD-0
 62
     0
100
AcDbMText
 10
291.8573555828558
 20
213.8162235757544
 30
0.0
 40
4.0
 41
0.0
 71
     2
 72
     1
  1
119.0
 73
     1
 44
1.0
  0
POINT
  5
816
330
2D1
100
AcDbEntity
  8
Defpoints
 62
     0
100
AcDbPoint
 10
228.0696238108915
 20
229.3739316248689
 30
0.0
  0
POINT
  5
817
330
2D1
100
AcDbEntity
  8
Defpoints
 62
     0
100
AcDbPoint
 10
347.0696238108915
 20
229.3739316248689
 30
0.0
  0
POINT
  5
818
330
2D1
100
AcDbEntity
  8
Defpoints
 62
     0
100
AcDbPoint
 10
347.0696238108915
 20
211.7739316248676
 30
0.0
  0
ENDBLK
  5
2D3
330
2D1
100
AcDbEntity
  8
0
100
AcDbBlockEnd
  0
BLOCK
  5
2DD
330
2DC
100
AcDbEntity
  8
0
100
AcDbBlockBegin
  2
_D_5
 70
     0
 10
0.0
 20
0.0
 30
0.0
  3
_D_5
  1

  0
LINE
  5
823
330
2DC
100
AcDbEntity
  8
SLD-0
 62
     0
370
    -2
100
AcDbLine
 10
254.1527488108916
 20
373.1114316248684
 30
0.0
 11
201.3071238108914
 21
373.1114316248684
 31
0.0
  0
LINE
  5
824
330
2DC
100
AcDbEntity
  8
SLD-0
 62
     0
370
    -2
100
AcDbLine
 10
228.3996238108914
 20
227.7739316248689
 30
0.0
 11
201.3071238108914
 21
227.7739316248689
 31
0.0
  0
LINE
  5
825
330
2DC
100
AcDbEntity
  8
SLD-0
 62
     0
370
    -2
100
AcDbLine
 10
204.4821238108915
 20
369.8094316248684
 30
0.0
 11
204.4821238108914
 21
307.5246926370196
 31
0.0
  0
LINE
  5
826
330
2DC
100
AcDbEntity
  8
SLD-0
 62
     0
370
    -2
100
AcDbLine
 10
204.4821238108914
 20
231.0759316248689
 30
0.0
 11
204.4821238108914
 21
300.3893802222856
 31
0.0
  0
SOLID
  5
827
330
2DC
100
AcDbEntity
  8
SLD-0
 62
     0
100
AcDbTrace
 10
203.9317904775581
 20
369.8094316248684
 30
0.0
 11
205.0324571442248
 21
369.8094316248684
 31
0.0
 12
204.4821238108915
 22
373.1114316248684
 32
0.0
 13
204.4821238108915
 23
373.1114316248684
 33
0.0
  0
SOLID
  5
828
330
2DC
100
AcDbEntity
  8
SLD-0
 62
     0
100
AcDbTrace
 10
203.9317904775581
 20
231.0759316248689
 30
0.0
 11
205.0324571442248
 21
231.0759316248689
 31
0.0
 12
204.4821238108914
 22
227.7739316248689
 32
0.0
 13
204.4821238108914
 23
227.7739316248689
 33
0.0
  0
MTEXT
  5
829
330
2DC
100
AcDbEntity
  8
SLD-0
 62
     0
100
AcDbMText
 10
204.4821238108914
 20
306.0006926370197
 30
0.0
 40
4.0
 41
0.0
 71
     2
 72
     1
  1
145.3
 73
     1
 44
1.0
  0
POINT
  5
82A
330
2DC
100
AcDbEntity
  8
Defpoints
 62
     0
100
AcDbPoint
 10
255.4227488108916
 20
373.1114316248684
 30
0.0
  0
POINT
  5
82B
330
2DC
100
AcDbEntity
  8
Defpoints
 62
     0
100
AcDbPoint
 10
229.6696238108915
 20
227.7739316248689
 30
0.0
  0
POINT
  5
82C
330
2DC
100
AcDbEntity
  8
Defpoints
 62
     0
100
AcDbPoint
 10
204.4821238108914
 20
227.7739316248689
 30
0.0
  0
ENDBLK
  5
2DE
330
2DC
100
AcDbEntity
  8
0
100
AcDbBlockEnd
  0
BLOCK
  5
2E8
330
2E7
100
AcDbEntity
  8
0
100
AcDbBlockBegin
  2
_D_6
 70
     0
 10
0.0
 20
0.0
 30
0.0
  3
_D_6
  1

  0
LINE
  5
819
330
2E7
100
AcDbEntity
  8
SLD-0
 62
     0
370
    -2
100
AcDbLine
 10
210.9934456001025
 20
283.7739316248688
 30
0.0
 11
219.6571238108915
 21
283.7739316248688
 31
0.0
  0
LINE
  5
81A
330
2E7
100
AcDbEntity
  8
SLD-0
 62
     0
370
    -2
100
AcDbLine
 10
228.3996238108914
 20
227.7739316248689
 30
0.0
 11
213.3071238108914
 21
227.7739316248689
 31
0.0
  0
LINE
  5
81B
330
2E7
100
AcDbEntity
  8
SLD-0
 62
     0
370
    -2
100
AcDbLine
 10
216.4821238108915
 20
280.4719316248688
 30
0.0
 11
216.4821238108915
 21
261.0243288926188
 31
0.0
  0
LINE
  5
81C
330
2E7
100
AcDbEntity
  8
SLD-0
 62
     0
370
    -2
100
AcDbLine
 10
216.4821238108915
 20
231.0759316248689
 30
0.0
 11
216.4821238108915
 21
253.8917449908452
 31
0.0
  0
SOLID
  5
81D
330
2E7
100
AcDbEntity
  8
SLD-0
 62
     0
100
AcDbTrace
 10
215.9317904775581
 20
280.4719316248688
 30
0.0
 11
217.0324571442248
 21
280.4719316248688
 31
0.0
 12
216.4821238108915
 22
283.7739316248688
 32
0.0
 13
216.4821238108915
 23
283.7739316248688
 33
0.0
  0
SOLID
  5
81E
330
2E7
100
AcDbEntity
  8
SLD-0
 62
     0
100
AcDbTrace
 10
215.9317904775581
 20
231.0759316248689
 30
0.0
 11
217.0324571442248
 21
231.0759316248689
 31
0.0
 12
216.4821238108915
 22
227.7739316248689
 32
0.0
 13
216.4821238108915
 23
227.7739316248689
 33
0.0
  0
MTEXT
  5
81F
330
2E7
100
AcDbEntity
  8
SLD-0
 62
     0
100
AcDbMText
 10
216.4821238108914
 20
259.5003288926188
 30
0.0
 40
4.0
 41
0.0
 71
     2
 72
     1
  1
56.0
 73
     1
 44
1.0
  0
POINT
  5
820
330
2E7
100
AcDbEntity
  8
Defpoints
 62
     0
100
AcDbPoint
 10
209.7234456001025
 20
283.7739316248688
 30
0.0
  0
POINT
  5
821
330
2E7
100
AcDbEntity
  8
Defpoints
 62
     0
100
AcDbPoint
 10
229.6696238108915
 20
227.7739316248689
 30
0.0
  0
POINT
  5
822
330
2E7
100
AcDbEntity
  8
Defpoints
 62
     0
100
AcDbPoint
 10
216.4821238108915
 20
227.7739316248689
 30
0.0
  0
ENDBLK
  5
2E9
330
2E7
100
AcDbEntity
  8
0
100
AcDbBlockEnd
  0
BLOCK
  5
606
330
605
100
AcDbEntity
  8
0
100
AcDbBlockBegin
  2
_D_7
 70
     0
 10
0.0
 20
0.0
 30
0.0
  3
_D_7
  1

  0
LINE
  5
873
330
605
100
AcDbEntity
  8
SLD-0
 62
     0
370
    -2
100
AcDbLine
 10
414.2413320567967
 20
263.6539316248688
 30
0.0
 11
414.2413320567967
 21
214.5989316248679
 31
0.0
  0
LINE
  5
874
330
605
100
AcDbEntity
  8
SLD-0
 62
     0
370
    -2
100
AcDbLine
 10
461.3288320567971
 20
231.5039316248681
 30
0.0
 11
461.3288320567971
 21
214.5989316248679
 31
0.0
  0
LINE
  5
875
330
605
100
AcDbEntity
  8
SLD-0
 62
     0
370
    -2
100
AcDbLine
 10
417.5433320567967
 20
217.773931624868
 30
0.0
 11
433.340133981845
 21
217.773931624868
 31
0.0
  0
LINE
  5
876
330
605
100
AcDbEntity
  8
SLD-0
 62
     0
370
    -2
100
AcDbLine
 10
458.0268320567971
 20
217.773931624868
 30
0.0
 11
446.1671244320497
 21
217.773931624868
 31
0.0
  0
SOLID
  5
877
330
605
100
AcDbEntity
  8
SLD-0
 62
     0
100
AcDbTrace
 10
417.5433320567967
 20
218.3242649582012
 30
0.0
 11
417.5433320567967
 21
217.2235982915346
 31
0.0
 12
414.2413320567967
 22
217.773931624868
 32
0.0
 13
414.2413320567967
 23
217.773931624868
 33
0.0
  0
SOLID
  5
878
330
605
100
AcDbEntity
  8
SLD-0
 62
     0
100
AcDbTrace
 10
458.0268320567971
 20
218.3242649582012
 30
0.0
 11
458.0268320567971
 21
217.2235982915346
 31
0.0
 12
461.3288320567971
 22
217.773931624868
 32
0.0
 13
461.3288320567971
 23
217.773931624868
 33
0.0
  0
MTEXT
  5
879
330
605
100
AcDbEntity
  8
SLD-0
 62
     0
100
AcDbMText
 10
439.7536292069473
 20
219.7821171637492
 30
0.0
 40
4.0
 41
0.0
 71
     2
 72
     1
  1
47.1
 73
     1
 44
1.0
  0
POINT
  5
87A
330
605
100
AcDbEntity
  8
Defpoints
 62
     0
100
AcDbPoint
 10
414.2413320567967
 20
264.9239316248688
 30
0.0
  0
POINT
  5
87B
330
605
100
AcDbEntity
  8
Defpoints
 62
     0
100
AcDbPoint
 10
461.3288320567971
 20
232.7739316248682
 30
0.0
  0
POINT
  5
87C
330
605
100
AcDbEntity
  8
Defpoints
 62
     0
100
AcDbPoint
 10
461.3288320567971
 20
217.773931624868
 30
0.0
  0
ENDBLK
  5
607
330
605
100
AcDbEntity
  8
0
100
AcDbBlockEnd
  0
BLOCK
  5
611
330
610
100
AcDbEntity
  8
0
100
AcDbBlockBegin
  2
_D_8
 70
     0
 10
0.0
 20
0.0
 30
0.0
  3
_D_8
  1

  0
LINE
  5
82D
330
610
100
AcDbEntity
  8
SLD-0
 62
     0
370
    -2
100
AcDbLine
 10
441.2088320567972
 20
330.8614316248685
 30
0.0
 11
386.6287805403327
 21
330.8614316248685
 31
0.0
  0
LINE
  5
82E
330
610
100
AcDbEntity
  8
SLD-0
 62
     0
370
    -2
100
AcDbLine
 10
416.558832056797
 20
283.7739316248685
 30
0.0
 11
386.6287805403327
 21
283.7739316248685
 31
0.0
  0
LINE
  5
82F
330
610
100
AcDbEntity
  8
SLD-0
 62
     0
370
    -2
100
AcDbLine
 10
389.8037805403328
 20
327.5594316248685
 30
0.0
 11
389.8037805403328
 21
310.3983237155487
 31
0.0
  0
LINE
  5
830
330
610
100
AcDbEntity
  8
SLD-0
 62
     0
370
    -2
100
AcDbLine
 10
389.8037805403328
 20
287.0759316248685
 30
0.0
 11
389.8037805403328
 21
303.333952637786
 31
0.0
  0
SOLID
  5
831
330
610
100
AcDbEntity
  8
SLD-0
 62
     0
100
AcDbTrace
 10
389.2534472069994
 20
327.5594316248685
 30
0.0
 11
390.3541138736661
 21
327.5594316248685
 31
0.0
 12
389.8037805403328
 22
330.8614316248685
 32
0.0
 13
389.8037805403328
 23
330.8614316248685
 33
0.0
  0
SOLID
  5
832
330
610
100
AcDbEntity
  8
SLD-0
 62
     0
100
AcDbTrace
 10
389.2534472069994
 20
287.0759316248685
 30
0.0
 11
390.3541138736661
 21
287.0759316248685
 31
0.0
 12
389.8037805403328
 22
283.7739316248685
 32
0.0
 13
389.8037805403328
 23
283.7739316248685
 33
0.0
  0
MTEXT
  5
833
330
610
100
AcDbEntity
  8
SLD-0
 62
     0
100
AcDbMText
 10
389.8037805403327
 20
308.8743237155488
 30
0.0
 40
4.0
 41
0.0
 71
     2
 72
     1
  1
47.1
 73
     1
 44
1.0
  0
POINT
  5
834
330
610
100
AcDbEntity
  8
Defpoints
 62
     0
100
AcDbPoint
 10
442.4788320567972
 20
330.8614316248685
 30
0.0
  0
POINT
  5
835
330
610
100
AcDbEntity
  8
Defpoints
 62
     0
100
AcDbPoint
 10
417.8288320567969
 20
283.7739316248685
 30
0.0
  0
POINT
  5
836
330
610
100
AcDbEntity
  8
Defpoints
 62
     0
100
AcDbPoint
 10
389.8037805403328
 20
283.7739316248685
 30
0.0
  0
ENDBLK
  5
612
330
610
100
AcDbEntity
  8
0
100
AcDbBlockEnd
  0
BLOCK
  5
67A
330
679
100
AcDbEntity
  8
0
100
AcDbBlockBegin
  2
_D_9
 70
     0
 10
0.0
 20
0.0
 30
0.0
  3
_D_9
  1

  0
LINE
  5
84B
330
679
100
AcDbEntity
  8
SLD-0
 62
     0
370
    -2
100
AcDbLine
 10
257.5696238108919
 20
98.57353446017345
 30
0.0
 11
257.5696238108919
 21
61.5685344601718
 31
0.0
  0
LINE
  5
84C
330
679
100
AcDbEntity
  8
SLD-0
 62
     0
370
    -2
100
AcDbLine
 10
228.0696238108919
 20
75.0735344601733
 30
0.0
 11
228.0696238108919
 21
61.5685344601718
 31
0.0
  0
LINE
  5
84D
330
679
100
AcDbEntity
  8
SLD-0
 62
     0
370
    -2
100
AcDbLine
 10
254.2676238108919
 20
64.7435344601718
 30
0.0
 11
248.9229491118319
 21
64.7435344601718
 31
0.0
  0
LINE
  5
84E
330
679
100
AcDbEntity
  8
SLD-0
 62
     0
370
    -2
100
AcDbLine
 10
231.371623810892
 20
64.7435344601718
 30
0.0
 11
235.3865452919137
 21
64.7435344601718
 31
0.0
  0
SOLID
  5
84F
330
679
100
AcDbEntity
  8
SLD-0
 62
     0
100
AcDbTrace
 10
254.2676238108919
 20
65.29386779350513
 30
0.0
 11
254.2676238108919
 21
64.19320112683847
 31
0.0
 12
257.5696238108919
 22
64.7435344601718
 32
0.0
 13
257.5696238108919
 23
64.7435344601718
 33
0.0
  0
SOLID
  5
850
330
679
100
AcDbEntity
  8
SLD-0
 62
     0
100
AcDbTrace
 10
231.371623810892
 20
65.29386779350513
 30
0.0
 11
231.371623810892
 21
64.19320112683847
 31
0.0
 12
228.0696238108919
 22
64.7435344601718
 32
0.0
 13
228.0696238108919
 23
64.7435344601718
 33
0.0
  0
MTEXT
  5
851
330
679
100
AcDbEntity
  8
SLD-0
 62
     0
100
AcDbMText
 10
242.1547472018728
 20
70.12734528327321
 30
0.0
 40
4.0
 41
0.0
 71
     2
 72
     1
  1
3X\P29.5
 73
     1
 44
1.0
  0
POINT
  5
852
330
679
100
AcDbEntity
  8
Defpoints
 62
     0
100
AcDbPoint
 10
257.5696238108919
 20
99.84353446017344
 30
0.0
  0
POINT
  5
853
330
679
100
AcDbEntity
  8
Defpoints
 62
     0
100
AcDbPoint
 10
228.0696238108919
 20
76.3435344601733
 30
0.0
  0
POINT
  5
854
330
679
100
AcDbEntity
  8
Defpoints
 62
     0
100
AcDbPoint
 10
228.0696238108919
 20
64.7435344601718
 30
0.0
  0
ENDBLK
  5
67B
330
679
100
AcDbEntity
  8
0
100
AcDbBlockEnd
  0
BLOCK
  5
686
330
685
100
AcDbEntity
  8
0
100
AcDbBlockBegin
  2
_D_10
 70
     0
 10
0.0
 20
0.0
 30
0.0
  3
_D_10
  1

  0
LINE
  5
841
330
685
100
AcDbEntity
  8
SLD-0
 62
     0
370
    -2
100
AcDbLine
 10
257.5696238108919
 20
98.57353446017345
 30
0.0
 11
257.5696238108919
 21
61.5685344601718
 31
0.0
  0
LINE
  5
842
330
685
100
AcDbEntity
  8
SLD-0
 62
     0
370
    -2
100
AcDbLine
 10
317.5696238108919
 20
98.57353446017363
 30
0.0
 11
317.5696238108919
 21
61.5685344601718
 31
0.0
  0
LINE
  5
843
330
685
100
AcDbEntity
  8
SLD-0
 62
     0
370
    -2
100
AcDbLine
 10
260.8716238108919
 20
64.7435344601718
 30
0.0
 11
283.1000394003327
 21
64.7435344601718
 31
0.0
  0
LINE
  5
844
330
685
100
AcDbEntity
  8
SLD-0
 62
     0
370
    -2
100
AcDbLine
 10
314.2676238108919
 20
64.7435344601718
 30
0.0
 11
296.5464022925565
 21
64.7435344601718
 31
0.0
  0
SOLID
  5
845
330
685
100
AcDbEntity
  8
SLD-0
 62
     0
100
AcDbTrace
 10
260.8716238108919
 20
65.29386779350513
 30
0.0
 11
260.8716238108919
 21
64.19320112683847
 31
0.0
 12
257.5696238108919
 22
64.7435344601718
 32
0.0
 13
257.5696238108919
 23
64.7435344601718
 33
0.0
  0
SOLID
  5
846
330
685
100
AcDbEntity
  8
SLD-0
 62
     0
100
AcDbTrace
 10
314.2676238108919
 20
65.29386779350513
 30
0.0
 11
314.2676238108919
 21
64.19320112683847
 31
0.0
 12
317.5696238108919
 22
64.7435344601718
 32
0.0
 13
317.5696238108919
 23
64.7435344601718
 33
0.0
  0
MTEXT
  5
847
330
685
100
AcDbEntity
  8
SLD-0
 62
     0
100
AcDbMText
 10
289.8232208464446
 20
70.12734528327321
 30
0.0
 40
4.0
 41
0.0
 71
     2
 72
     1
  1
3X\P60.0
 73
     1
 44
1.0
  0
POINT
  5
848
330
685
100
AcDbEntity
  8
Defpoints
 62
     0
100
AcDbPoint
 10
257.5696238108919
 20
99.84353446017344
 30
0.0
  0
POINT
  5
849
330
685
100
AcDbEntity
  8
Defpoints
 62
     0
100
AcDbPoint
 10
317.5696238108919
 20
99.84353446017363
 30
0.0
  0
POINT
  5
84A
330
685
100
AcDbEntity
  8
Defpoints
 62
     0
100
AcDbPoint
 10
317.5696238108919
 20
64.7435344601718
 30
0.0
  0
ENDBLK
  5
687
330
685
100
AcDbEntity
  8
0
100
AcDbBlockEnd
  0
BLOCK
  5
692
330
691
100
AcDbEntity
  8
0
100
AcDbBlockBegin
  2
_D_11
 70
     0
 10
0.0
 20
0.0
 30
0.0
  3
_D_11
  1

  0
LINE
  5
85F
330
691
100
AcDbEntity
  8
SLD-0
 62
     0
370
    -2
100
AcDbLine
 10
353.0896238108917
 20
133.8435344601737
 30
0.0
 11
385.5411238108921
 21
133.8435344601737
 31
0.0
  0
LINE
  5
860
330
691
100
AcDbEntity
  8
SLD-0
 62
     0
370
    -2
100
AcDbLine
 10
322.8396238108918
 20
103.8435344601736
 30
0.0
 11
385.541123810892
 21
103.8435344601736
 31
0.0
  0
LINE
  5
861
330
691
100
AcDbEntity
  8
SLD-0
 62
     0
370
    -2
100
AcDbLine
 10
382.3661238108921
 20
130.5415344601737
 30
0.0
 11
382.366123810892
 21
126.0358060198314
 31
0.0
  0
LINE
  5
862
330
691
100
AcDbEntity
  8
SLD-0
 62
     0
370
    -2
100
AcDbLine
 10
382.366123810892
 20
107.1455344601736
 30
0.0
 11
382.366123810892
 21
112.2174558606682
 31
0.0
  0
SOLID
  5
863
330
691
100
AcDbEntity
  8
SLD-0
 62
     0
100
AcDbTrace
 10
381.8157904775587
 20
130.5415344601737
 30
0.0
 11
382.9164571442254
 21
130.5415344601737
 31
0.0
 12
382.3661238108921
 22
133.8435344601737
 32
0.0
 13
382.3661238108921
 23
133.8435344601737
 33
0.0
  0
SOLID
  5
864
330
691
100
AcDbEntity
  8
SLD-0
 62
     0
100
AcDbTrace
 10
381.8157904775587
 20
107.1455344601736
 30
0.0
 11
382.9164571442254
 21
107.1455344601736
 31
0.0
 12
382.366123810892
 22
103.8435344601736
 32
0.0
 13
382.366123810892
 23
103.8435344601736
 33
0.0
  0
MTEXT
  5
865
330
691
100
AcDbEntity
  8
SLD-0
 62
     0
100
AcDbMText
 10
382.366123810892
 20
124.5118060198315
 30
0.0
 40
4.0
 41
0.0
 71
     2
 72
     1
  1
2X\P30.0
 73
     1
 44
1.0
  0
POINT
  5
866
330
691
100
AcDbEntity
  8
Defpoints
 62
     0
100
AcDbPoint
 10
351.8196238108918
 20
133.8435344601737
 30
0.0
  0
POINT
  5
867
330
691
100
AcDbEntity
  8
Defpoints
 62
     0
100
AcDbPoint
 10
321.5696238108919
 20
103.8435344601736
 30
0.0
  0
POINT
  5
868
330
691
100
AcDbEntity
  8
Defpoints
 62
     0
100
AcDbPoint
 10
382.366123810892
 20
103.8435344601736
 30
0.0
  0
ENDBLK
  5
693
330
691
100
AcDbEntity
  8
0
100
AcDbBlockEnd
  0
BLOCK
  5
69E
330
69D
100
AcDbEntity
  8
0
100
AcDbBlockBegin
  2
_D_12
 70
     0
 10
0.0
 20
0.0
 30
0.0
  3
_D_12
  1

  0
LINE
  5
855
330
69D
100
AcDbEntity
  8
SLD-0
 62
     0
370
    -2
100
AcDbLine
 10
322.8396238108918
 20
103.8435344601736
 30
0.0
 11
403.5411238108919
 21
103.8435344601736
 31
0.0
  0
LINE
  5
856
330
69D
100
AcDbEntity
  8
SLD-0
 62
     0
370
    -2
100
AcDbLine
 10
322.8396238108916
 20
163.8435344601736
 30
0.0
 11
403.5411238108919
 21
163.8435344601736
 31
0.0
  0
LINE
  5
857
330
69D
100
AcDbEntity
  8
SLD-0
 62
     0
370
    -2
100
AcDbLine
 10
400.3661238108919
 20
107.1455344601736
 30
0.0
 11
400.366123810892
 21
129.6325351486132
 31
0.0
  0
LINE
  5
858
330
69D
100
AcDbEntity
  8
SLD-0
 62
     0
370
    -2
100
AcDbLine
 10
400.366123810892
 20
160.5415344601736
 30
0.0
 11
400.366123810892
 21
143.448156794816
 31
0.0
  0
SOLID
  5
859
330
69D
100
AcDbEntity
  8
SLD-0
 62
     0
100
AcDbTrace
 10
399.8157904775586
 20
107.1455344601736
 30
0.0
 11
400.9164571442253
 21
107.1455344601736
 31
0.0
 12
400.3661238108919
 22
103.8435344601736
 32
0.0
 13
400.3661238108919
 23
103.8435344601736
 33
0.0
  0
SOLID
  5
85A
330
69D
100
AcDbEntity
  8
SLD-0
 62
     0
100
AcDbTrace
 10
399.8157904775587
 20
160.5415344601736
 30
0.0
 11
400.9164571442253
 21
160.5415344601736
 31
0.0
 12
400.366123810892
 22
163.8435344601736
 32
0.0
 13
400.366123810892
 23
163.8435344601736
 33
0.0
  0
MTEXT
  5
85B
330
69D
100
AcDbEntity
  8
SLD-0
 62
     0
100
AcDbMText
 10
400.3661238108919
 20
141.924156794816
 30
0.0
 40
4.0
 41
0.0
 71
     2
 72
     1
  1
2X\P60.0
 73
     1
 44
1.0
  0
POINT
  5
85C
330
69D
100
AcDbEntity
  8
Defpoints
 62
     0
100
AcDbPoint
 10
321.5696238108919
 20
103.8435344601736
 30
0.0
  0
POINT
  5
85D
330
69D
100
AcDbEntity
  8
Defpoints
 62
     0
100
AcDbPoint
 10
321.5696238108916
 20
163.8435344601736
 30
0.0
  0
POINT
  5
85E
330
69D
100
AcDbEntity
  8
Defpoints
 62
     0
100
AcDbPoint
 10
400.366123810892
 20
163.8435344601736
 30
0.0
  0
ENDBLK
  5
69F
330
69D
100
AcDbEntity
  8
0
100
AcDbBlockEnd
  0
BLOCK
  5
6AB
330
6AA
100
AcDbEntity
  8
0
100
AcDbBlockBegin
  2
_D_13
 70
     0
 10
0.0
 20
0.0
 30
0.0
  3
_D_13
  1

  0
LINE
  5
8AF
330
6AA
100
AcDbEntity
  8
SLD-0
 62
     0
370
    -2
100
AcDbLine
 10
211.9620537823188
 20
118.1321486478077
 30
0.0
 11
219.851718696439
 21
118.1321486478077
 31
0.0
  0
LINE
  5
8B0
330
6AA
100
AcDbEntity
  8
SLD-0
 62
     0
370
    -2
100
AcDbLine
 10
219.851718696439
 20
118.1321486478077
 30
0.0
 11
252.5179603231633
 21
105.7572481291294
 31
0.0
  0
MTEXT
  5
8B1
330
6AA
100
AcDbEntity
  8
SLD-0
 62
     0
100
AcDbMText
 10
210.4380537823189
 20
118.1321486478077
 30
0.0
 40
4.0
 41
0.0
 71
     6
 72
     1
  1
4X\PM5X0.8 {\fGDT|b0|i0|c0|p0;x} 7
 73
     1
 44
1.0
  0
SOLID
  5
8B2
330
6AA
100
AcDbEntity
  8
SLD-0
 62
     0
100
AcDbTrace
 10
252.7129215268808
 20
106.2718906330317
 30
0.0
 11
252.3229991194458
 21
105.2426056252272
 31
0.0
 12
255.6058153465769
 22
104.5874809068242
 32
0.0
 13
255.6058153465769
 23
104.5874809068242
 33
0.0
  0
LINE
  5
8B3
330
6AA
100
AcDbEntity
  8
SLD-0
 62
     0
370
    -2
100
AcDbLine
 10
255.069623810892
 20
103.8435344601734
 30
0.0
 11
260.069623810892
 21
103.8435344601734
 31
0.0
  0
LINE
  5
8B4
330
6AA
100
AcDbEntity
  8
SLD-0
 62
     0
370
    -2
100
AcDbLine
 10
257.569623810892
 20
101.3435344601735
 30
0.0
 11
257.569623810892
 21
106.3435344601734
 31
0.0
  0
POINT
  5
8B5
330
6AA
100
AcDbEntity
  8
Defpoints
 62
     0
100
AcDbPoint
 10
255.6058153465769
 20
104.5874809068242
 30
0.0
  0
POINT
  5
8B6
330
6AA
100
AcDbEntity
  8
Defpoints
 62
     0
100
AcDbPoint
 10
259.533432275207
 20
103.0995880135227
 30
0.0
  0
ENDBLK
  5
6AC
330
6AA
100
AcDbEntity
  8
0
100
AcDbBlockEnd
  0
BLOCK
  5
6BE
330
6BD
100
AcDbEntity
  8
0
100
AcDbBlockBegin
  2
_D_14
 70
     0
 10
0.0
 20
0.0
 30
0.0
  3
_D_14
  1

  0
LINE
  5
C84
330
6BD
100
AcDbEntity
  8
SLD-0
 62
     0
370
    -2
100
AcDbLine
 10
320.3396238108918
 20
131.3185344601736
 30
0.0
 11
358.4750639226339
 21
131.3185344601736
 31
0.0
  0
LINE
  5
C85
330
6BD
100
AcDbEntity
  8
SLD-0
 62
     0
370
    -2
100
AcDbLine
 10
320.3396238108918
 20
136.3685344601736
 30
0.0
 11
358.4750639226339
 21
136.3685344601736
 31
0.0
  0
LINE
  5
C86
330
6BD
100
AcDbEntity
  8
SLD-0
 62
     0
370
    -2
100
AcDbLine
 10
355.3000639226339
 20
128.0165344601736
 30
0.0
 11
355.3000639226338
 21
124.7145344601736
 31
0.0
  0
LINE
  5
C87
330
6BD
100
AcDbEntity
  8
SLD-0
 62
     0
370
    -2
100
AcDbLine
 10
355.3000639226339
 20
139.6705344601736
 30
0.0
 11
355.3000639226339
 21
151.3864191176639
 31
0.0
  0
LINE
  5
C88
330
6BD
100
AcDbEntity
  8
SLD-0
 62
     0
370
    -2
100
AcDbLine
 10
355.3000639226339
 20
151.3864191176639
 30
0.0
 11
358.6020639226339
 21
151.3864191176639
 31
0.0
  0
SOLID
  5
C89
330
6BD
100
AcDbEntity
  8
SLD-0
 62
     0
100
AcDbTrace
 10
354.7497305893005
 20
128.0165344601736
 30
0.0
 11
355.8503972559673
 21
128.0165344601736
 31
0.0
 12
355.3000639226339
 22
131.3185344601736
 32
0.0
 13
355.3000639226339
 23
131.3185344601736
 33
0.0
  0
SOLID
  5
C8A
330
6BD
100
AcDbEntity
  8
SLD-0
 62
     0
100
AcDbTrace
 10
354.7497305893005
 20
139.6705344601736
 30
0.0
 11
355.8503972559673
 21
139.6705344601736
 31
0.0
 12
355.3000639226339
 22
136.3685344601736
 32
0.0
 13
355.3000639226339
 23
136.3685344601736
 33
0.0
  0
MTEXT
  5
C8B
330
6BD
100
AcDbEntity
  8
SLD-0
 62
     0
100
AcDbMText
 10
378.7659826767683
 20
156.1717760981096
 30
0.0
 40
4.0
 41
0.0
 71
     2
 72
     1
  1
\S5.05^ 5.02; {\fGDT|b0|i0|c0|p0;X} 6 DEEP
 73
     1
 44
1.0
  0
POINT
  5
C8C
330
6BD
100
AcDbEntity
  8
Defpoints
 62
     0
100
AcDbPoint
 10
319.0696238108917
 20
131.3185344601736
 30
0.0
  0
POINT
  5
C8D
330
6BD
100
AcDbEntity
  8
Defpoints
 62
     0
100
AcDbPoint
 10
319.0696238108917
 20
136.3685344601736
 30
0.0
  0
POINT
  5
C8E
330
6BD
100
AcDbEntity
  8
Defpoints
 62
     0
100
AcDbPoint
 10
355.3000639226339
 20
136.3685344601736
 30
0.0
  0
ENDBLK
  5
6BF
330
6BD
100
AcDbEntity
  8
0
100
AcDbBlockEnd
  0
BLOCK
  5
6CF
330
6CE
100
AcDbEntity
  8
0
100
AcDbBlockBegin
  2
_D_15
 70
     0
 10
0.0
 20
0.0
 30
0.0
  3
_D_15
  1

  0
LINE
  5
869
330
6CE
100
AcDbEntity
  8
SLD-0
 62
     0
370
    -2
100
AcDbLine
 10
316.0696238108918
 20
130.0485344601736
 30
0.0
 11
316.0696238108918
 21
115.9516309402501
 31
0.0
  0
LINE
  5
86A
330
6CE
100
AcDbEntity
  8
SLD-0
 62
     0
370
    -2
100
AcDbLine
 10
319.0696238108917
 20
130.0485344601736
 30
0.0
 11
319.0696238108917
 21
115.9516309402501
 31
0.0
  0
LINE
  5
86B
330
6CE
100
AcDbEntity
  8
SLD-0
 62
     0
370
    -2
100
AcDbLine
 10
312.7676238108918
 20
119.1266309402501
 30
0.0
 11
309.4656238108918
 21
119.1266309402501
 31
0.0
  0
LINE
  5
86C
330
6CE
100
AcDbEntity
  8
SLD-0
 62
     0
370
    -2
100
AcDbLine
 10
322.3716238108918
 20
119.1266309402501
 30
0.0
 11
355.930127765355
 21
119.1266309402501
 31
0.0
  0
SOLID
  5
86D
330
6CE
100
AcDbEntity
  8
SLD-0
 62
     0
100
AcDbTrace
 10
312.7676238108918
 20
119.6769642735835
 30
0.0
 11
312.7676238108918
 21
118.5762976069168
 31
0.0
 12
316.0696238108918
 22
119.1266309402501
 32
0.0
 13
316.0696238108918
 23
119.1266309402501
 33
0.0
  0
SOLID
  5
86E
330
6CE
100
AcDbEntity
  8
SLD-0
 62
     0
100
AcDbTrace
 10
322.3716238108918
 20
119.6769642735835
 30
0.0
 11
322.3716238108918
 21
118.5762976069168
 31
0.0
 12
319.0696238108917
 22
119.1266309402501
 32
0.0
 13
319.0696238108917
 23
119.1266309402501
 33
0.0
  0
MTEXT
  5
86F
330
6CE
100
AcDbEntity
  8
SLD-0
 62
     0
100
AcDbMText
 10
361.0871427721763
 20
121.1702871476171
 30
0.0
 40
4.0
 41
0.0
 71
     2
 72
     1
  1
3.0
 73
     1
 44
1.0
  0
POINT
  5
870
330
6CE
100
AcDbEntity
  8
Defpoints
 62
     0
100
AcDbPoint
 10
316.0696238108918
 20
131.3185344601736
 30
0.0
  0
POINT
  5
871
330
6CE
100
AcDbEntity
  8
Defpoints
 62
     0
100
AcDbPoint
 10
319.0696238108917
 20
131.3185344601736
 30
0.0
  0
POINT
  5
872
330
6CE
100
AcDbEntity
  8
Defpoints
 62
     0
100
AcDbPoint
 10
319.0696238108917
 20
119.1266309402501
 30
0.0
  0
ENDBLK
  5
6D0
330
6CE
100
AcDbEntity
  8
0
100
AcDbBlockEnd
  0
BLOCK
  5
6E8
330
6E7
100
AcDbEntity
  8
0
100
AcDbBlockBegin
  2
SW_CENTERMARKSYMBOL_0
 70
     0
 10
0.0
 20
0.0
 30
0.0
  3
SW_CENTERMARKSYMBOL_0
  1

  0
LINE
  5
6EA
330
6E7
100
AcDbEntity
  8
SLD-0
 62
     0
100
AcDbLine
 10
0.0
 20
0.0
 30
0.0
 11
0.0
 21
3.999999999999976
 31
0.0
  0
LINE
  5
6EB
330
6E7
100
AcDbEntity
  8
SLD-0
 62
     0
100
AcDbLine
 10
0.0
 20
0.0
 30
0.0
 11
-4.000000000000003
 21
0.0
 31
0.0
  0
LINE
  5
6EC
330
6E7
100
AcDbEntity
  8
SLD-0
 62
     0
100
AcDbLine
 10
0.0
 20
0.0
 30
0.0
 11
0.0
 21
-4.000000000000003
 31
0.0
  0
LINE
  5
6ED
330
6E7
100
AcDbEntity
  8
SLD-0
 62
     0
100
AcDbLine
 10
0.0
 20
0.0
 30
0.0
 11
4.000000000000003
 21
0.0
 31
0.0
  0
ENDBLK
  5
6E9
330
6E7
100
AcDbEntity
  8
0
100
AcDbBlockEnd
  0
BLOCK
  5
6F0
330
6EF
100
AcDbEntity
  8
0
100
AcDbBlockBegin
  2
SW_CENTERMARKSYMBOL_1
 70
     0
 10
0.0
 20
0.0
 30
0.0
  3
SW_CENTERMARKSYMBOL_1
  1

  0
LINE
  5
6F2
330
6EF
100
AcDbEntity
  8
SLD-0
 62
     0
100
AcDbLine
 10
0.0
 20
0.0
 30
0.0
 11
0.0
 21
4.000000000000003
 31
0.0
  0
LINE
  5
6F3
330
6EF
100
AcDbEntity
  8
SLD-0
 62
     0
100
AcDbLine
 10
0.0
 20
0.0
 30
0.0
 11
-4.000000000000003
 21
0.0
 31
0.0
  0
LINE
  5
6F4
330
6EF
100
AcDbEntity
  8
SLD-0
 62
     0
100
AcDbLine
 10
0.0
 20
0.0
 30
0.0
 11
0.0
 21
-3.999999999999976
 31
0.0
  0
LINE
  5
6F5
330
6EF
100
AcDbEntity
  8
SLD-0
 62
     0
100
AcDbLine
 10
0.0
 20
0.0
 30
0.0
 11
4.000000000000003
 21
0.0
 31
0.0
  0
ENDBLK
  5
6F1
330
6EF
100
AcDbEntity
  8
0
100
AcDbBlockEnd
  0
BLOCK
  5
6F8
330
6F7
100
AcDbEntity
  8
0
100
AcDbBlockBegin
  2
SW_CENTERMARKSYMBOL_2
 70
     0
 10
0.0
 20
0.0
 30
0.0
  3
SW_CENTERMARKSYMBOL_2
  1

  0
LINE
  5
6FA
330
6F7
100
AcDbEntity
  8
SLD-0
 62
     0
100
AcDbLine
 10
0.0
 20
0.0
 30
0.0
 11
0.0
 21
4.000000000000003
 31
0.0
  0
LINE
  5
6FB
330
6F7
100
AcDbEntity
  8
SLD-0
 62
     0
100
AcDbLine
 10
0.0
 20
0.0
 30
0.0
 11
-4.000000000000003
 21
0.0
 31
0.0
  0
LINE
  5
6FC
330
6F7
100
AcDbEntity
  8
SLD-0
 62
     0
100
AcDbLine
 10
0.0
 20
0.0
 30
0.0
 11
0.0
 21
-4.000000000000003
 31
0.0
  0
LINE
  5
6FD
330
6F7
100
AcDbEntity
  8
SLD-0
 62
     0
100
AcDbLine
 10
0.0
 20
0.0
 30
0.0
 11
4.000000000000003
 21
0.0
 31
0.0
  0
ENDBLK
  5
6F9
330
6F7
100
AcDbEntity
  8
0
100
AcDbBlockEnd
  0
BLOCK
  5
700
330
6FF
100
AcDbEntity
  8
0
100
AcDbBlockBegin
  2
SW_CENTERMARKSYMBOL_3
 70
     0
 10
0.0
 20
0.0
 30
0.0
  3
SW_CENTERMARKSYMBOL_3
  1

  0
LINE
  5
702
330
6FF
100
AcDbEntity
  8
SLD-0
 62
     0
100
AcDbLine
 10
0.0
 20
0.0
 30
0.0
 11
0.0
 21
3.999999999999989
 31
0.0
  0
LINE
  5
703
330
6FF
100
AcDbEntity
  8
SLD-0
 62
     0
100
AcDbLine
 10
0.0
 20
0.0
 30
0.0
 11
-4.000000000000003
 21
0.0
 31
0.0
  0
LINE
  5
704
330
6FF
100
AcDbEntity
  8
SLD-0
 62
     0
100
AcDbLine
 10
0.0
 20
0.0
 30
0.0
 11
0.0
 21
-4.000000000000003
 31
0.0
  0
LINE
  5
705
330
6FF
100
AcDbEntity
  8
SLD-0
 62
     0
100
AcDbLine
 10
0.0
 20
0.0
 30
0.0
 11
4.000000000000003
 21
0.0
 31
0.0
  0
ENDBLK
  5
701
330
6FF
100
AcDbEntity
  8
0
100
AcDbBlockEnd
  0
BLOCK
  5
708
330
707
100
AcDbEntity
  8
0
100
AcDbBlockBegin
  2
SW_CENTERMARKSYMBOL_4
 70
     0
 10
0.0
 20
0.0
 30
0.0
  3
SW_CENTERMARKSYMBOL_4
  1

  0
LINE
  5
70A
330
707
100
AcDbEntity
  8
SLD-0
 62
     0
100
AcDbLine
 10
0.0
 20
0.0
 30
0.0
 11
0.0
 21
4.000000000000003
 31
0.0
  0
LINE
  5
70B
330
707
100
AcDbEntity
  8
SLD-0
 62
     0
100
AcDbLine
 10
0.0
 20
0.0
 30
0.0
 11
-4.000000000000003
 21
0.0
 31
0.0
  0
LINE
  5
70C
330
707
100
AcDbEntity
  8
SLD-0
 62
     0
100
AcDbLine
 10
0.0
 20
0.0
 30
0.0
 11
0.0
 21
-3.999999999999989
 31
0.0
  0
LINE
  5
70D
330
707
100
AcDbEntity
  8
SLD-0
 62
     0
100
AcDbLine
 10
0.0
 20
0.0
 30
0.0
 11
4.000000000000003
 21
0.0
 31
0.0
  0
ENDBLK
  5
709
330
707
100
AcDbEntity
  8
0
100
AcDbBlockEnd
  0
BLOCK
  5
710
330
70F
100
AcDbEntity
  8
0
100
AcDbBlockBegin
  2
SW_CENTERMARKSYMBOL_5
 70
     0
 10
0.0
 20
0.0
 30
0.0
  3
SW_CENTERMARKSYMBOL_5
  1

  0
LINE
  5
712
330
70F
100
AcDbEntity
  8
SLD-0
 62
     0
100
AcDbLine
 10
0.0
 20
0.0
 30
0.0
 11
0.0
 21
4.000000000000003
 31
0.0
  0
LINE
  5
713
330
70F
100
AcDbEntity
  8
SLD-0
 62
     0
100
AcDbLine
 10
0.0
 20
0.0
 30
0.0
 11
-4.000000000000003
 21
0.0
 31
0.0
  0
LINE
  5
714
330
70F
100
AcDbEntity
  8
SLD-0
 62
     0
100
AcDbLine
 10
0.0
 20
0.0
 30
0.0
 11
0.0
 21
-4.000000000000003
 31
0.0
  0
LINE
  5
715
330
70F
100
AcDbEntity
  8
SLD-0
 62
     0
100
AcDbLine
 10
0.0
 20
0.0
 30
0.0
 11
4.000000000000003
 21
0.0
 31
0.0
  0
ENDBLK
  5
711
330
70F
100
AcDbEntity
  8
0
100
AcDbBlockEnd
  0
BLOCK
  5
AF0
330
AE7
100
AcDbEntity
  8
0
100
AcDbBlockBegin
  2
*D23
 70
     1
 10
0.0
 20
0.0
 30
0.0
  3
*D23
  1

  0
LINE
  5
C71
330
AE7
100
AcDbEntity
  8
0
 62
     0
370
    -2
100
AcDbLine
 10
214.4734640572471
 20
155.2604849212445
 30
0.0
 11
217.7754640572471
 21
155.2604849212445
 31
0.0
  0
LINE
  5
C72
330
AE7
100
AcDbEntity
  8
0
 62
     0
370
    -2
100
AcDbLine
 10
217.7754640572471
 20
155.2604849212445
 30
0.0
 11
252.4605585481629
 21
136.5931991926779
 31
0.0
  0
MTEXT
  5
C73
330
AE7
100
AcDbEntity
  8
0
 62
     0
100
AcDbMText
 10
192.3123562809852
 20
155.2604849212445
 30
0.0
 40
4.0
 41
0.0
 71
     5
 72
     1
  1
\U+2205\S5.05^ 5.02; X 6 DEEP
 73
     1
 44
1.0
  0
SOLID
  5
C74
330
AE7
100
AcDbEntity
  8
0
 62
     0
100
AcDbTrace
 10
252.7213707091054
 20
137.0778060379477
 30
0.0
 11
252.1997463872204
 21
136.1085923474082
 31
0.0
 12
255.3681996197814
 22
135.0283262270231
 32
0.0
 13
255.3681996197814
 23
135.0283262270231
 33
0.0
  0
LINE
  5
C75
330
AE7
100
AcDbEntity
  8
0
 62
     0
370
    -2
100
AcDbLine
 10
255.0696238108917
 20
133.8435344601736
 30
0.0
 11
260.0696238108917
 21
133.8435344601736
 31
0.0
  0
LINE
  5
C76
330
AE7
100
AcDbEntity
  8
0
 62
     0
370
    -2
100
AcDbLine
 10
257.5696238108917
 20
131.3435344601736
 30
0.0
 11
257.5696238108917
 21
136.3435344601736
 31
0.0
  0
POINT
  5
C77
330
AE7
100
AcDbEntity
  8
Defpoints
 62
     0
100
AcDbPoint
 10
255.3681996197814
 20
135.0283262270231
 30
0.0
  0
POINT
  5
C78
330
AE7
100
AcDbEntity
  8
Defpoints
 62
     0
100
AcDbPoint
 10
259.771048002002
 20
132.6587426933241
 30
0.0
  0
ENDBLK
  5
AF1
330
AE7
100
AcDbEntity
  8
0
100
AcDbBlockEnd
  0
BLOCK
  5
DE8
330
DDD
100
AcDbEntity
  8
0
100
AcDbBlockBegin
  2
*D26
 70
     1
 10
0.0
 20
0.0
 30
0.0
  3
*D26
  1

  0
LINE
  5
DEA
330
DDD
100
AcDbEntity
  8
0
 62
     0
370
    -2
100
AcDbLine
 10
124.3347214788764
 20
319.7739300751477
 30
0.0
 11
196.0638346334618
 21
319.7739300751476
 31
0.0
  0
LINE
  5
DEB
330
DDD
100
AcDbEntity
  8
0
 62
     0
370
    -2
100
AcDbLine
 10
124.324721479129
 20
247.7739331745893
 30
0.0
 11
196.0638346334618
 21
247.7739331745892
 31
0.0
  0
LINE
  5
DEC
330
DDD
100
AcDbEntity
  8
0
 62
     0
370
    -2
100
AcDbLine
 10
192.8888346334618
 20
316.4719300751476
 30
0.0
 11
192.8888346334618
 21
287.4520926071331
 31
0.0
  0
LINE
  5
DED
330
DDD
100
AcDbEntity
  8
0
 62
     0
370
    -2
100
AcDbLine
 10
192.8888346334618
 20
251.0759331745892
 30
0.0
 11
192.8888346334618
 21
280.0957706426037
 31
0.0
  0
SOLID
  5
DEE
330
DDD
100
AcDbEntity
  8
0
 62
     0
100
AcDbTrace
 10
192.3385013001284
 20
316.4719300751476
 30
0.0
 11
193.4391679667951
 21
316.4719300751476
 31
0.0
 12
192.8888346334618
 22
319.7739300751476
 32
0.0
 13
192.8888346334618
 23
319.7739300751476
 33
0.0
  0
SOLID
  5
DEF
330
DDD
100
AcDbEntity
  8
0
 62
     0
100
AcDbTrace
 10
192.3385013001284
 20
251.0759331745892
 30
0.0
 11
193.4391679667951
 21
251.0759331745892
 31
0.0
 12
192.8888346334618
 22
247.7739331745892
 32
0.0
 13
192.8888346334618
 23
247.7739331745892
 33
0.0
  0
MTEXT
  5
DF0
330
DDD
100
AcDbEntity
  8
0
 62
     0
100
AcDbMText
 10
192.8888346334617
 20
283.7739316248685
 30
0.0
 40
4.0
 41
0.0
 71
     5
 72
     1
  1
%%C72.0
 73
     1
 44
1.0
  0
POINT
  5
DF1
330
DDD
100
AcDbEntity
  8
Defpoints
 62
     0
100
AcDbPoint
 10
123.0647214788763
 20
319.7739300751477
 30
0.0
  0
POINT
  5
DF2
330
DDD
100
AcDbEntity
  8
Defpoints
 62
     0
100
AcDbPoint
 10
123.054721479129
 20
247.7739331745893
 30
0.0
  0
POINT
  5
DF3
330
DDD
100
AcDbEntity
  8
Defpoints
 62
     0
100
AcDbPoint
 10
192.8888346334618
 20
247.7739331745892
 30
0.0
  0
ENDBLK
  5
DE9
330
DDD
100
AcDbEntity
  8
0
100
AcDbBlockEnd
  0
ENDSEC
  0
SECTION
  2
ENTITIES
  0
MTEXT
  5
160
330
1F
100
AcDbEntity
  8
SLD-0
100
AcDbMText
 10
95.72279631557853
 20
189.345234424283
 30
0.0
 40
5.0
 41
0.0
 71
     1
 72
     1
  1
BEAM ENTRY END
 73
     1
 44
1.0
  0
MTEXT
  5
161
330
1F
100
AcDbEntity
  8
SLD-0
100
AcDbMText
 10
143.3129695714514
 20
136.3935204900791
 30
0.0
 40
5.0
 41
0.0
 71
     1
 72
     1
  1
BEAM ENTRY END
 73
     1
 44
1.0
  0
LINE
  5
1DD
330
1F
100
AcDbEntity
  8
0
  6
Continuous
 62
     7
370
    15
100
AcDbLine
 10
115.1222212256829
 20
369.1426841044217
 30
0.0
 11
115.1222212256829
 21
363.1895584487706
 31
0.0
  0
LINE
  5
1DE
330
1F
100
AcDbEntity
  8
0
  6
Continuous
 62
     7
370
    15
100
AcDbLine
 10
130.9972217323224
 20
363.1895584487706
 30
0.0
 11
130.9972217323224
 21
369.1426841044217
 31
0.0
  0
LINE
  5
1DF
330
1F
100
AcDbEntity
  8
0
  6
Continuous
 62
     7
370
    15
100
AcDbLine
 10
115.1222212256829
 20
363.1895584487706
 30
0.0
 11
115.1222212256829
 21
339.7739333534032
 31
0.0
  0
LINE
  5
1E0
330
1F
100
AcDbEntity
  8
0
  6
Continuous
 62
     7
370
    15
100
AcDbLine
 10
130.9972217323224
 20
339.7739333534032
 30
0.0
 11
130.9972217323224
 21
363.1895584487706
 31
0.0
  0
CIRCLE
  5
1E1
330
1F
100
AcDbEntity
  8
0
  6
Continuous
 62
     7
370
    15
100
AcDbCircle
 10
92.05972147900302
 20
314.7739316248688
 30
0.0
 40
6.350000000000009
  0
CIRCLE
  5
1E2
330
1F
100
AcDbEntity
  8
0
  6
Continuous
 62
     7
370
    15
100
AcDbCircle
 10
154.0597214790027
 20
314.7739316248685
 30
0.0
 40
6.349999999999965
  0
CIRCLE
  5
1E3
330
1F
100
AcDbEntity
  8
0
  6
Continuous
 62
     7
370
    15
100
AcDbCircle
 10
92.05972147900249
 20
252.7739316248687
 30
0.0
 40
6.350000000000033
  0
CIRCLE
  5
1E4
330
1F
100
AcDbEntity
  8
0
  6
Continuous
 62
     7
370
    15
100
AcDbCircle
 10
154.0597214790026
 20
252.7739316248684
 30
0.0
 40
6.350000000000017
  0
LINE
  5
1E5
330
1F
100
AcDbEntity
  8
0
  6
Continuous
 62
     7
370
    15
100
AcDbLine
 10
167.5597222538631
 20
334.873932363966
 30
0.0
 11
167.5597222538631
 21
334.7739306711941
 31
0.0
  0
LINE
  5
1E6
330
1F
100
AcDbEntity
  8
0
  6
Continuous
 62
     7
370
    15
100
AcDbLine
 10
170.5597208829562
 20
334.7739306711941
 30
0.0
 11
170.5597208829562
 21
334.873932363966
 31
0.0
  0
LINE
  5
1E7
330
1F
100
AcDbEntity
  8
0
  6
Continuous
 62
     7
370
    15
100
AcDbLine
 10
170.5597208829562
 20
232.6739308857709
 30
0.0
 11
170.5597208829562
 21
232.7739325785428
 31
0.0
  0
LINE
  5
1E8
330
1F
100
AcDbEntity
  8
0
  6
Continuous
 62
     7
370
    15
100
AcDbLine
 10
167.5597222538631
 20
232.7739325785428
 30
0.0
 11
167.5597222538631
 21
232.6739308857709
 31
0.0
  0
LINE
  5
1E9
330
1F
100
AcDbEntity
  8
0
  6
Continuous
 62
     7
370
    15
100
AcDbLine
 10
78.55972070414231
 20
232.6739308857709
 30
0.0
 11
78.55972070414231
 21
232.7739325785428
 31
0.0
  0
LINE
  5
1EA
330
1F
100
AcDbEntity
  8
0
  6
Continuous
 62
     7
370
    15
100
AcDbLine
 10
75.55972207504914
 20
232.7739325785428
 30
0.0
 11
75.55972207504914
 21
232.6739308857709
 31
0.0
  0
LINE
  5
1EB
330
1F
100
AcDbEntity
  8
0
  6
Continuous
 62
     7
370
    15
100
AcDbLine
 10
75.55972207504914
 20
334.873932363966
 30
0.0
 11
75.55972207504914
 21
334.7739306711941
 31
0.0
  0
LINE
  5
1EC
330
1F
100
AcDbEntity
  8
0
  6
Continuous
 62
     7
370
    15
100
AcDbLine
 10
78.55972070414231
 20
334.7739306711941
 30
0.0
 11
78.55972070414231
 21
334.873932363966
 31
0.0
  0
LINE
  5
1ED
330
1F
100
AcDbEntity
  8
0
  6
Continuous
 62
     7
370
    15
100
AcDbLine
 10
65.55972043592141
 20
236.7739332341939
 30
0.0
 11
71.95972073990509
 21
236.7739332341939
 31
0.0
  0
LINE
  5
1EE
330
1F
100
AcDbEntity
  8
0
  6
Continuous
 62
     7
370
    15
100
AcDbLine
 10
71.95972073990509
 20
236.7739332341939
 30
0.0
 11
71.95972073990509
 21
232.6739308857709
 31
0.0
  0
LINE
  5
1EF
330
1F
100
AcDbEntity
  8
0
  6
Continuous
 62
     7
370
    15
100
AcDbLine
 10
71.95972073990509
 20
232.6739308857709
 30
0.0
 11
174.1597222181003
 21
232.6739308857709
 31
0.0
  0
LINE
  5
1F0
330
1F
100
AcDbEntity
  8
0
  6
Continuous
 62
     7
370
    15
100
AcDbLine
 10
174.1597222181003
 20
232.6739308857709
 30
0.0
 11
174.1597222181003
 21
236.7739332341939
 31
0.0
  0
LINE
  5
1F1
330
1F
100
AcDbEntity
  8
0
  6
Continuous
 62
     7
370
    15
100
AcDbLine
 10
174.1597222181003
 20
236.7739332341939
 30
0.0
 11
180.559722522084
 21
236.7739332341939
 31
0.0
  0
LINE
  5
1F2
330
1F
100
AcDbEntity
  8
0
  6
Continuous
 62
     7
370
    15
100
AcDbLine
 10
63.95972315389322
 20
229.3739309036523
 30
0.0
 11
63.95972315389322
 21
236.7739332341939
 31
0.0
  0
LINE
  5
1F3
330
1F
100
AcDbEntity
  8
0
  6
Continuous
 62
     7
370
    15
100
AcDbLine
 10
63.95972315389322
 20
236.7739332341939
 30
0.0
 11
65.55972043592141
 21
236.7739332341939
 31
0.0
  0
ARC
  5
1F4
330
1F
100
AcDbEntity
  8
0
  6
Continuous
 62
     7
370
    15
100
AcDbCircle
 10
180.5597214790027
 20
229.3739316248685
 30
0.0
 40
1.599999999999994
100
AcDbArc
 50
270.0000000000008
 51
0.0
  0
LINE
  5
1F5
330
1F
100
AcDbEntity
  8
0
  6
Continuous
 62
     7
370
    15
100
AcDbLine
 10
182.1597198041122
 20
236.7739332341939
 30
0.0
 11
182.1597198041122
 21
229.3739309036523
 31
0.0
  0
LINE
  5
1F6
330
1F
100
AcDbEntity
  8
0
  6
Continuous
 62
     7
370
    15
100
AcDbLine
 10
180.559722522084
 20
236.7739332341939
 30
0.0
 11
182.1597198041122
 21
236.7739332341939
 31
0.0
  0
ARC
  5
1F7
330
1F
100
AcDbEntity
  8
0
  6
Continuous
 62
     7
370
    15
100
AcDbCircle
 10
65.55972147900269
 20
229.3739316248685
 30
0.0
 40
1.599999999999994
100
AcDbArc
 50
180.0
 51
270.0000000000008
  0
LINE
  5
1F8
330
1F
100
AcDbEntity
  8
0
  6
Continuous
 62
     7
370
    15
100
AcDbLine
 10
167.1782339008491
 20
227.7739298963338
 30
0.0
 11
78.9412090571563
 21
227.7739298963338
 31
0.0
  0
SPLINE
  5
1F9
330
1F
100
AcDbEntity
  8
0
  6
Continuous
 62
     7
370
    15
100
AcDbSpline
210
0.0
220
0.0
230
1.0
 70
     8
 71
     3
 72
    11
 73
     7
 74
     0
 42
0.0000000001
 43
0.0000000001
 40
0.0
 40
0.0
 40
0.0
 40
0.0
 40
0.2565569558274829
 40
0.5181201873582637
 40
0.7798091012612581
 40
1.0
 40
1.0
 40
1.0
 40
1.0
 10
78.9412090571563
 20
227.7739298963338
 30
0.0
 10
78.64303351394719
 20
227.7946410176514
 30
0.0
 10
78.04086403538099
 20
227.8364674028409
 30
0.0
 10
76.98444712840107
 20
227.9220851291328
 30
0.0
 10
75.98681864604678
 20
227.8233796165618
 30
0.0
 10
75.4318307433019
 20
227.7894388445962
 30
0.0
 10
75.17823372203515
 20
227.7739298963338
 30
0.0
  0
LINE
  5
1FA
330
1F
100
AcDbEntity
  8
0
  6
Continuous
 62
     7
370
    15
100
AcDbLine
 10
75.17823372203515
 20
227.7739298963338
 30
0.0
 11
65.55972043592141
 21
227.7739298963338
 31
0.0
  0
LINE
  5
1FB
330
1F
100
AcDbEntity
  8
0
  6
Continuous
 62
     7
370
    15
100
AcDbLine
 10
180.559722522084
 20
227.7739298963338
 30
0.0
 11
170.9412092359702
 21
227.7739298963338
 31
0.0
  0
SPLINE
  5
1FC
330
1F
100
AcDbEntity
  8
0
  6
Continuous
 62
     7
370
    15
100
AcDbSpline
210
0.0
220
0.0
230
1.0
 70
     8
 71
     3
 72
    11
 73
     7
 74
     0
 42
0.0000000001
 43
0.0000000001
 40
0.0
 40
0.0
 40
0.0
 40
0.0
 40
0.2565569558274829
 40
0.5181201873582637
 40
0.7798091012612581
 40
1.0
 40
1.0
 40
1.0
 40
1.0
 10
170.9412092359702
 20
227.7739298963338
 30
0.0
 10
170.6430336927611
 20
227.7946410176514
 30
0.0
 10
170.0408642141949
 20
227.8364674028409
 30
0.0
 10
168.984447307215
 20
227.9220851291328
 30
0.0
 10
167.9868188248607
 20
227.8233796165618
 30
0.0
 10
167.4318309221158
 20
227.7894388445962
 30
0.0
 10
167.1782339008491
 20
227.7739298963338
 30
0.0
  0
LINE
  5
1FD
330
1F
100
AcDbEntity
  8
0
  6
Continuous
 62
     7
370
    15
100
AcDbLine
 10
71.95972073990509
 20
236.7739332341939
 30
0.0
 11
72.05972243267701
 21
236.7739332341939
 31
0.0
  0
LINE
  5
1FE
330
1F
100
AcDbEntity
  8
0
  6
Continuous
 62
     7
370
    15
100
AcDbLine
 10
174.0597205253284
 20
236.7739332341939
 30
0.0
 11
174.1597222181003
 21
236.7739332341939
 31
0.0
  0
LINE
  5
1FF
330
1F
100
AcDbEntity
  8
0
  6
Continuous
 62
     7
370
    15
100
AcDbLine
 10
174.1597222181003
 20
245.7739328467637
 30
0.0
 11
174.0597205253284
 21
245.7739328467637
 31
0.0
  0
LINE
  5
200
330
1F
100
AcDbEntity
  8
0
  6
Continuous
 62
     7
370
    15
100
AcDbLine
 10
72.05972243267701
 20
245.7739328467637
 30
0.0
 11
71.95972073990509
 21
245.7739328467637
 31
0.0
  0
ELLIPSE
  5
201
330
1F
100
AcDbEntity
  8
0
  6
Continuous
 62
     7
370
    15
100
AcDbEllipse
 10
123.0597214790027
 20
369.1426816248685
 30
0.0
 11
-7.9375
 21
0.0
 31
0.0
210
0.0
220
0.0
230
1.0
 40
0.4999999999999928
 41
3.141592653589793
 42
6.283185307179586
  0
LINE
  5
202
330
1F
100
AcDbEntity
  8
0
  6
Continuous
 62
     7
370
    15
100
AcDbLine
 10
87.05972302872345
 20
283.7689316249948
 30
0.0
 11
123.054721479129
 21
283.7689316249948
 31
0.0
  0
LINE
  5
203
330
1F
100
AcDbEntity
  8
0
  6
Continuous
 62
     7
370
    15
100
AcDbLine
 10
123.0647214788763
 20
283.7789316247421
 30
0.0
 11
123.0647214788763
 21
319.7739300751477
 31
0.0
  0
LINE
  5
204
330
1F
100
AcDbEntity
  8
0
  6
Continuous
 62
     7
370
    15
100
AcDbLine
 10
123.054721479129
 20
283.7789316247421
 30
0.0
 11
87.05972302872345
 21
283.7789316247421
 31
0.0
  0
LINE
  5
205
330
1F
100
AcDbEntity
  8
0
  6
Continuous
 62
     7
370
    15
100
AcDbLine
 10
123.054721479129
 20
319.7739300751477
 30
0.0
 11
123.054721479129
 21
283.7789316247421
 31
0.0
  0
LINE
  5
206
330
1F
100
AcDbEntity
  8
0
  6
Continuous
 62
     7
370
    15
100
AcDbLine
 10
159.0597199292819
 20
283.7789316247421
 30
0.0
 11
123.0647214788763
 21
283.7789316247421
 31
0.0
  0
LINE
  5
207
330
1F
100
AcDbEntity
  8
0
  6
Continuous
 62
     7
370
    15
100
AcDbLine
 10
123.054721479129
 20
283.7689316249948
 30
0.0
 11
123.054721479129
 21
247.7739331745893
 31
0.0
  0
LINE
  5
208
330
1F
100
AcDbEntity
  8
0
  6
Continuous
 62
     7
370
    15
100
AcDbLine
 10
123.0647214788763
 20
247.7739331745893
 30
0.0
 11
123.0647214788763
 21
283.7689316249948
 31
0.0
  0
LINE
  5
209
330
1F
100
AcDbEntity
  8
0
  6
Continuous
 62
     7
370
    15
100
AcDbLine
 10
123.0647214788763
 20
283.7689316249948
 30
0.0
 11
159.0597199292819
 21
283.7689316249948
 31
0.0
  0
LINE
  5
20A
330
1F
100
AcDbEntity
  8
0
  6
Continuous
 62
     7
370
    15
100
AcDbLine
 10
174.1597222181003
 20
330.773930015543
 30
0.0
 11
174.1597222181003
 21
236.7739332341939
 31
0.0
  0
LINE
  5
20B
330
1F
100
AcDbEntity
  8
0
  6
Continuous
 62
     7
370
    15
100
AcDbLine
 10
180.559722522084
 20
330.773930015543
 30
0.0
 11
174.1597222181003
 21
330.773930015543
 31
0.0
  0
LINE
  5
20C
330
1F
100
AcDbEntity
  8
0
  6
Continuous
 62
     7
370
    15
100
AcDbLine
 10
180.559722522084
 20
330.773930015543
 30
0.0
 11
182.1597198041122
 21
330.773930015543
 31
0.0
  0
LINE
  5
20D
330
1F
100
AcDbEntity
  8
0
  6
Continuous
 62
     7
370
    15
100
AcDbLine
 10
182.1597198041122
 20
330.773930015543
 30
0.0
 11
182.1597198041122
 21
236.7739332341939
 31
0.0
  0
LINE
  5
20E
330
1F
100
AcDbEntity
  8
0
  6
Continuous
 62
     7
370
    15
100
AcDbLine
 10
63.95972315389322
 20
236.7739332341939
 30
0.0
 11
63.95972315389322
 21
330.773930015543
 31
0.0
  0
LINE
  5
20F
330
1F
100
AcDbEntity
  8
0
  6
Continuous
 62
     7
370
    15
100
AcDbLine
 10
63.95972315389322
 20
330.773930015543
 30
0.0
 11
65.55972043592141
 21
330.773930015543
 31
0.0
  0
LINE
  5
210
330
1F
100
AcDbEntity
  8
0
  6
Continuous
 62
     7
370
    15
100
AcDbLine
 10
71.95972073990509
 20
330.773930015543
 30
0.0
 11
65.55972043592141
 21
330.773930015543
 31
0.0
  0
LINE
  5
211
330
1F
100
AcDbEntity
  8
0
  6
Continuous
 62
     7
370
    15
100
AcDbLine
 10
71.95972073990509
 20
236.7739332341939
 30
0.0
 11
71.95972073990509
 21
330.773930015543
 31
0.0
  0
LINE
  5
212
330
1F
100
AcDbEntity
  8
0
  6
Continuous
 62
     7
370
    15
100
AcDbLine
 10
182.1597198041122
 20
338.1739323460847
 30
0.0
 11
182.1597198041122
 21
330.773930015543
 31
0.0
  0
ARC
  5
213
330
1F
100
AcDbEntity
  8
0
  6
Continuous
 62
     7
370
    15
100
AcDbCircle
 10
180.5597214790027
 20
338.1739316248685
 30
0.0
 40
1.599999999999965
100
AcDbArc
 50
0.0
 51
90.0
  0
LINE
  5
214
330
1F
100
AcDbEntity
  8
0
  6
Continuous
 62
     7
370
    15
100
AcDbLine
 10
78.9412090571563
 20
339.7739333534032
 30
0.0
 11
167.1782339008491
 21
339.7739333534032
 31
0.0
  0
SPLINE
  5
215
330
1F
100
AcDbEntity
  8
0
  6
Continuous
 62
     7
370
    15
100
AcDbSpline
210
0.0
220
0.0
230
1.0
 70
     8
 71
     3
 72
    11
 73
     7
 74
     0
 42
0.0000000001
 43
0.0000000001
 40
0.0
 40
0.0
 40
0.0
 40
0.0
 40
0.2565569558274829
 40
0.5181201873582637
 40
0.7798091012612581
 40
1.0
 40
1.0
 40
1.0
 40
1.0
 10
167.1782339008491
 20
339.7739333534032
 30
0.0
 10
167.4764094440582
 20
339.7532222320855
 30
0.0
 10
168.0785789226244
 20
339.711395846896
 30
0.0
 10
169.1349958296043
 20
339.6257781206041
 30
0.0
 10
170.1326243119586
 20
339.7244836331751
 30
0.0
 10
170.6876122147035
 20
339.7584244051407
 30
0.0
 10
170.9412092359702
 20
339.7739333534032
 30
0.0
  0
LINE
  5
216
330
1F
100
AcDbEntity
  8
0
  6
Continuous
 62
     7
370
    15
100
AcDbLine
 10
170.9412092359702
 20
339.7739333534032
 30
0.0
 11
180.559722522084
 21
339.7739333534032
 31
0.0
  0
LINE
  5
217
330
1F
100
AcDbEntity
  8
0
  6
Continuous
 62
     7
370
    15
100
AcDbLine
 10
65.55972043592141
 20
339.7739333534032
 30
0.0
 11
75.17823372203515
 21
339.7739333534032
 31
0.0
  0
SPLINE
  5
218
330
1F
100
AcDbEntity
  8
0
  6
Continuous
 62
     7
370
    15
100
AcDbSpline
210
0.0
220
0.0
230
1.0
 70
     8
 71
     3
 72
    11
 73
     7
 74
     0
 42
0.0000000001
 43
0.0000000001
 40
0.0
 40
0.0
 40
0.0
 40
0.0
 40
0.2565569558274829
 40
0.5181201873582637
 40
0.7798091012612581
 40
1.0
 40
1.0
 40
1.0
 40
1.0
 10
75.17823372203515
 20
339.7739333534032
 30
0.0
 10
75.47640926524429
 20
339.7532222320855
 30
0.0
 10
76.07857874381046
 20
339.711395846896
 30
0.0
 10
77.13499565079036
 20
339.6257781206041
 30
0.0
 10
78.13262413314467
 20
339.7244836331751
 30
0.0
 10
78.68761203588954
 20
339.7584244051407
 30
0.0
 10
78.9412090571563
 20
339.7739333534032
 30
0.0
  0
ARC
  5
219
330
1F
100
AcDbEntity
  8
0
  6
Continuous
 62
     7
370
    15
100
AcDbCircle
 10
65.55972147900269
 20
338.1739316248684
 30
0.0
 40
1.600000000000022
100
AcDbArc
 50
90.0
 51
180.0
  0
LINE
  5
21A
330
1F
100
AcDbEntity
  8
0
  6
Continuous
 62
     7
370
    15
100
AcDbLine
 10
63.95972315389322
 20
330.773930015543
 30
0.0
 11
63.95972315389322
 21
338.1739323460847
 31
0.0
  0
LINE
  5
21B
330
1F
100
AcDbEntity
  8
0
  6
Continuous
 62
     7
370
    15
100
AcDbLine
 10
174.1597222181003
 20
330.773930015543
 30
0.0
 11
174.1597222181003
 21
334.873932363966
 31
0.0
  0
LINE
  5
21C
330
1F
100
AcDbEntity
  8
0
  6
Continuous
 62
     7
370
    15
100
AcDbLine
 10
71.95972073990509
 20
334.873932363966
 30
0.0
 11
71.95972073990509
 21
330.773930015543
 31
0.0
  0
LINE
  5
21D
330
1F
100
AcDbEntity
  8
0
  6
Continuous
 62
     7
370
    15
100
AcDbLine
 10
174.1597222181003
 20
334.873932363966
 30
0.0
 11
71.95972073990509
 21
334.873932363966
 31
0.0
  0
LINE
  5
21E
330
1F
100
AcDbEntity
  8
0
  6
Continuous
 62
     7
370
    15
100
AcDbLine
 10
174.1597222181003
 20
330.773930015543
 30
0.0
 11
174.0597205253284
 21
330.773930015543
 31
0.0
  0
LINE
  5
21F
330
1F
100
AcDbEntity
  8
0
  6
Continuous
 62
     7
370
    15
100
AcDbLine
 10
72.05972243267701
 20
330.773930015543
 30
0.0
 11
71.95972073990509
 21
330.773930015543
 31
0.0
  0
LINE
  5
220
330
1F
100
AcDbEntity
  8
0
  6
Continuous
 62
     7
370
    15
100
AcDbLine
 10
126.7257819900255
 20
334.873932363966
 30
0.0
 11
126.7257819900255
 21
334.7739306711941
 31
0.0
  0
LINE
  5
221
330
1F
100
AcDbEntity
  8
0
  6
Continuous
 62
     7
370
    15
100
AcDbLine
 10
119.3936609679798
 20
334.7739306711941
 30
0.0
 11
119.3936609679798
 21
334.873932363966
 31
0.0
  0
LINE
  5
222
330
1F
100
AcDbEntity
  8
0
  6
Continuous
 62
     7
370
    15
100
AcDbLine
 10
71.95972073990509
 20
321.7739304029732
 30
0.0
 11
72.05972243267701
 21
321.7739304029732
 31
0.0
  0
LINE
  5
223
330
1F
100
AcDbEntity
  8
0
  6
Continuous
 62
     7
370
    15
100
AcDbLine
 10
174.0597205253284
 20
321.7739304029732
 30
0.0
 11
174.1597222181003
 21
321.7739304029732
 31
0.0
  0
ARC
  5
224
330
1F
100
AcDbEntity
  8
0
  6
Continuous
 62
     7
370
    15
100
AcDbCircle
 10
173.0597214790027
 20
333.7739316248685
 30
0.0
 40
1.0
100
AcDbArc
 50
0.0
 51
90.0
  0
LINE
  5
225
330
1F
100
AcDbEntity
  8
0
  6
Continuous
 62
     7
370
    15
100
AcDbLine
 10
174.0597205253284
 20
284.2739316486172
 30
0.0
 11
174.0597205253284
 21
333.7739323699265
 31
0.0
  0
LINE
  5
226
330
1F
100
AcDbEntity
  8
0
  6
Continuous
 62
     7
370
    15
100
AcDbLine
 10
174.0597205253284
 20
284.2739316486172
 30
0.0
 11
160.5563888343017
 21
284.2739316486172
 31
0.0
  0
ARC
  5
227
330
1F
100
AcDbEntity
  8
0
  6
Continuous
 62
     7
370
    15
100
AcDbCircle
 10
123.0597214790027
 20
283.7739316248685
 30
0.0
 40
37.50000000000003
100
AcDbArc
 50
45.4875316021666
 51
89.23603363597841
  0
ARC
  5
228
330
1F
100
AcDbEntity
  8
0
  6
Continuous
 62
     7
370
    15
100
AcDbCircle
 10
123.0597214790027
 20
283.7739316248685
 30
0.0
 40
37.5
100
AcDbArc
 50
0.7639663640218031
 51
44.51246839783337
  0
LINE
  5
229
330
1F
100
AcDbEntity
  8
0
  6
Continuous
 62
     7
370
    15
100
AcDbLine
 10
123.5597215027514
 20
334.7739306711941
 30
0.0
 11
123.5597215027514
 21
321.2705989801674
 31
0.0
  0
LINE
  5
22A
330
1F
100
AcDbEntity
  8
0
  6
Continuous
 62
     7
370
    15
100
AcDbLine
 10
173.0597222240607
 20
334.7739306711941
 30
0.0
 11
123.5597215027514
 21
334.7739306711941
 31
0.0
  0
LINE
  5
22B
330
1F
100
AcDbEntity
  8
0
  6
Continuous
 62
     7
370
    15
100
AcDbLine
 10
174.0597205253284
 20
283.7739316248685
 30
0.0
 11
160.2710464986007
 21
283.7739316248685
 31
0.0
  0
ELLIPSE
  5
22C
330
1F
100
AcDbEntity
  8
0
  6
Continuous
 62
     7
370
    15
100
AcDbEllipse
 10
123.0597214790027
 20
315.9998842667826
 30
0.0
 11
0.0
 21
55.81698729810579
 31
0.0
210
0.0
220
0.0
230
1.0
 40
0.8164965809277408
 41
4.096909271714341
 42
4.107838336177476
  0
LINE
  5
22D
330
1F
100
AcDbEntity
  8
0
  6
Continuous
 62
     7
370
    15
100
AcDbLine
 10
174.0597205253284
 20
284.2739316486172
 30
0.0
 11
174.0597205253284
 21
283.7739316248685
 31
0.0
  0
LINE
  5
22E
330
1F
100
AcDbEntity
  8
0
  6
Continuous
 62
     7
370
    15
100
AcDbLine
 10
122.5597214552539
 20
334.7739306711941
 30
0.0
 11
122.5597214552539
 21
321.2705989801674
 31
0.0
  0
LINE
  5
22F
330
1F
100
AcDbEntity
  8
0
  6
Continuous
 62
     7
370
    15
100
AcDbLine
 10
123.0597214790025
 20
334.7739306711941
 30
0.0
 11
123.0597214790025
 21
320.9852566444665
 31
0.0
  0
ELLIPSE
  5
230
330
1F
100
AcDbEntity
  8
0
  6
Continuous
 62
     7
370
    15
100
AcDbEllipse
 10
90.83376883708856
 20
283.7739316248683
 30
0.0
 11
55.81698729810577
 21
0.0000000000001705
 31
0.0
210
0.0
220
0.0
230
1.0
 40
0.8164965809277402
 41
0.9553166181245352
 42
0.9662456825876711
  0
LINE
  5
231
330
1F
100
AcDbEntity
  8
0
  6
Continuous
 62
     7
370
    15
100
AcDbLine
 10
122.5597214552539
 20
334.7739306711941
 30
0.0
 11
123.0597214790025
 21
334.7739306711941
 31
0.0
  0
LINE
  5
232
330
1F
100
AcDbEntity
  8
0
  6
Continuous
 62
     7
370
    15
100
AcDbLine
 10
85.84839645940467
 20
283.7739316248685
 30
0.0
 11
72.05972243267701
 21
283.7739316248685
 31
0.0
  0
LINE
  5
233
330
1F
100
AcDbEntity
  8
0
  6
Continuous
 62
     7
370
    15
100
AcDbLine
 10
72.05972243267701
 20
284.2739316486172
 30
0.0
 11
72.05972243267701
 21
283.7739316248685
 31
0.0
  0
LINE
  5
234
330
1F
100
AcDbEntity
  8
0
  6
Continuous
 62
     7
370
    15
100
AcDbLine
 10
85.56305412370369
 20
284.2739316486172
 30
0.0
 11
72.05972243267701
 21
284.2739316486172
 31
0.0
  0
ELLIPSE
  5
235
330
1F
100
AcDbEntity
  8
0
  6
Continuous
 62
     7
370
    15
100
AcDbEllipse
 10
123.0597214790027
 20
315.9998842667826
 30
0.0
 11
0.0
 21
55.81698729810579
 31
0.0
210
0.0
220
0.0
230
1.0
 40
0.8164965809277408
 41
2.175346971002123
 42
2.186276035465259
  0
CIRCLE
  5
236
330
1F
100
AcDbEntity
  8
0
  6
Continuous
 62
     7
370
    15
100
AcDbCircle
 10
123.0597214790027
 20
283.7739316248685
 30
0.0
 40
36.0
  0
ELLIPSE
  5
237
330
1F
100
AcDbEntity
  8
0
  6
Continuous
 62
     7
370
    15
100
AcDbEllipse
 10
123.0597214790027
 20
251.5479789829498
 30
0.0
 11
0.0
 21
55.8169872981097
 31
0.0
210
0.0
220
0.0
230
1.0
 40
0.8164965809277124
 41
5.316939624591979
 42
5.327868689055114
  0
ARC
  5
238
330
1F
100
AcDbEntity
  8
0
  6
Continuous
 62
     7
370
    15
100
AcDbCircle
 10
123.0597214790027
 20
283.7739316248685
 30
0.0
 40
37.5
100
AcDbArc
 50
315.4875316021676
 51
359.236033635979
  0
ARC
  5
239
330
1F
100
AcDbEntity
  8
0
  6
Continuous
 62
     7
370
    15
100
AcDbCircle
 10
123.0597214790027
 20
283.7739316248685
 30
0.0
 40
37.50000000000001
100
AcDbArc
 50
270.7639663640228
 51
314.5124683978337
  0
ELLIPSE
  5
23A
330
1F
100
AcDbEntity
  8
0
  6
Continuous
 62
     7
370
    15
100
AcDbEllipse
 10
155.2856741209213
 20
283.7739316248686
 30
0.0
 11
55.8169872981097
 21
0.0000000000001705
 31
0.0
210
0.0
220
0.0
230
1.0
 40
0.8164965809277113
 41
4.096909271714292
 42
4.107838336177427
  0
ELLIPSE
  5
23B
330
1F
100
AcDbEntity
  8
0
  6
Continuous
 62
     7
370
    15
100
AcDbEllipse
 10
90.83376883708856
 20
283.7739316248683
 30
0.0
 11
55.81698729810577
 21
0.0000000000001705
 31
0.0
210
0.0
220
0.0
230
1.0
 40
0.8164965809277402
 41
5.316939624591928
 42
5.327868689055064
  0
ARC
  5
23C
330
1F
100
AcDbEntity
  8
0
  6
Continuous
 62
     7
370
    15
100
AcDbCircle
 10
123.0597214790027
 20
283.7739316248685
 30
0.0
 40
37.5
100
AcDbArc
 50
225.4875316021658
 51
269.2360336359792
  0
ARC
  5
23D
330
1F
100
AcDbEntity
  8
0
  6
Continuous
 62
     7
370
    15
100
AcDbCircle
 10
123.0597214790027
 20
283.7739316248685
 30
0.0
 40
37.50000000000002
100
AcDbArc
 50
180.7639663640226
 51
224.5124683978351
  0
ELLIPSE
  5
23E
330
1F
100
AcDbEntity
  8
0
  6
Continuous
 62
     7
370
    15
100
AcDbEllipse
 10
123.0597214790027
 20
251.5479789829498
 30
0.0
 11
0.0
 21
55.8169872981097
 31
0.0
210
0.0
220
0.0
230
1.0
 40
0.8164965809277124
 41
0.9553166181244844
 42
0.9662456825876194
  0
ARC
  5
23F
330
1F
100
AcDbEntity
  8
0
  6
Continuous
 62
     7
370
    15
100
AcDbCircle
 10
123.0597214790027
 20
283.7739316248685
 30
0.0
 40
37.5
100
AcDbArc
 50
135.4875316021664
 51
179.2360336359782
  0
ARC
  5
240
330
1F
100
AcDbEntity
  8
0
  6
Continuous
 62
     7
370
    15
100
AcDbCircle
 10
123.0597214790027
 20
283.7739316248685
 30
0.0
 40
37.49999999999998
100
AcDbArc
 50
90.76396636402202
 51
134.5124683978324
  0
ELLIPSE
  5
241
330
1F
100
AcDbEntity
  8
0
  6
Continuous
 62
     7
370
    15
100
AcDbEllipse
 10
155.2856741209213
 20
283.7739316248686
 30
0.0
 11
55.8169872981097
 21
0.0000000000001705
 31
0.0
210
0.0
220
0.0
230
1.0
 40
0.8164965809277113
 41
2.175346971002174
 42
2.186276035465308
  0
LINE
  5
242
330
1F
100
AcDbEntity
  8
0
  6
Continuous
 62
     7
370
    15
100
AcDbLine
 10
174.0597205253284
 20
283.2739316011197
 30
0.0
 11
160.5563888343017
 21
283.2739316011197
 31
0.0
  0
LINE
  5
243
330
1F
100
AcDbEntity
  8
0
  6
Continuous
 62
     7
370
    15
100
AcDbLine
 10
123.5597215027514
 20
246.2772642695695
 30
0.0
 11
123.5597215027514
 21
232.7739325785428
 31
0.0
  0
LINE
  5
244
330
1F
100
AcDbEntity
  8
0
  6
Continuous
 62
     7
370
    15
100
AcDbLine
 10
123.5597215027514
 20
232.7739325785428
 30
0.0
 11
173.0597222240607
 21
232.7739325785428
 31
0.0
  0
ARC
  5
245
330
1F
100
AcDbEntity
  8
0
  6
Continuous
 62
     7
370
    15
100
AcDbCircle
 10
173.0597214790027
 20
233.7739316248685
 30
0.0
 40
1.0
100
AcDbArc
 50
270.0000000000008
 51
0.0
  0
LINE
  5
246
330
1F
100
AcDbEntity
  8
0
  6
Continuous
 62
     7
370
    15
100
AcDbLine
 10
174.0597205253284
 20
233.7739308798104
 30
0.0
 11
174.0597205253284
 21
283.2739316011197
 31
0.0
  0
LINE
  5
247
330
1F
100
AcDbEntity
  8
0
  6
Continuous
 62
     7
370
    15
100
AcDbLine
 10
72.05972243267701
 20
333.7739323699265
 30
0.0
 11
72.05972243267701
 21
284.2739316486172
 31
0.0
  0
LINE
  5
248
330
1F
100
AcDbEntity
  8
0
  6
Continuous
 62
     7
370
    15
100
AcDbLine
 10
122.5597214552539
 20
334.7739306711941
 30
0.0
 11
73.05972073394463
 21
334.7739306711941
 31
0.0
  0
ARC
  5
249
330
1F
100
AcDbEntity
  8
0
  6
Continuous
 62
     7
370
    15
100
AcDbCircle
 10
73.05972147900269
 20
333.7739316248685
 30
0.0
 40
1.0
100
AcDbArc
 50
90.0
 51
180.0
  0
LINE
  5
24A
330
1F
100
AcDbEntity
  8
0
  6
Continuous
 62
     7
370
    15
100
AcDbLine
 10
123.0597214790028
 20
246.5626066052705
 30
0.0
 11
123.0597214790029
 21
232.7739325785428
 31
0.0
  0
LINE
  5
24B
330
1F
100
AcDbEntity
  8
0
  6
Continuous
 62
     7
370
    15
100
AcDbLine
 10
122.5597214552539
 20
246.2772642695695
 30
0.0
 11
122.5597214552539
 21
232.7739325785428
 31
0.0
  0
LINE
  5
24C
330
1F
100
AcDbEntity
  8
0
  6
Continuous
 62
     7
370
    15
100
AcDbLine
 10
122.5597214552539
 20
232.7739325785428
 30
0.0
 11
123.0597214790029
 21
232.7739325785428
 31
0.0
  0
LINE
  5
24D
330
1F
100
AcDbEntity
  8
0
  6
Continuous
 62
     7
370
    15
100
AcDbLine
 10
85.56305412370369
 20
283.2739316011197
 30
0.0
 11
72.05972243267701
 21
283.2739316011197
 31
0.0
  0
LINE
  5
24E
330
1F
100
AcDbEntity
  8
0
  6
Continuous
 62
     7
370
    15
100
AcDbLine
 10
73.05972073394463
 20
232.7739325785428
 30
0.0
 11
122.5597214552539
 21
232.7739325785428
 31
0.0
  0
LINE
  5
24F
330
1F
100
AcDbEntity
  8
0
  6
Continuous
 62
     7
370
    15
100
AcDbLine
 10
72.05972243267701
 20
283.2739316011197
 30
0.0
 11
72.05972243267701
 21
233.7739308798104
 31
0.0
  0
ARC
  5
250
330
1F
100
AcDbEntity
  8
0
  6
Continuous
 62
     7
370
    15
100
AcDbCircle
 10
73.05972147900269
 20
233.7739316248685
 30
0.0
 40
1.0
100
AcDbArc
 50
180.0
 51
270.0000000000008
  0
LINE
  5
251
330
1F
100
AcDbEntity
  8
0
  6
Continuous
 62
     7
370
    15
100
AcDbLine
 10
174.0597205253284
 20
283.7739316248685
 30
0.0
 11
174.0597205253284
 21
283.2739316011197
 31
0.0
  0
LINE
  5
252
330
1F
100
AcDbEntity
  8
0
  6
Continuous
 62
     7
370
    15
100
AcDbLine
 10
123.0597214790029
 20
232.7739325785428
 30
0.0
 11
123.5597215027514
 21
232.7739325785428
 31
0.0
  0
LINE
  5
253
330
1F
100
AcDbEntity
  8
0
  6
Continuous
 62
     7
370
    15
100
AcDbLine
 10
72.05972243267701
 20
283.7739316248685
 30
0.0
 11
72.05972243267701
 21
283.2739316011197
 31
0.0
  0
LINE
  5
254
330
1F
100
AcDbEntity
  8
0
  6
Continuous
 62
     7
370
    15
100
AcDbLine
 10
123.0597214790025
 20
334.7739306711941
 30
0.0
 11
123.5597215027514
 21
334.7739306711941
 31
0.0
  0
DIMENSION
  5
255
330
1F
100
AcDbEntity
  8
SLD-0
100
AcDbDimension
  2
_D
 10
182.159721479003
 20
207.7994039057237
 30
0.0
 11
121.5593182290219
 21
207.7994039057237
 31
0.0
 70
   160
  1
<>
 71
     2
 42
118.2
  3
STANDARD
100
AcDbAlignedDimension
 13
63.95972147900309
 23
229.3739316248681
 33
0.0
 14
182.159721479003
 24
229.3739316248689
 34
0.0
 50
0.0000000000004546
100
AcDbRotatedDimension
  0
DIMENSION
  5
261
330
1F
100
AcDbEntity
  8
SLD-0
100
AcDbDimension
  2
_D_1
 10
41.95972147900191
 20
339.7739316248684
 30
0.0
 11
41.95972147900185
 21
285.124246409107
 31
0.0
 70
   160
  1
<>
 71
     2
 42
112.0000000000002
  3
STANDARD
100
AcDbAlignedDimension
 13
65.55972147900307
 23
227.7739316248681
 33
0.0
 14
65.55972147900274
 24
339.7739316248684
 34
0.0
 50
90.00000000000019
100
AcDbRotatedDimension
  0
DIMENSION
  5
26D
330
1F
100
AcDbEntity
  8
SLD-0
100
AcDbDimension
  2
_D_2
 10
63.95972147900309
 20
217.7739316248676
 30
0.0
 11
96.44819918221422
 21
217.7739316248676
 31
0.0
 70
   160
  1
<>
 71
     2
 42
59.10000000000014
  3
STANDARD
100
AcDbAlignedDimension
 13
123.0597214790032
 23
232.7739316248685
 33
0.0
 14
63.95972147900309
 24
229.3739316248681
 34
0.0
 50
0.0000000000006062
100
AcDbRotatedDimension
  0
DIMENSION
  5
278
330
1F
100
AcDbEntity
  8
SLD-0
100
AcDbDimension
  2
_D_3
 10
53.95972147900207
 20
227.7739316248681
 30
0.0
 11
53.95972147900203
 21
259.2719665395397
 31
0.0
 70
   160
  1
<>
 71
     2
 42
56.0
  3
STANDARD
100
AcDbAlignedDimension
 13
72.05972147900268
 23
283.7739316248681
 33
0.0
 14
65.55972147900307
 24
227.7739316248681
 34
0.0
 50
90.00000000000019
100
AcDbRotatedDimension
  0
LINE
  5
283
330
1F
100
AcDbEntity
  8
0
  6
Continuous
 62
     7
370
    15
100
AcDbLine
 10
321.7008738318456
 20
363.1895584487706
 30
0.0
 11
321.7008738318456
 21
339.7739333534032
 31
0.0
  0
LINE
  5
284
330
1F
100
AcDbEntity
  8
0
  6
Continuous
 62
     7
370
    15
100
AcDbLine
 10
329.6383738523347
 20
339.7739333534032
 30
0.0
 11
329.6383738523347
 21
363.1895584487706
 31
0.0
  0
ARC
  5
285
330
1F
100
AcDbEntity
  8
0
  6
Continuous
 62
     7
370
    15
100
AcDbCircle
 10
319.7164988108917
 20
363.1895566248685
 30
0.0
 40
1.984375
100
AcDbArc
 50
0.0
 51
90.0
  0
ARC
  5
286
330
1F
100
AcDbEntity
  8
0
  6
Continuous
 62
     7
370
    15
100
AcDbCircle
 10
319.7164988108917
 20
363.1895566248685
 30
0.0
 40
9.921874999999943
100
AcDbArc
 50
0.0
 51
90.0
  0
LINE
  5
287
330
1F
100
AcDbEntity
  8
0
  6
Continuous
 62
     7
370
    15
100
AcDbLine
 10
255.4227470425887
 20
365.1739311837941
 30
0.0
 11
319.7164990013463
 21
365.1739311837941
 31
0.0
  0
LINE
  5
288
330
1F
100
AcDbEntity
  8
0
  6
Continuous
 62
     7
370
    15
100
AcDbLine
 10
319.7164990013463
 20
373.1114295744687
 30
0.0
 11
255.4227470425887
 21
373.1114295744687
 31
0.0
  0
LINE
  5
289
330
1F
100
AcDbEntity
  8
0
  6
Continuous
 62
     7
370
    15
100
AcDbLine
 10
253.4383743075652
 20
339.7739333534032
 30
0.0
 11
253.4383743075652
 21
363.1895584487706
 31
0.0
  0
LINE
  5
28A
330
1F
100
AcDbEntity
  8
0
  6
Continuous
 62
     7
370
    15
100
AcDbLine
 10
245.5008759168907
 20
363.1895584487706
 30
0.0
 11
245.5008759168907
 21
339.7739333534032
 31
0.0
  0
ARC
  5
28B
330
1F
100
AcDbEntity
  8
0
  6
Continuous
 62
     7
370
    15
100
AcDbCircle
 10
255.4227488108917
 20
363.1895566248685
 30
0.0
 40
1.984375000000056
100
AcDbArc
 50
90.0
 51
180.0
  0
ARC
  5
28C
330
1F
100
AcDbEntity
  8
0
  6
Continuous
 62
     7
370
    15
100
AcDbCircle
 10
255.4227488108917
 20
363.1895566248685
 30
0.0
 40
9.921874999999971
100
AcDbArc
 50
90.0
 51
180.0
  0
ARC
  5
28D
330
1F
100
AcDbEntity
  8
0
  6
Continuous
 62
     7
370
    15
100
AcDbCircle
 10
347.1754988108917
 20
258.7270566248685
 30
0.0
 40
0.396874999999983
100
AcDbArc
 50
15.18928673718912
 51
105.4722513576476
  0
ARC
  5
28E
330
1F
100
AcDbEntity
  8
0
  6
Continuous
 62
     7
370
    15
100
AcDbCircle
 10
347.1754988108917
 20
246.8208066248684
 30
0.0
 40
0.3968750000000102
100
AcDbArc
 50
254.5277486423543
 51
344.8107132628157
  0
ARC
  5
28F
330
1F
100
AcDbEntity
  8
0
  6
Continuous
 62
     7
370
    15
100
AcDbCircle
 10
325.2481550608917
 20
252.7739316248684
 30
0.0
 40
23.11796874999996
100
AcDbArc
 50
344.8107132628178
 51
15.18928673718301
  0
ARC
  5
290
330
1F
100
AcDbEntity
  8
0
  6
Continuous
 62
     7
370
    15
100
AcDbCircle
 10
347.1754988108917
 20
320.7270566248681
 30
0.0
 40
0.3968750000000376
100
AcDbArc
 50
15.18928673718912
 51
105.4722513576454
  0
ARC
  5
291
330
1F
100
AcDbEntity
  8
0
  6
Continuous
 62
     7
370
    15
100
AcDbCircle
 10
347.1754988108917
 20
308.8208066248682
 30
0.0
 40
0.3968750000000376
100
AcDbArc
 50
254.5277486423554
 51
344.8107132628117
  0
ARC
  5
292
330
1F
100
AcDbEntity
  8
0
  6
Continuous
 62
     7
370
    15
100
AcDbCircle
 10
325.2481550608917
 20
314.7739316248681
 30
0.0
 40
23.11796874999996
100
AcDbArc
 50
344.810713262818
 51
15.18928673718301
  0
ARC
  5
293
330
1F
100
AcDbEntity
  8
0
  6
Continuous
 62
     7
370
    15
100
AcDbCircle
 10
227.6727488108917
 20
308.8208066248685
 30
0.0
 40
0.396875000000023
100
AcDbArc
 50
195.1892867371798
 51
0.0
  0
ARC
  5
294
330
1F
100
AcDbEntity
  8
0
  6
Continuous
 62
     7
370
    15
100
AcDbCircle
 10
227.6727488108917
 20
320.7270566248685
 30
0.0
 40
0.3968750000000379
100
AcDbArc
 50
0.0
 51
164.810713262813
  0
ARC
  5
295
330
1F
100
AcDbEntity
  8
0
  6
Continuous
 62
     7
370
    15
100
AcDbCircle
 10
249.6000925608917
 20
314.7739316248685
 30
0.0
 40
23.11796875000002
100
AcDbArc
 50
164.8107132628171
 51
195.1892867371838
  0
ARC
  5
296
330
1F
100
AcDbEntity
  8
0
  6
Continuous
 62
     7
370
    15
100
AcDbCircle
 10
227.6727488108917
 20
246.8208066248684
 30
0.0
 40
0.3968750000000379
100
AcDbArc
 50
195.1892867371878
 51
0.0
  0
ARC
  5
297
330
1F
100
AcDbEntity
  8
0
  6
Continuous
 62
     7
370
    15
100
AcDbCircle
 10
227.6727488108917
 20
258.7270566248684
 30
0.0
 40
0.396875000000023
100
AcDbArc
 50
0.0000000000005129
 51
164.810713262821
  0
ARC
  5
298
330
1F
100
AcDbEntity
  8
0
  6
Continuous
 62
     7
370
    15
100
AcDbCircle
 10
249.6000925608917
 20
252.7739316248684
 30
0.0
 40
23.11796875000002
100
AcDbArc
 50
164.810713262817
 51
195.1892867371837
  0
ARC
  5
299
330
1F
100
AcDbEntity
  8
0
  6
Continuous
 62
     7
370
    15
100
AcDbCircle
 10
345.4696238108917
 20
229.3739316248685
 30
0.0
 40
1.600000000000022
100
AcDbArc
 50
270.0000000000008
 51
0.0
  0
LINE
  5
29A
330
1F
100
AcDbEntity
  8
0
  6
Continuous
 62
     7
370
    15
100
AcDbLine
 10
345.4696240840478
 20
227.7739298963338
 30
0.0
 11
229.669621494226
 21
227.7739298963338
 31
0.0
  0
LINE
  5
29B
330
1F
100
AcDbEntity
  8
0
  6
Continuous
 62
     7
370
    15
100
AcDbLine
 10
347.0696232287211
 20
236.7739332341939
 30
0.0
 11
347.0696232287211
 21
229.3739309036523
 31
0.0
  0
LINE
  5
29C
330
1F
100
AcDbEntity
  8
0
  6
Continuous
 62
     7
370
    15
100
AcDbLine
 10
345.4696240840478
 20
236.7739332341939
 30
0.0
 11
347.0696232287211
 21
236.7739332341939
 31
0.0
  0
LINE
  5
29D
330
1F
100
AcDbEntity
  8
0
  6
Continuous
 62
     7
370
    15
100
AcDbLine
 10
345.4696240840478
 20
236.7739332341939
 30
0.0
 11
229.669621494226
 21
236.7739332341939
 31
0.0
  0
ARC
  5
29E
330
1F
100
AcDbEntity
  8
0
  6
Continuous
 62
     7
370
    15
100
AcDbCircle
 10
229.6696238108917
 20
229.3739316248685
 30
0.0
 40
1.599999999999994
100
AcDbArc
 50
180.0
 51
270.0000000000008
  0
LINE
  5
29F
330
1F
100
AcDbEntity
  8
0
  6
Continuous
 62
     7
370
    15
100
AcDbLine
 10
228.0696242121978
 20
229.3739309036523
 30
0.0
 11
228.0696242121978
 21
236.7739332341939
 31
0.0
  0
LINE
  5
2A0
330
1F
100
AcDbEntity
  8
0
  6
Continuous
 62
     7
370
    15
100
AcDbLine
 10
228.0696242121978
 20
236.7739332341939
 30
0.0
 11
229.669621494226
 21
236.7739332341939
 31
0.0
  0
LINE
  5
2A1
330
1F
100
AcDbEntity
  8
0
  6
Continuous
 62
     7
370
    15
100
AcDbLine
 10
320.7975130533798
 20
242.5326285385877
 30
0.0
 11
319.526517578028
 21
243.216662617901
 31
0.0
  0
LINE
  5
2A2
330
1F
100
AcDbEntity
  8
0
  6
Continuous
 62
     7
370
    15
100
AcDbLine
 10
319.526517578028
 20
243.216662617901
 30
0.0
 11
318.2986283680422
 21
242.4579662704259
 31
0.0
  0
LINE
  5
2A3
330
1F
100
AcDbEntity
  8
0
  6
Continuous
 62
     7
370
    15
100
AcDbLine
 10
318.2986283680422
 20
242.4579662704259
 30
0.0
 11
318.3417346334083
 21
241.0152358436376
 31
0.0
  0
LINE
  5
2A4
330
1F
100
AcDbEntity
  8
0
  6
Continuous
 62
     7
370
    15
100
AcDbLine
 10
318.3417346334083
 20
241.0152358436376
 30
0.0
 11
319.6127301087601
 21
240.331198039034
 31
0.0
  0
LINE
  5
2A5
330
1F
100
AcDbEntity
  8
0
  6
Continuous
 62
     7
370
    15
100
AcDbLine
 10
319.6127301087601
 20
240.331198039034
 30
0.0
 11
320.8406193187459
 21
241.0898981117993
 31
0.0
  0
LINE
  5
2A6
330
1F
100
AcDbEntity
  8
0
  6
Continuous
 62
     7
370
    15
100
AcDbLine
 10
320.8406193187459
 20
241.0898981117993
 30
0.0
 11
320.7975130533798
 21
242.5326285385877
 31
0.0
  0
CIRCLE
  5
2A7
330
1F
100
AcDbEntity
  8
0
  6
Continuous
 62
     7
370
    15
100
AcDbCircle
 10
319.5696238108916
 20
241.7739316248689
 30
0.0
 40
2.499999999999981
  0
CIRCLE
  5
2A8
330
1F
100
AcDbEntity
  8
0
  6
Continuous
 62
     7
370
    15
100
AcDbCircle
 10
319.5696238108916
 20
241.7739316248689
 30
0.0
 40
2.750000000000008
  0
CIRCLE
  5
2A9
330
1F
100
AcDbEntity
  8
0
  6
Continuous
 62
     7
370
    15
100
AcDbCircle
 10
319.5696238108916
 20
325.7739316248689
 30
0.0
 40
2.499999999999957
  0
CIRCLE
  5
2AA
330
1F
100
AcDbEntity
  8
0
  6
Continuous
 62
     7
370
    15
100
AcDbCircle
 10
319.5696238108916
 20
325.7739316248689
 30
0.0
 40
2.74999999999996
  0
LINE
  5
2AB
330
1F
100
AcDbEntity
  8
0
  6
Continuous
 62
     7
370
    15
100
AcDbLine
 10
320.7975130533798
 20
326.5326274060994
 30
0.0
 11
319.526517578028
 21
327.216665210703
 31
0.0
  0
LINE
  5
2AC
330
1F
100
AcDbEntity
  8
0
  6
Continuous
 62
     7
370
    15
100
AcDbLine
 10
319.526517578028
 20
327.216665210703
 30
0.0
 11
318.2986283680422
 21
326.4579651379376
 31
0.0
  0
LINE
  5
2AD
330
1F
100
AcDbEntity
  8
0
  6
Continuous
 62
     7
370
    15
100
AcDbLine
 10
318.2986283680422
 20
326.4579651379376
 30
0.0
 11
318.3417346334083
 21
325.0152347111493
 31
0.0
  0
LINE
  5
2AE
330
1F
100
AcDbEntity
  8
0
  6
Continuous
 62
     7
370
    15
100
AcDbLine
 10
318.3417346334083
 20
325.0152347111493
 30
0.0
 11
319.6127301087601
 21
324.331200631836
 31
0.0
  0
LINE
  5
2AF
330
1F
100
AcDbEntity
  8
0
  6
Continuous
 62
     7
370
    15
100
AcDbLine
 10
319.6127301087601
 20
324.331200631836
 30
0.0
 11
320.8406193187459
 21
325.089896979311
 31
0.0
  0
LINE
  5
2B0
330
1F
100
AcDbEntity
  8
0
  6
Continuous
 62
     7
370
    15
100
AcDbLine
 10
320.8406193187459
 20
325.089896979311
 30
0.0
 11
320.7975130533798
 21
326.5326274060994
 31
0.0
  0
LINE
  5
2B1
330
1F
100
AcDbEntity
  8
0
  6
Continuous
 62
     7
370
    15
100
AcDbLine
 10
256.7975132731719
 20
242.5326285385877
 30
0.0
 11
255.5265187291427
 21
243.216662617901
 31
0.0
  0
LINE
  5
2B2
330
1F
100
AcDbEntity
  8
0
  6
Continuous
 62
     7
370
    15
100
AcDbLine
 10
255.5265187291427
 20
243.216662617901
 30
0.0
 11
254.2986257938666
 21
242.4579662704259
 31
0.0
  0
LINE
  5
2B3
330
1F
100
AcDbEntity
  8
0
  6
Continuous
 62
     7
370
    15
100
AcDbLine
 10
254.2986257938666
 20
242.4579662704259
 30
0.0
 11
254.3417348532004
 21
241.0152358436376
 31
0.0
  0
LINE
  5
2B4
330
1F
100
AcDbEntity
  8
0
  6
Continuous
 62
     7
370
    15
100
AcDbLine
 10
254.3417348532004
 20
241.0152358436376
 30
0.0
 11
255.6127293972297
 21
240.331198039034
 31
0.0
  0
LINE
  5
2B5
330
1F
100
AcDbEntity
  8
0
  6
Continuous
 62
     7
370
    15
100
AcDbLine
 10
255.6127293972297
 20
240.331198039034
 30
0.0
 11
256.8406223325057
 21
241.0898981117993
 31
0.0
  0
LINE
  5
2B6
330
1F
100
AcDbEntity
  8
0
  6
Continuous
 62
     7
370
    15
100
AcDbLine
 10
256.8406223325057
 20
241.0898981117993
 30
0.0
 11
256.7975132731719
 21
242.5326285385877
 31
0.0
  0
CIRCLE
  5
2B7
330
1F
100
AcDbEntity
  8
0
  6
Continuous
 62
     7
370
    15
100
AcDbCircle
 10
255.5696238108916
 20
241.7739316248689
 30
0.0
 40
2.499999999999966
  0
CIRCLE
  5
2B8
330
1F
100
AcDbEntity
  8
0
  6
Continuous
 62
     7
370
    15
100
AcDbCircle
 10
255.5696238108916
 20
241.7739316248689
 30
0.0
 40
2.750000000000008
  0
CIRCLE
  5
2B9
330
1F
100
AcDbEntity
  8
0
  6
Continuous
 62
     7
370
    15
100
AcDbCircle
 10
255.5696238108916
 20
325.7739316248689
 30
0.0
 40
2.499999999999942
  0
CIRCLE
  5
2BA
330
1F
100
AcDbEntity
  8
0
  6
Continuous
 62
     7
370
    15
100
AcDbCircle
 10
255.5696238108916
 20
325.7739316248689
 30
0.0
 40
2.74999999999996
  0
LINE
  5
2BB
330
1F
100
AcDbEntity
  8
0
  6
Continuous
 62
     7
370
    15
100
AcDbLine
 10
256.7975132731719
 20
326.5326274060994
 30
0.0
 11
255.5265187291427
 21
327.216665210703
 31
0.0
  0
LINE
  5
2BC
330
1F
100
AcDbEntity
  8
0
  6
Continuous
 62
     7
370
    15
100
AcDbLine
 10
255.5265187291427
 20
327.216665210703
 30
0.0
 11
254.2986257938666
 21
326.4579651379376
 31
0.0
  0
LINE
  5
2BD
330
1F
100
AcDbEntity
  8
0
  6
Continuous
 62
     7
370
    15
100
AcDbLine
 10
254.2986257938666
 20
326.4579651379376
 30
0.0
 11
254.3417348532004
 21
325.0152347111493
 31
0.0
  0
LINE
  5
2BE
330
1F
100
AcDbEntity
  8
0
  6
Continuous
 62
     7
370
    15
100
AcDbLine
 10
254.3417348532004
 20
325.0152347111493
 30
0.0
 11
255.6127293972297
 21
324.331200631836
 31
0.0
  0
LINE
  5
2BF
330
1F
100
AcDbEntity
  8
0
  6
Continuous
 62
     7
370
    15
100
AcDbLine
 10
255.6127293972297
 20
324.331200631836
 30
0.0
 11
256.8406223325057
 21
325.089896979311
 31
0.0
  0
LINE
  5
2C0
330
1F
100
AcDbEntity
  8
0
  6
Continuous
 62
     7
370
    15
100
AcDbLine
 10
256.8406223325057
 20
325.089896979311
 30
0.0
 11
256.7975132731719
 21
326.5326274060994
 31
0.0
  0
LINE
  5
2C1
330
1F
100
AcDbEntity
  8
0
  6
Continuous
 62
     7
370
    15
100
AcDbLine
 10
345.4696240840478
 20
330.773930015543
 30
0.0
 11
347.0696232287211
 21
330.773930015543
 31
0.0
  0
LINE
  5
2C2
330
1F
100
AcDbEntity
  8
0
  6
Continuous
 62
     7
370
    15
100
AcDbLine
 10
347.0696232287211
 20
330.773930015543
 30
0.0
 11
347.0696232287211
 21
236.7739332341939
 31
0.0
  0
CIRCLE
  5
2C3
330
1F
100
AcDbEntity
  8
0
  6
Continuous
 62
     7
370
    15
100
AcDbCircle
 10
319.5696238108916
 20
241.7739316248689
 30
0.0
 40
3.249999999999943
  0
CIRCLE
  5
2C4
330
1F
100
AcDbEntity
  8
0
  6
Continuous
 62
     7
370
    15
100
AcDbCircle
 10
255.5696238108916
 20
241.7739316248689
 30
0.0
 40
3.249999999999971
  0
CIRCLE
  5
2C5
330
1F
100
AcDbEntity
  8
0
  6
Continuous
 62
     7
370
    15
100
AcDbCircle
 10
255.5696238108916
 20
325.7739316248689
 30
0.0
 40
3.249999999999971
  0
LINE
  5
2C6
330
1F
100
AcDbEntity
  8
0
  6
Continuous
 62
     7
370
    15
100
AcDbLine
 10
229.669621494226
 20
330.773930015543
 30
0.0
 11
345.4696240840478
 21
330.773930015543
 31
0.0
  0
CIRCLE
  5
2C7
330
1F
100
AcDbEntity
  8
0
  6
Continuous
 62
     7
370
    15
100
AcDbCircle
 10
319.5696238108916
 20
325.7739316248689
 30
0.0
 40
3.249999999999943
  0
LINE
  5
2C8
330
1F
100
AcDbEntity
  8
0
  6
Continuous
 62
     7
370
    15
100
AcDbLine
 10
228.0696242121978
 20
236.7739332341939
 30
0.0
 11
228.0696242121978
 21
330.773930015543
 31
0.0
  0
LINE
  5
2C9
330
1F
100
AcDbEntity
  8
0
  6
Continuous
 62
     7
370
    15
100
AcDbLine
 10
228.0696242121978
 20
330.773930015543
 30
0.0
 11
229.669621494226
 21
330.773930015543
 31
0.0
  0
LINE
  5
2CA
330
1F
100
AcDbEntity
  8
0
  6
Continuous
 62
     7
370
    15
100
AcDbLine
 10
347.0696232287211
 20
338.1739323460847
 30
0.0
 11
347.0696232287211
 21
330.773930015543
 31
0.0
  0
LINE
  5
2CB
330
1F
100
AcDbEntity
  8
0
  6
Continuous
 62
     7
370
    15
100
AcDbLine
 10
229.669621494226
 20
339.7739333534032
 30
0.0
 11
345.4696240840478
 21
339.7739333534032
 31
0.0
  0
ARC
  5
2CC
330
1F
100
AcDbEntity
  8
0
  6
Continuous
 62
     7
370
    15
100
AcDbCircle
 10
345.4696238108917
 20
338.1739316248685
 30
0.0
 40
1.600000000000022
100
AcDbArc
 50
0.0
 51
90.0
  0
LINE
  5
2CD
330
1F
100
AcDbEntity
  8
0
  6
Continuous
 62
     7
370
    15
100
AcDbLine
 10
228.0696242121978
 20
330.773930015543
 30
0.0
 11
228.0696242121978
 21
338.1739323460847
 31
0.0
  0
ARC
  5
2CE
330
1F
100
AcDbEntity
  8
0
  6
Continuous
 62
     7
370
    15
100
AcDbCircle
 10
229.6696238108917
 20
338.1739316248685
 30
0.0
 40
1.599999999999965
100
AcDbArc
 50
90.0
 51
180.0
  0
DIMENSION
  5
2CF
330
1F
100
AcDbEntity
  8
SLD-0
100
AcDbDimension
  2
_D_4
 10
347.0696238108915
 20
211.7739316248676
 30
0.0
 11
291.8573555828558
 21
211.7739316248676
 31
0.0
 70
   160
  1
<>
 71
     2
 42
119.0
  3
STANDARD
100
AcDbAlignedDimension
 13
228.0696238108915
 23
229.3739316248689
 33
0.0
 14
347.0696238108915
 24
229.3739316248689
 34
0.0
100
AcDbRotatedDimension
  0
DIMENSION
  5
2DB
330
1F
100
AcDbEntity
  8
SLD-0
100
AcDbDimension
  2
_D_5
 10
204.4821238108914
 20
227.7739316248689
 30
0.0
 11
204.4821238108914
 21
303.9570364296527
 31
0.0
 70
   160
  1
<>
 71
     2
 42
145.3374999999995
  3
STANDARD
100
AcDbAlignedDimension
 13
255.4227488108916
 23
373.1114316248684
 33
0.0
 14
229.6696238108915
 24
227.7739316248689
 34
0.0
 50
90.00000000000019
100
AcDbRotatedDimension
  0
DIMENSION
  5
2E6
330
1F
100
AcDbEntity
  8
SLD-0
100
AcDbDimension
  2
_D_6
 10
216.4821238108915
 20
227.7739316248689
 30
0.0
 11
216.4821238108914
 21
257.4580369417321
 31
0.0
 70
   160
  1
<>
 71
     2
 42
55.99999999999997
  3
STANDARD
100
AcDbAlignedDimension
 13
209.7234456001025
 23
283.7739316248688
 33
0.0
 14
229.6696238108915
 24
227.7739316248689
 34
0.0
 50
90.00000000000019
100
AcDbRotatedDimension
  0
MTEXT
  5
2F0
330
1F
100
AcDbEntity
  8
SLD-0
100
AcDbMText
 10
348.7449350688625
 20
368.6267302094349
 30
0.0
 40
3.962399999999999
 41
0.0
 71
     1
 72
     1
  1
HANDLE
 73
     1
 44
1.0
  0
LEADER
  5
2F2
330
1F
100
AcDbEntity
  8
SLD-0
100
AcDbLeader
  3
SLDDIMSTYLE3
 76
     3
 10
329.6383738108916
 20
355.6644063849623
 30
0.0
 10
341.8087183308494
 20
366.5731964714064
 30
0.0
 10
348.1587183308493
 20
366.5731964714064
 30
0.0
  0
LINE
  5
2F3
330
1F
100
AcDbEntity
  8
SLD-0
  6
CENTERX2
370
     0
100
AcDbLine
 10
368.4079292700231
 20
283.7739316248688
 30
0.0
 11
209.7234456001025
 21
283.7739316248688
 31
0.0
  0
LINE
  5
2F4
330
1F
100
AcDbEntity
  8
0
  6
Continuous
 62
     7
370
    15
100
AcDbLine
 10
469.2663320567969
 20
339.7739316248685
 30
0.0
 11
469.2663320567969
 21
363.1895566248685
 31
0.0
  0
LINE
  5
2F5
330
1F
100
AcDbEntity
  8
0
  6
Continuous
 62
     7
370
    15
100
AcDbLine
 10
453.391332056797
 20
363.1895566248685
 30
0.0
 11
453.391332056797
 21
339.7739316248685
 31
0.0
  0
LINE
  5
2F6
330
1F
100
AcDbEntity
  8
0
  6
Continuous
 62
     7
370
    15
100
AcDbLine
 10
469.2663320567969
 20
363.1895566248685
 30
0.0
 11
469.2663320567969
 21
369.1426816248685
 31
0.0
  0
LINE
  5
2F7
330
1F
100
AcDbEntity
  8
0
  6
Continuous
 62
     7
370
    15
100
AcDbLine
 10
453.391332056797
 20
369.1426816248685
 30
0.0
 11
453.391332056797
 21
363.1895566248685
 31
0.0
  0
CIRCLE
  5
2F8
330
1F
100
AcDbEntity
  8
0
  6
Continuous
 62
     7
370
    15
100
AcDbCircle
 10
430.328832056797
 20
252.7739316248684
 30
0.0
 40
6.350000000000022
  0
CIRCLE
  5
2F9
330
1F
100
AcDbEntity
  8
0
  6
Continuous
 62
     7
370
    15
100
AcDbCircle
 10
492.3288320567971
 20
252.7739316248686
 30
0.0
 40
6.349999999999965
  0
CIRCLE
  5
2FA
330
1F
100
AcDbEntity
  8
0
  6
Continuous
 62
     7
370
    15
100
AcDbCircle
 10
492.3288320567968
 20
314.7739316248687
 30
0.0
 40
6.349999999999965
  0
CIRCLE
  5
2FB
330
1F
100
AcDbEntity
  8
0
  6
Continuous
 62
     7
370
    15
100
AcDbCircle
 10
430.3288320567967
 20
314.7739316248682
 30
0.0
 40
6.350000000000022
  0
LINE
  5
2FC
330
1F
100
AcDbEntity
  8
0
  6
Continuous
 62
     7
370
    15
100
AcDbLine
 10
505.828832056797
 20
334.8739316248685
 30
0.0
 11
505.828832056797
 21
334.7739316248685
 31
0.0
  0
LINE
  5
2FD
330
1F
100
AcDbEntity
  8
0
  6
Continuous
 62
     7
370
    15
100
AcDbLine
 10
508.828832056797
 20
334.7739316248685
 30
0.0
 11
508.828832056797
 21
334.8739316248685
 31
0.0
  0
LINE
  5
2FE
330
1F
100
AcDbEntity
  8
0
  6
Continuous
 62
     7
370
    15
100
AcDbLine
 10
508.8288320567966
 20
232.6739316248684
 30
0.0
 11
508.8288320567966
 21
232.7739316248685
 31
0.0
  0
LINE
  5
2FF
330
1F
100
AcDbEntity
  8
0
  6
Continuous
 62
     7
370
    15
100
AcDbLine
 10
505.8288320567966
 20
232.7739316248685
 30
0.0
 11
505.8288320567966
 21
232.6739316248684
 31
0.0
  0
LINE
  5
300
330
1F
100
AcDbEntity
  8
0
  6
Continuous
 62
     7
370
    15
100
AcDbLine
 10
416.8288320567966
 20
232.6739316248684
 30
0.0
 11
416.8288320567966
 21
232.7739316248683
 31
0.0
  0
LINE
  5
301
330
1F
100
AcDbEntity
  8
0
  6
Continuous
 62
     7
370
    15
100
AcDbLine
 10
413.8288320567967
 20
232.7739316248683
 30
0.0
 11
413.8288320567967
 21
232.6739316248684
 31
0.0
  0
LINE
  5
302
330
1F
100
AcDbEntity
  8
0
  6
Continuous
 62
     7
370
    15
100
AcDbLine
 10
413.828832056797
 20
334.8739316248685
 30
0.0
 11
413.828832056797
 21
334.7739316248685
 31
0.0
  0
LINE
  5
303
330
1F
100
AcDbEntity
  8
0
  6
Continuous
 62
     7
370
    15
100
AcDbLine
 10
416.828832056797
 20
334.7739316248685
 30
0.0
 11
416.828832056797
 21
334.8739316248685
 31
0.0
  0
LINE
  5
304
330
1F
100
AcDbEntity
  8
0
  6
Continuous
 62
     7
370
    15
100
AcDbLine
 10
474.853832056797
 20
330.4614316248685
 30
0.0
 11
474.6038320567969
 21
330.4614316248685
 31
0.0
  0
LINE
  5
305
330
1F
100
AcDbEntity
  8
0
  6
Continuous
 62
     7
370
    15
100
AcDbLine
 10
474.6038320567969
 20
331.2614316248684
 30
0.0
 11
474.853832056797
 21
331.2614316248684
 31
0.0
  0
LINE
  5
306
330
1F
100
AcDbEntity
  8
0
  6
Continuous
 62
     7
370
    15
100
AcDbLine
 10
473.803832056797
 20
331.2614316248684
 30
0.0
 11
474.053832056797
 21
331.2614316248684
 31
0.0
  0
LINE
  5
307
330
1F
100
AcDbEntity
  8
0
  6
Continuous
 62
     7
370
    15
100
AcDbLine
 10
474.053832056797
 20
330.4614316248685
 30
0.0
 11
473.803832056797
 21
330.4614316248685
 31
0.0
  0
LINE
  5
308
330
1F
100
AcDbEntity
  8
0
  6
Continuous
 62
     7
370
    15
100
AcDbLine
 10
473.0038320567969
 20
331.2614316248684
 30
0.0
 11
473.2538320567971
 21
331.2614316248684
 31
0.0
  0
LINE
  5
309
330
1F
100
AcDbEntity
  8
0
  6
Continuous
 62
     7
370
    15
100
AcDbLine
 10
473.2538320567971
 20
330.4614316248685
 30
0.0
 11
473.0038320567969
 21
330.4614316248685
 31
0.0
  0
LINE
  5
30A
330
1F
100
AcDbEntity
  8
0
  6
Continuous
 62
     7
370
    15
100
AcDbLine
 10
472.453832056797
 20
330.4614316248685
 30
0.0
 11
472.203832056797
 21
330.4614316248685
 31
0.0
  0
LINE
  5
30B
330
1F
100
AcDbEntity
  8
0
  6
Continuous
 62
     7
370
    15
100
AcDbLine
 10
472.203832056797
 20
331.2614316248684
 30
0.0
 11
472.453832056797
 21
331.2614316248684
 31
0.0
  0
LINE
  5
30C
330
1F
100
AcDbEntity
  8
0
  6
Continuous
 62
     7
370
    15
100
AcDbLine
 10
471.653832056797
 20
330.4614316248685
 30
0.0
 11
471.403832056797
 21
330.4614316248685
 31
0.0
  0
LINE
  5
30D
330
1F
100
AcDbEntity
  8
0
  6
Continuous
 62
     7
370
    15
100
AcDbLine
 10
471.403832056797
 20
331.2614316248684
 30
0.0
 11
471.653832056797
 21
331.2614316248684
 31
0.0
  0
LINE
  5
30E
330
1F
100
AcDbEntity
  8
0
  6
Continuous
 62
     7
370
    15
100
AcDbLine
 10
470.853832056797
 20
330.4614316248685
 30
0.0
 11
470.6038320567969
 21
330.4614316248685
 31
0.0
  0
LINE
  5
30F
330
1F
100
AcDbEntity
  8
0
  6
Continuous
 62
     7
370
    15
100
AcDbLine
 10
470.6038320567969
 20
331.2614316248684
 30
0.0
 11
470.853832056797
 21
331.2614316248684
 31
0.0
  0
LINE
  5
310
330
1F
100
AcDbEntity
  8
0
  6
Continuous
 62
     7
370
    15
100
AcDbLine
 10
469.803832056797
 20
331.2614316248684
 30
0.0
 11
470.053832056797
 21
331.2614316248684
 31
0.0
  0
LINE
  5
311
330
1F
100
AcDbEntity
  8
0
  6
Continuous
 62
     7
370
    15
100
AcDbLine
 10
470.053832056797
 20
330.4614316248685
 30
0.0
 11
469.803832056797
 21
330.4614316248685
 31
0.0
  0
LINE
  5
312
330
1F
100
AcDbEntity
  8
0
  6
Continuous
 62
     7
370
    15
100
AcDbLine
 10
469.003832056797
 20
331.2614316248684
 30
0.0
 11
469.253832056797
 21
331.2614316248684
 31
0.0
  0
LINE
  5
313
330
1F
100
AcDbEntity
  8
0
  6
Continuous
 62
     7
370
    15
100
AcDbLine
 10
469.253832056797
 20
330.4614316248685
 30
0.0
 11
469.003832056797
 21
330.4614316248685
 31
0.0
  0
LINE
  5
314
330
1F
100
AcDbEntity
  8
0
  6
Continuous
 62
     7
370
    15
100
AcDbLine
 10
468.203832056797
 20
331.2614316248684
 30
0.0
 11
468.453832056797
 21
331.2614316248684
 31
0.0
  0
LINE
  5
315
330
1F
100
AcDbEntity
  8
0
  6
Continuous
 62
     7
370
    15
100
AcDbLine
 10
468.453832056797
 20
330.4614316248685
 30
0.0
 11
468.203832056797
 21
330.4614316248685
 31
0.0
  0
LINE
  5
316
330
1F
100
AcDbEntity
  8
0
  6
Continuous
 62
     7
370
    15
100
AcDbLine
 10
467.653832056797
 20
330.4614316248685
 30
0.0
 11
467.403832056797
 21
330.4614316248685
 31
0.0
  0
LINE
  5
317
330
1F
100
AcDbEntity
  8
0
  6
Continuous
 62
     7
370
    15
100
AcDbLine
 10
467.403832056797
 20
331.2614316248684
 30
0.0
 11
467.653832056797
 21
331.2614316248684
 31
0.0
  0
LINE
  5
318
330
1F
100
AcDbEntity
  8
0
  6
Continuous
 62
     7
370
    15
100
AcDbLine
 10
466.6038320567969
 20
331.2614316248684
 30
0.0
 11
466.853832056797
 21
331.2614316248684
 31
0.0
  0
LINE
  5
319
330
1F
100
AcDbEntity
  8
0
  6
Continuous
 62
     7
370
    15
100
AcDbLine
 10
466.853832056797
 20
330.4614316248685
 30
0.0
 11
466.6038320567969
 21
330.4614316248685
 31
0.0
  0
LINE
  5
31A
330
1F
100
AcDbEntity
  8
0
  6
Continuous
 62
     7
370
    15
100
AcDbLine
 10
466.053832056797
 20
330.4614316248685
 30
0.0
 11
465.803832056797
 21
330.4614316248685
 31
0.0
  0
LINE
  5
31B
330
1F
100
AcDbEntity
  8
0
  6
Continuous
 62
     7
370
    15
100
AcDbLine
 10
465.803832056797
 20
331.2614316248684
 30
0.0
 11
466.053832056797
 21
331.2614316248684
 31
0.0
  0
LINE
  5
31C
330
1F
100
AcDbEntity
  8
0
  6
Continuous
 62
     7
370
    15
100
AcDbLine
 10
465.253832056797
 20
330.4614316248685
 30
0.0
 11
465.003832056797
 21
330.4614316248685
 31
0.0
  0
LINE
  5
31D
330
1F
100
AcDbEntity
  8
0
  6
Continuous
 62
     7
370
    15
100
AcDbLine
 10
465.003832056797
 20
331.2614316248684
 30
0.0
 11
465.253832056797
 21
331.2614316248684
 31
0.0
  0
LINE
  5
31E
330
1F
100
AcDbEntity
  8
0
  6
Continuous
 62
     7
370
    15
100
AcDbLine
 10
464.453832056797
 20
330.4614316248685
 30
0.0
 11
464.203832056797
 21
330.4614316248685
 31
0.0
  0
LINE
  5
31F
330
1F
100
AcDbEntity
  8
0
  6
Continuous
 62
     7
370
    15
100
AcDbLine
 10
464.203832056797
 20
331.2614316248684
 30
0.0
 11
464.453832056797
 21
331.2614316248684
 31
0.0
  0
LINE
  5
320
330
1F
100
AcDbEntity
  8
0
  6
Continuous
 62
     7
370
    15
100
AcDbLine
 10
463.4038320567969
 20
331.2614316248684
 30
0.0
 11
463.6538320567971
 21
331.2614316248684
 31
0.0
  0
LINE
  5
321
330
1F
100
AcDbEntity
  8
0
  6
Continuous
 62
     7
370
    15
100
AcDbLine
 10
463.6538320567971
 20
330.4614316248685
 30
0.0
 11
463.4038320567969
 21
330.4614316248685
 31
0.0
  0
LINE
  5
322
330
1F
100
AcDbEntity
  8
0
  6
Continuous
 62
     7
370
    15
100
AcDbLine
 10
462.853832056797
 20
330.4614316248685
 30
0.0
 11
462.603832056797
 21
330.4614316248685
 31
0.0
  0
LINE
  5
323
330
1F
100
AcDbEntity
  8
0
  6
Continuous
 62
     7
370
    15
100
AcDbLine
 10
462.603832056797
 20
331.2614316248684
 30
0.0
 11
462.853832056797
 21
331.2614316248684
 31
0.0
  0
LINE
  5
324
330
1F
100
AcDbEntity
  8
0
  6
Continuous
 62
     7
370
    15
100
AcDbLine
 10
462.053832056797
 20
330.4614316248685
 30
0.0
 11
461.803832056797
 21
330.4614316248685
 31
0.0
  0
LINE
  5
325
330
1F
100
AcDbEntity
  8
0
  6
Continuous
 62
     7
370
    15
100
AcDbLine
 10
461.803832056797
 20
331.2614316248684
 30
0.0
 11
462.053832056797
 21
331.2614316248684
 31
0.0
  0
LINE
  5
326
330
1F
100
AcDbEntity
  8
0
  6
Continuous
 62
     7
370
    15
100
AcDbLine
 10
461.253832056797
 20
330.4614316248685
 30
0.0
 11
461.003832056797
 21
330.4614316248685
 31
0.0
  0
LINE
  5
327
330
1F
100
AcDbEntity
  8
0
  6
Continuous
 62
     7
370
    15
100
AcDbLine
 10
461.003832056797
 20
331.2614316248684
 30
0.0
 11
461.253832056797
 21
331.2614316248684
 31
0.0
  0
LINE
  5
328
330
1F
100
AcDbEntity
  8
0
  6
Continuous
 62
     7
370
    15
100
AcDbLine
 10
460.203832056797
 20
331.2614316248684
 30
0.0
 11
460.453832056797
 21
331.2614316248684
 31
0.0
  0
LINE
  5
329
330
1F
100
AcDbEntity
  8
0
  6
Continuous
 62
     7
370
    15
100
AcDbLine
 10
460.453832056797
 20
330.4614316248685
 30
0.0
 11
460.203832056797
 21
330.4614316248685
 31
0.0
  0
LINE
  5
32A
330
1F
100
AcDbEntity
  8
0
  6
Continuous
 62
     7
370
    15
100
AcDbLine
 10
459.6538320567971
 20
330.4614316248685
 30
0.0
 11
459.4038320567969
 21
330.4614316248685
 31
0.0
  0
LINE
  5
32B
330
1F
100
AcDbEntity
  8
0
  6
Continuous
 62
     7
370
    15
100
AcDbLine
 10
459.4038320567969
 20
331.2614316248684
 30
0.0
 11
459.6538320567971
 21
331.2614316248684
 31
0.0
  0
LINE
  5
32C
330
1F
100
AcDbEntity
  8
0
  6
Continuous
 62
     7
370
    15
100
AcDbLine
 10
458.853832056797
 20
330.4614316248685
 30
0.0
 11
458.603832056797
 21
330.4614316248685
 31
0.0
  0
LINE
  5
32D
330
1F
100
AcDbEntity
  8
0
  6
Continuous
 62
     7
370
    15
100
AcDbLine
 10
458.603832056797
 20
331.2614316248684
 30
0.0
 11
458.853832056797
 21
331.2614316248684
 31
0.0
  0
LINE
  5
32E
330
1F
100
AcDbEntity
  8
0
  6
Continuous
 62
     7
370
    15
100
AcDbLine
 10
457.803832056797
 20
331.2614316248684
 30
0.0
 11
458.053832056797
 21
331.2614316248684
 31
0.0
  0
LINE
  5
32F
330
1F
100
AcDbEntity
  8
0
  6
Continuous
 62
     7
370
    15
100
AcDbLine
 10
458.053832056797
 20
330.4614316248685
 30
0.0
 11
457.803832056797
 21
330.4614316248685
 31
0.0
  0
LINE
  5
330
330
1F
100
AcDbEntity
  8
0
  6
Continuous
 62
     7
370
    15
100
AcDbLine
 10
457.003832056797
 20
331.2614316248684
 30
0.0
 11
457.253832056797
 21
331.2614316248684
 31
0.0
  0
LINE
  5
331
330
1F
100
AcDbEntity
  8
0
  6
Continuous
 62
     7
370
    15
100
AcDbLine
 10
457.253832056797
 20
330.4614316248685
 30
0.0
 11
457.003832056797
 21
330.4614316248685
 31
0.0
  0
LINE
  5
332
330
1F
100
AcDbEntity
  8
0
  6
Continuous
 62
     7
370
    15
100
AcDbLine
 10
456.453832056797
 20
330.4614316248685
 30
0.0
 11
456.203832056797
 21
330.4614316248685
 31
0.0
  0
LINE
  5
333
330
1F
100
AcDbEntity
  8
0
  6
Continuous
 62
     7
370
    15
100
AcDbLine
 10
456.203832056797
 20
331.2614316248684
 30
0.0
 11
456.453832056797
 21
331.2614316248684
 31
0.0
  0
LINE
  5
334
330
1F
100
AcDbEntity
  8
0
  6
Continuous
 62
     7
370
    15
100
AcDbLine
 10
455.4038320567969
 20
331.2614316248684
 30
0.0
 11
455.6538320567971
 21
331.2614316248684
 31
0.0
  0
LINE
  5
335
330
1F
100
AcDbEntity
  8
0
  6
Continuous
 62
     7
370
    15
100
AcDbLine
 10
455.6538320567971
 20
330.4614316248685
 30
0.0
 11
455.4038320567969
 21
330.4614316248685
 31
0.0
  0
LINE
  5
336
330
1F
100
AcDbEntity
  8
0
  6
Continuous
 62
     7
370
    15
100
AcDbLine
 10
454.603832056797
 20
331.2614316248684
 30
0.0
 11
454.853832056797
 21
331.2614316248684
 31
0.0
  0
LINE
  5
337
330
1F
100
AcDbEntity
  8
0
  6
Continuous
 62
     7
370
    15
100
AcDbLine
 10
454.853832056797
 20
330.4614316248685
 30
0.0
 11
454.603832056797
 21
330.4614316248685
 31
0.0
  0
LINE
  5
338
330
1F
100
AcDbEntity
  8
0
  6
Continuous
 62
     7
370
    15
100
AcDbLine
 10
454.053832056797
 20
330.4614316248685
 30
0.0
 11
453.803832056797
 21
330.4614316248685
 31
0.0
  0
LINE
  5
339
330
1F
100
AcDbEntity
  8
0
  6
Continuous
 62
     7
370
    15
100
AcDbLine
 10
453.803832056797
 20
331.2614316248684
 30
0.0
 11
454.053832056797
 21
331.2614316248684
 31
0.0
  0
LINE
  5
33A
330
1F
100
AcDbEntity
  8
0
  6
Continuous
 62
     7
370
    15
100
AcDbLine
 10
453.003832056797
 20
331.2614316248684
 30
0.0
 11
453.253832056797
 21
331.2614316248684
 31
0.0
  0
LINE
  5
33B
330
1F
100
AcDbEntity
  8
0
  6
Continuous
 62
     7
370
    15
100
AcDbLine
 10
453.253832056797
 20
330.4614316248685
 30
0.0
 11
453.003832056797
 21
330.4614316248685
 31
0.0
  0
LINE
  5
33C
330
1F
100
AcDbEntity
  8
0
  6
Continuous
 62
     7
370
    15
100
AcDbLine
 10
452.453832056797
 20
330.4614316248685
 30
0.0
 11
452.203832056797
 21
330.4614316248685
 31
0.0
  0
LINE
  5
33D
330
1F
100
AcDbEntity
  8
0
  6
Continuous
 62
     7
370
    15
100
AcDbLine
 10
452.203832056797
 20
331.2614316248684
 30
0.0
 11
452.453832056797
 21
331.2614316248684
 31
0.0
  0
LINE
  5
33E
330
1F
100
AcDbEntity
  8
0
  6
Continuous
 62
     7
370
    15
100
AcDbLine
 10
451.4038320567969
 20
331.2614316248684
 30
0.0
 11
451.653832056797
 21
331.2614316248684
 31
0.0
  0
LINE
  5
33F
330
1F
100
AcDbEntity
  8
0
  6
Continuous
 62
     7
370
    15
100
AcDbLine
 10
451.653832056797
 20
330.4614316248685
 30
0.0
 11
451.4038320567969
 21
330.4614316248685
 31
0.0
  0
LINE
  5
340
330
1F
100
AcDbEntity
  8
0
  6
Continuous
 62
     7
370
    15
100
AcDbLine
 10
450.853832056797
 20
330.4614316248685
 30
0.0
 11
450.603832056797
 21
330.4614316248685
 31
0.0
  0
LINE
  5
341
330
1F
100
AcDbEntity
  8
0
  6
Continuous
 62
     7
370
    15
100
AcDbLine
 10
450.603832056797
 20
331.2614316248684
 30
0.0
 11
450.853832056797
 21
331.2614316248684
 31
0.0
  0
LINE
  5
342
330
1F
100
AcDbEntity
  8
0
  6
Continuous
 62
     7
370
    15
100
AcDbLine
 10
450.053832056797
 20
330.4614316248685
 30
0.0
 11
449.803832056797
 21
330.4614316248685
 31
0.0
  0
LINE
  5
343
330
1F
100
AcDbEntity
  8
0
  6
Continuous
 62
     7
370
    15
100
AcDbLine
 10
449.803832056797
 20
331.2614316248684
 30
0.0
 11
450.053832056797
 21
331.2614316248684
 31
0.0
  0
LINE
  5
344
330
1F
100
AcDbEntity
  8
0
  6
Continuous
 62
     7
370
    15
100
AcDbLine
 10
449.253832056797
 20
330.4614316248685
 30
0.0
 11
449.003832056797
 21
330.4614316248685
 31
0.0
  0
LINE
  5
345
330
1F
100
AcDbEntity
  8
0
  6
Continuous
 62
     7
370
    15
100
AcDbLine
 10
449.003832056797
 20
331.2614316248684
 30
0.0
 11
449.253832056797
 21
331.2614316248684
 31
0.0
  0
LINE
  5
346
330
1F
100
AcDbEntity
  8
0
  6
Continuous
 62
     7
370
    15
100
AcDbLine
 10
448.203832056797
 20
331.2614316248684
 30
0.0
 11
448.453832056797
 21
331.2614316248684
 31
0.0
  0
LINE
  5
347
330
1F
100
AcDbEntity
  8
0
  6
Continuous
 62
     7
370
    15
100
AcDbLine
 10
448.453832056797
 20
330.4614316248685
 30
0.0
 11
448.203832056797
 21
330.4614316248685
 31
0.0
  0
LINE
  5
348
330
1F
100
AcDbEntity
  8
0
  6
Continuous
 62
     7
370
    15
100
AcDbLine
 10
473.3288320567971
 20
333.1581228401325
 30
0.0
 11
471.328832056797
 21
333.1581228401325
 31
0.0
  0
LINE
  5
349
330
1F
100
AcDbEntity
  8
0
  6
Continuous
 62
     7
370
    15
100
AcDbLine
 10
462.328832056797
 20
333.1581228401325
 30
0.0
 11
460.328832056797
 21
333.1581228401325
 31
0.0
  0
LINE
  5
34A
330
1F
100
AcDbEntity
  8
0
  6
Continuous
 62
     7
370
    15
100
AcDbLine
 10
451.328832056797
 20
333.1581228401325
 30
0.0
 11
449.328832056797
 21
333.1581228401325
 31
0.0
  0
LINE
  5
34B
330
1F
100
AcDbEntity
  8
0
  6
Continuous
 62
     7
370
    15
100
AcDbLine
 10
471.328832056797
 20
328.0147404096045
 30
0.0
 11
473.3288320567971
 21
328.0147404096045
 31
0.0
  0
LINE
  5
34C
330
1F
100
AcDbEntity
  8
0
  6
Continuous
 62
     7
370
    15
100
AcDbLine
 10
460.328832056797
 20
328.0147404096045
 30
0.0
 11
462.328832056797
 21
328.0147404096045
 31
0.0
  0
LINE
  5
34D
330
1F
100
AcDbEntity
  8
0
  6
Continuous
 62
     7
370
    15
100
AcDbLine
 10
449.328832056797
 20
328.0147404096045
 30
0.0
 11
451.328832056797
 21
328.0147404096045
 31
0.0
  0
LINE
  5
34E
330
1F
100
AcDbEntity
  8
0
  6
Continuous
 62
     7
370
    15
100
AcDbLine
 10
414.641332056797
 20
278.8989316248684
 30
0.0
 11
414.641332056797
 21
278.6489316248685
 31
0.0
  0
LINE
  5
34F
330
1F
100
AcDbEntity
  8
0
  6
Continuous
 62
     7
370
    15
100
AcDbLine
 10
414.641332056797
 20
285.2989316248685
 30
0.0
 11
414.641332056797
 21
285.0489316248684
 31
0.0
  0
LINE
  5
350
330
1F
100
AcDbEntity
  8
0
  6
Continuous
 62
     7
370
    15
100
AcDbLine
 10
414.641332056797
 20
279.6989316248684
 30
0.0
 11
414.641332056797
 21
279.4489316248685
 31
0.0
  0
LINE
  5
351
330
1F
100
AcDbEntity
  8
0
  6
Continuous
 62
     7
370
    15
100
AcDbLine
 10
414.6413320567971
 20
291.6989316248684
 30
0.0
 11
414.6413320567971
 21
291.4489316248685
 31
0.0
  0
LINE
  5
352
330
1F
100
AcDbEntity
  8
0
  6
Continuous
 62
     7
370
    15
100
AcDbLine
 10
414.641332056797
 20
286.0989316248685
 30
0.0
 11
414.641332056797
 21
285.8489316248684
 31
0.0
  0
LINE
  5
353
330
1F
100
AcDbEntity
  8
0
  6
Continuous
 62
     7
370
    15
100
AcDbLine
 10
414.6413320567971
 20
292.4989316248685
 30
0.0
 11
414.6413320567971
 21
292.2489316248685
 31
0.0
  0
LINE
  5
354
330
1F
100
AcDbEntity
  8
0
  6
Continuous
 62
     7
370
    15
100
AcDbLine
 10
414.641332056797
 20
277.2989316248685
 30
0.0
 11
414.641332056797
 21
277.0489316248684
 31
0.0
  0
LINE
  5
355
330
1F
100
AcDbEntity
  8
0
  6
Continuous
 62
     7
370
    15
100
AcDbLine
 10
414.641332056797
 20
282.8989316248684
 30
0.0
 11
414.641332056797
 21
282.6489316248685
 31
0.0
  0
LINE
  5
356
330
1F
100
AcDbEntity
  8
0
  6
Continuous
 62
     7
370
    15
100
AcDbLine
 10
414.641332056797
 20
276.4989316248684
 30
0.0
 11
414.641332056797
 21
276.2489316248685
 31
0.0
  0
LINE
  5
357
330
1F
100
AcDbEntity
  8
0
  6
Continuous
 62
     7
370
    15
100
AcDbLine
 10
414.641332056797
 20
274.8989316248684
 30
0.0
 11
414.641332056797
 21
274.6489316248684
 31
0.0
  0
LINE
  5
358
330
1F
100
AcDbEntity
  8
0
  6
Continuous
 62
     7
370
    15
100
AcDbLine
 10
414.641332056797
 20
289.2989316248685
 30
0.0
 11
414.641332056797
 21
289.0489316248684
 31
0.0
  0
LINE
  5
359
330
1F
100
AcDbEntity
  8
0
  6
Continuous
 62
     7
370
    15
100
AcDbLine
 10
414.641332056797
 20
286.8989316248685
 30
0.0
 11
414.641332056797
 21
286.6489316248685
 31
0.0
  0
LINE
  5
35A
330
1F
100
AcDbEntity
  8
0
  6
Continuous
 62
     7
370
    15
100
AcDbLine
 10
414.641332056797
 20
278.0989316248685
 30
0.0
 11
414.641332056797
 21
277.8489316248685
 31
0.0
  0
LINE
  5
35B
330
1F
100
AcDbEntity
  8
0
  6
Continuous
 62
     7
370
    15
100
AcDbLine
 10
414.641332056797
 20
283.6989316248685
 30
0.0
 11
414.641332056797
 21
283.4489316248685
 31
0.0
  0
LINE
  5
35C
330
1F
100
AcDbEntity
  8
0
  6
Continuous
 62
     7
370
    15
100
AcDbLine
 10
414.641332056797
 20
284.4989316248684
 30
0.0
 11
414.641332056797
 21
284.2489316248684
 31
0.0
  0
LINE
  5
35D
330
1F
100
AcDbEntity
  8
0
  6
Continuous
 62
     7
370
    15
100
AcDbLine
 10
414.641332056797
 20
280.4989316248684
 30
0.0
 11
414.641332056797
 21
280.2489316248685
 31
0.0
  0
LINE
  5
35E
330
1F
100
AcDbEntity
  8
0
  6
Continuous
 62
     7
370
    15
100
AcDbLine
 10
414.641332056797
 20
290.0989316248685
 30
0.0
 11
414.641332056797
 21
289.8489316248685
 31
0.0
  0
LINE
  5
35F
330
1F
100
AcDbEntity
  8
0
  6
Continuous
 62
     7
370
    15
100
AcDbLine
 10
414.641332056797
 20
271.6989316248685
 30
0.0
 11
414.641332056797
 21
271.4489316248684
 31
0.0
  0
LINE
  5
360
330
1F
100
AcDbEntity
  8
0
  6
Continuous
 62
     7
370
    15
100
AcDbLine
 10
414.641332056797
 20
270.8989316248684
 30
0.0
 11
414.641332056797
 21
270.6489316248684
 31
0.0
  0
LINE
  5
361
330
1F
100
AcDbEntity
  8
0
  6
Continuous
 62
     7
370
    15
100
AcDbLine
 10
414.6413320567971
 20
290.8989316248685
 30
0.0
 11
414.6413320567971
 21
290.6489316248685
 31
0.0
  0
LINE
  5
362
330
1F
100
AcDbEntity
  8
0
  6
Continuous
 62
     7
370
    15
100
AcDbLine
 10
414.641332056797
 20
272.4989316248685
 30
0.0
 11
414.641332056797
 21
272.2489316248685
 31
0.0
  0
LINE
  5
363
330
1F
100
AcDbEntity
  8
0
  6
Continuous
 62
     7
370
    15
100
AcDbLine
 10
414.641332056797
 20
281.2989316248685
 30
0.0
 11
414.641332056797
 21
281.0489316248684
 31
0.0
  0
LINE
  5
364
330
1F
100
AcDbEntity
  8
0
  6
Continuous
 62
     7
370
    15
100
AcDbLine
 10
414.641332056797
 20
288.4989316248685
 30
0.0
 11
414.641332056797
 21
288.2489316248685
 31
0.0
  0
LINE
  5
365
330
1F
100
AcDbEntity
  8
0
  6
Continuous
 62
     7
370
    15
100
AcDbLine
 10
414.641332056797
 20
274.0989316248685
 30
0.0
 11
414.641332056797
 21
273.8489316248684
 31
0.0
  0
LINE
  5
366
330
1F
100
AcDbEntity
  8
0
  6
Continuous
 62
     7
370
    15
100
AcDbLine
 10
414.6413320567971
 20
293.2989316248685
 30
0.0
 11
414.6413320567971
 21
293.0489316248684
 31
0.0
  0
LINE
  5
367
330
1F
100
AcDbEntity
  8
0
  6
Continuous
 62
     7
370
    15
100
AcDbLine
 10
414.6413320567971
 20
296.4989316248685
 30
0.0
 11
414.6413320567971
 21
296.2489316248684
 31
0.0
  0
LINE
  5
368
330
1F
100
AcDbEntity
  8
0
  6
Continuous
 62
     7
370
    15
100
AcDbLine
 10
414.641332056797
 20
273.2989316248684
 30
0.0
 11
414.641332056797
 21
273.0489316248685
 31
0.0
  0
LINE
  5
369
330
1F
100
AcDbEntity
  8
0
  6
Continuous
 62
     7
370
    15
100
AcDbLine
 10
414.6413320567971
 20
295.6989316248684
 30
0.0
 11
414.6413320567971
 21
295.4489316248685
 31
0.0
  0
LINE
  5
36A
330
1F
100
AcDbEntity
  8
0
  6
Continuous
 62
     7
370
    15
100
AcDbLine
 10
414.6413320567971
 20
294.0989316248685
 30
0.0
 11
414.6413320567971
 21
293.8489316248684
 31
0.0
  0
LINE
  5
36B
330
1F
100
AcDbEntity
  8
0
  6
Continuous
 62
     7
370
    15
100
AcDbLine
 10
414.6413320567971
 20
297.2989316248685
 30
0.0
 11
414.6413320567971
 21
297.0489316248684
 31
0.0
  0
LINE
  5
36C
330
1F
100
AcDbEntity
  8
0
  6
Continuous
 62
     7
370
    15
100
AcDbLine
 10
414.6413320567971
 20
294.8989316248685
 30
0.0
 11
414.6413320567971
 21
294.6489316248685
 31
0.0
  0
LINE
  5
36D
330
1F
100
AcDbEntity
  8
0
  6
Continuous
 62
     7
370
    15
100
AcDbLine
 10
414.641332056797
 20
275.6989316248684
 30
0.0
 11
414.641332056797
 21
275.4489316248684
 31
0.0
  0
LINE
  5
36E
330
1F
100
AcDbEntity
  8
0
  6
Continuous
 62
     7
370
    15
100
AcDbLine
 10
414.641332056797
 20
287.6989316248685
 30
0.0
 11
414.641332056797
 21
287.4489316248685
 31
0.0
  0
LINE
  5
36F
330
1F
100
AcDbEntity
  8
0
  6
Continuous
 62
     7
370
    15
100
AcDbLine
 10
414.641332056797
 20
282.0989316248684
 30
0.0
 11
414.641332056797
 21
281.8489316248685
 31
0.0
  0
LINE
  5
370
330
1F
100
AcDbEntity
  8
0
  6
Continuous
 62
     7
370
    15
100
AcDbLine
 10
413.841332056797
 20
293.8489316248684
 30
0.0
 11
413.841332056797
 21
294.0989316248685
 31
0.0
  0
LINE
  5
371
330
1F
100
AcDbEntity
  8
0
  6
Continuous
 62
     7
370
    15
100
AcDbLine
 10
413.841332056797
 20
281.8489316248685
 30
0.0
 11
413.841332056797
 21
282.0989316248684
 31
0.0
  0
LINE
  5
372
330
1F
100
AcDbEntity
  8
0
  6
Continuous
 62
     7
370
    15
100
AcDbLine
 10
413.841332056797
 20
276.2489316248685
 30
0.0
 11
413.841332056797
 21
276.4989316248684
 31
0.0
  0
LINE
  5
373
330
1F
100
AcDbEntity
  8
0
  6
Continuous
 62
     7
370
    15
100
AcDbLine
 10
413.841332056797
 20
275.4489316248684
 30
0.0
 11
413.841332056797
 21
275.6989316248684
 31
0.0
  0
LINE
  5
374
330
1F
100
AcDbEntity
  8
0
  6
Continuous
 62
     7
370
    15
100
AcDbLine
 10
413.841332056797
 20
289.0489316248684
 30
0.0
 11
413.841332056797
 21
289.2989316248685
 31
0.0
  0
LINE
  5
375
330
1F
100
AcDbEntity
  8
0
  6
Continuous
 62
     7
370
    15
100
AcDbLine
 10
413.841332056797
 20
273.8489316248684
 30
0.0
 11
413.841332056797
 21
274.0989316248685
 31
0.0
  0
LINE
  5
376
330
1F
100
AcDbEntity
  8
0
  6
Continuous
 62
     7
370
    15
100
AcDbLine
 10
413.841332056797
 20
270.6489316248684
 30
0.0
 11
413.841332056797
 21
270.8989316248684
 31
0.0
  0
LINE
  5
377
330
1F
100
AcDbEntity
  8
0
  6
Continuous
 62
     7
370
    15
100
AcDbLine
 10
413.841332056797
 20
274.6489316248684
 30
0.0
 11
413.841332056797
 21
274.8989316248684
 31
0.0
  0
LINE
  5
378
330
1F
100
AcDbEntity
  8
0
  6
Continuous
 62
     7
370
    15
100
AcDbLine
 10
413.841332056797
 20
287.4489316248685
 30
0.0
 11
413.841332056797
 21
287.6989316248685
 31
0.0
  0
LINE
  5
379
330
1F
100
AcDbEntity
  8
0
  6
Continuous
 62
     7
370
    15
100
AcDbLine
 10
413.841332056797
 20
285.8489316248684
 30
0.0
 11
413.841332056797
 21
286.0989316248685
 31
0.0
  0
LINE
  5
37A
330
1F
100
AcDbEntity
  8
0
  6
Continuous
 62
     7
370
    15
100
AcDbLine
 10
413.841332056797
 20
279.4489316248685
 30
0.0
 11
413.841332056797
 21
279.6989316248684
 31
0.0
  0
LINE
  5
37B
330
1F
100
AcDbEntity
  8
0
  6
Continuous
 62
     7
370
    15
100
AcDbLine
 10
413.841332056797
 20
295.4489316248685
 30
0.0
 11
413.841332056797
 21
295.6989316248684
 31
0.0
  0
LINE
  5
37C
330
1F
100
AcDbEntity
  8
0
  6
Continuous
 62
     7
370
    15
100
AcDbLine
 10
413.841332056797
 20
280.2489316248685
 30
0.0
 11
413.841332056797
 21
280.4989316248684
 31
0.0
  0
LINE
  5
37D
330
1F
100
AcDbEntity
  8
0
  6
Continuous
 62
     7
370
    15
100
AcDbLine
 10
413.841332056797
 20
288.2489316248685
 30
0.0
 11
413.841332056797
 21
288.4989316248685
 31
0.0
  0
LINE
  5
37E
330
1F
100
AcDbEntity
  8
0
  6
Continuous
 62
     7
370
    15
100
AcDbLine
 10
413.841332056797
 20
294.6489316248685
 30
0.0
 11
413.841332056797
 21
294.8989316248685
 31
0.0
  0
LINE
  5
37F
330
1F
100
AcDbEntity
  8
0
  6
Continuous
 62
     7
370
    15
100
AcDbLine
 10
413.841332056797
 20
282.6489316248685
 30
0.0
 11
413.841332056797
 21
282.8989316248684
 31
0.0
  0
LINE
  5
380
330
1F
100
AcDbEntity
  8
0
  6
Continuous
 62
     7
370
    15
100
AcDbLine
 10
413.841332056797
 20
296.2489316248684
 30
0.0
 11
413.841332056797
 21
296.4989316248685
 31
0.0
  0
LINE
  5
381
330
1F
100
AcDbEntity
  8
0
  6
Continuous
 62
     7
370
    15
100
AcDbLine
 10
413.841332056797
 20
293.0489316248684
 30
0.0
 11
413.841332056797
 21
293.2989316248685
 31
0.0
  0
LINE
  5
382
330
1F
100
AcDbEntity
  8
0
  6
Continuous
 62
     7
370
    15
100
AcDbLine
 10
413.841332056797
 20
273.0489316248685
 30
0.0
 11
413.841332056797
 21
273.2989316248684
 31
0.0
  0
LINE
  5
383
330
1F
100
AcDbEntity
  8
0
  6
Continuous
 62
     7
370
    15
100
AcDbLine
 10
413.841332056797
 20
292.2489316248685
 30
0.0
 11
413.841332056797
 21
292.4989316248685
 31
0.0
  0
LINE
  5
384
330
1F
100
AcDbEntity
  8
0
  6
Continuous
 62
     7
370
    15
100
AcDbLine
 10
413.841332056797
 20
297.0489316248684
 30
0.0
 11
413.841332056797
 21
297.2989316248685
 31
0.0
  0
LINE
  5
385
330
1F
100
AcDbEntity
  8
0
  6
Continuous
 62
     7
370
    15
100
AcDbLine
 10
413.841332056797
 20
291.4489316248685
 30
0.0
 11
413.841332056797
 21
291.6989316248684
 31
0.0
  0
LINE
  5
386
330
1F
100
AcDbEntity
  8
0
  6
Continuous
 62
     7
370
    15
100
AcDbLine
 10
413.841332056797
 20
272.2489316248685
 30
0.0
 11
413.841332056797
 21
272.4989316248685
 31
0.0
  0
LINE
  5
387
330
1F
100
AcDbEntity
  8
0
  6
Continuous
 62
     7
370
    15
100
AcDbLine
 10
413.841332056797
 20
284.2489316248684
 30
0.0
 11
413.841332056797
 21
284.4989316248684
 31
0.0
  0
LINE
  5
388
330
1F
100
AcDbEntity
  8
0
  6
Continuous
 62
     7
370
    15
100
AcDbLine
 10
413.841332056797
 20
283.4489316248685
 30
0.0
 11
413.841332056797
 21
283.6989316248685
 31
0.0
  0
LINE
  5
389
330
1F
100
AcDbEntity
  8
0
  6
Continuous
 62
     7
370
    15
100
AcDbLine
 10
413.841332056797
 20
286.6489316248685
 30
0.0
 11
413.841332056797
 21
286.8989316248685
 31
0.0
  0
LINE
  5
38A
330
1F
100
AcDbEntity
  8
0
  6
Continuous
 62
     7
370
    15
100
AcDbLine
 10
413.841332056797
 20
277.0489316248684
 30
0.0
 11
413.841332056797
 21
277.2989316248685
 31
0.0
  0
LINE
  5
38B
330
1F
100
AcDbEntity
  8
0
  6
Continuous
 62
     7
370
    15
100
AcDbLine
 10
413.841332056797
 20
290.6489316248685
 30
0.0
 11
413.841332056797
 21
290.8989316248685
 31
0.0
  0
LINE
  5
38C
330
1F
100
AcDbEntity
  8
0
  6
Continuous
 62
     7
370
    15
100
AcDbLine
 10
413.841332056797
 20
278.6489316248685
 30
0.0
 11
413.841332056797
 21
278.8989316248684
 31
0.0
  0
LINE
  5
38D
330
1F
100
AcDbEntity
  8
0
  6
Continuous
 62
     7
370
    15
100
AcDbLine
 10
413.841332056797
 20
271.4489316248684
 30
0.0
 11
413.841332056797
 21
271.6989316248685
 31
0.0
  0
LINE
  5
38E
330
1F
100
AcDbEntity
  8
0
  6
Continuous
 62
     7
370
    15
100
AcDbLine
 10
413.841332056797
 20
277.8489316248685
 30
0.0
 11
413.841332056797
 21
278.0989316248685
 31
0.0
  0
LINE
  5
38F
330
1F
100
AcDbEntity
  8
0
  6
Continuous
 62
     7
370
    15
100
AcDbLine
 10
413.841332056797
 20
289.8489316248685
 30
0.0
 11
413.841332056797
 21
290.0989316248685
 31
0.0
  0
LINE
  5
390
330
1F
100
AcDbEntity
  8
0
  6
Continuous
 62
     7
370
    15
100
AcDbLine
 10
413.841332056797
 20
281.0489316248684
 30
0.0
 11
413.841332056797
 21
281.2989316248685
 31
0.0
  0
LINE
  5
391
330
1F
100
AcDbEntity
  8
0
  6
Continuous
 62
     7
370
    15
100
AcDbLine
 10
413.841332056797
 20
285.0489316248684
 30
0.0
 11
413.841332056797
 21
285.2989316248685
 31
0.0
  0
LINE
  5
392
330
1F
100
AcDbEntity
  8
0
  6
Continuous
 62
     7
370
    15
100
AcDbLine
 10
411.944640841533
 20
295.7739316248685
 30
0.0
 11
411.944640841533
 21
293.7739316248685
 31
0.0
  0
LINE
  5
393
330
1F
100
AcDbEntity
  8
0
  6
Continuous
 62
     7
370
    15
100
AcDbLine
 10
411.944640841533
 20
273.7739316248684
 30
0.0
 11
411.944640841533
 21
271.7739316248684
 31
0.0
  0
LINE
  5
394
330
1F
100
AcDbEntity
  8
0
  6
Continuous
 62
     7
370
    15
100
AcDbLine
 10
411.944640841533
 20
284.7739316248684
 30
0.0
 11
411.944640841533
 21
282.7739316248685
 31
0.0
  0
LINE
  5
395
330
1F
100
AcDbEntity
  8
0
  6
Continuous
 62
     7
370
    15
100
AcDbLine
 10
417.088023272061
 20
271.7739316248684
 30
0.0
 11
417.088023272061
 21
273.7739316248684
 31
0.0
  0
LINE
  5
396
330
1F
100
AcDbEntity
  8
0
  6
Continuous
 62
     7
370
    15
100
AcDbLine
 10
417.088023272061
 20
282.7739316248685
 30
0.0
 11
417.088023272061
 21
284.7739316248684
 31
0.0
  0
LINE
  5
397
330
1F
100
AcDbEntity
  8
0
  6
Continuous
 62
     7
370
    15
100
AcDbLine
 10
417.088023272061
 20
293.7739316248685
 30
0.0
 11
417.088023272061
 21
295.7739316248685
 31
0.0
  0
LINE
  5
398
330
1F
100
AcDbEntity
  8
0
  6
Continuous
 62
     7
370
    15
100
AcDbLine
 10
520.4288320567969
 20
236.7739316248685
 30
0.0
 11
520.4288320567969
 21
229.3739316248685
 31
0.0
  0
LINE
  5
399
330
1F
100
AcDbEntity
  8
0
  6
Continuous
 62
     7
370
    15
100
AcDbLine
 10
518.828832056797
 20
236.7739316248685
 30
0.0
 11
520.4288320567969
 21
236.7739316248685
 31
0.0
  0
ARC
  5
39A
330
1F
100
AcDbEntity
  8
0
  6
Continuous
 62
     7
370
    15
100
AcDbCircle
 10
518.828832056797
 20
229.3739316248685
 30
0.0
 40
1.599999999999994
100
AcDbArc
 50
270.0000000000008
 51
0.0
  0
LINE
  5
39B
330
1F
100
AcDbEntity
  8
0
  6
Continuous
 62
     7
370
    15
100
AcDbLine
 10
518.828832056797
 20
227.7739316248685
 30
0.0
 11
403.828832056797
 21
227.7739316248685
 31
0.0
  0
LINE
  5
39C
330
1F
100
AcDbEntity
  8
0
  6
Continuous
 62
     7
370
    15
100
AcDbLine
 10
410.228832056797
 20
236.7739316248685
 30
0.0
 11
403.828832056797
 21
236.7739316248685
 31
0.0
  0
LINE
  5
39D
330
1F
100
AcDbEntity
  8
0
  6
Continuous
 62
     7
370
    15
100
AcDbLine
 10
410.228832056797
 20
232.6739316248684
 30
0.0
 11
410.228832056797
 21
236.7739316248685
 31
0.0
  0
LINE
  5
39E
330
1F
100
AcDbEntity
  8
0
  6
Continuous
 62
     7
370
    15
100
AcDbLine
 10
512.4288320567969
 20
232.6739316248684
 30
0.0
 11
410.228832056797
 21
232.6739316248684
 31
0.0
  0
LINE
  5
39F
330
1F
100
AcDbEntity
  8
0
  6
Continuous
 62
     7
370
    15
100
AcDbLine
 10
512.4288320567969
 20
236.7739316248685
 30
0.0
 11
512.4288320567969
 21
232.6739316248684
 31
0.0
  0
LINE
  5
3A0
330
1F
100
AcDbEntity
  8
0
  6
Continuous
 62
     7
370
    15
100
AcDbLine
 10
518.828832056797
 20
236.7739316248685
 30
0.0
 11
512.4288320567969
 21
236.7739316248685
 31
0.0
  0
LINE
  5
3A1
330
1F
100
AcDbEntity
  8
0
  6
Continuous
 62
     7
370
    15
100
AcDbLine
 10
402.228832056797
 20
229.3739316248685
 30
0.0
 11
402.228832056797
 21
236.7739316248685
 31
0.0
  0
LINE
  5
3A2
330
1F
100
AcDbEntity
  8
0
  6
Continuous
 62
     7
370
    15
100
AcDbLine
 10
402.228832056797
 20
236.7739316248685
 30
0.0
 11
403.828832056797
 21
236.7739316248685
 31
0.0
  0
ARC
  5
3A3
330
1F
100
AcDbEntity
  8
0
  6
Continuous
 62
     7
370
    15
100
AcDbCircle
 10
403.828832056797
 20
229.3739316248685
 30
0.0
 40
1.599999999999994
100
AcDbArc
 50
180.0
 51
270.0000000000008
  0
LINE
  5
3A4
330
1F
100
AcDbEntity
  8
0
  6
Continuous
 62
     7
370
    15
100
AcDbLine
 10
512.328832056797
 20
236.7739316248685
 30
0.0
 11
512.4288320567969
 21
236.7739316248685
 31
0.0
  0
LINE
  5
3A5
330
1F
100
AcDbEntity
  8
0
  6
Continuous
 62
     7
370
    15
100
AcDbLine
 10
410.228832056797
 20
236.7739316248685
 30
0.0
 11
410.3288320567976
 21
236.7739316248685
 31
0.0
  0
LINE
  5
3A6
330
1F
100
AcDbEntity
  8
0
  6
Continuous
 62
     7
370
    15
100
AcDbLine
 10
410.228832056797
 20
245.7739316248685
 30
0.0
 11
410.3288320567976
 21
245.7739316248685
 31
0.0
  0
LINE
  5
3A7
330
1F
100
AcDbEntity
  8
0
  6
Continuous
 62
     7
370
    15
100
AcDbLine
 10
512.328832056797
 20
245.7739316248685
 30
0.0
 11
512.4288320567969
 21
245.7739316248685
 31
0.0
  0
ELLIPSE
  5
3A8
330
1F
100
AcDbEntity
  8
0
  6
Continuous
 62
     7
370
    15
100
AcDbEllipse
 10
461.328832056797
 20
369.1426816248685
 30
0.0
 11
7.9375
 21
0.0
 31
0.0
210
0.0
220
0.0
230
1.0
 40
0.4999999999999928
 41
0.0
 42
3.141592653589793
  0
LINE
  5
3A9
330
1F
100
AcDbEntity
  8
0
  6
Continuous
 62
     7
370
    15
100
AcDbLine
 10
410.2288320567973
 20
330.7739316248689
 30
0.0
 11
410.2288320567967
 21
236.7739316248688
 31
0.0
  0
LINE
  5
3AA
330
1F
100
AcDbEntity
  8
0
  6
Continuous
 62
     7
370
    15
100
AcDbLine
 10
403.8288320567973
 20
330.7739316248689
 30
0.0
 11
410.2288320567973
 21
330.7739316248689
 31
0.0
  0
LINE
  5
3AB
330
1F
100
AcDbEntity
  8
0
  6
Continuous
 62
     7
370
    15
100
AcDbLine
 10
402.2288320567967
 20
236.7739316248689
 30
0.0
 11
402.2288320567973
 21
330.7739316248689
 31
0.0
  0
LINE
  5
3AC
330
1F
100
AcDbEntity
  8
0
  6
Continuous
 62
     7
370
    15
100
AcDbLine
 10
402.2288320567973
 20
330.7739316248689
 30
0.0
 11
403.8288320567973
 21
330.7739316248689
 31
0.0
  0
LINE
  5
3AD
330
1F
100
AcDbEntity
  8
0
  6
Continuous
 62
     7
370
    15
100
AcDbLine
 10
520.4288320567969
 20
330.7739316248685
 30
0.0
 11
520.4288320567969
 21
236.7739316248684
 31
0.0
  0
LINE
  5
3AE
330
1F
100
AcDbEntity
  8
0
  6
Continuous
 62
     7
370
    15
100
AcDbLine
 10
518.828832056797
 20
330.7739316248685
 30
0.0
 11
520.4288320567969
 21
330.7739316248685
 31
0.0
  0
LINE
  5
3AF
330
1F
100
AcDbEntity
  8
0
  6
Continuous
 62
     7
370
    15
100
AcDbLine
 10
512.4288320567969
 20
236.7739316248684
 30
0.0
 11
512.4288320567969
 21
330.7739316248685
 31
0.0
  0
LINE
  5
3B0
330
1F
100
AcDbEntity
  8
0
  6
Continuous
 62
     7
370
    15
100
AcDbLine
 10
512.4288320567969
 20
330.7739316248685
 30
0.0
 11
518.828832056797
 21
330.7739316248685
 31
0.0
  0
LINE
  5
3B1
330
1F
100
AcDbEntity
  8
0
  6
Continuous
 62
     7
370
    15
100
AcDbLine
 10
520.4288320567969
 20
338.1739316248684
 30
0.0
 11
520.4288320567969
 21
330.7739316248685
 31
0.0
  0
ARC
  5
3B2
330
1F
100
AcDbEntity
  8
0
  6
Continuous
 62
     7
370
    15
100
AcDbCircle
 10
518.828832056797
 20
338.1739316248684
 30
0.0
 40
1.600000000000022
100
AcDbArc
 50
0.0
 51
90.0
  0
LINE
  5
3B3
330
1F
100
AcDbEntity
  8
0
  6
Continuous
 62
     7
370
    15
100
AcDbLine
 10
403.828832056797
 20
339.7739316248685
 30
0.0
 11
518.828832056797
 21
339.7739316248685
 31
0.0
  0
LINE
  5
3B4
330
1F
100
AcDbEntity
  8
0
  6
Continuous
 62
     7
370
    15
100
AcDbLine
 10
512.4288320567969
 20
334.8739316248685
 30
0.0
 11
512.4288320567969
 21
330.7739316248685
 31
0.0
  0
LINE
  5
3B5
330
1F
100
AcDbEntity
  8
0
  6
Continuous
 62
     7
370
    15
100
AcDbLine
 10
410.228832056797
 20
334.8739316248685
 30
0.0
 11
512.4288320567969
 21
334.8739316248685
 31
0.0
  0
LINE
  5
3B6
330
1F
100
AcDbEntity
  8
0
  6
Continuous
 62
     7
370
    15
100
AcDbLine
 10
410.228832056797
 20
330.7739316248685
 30
0.0
 11
410.228832056797
 21
334.8739316248685
 31
0.0
  0
ARC
  5
3B7
330
1F
100
AcDbEntity
  8
0
  6
Continuous
 62
     7
370
    15
100
AcDbCircle
 10
403.828832056797
 20
338.1739316248685
 30
0.0
 40
1.599999999999965
100
AcDbArc
 50
90.0
 51
180.0
  0
LINE
  5
3B8
330
1F
100
AcDbEntity
  8
0
  6
Continuous
 62
     7
370
    15
100
AcDbLine
 10
402.228832056797
 20
330.7739316248685
 30
0.0
 11
402.228832056797
 21
338.1739316248685
 31
0.0
  0
LINE
  5
3B9
330
1F
100
AcDbEntity
  8
0
  6
Continuous
 62
     7
370
    15
100
AcDbLine
 10
512.4288320567969
 20
330.7739316248685
 30
0.0
 11
512.3288320567976
 21
330.7739316248685
 31
0.0
  0
LINE
  5
3BA
330
1F
100
AcDbEntity
  8
0
  6
Continuous
 62
     7
370
    15
100
AcDbLine
 10
410.3288320567976
 20
330.7739316248685
 30
0.0
 11
410.228832056797
 21
330.7739316248685
 31
0.0
  0
LINE
  5
3BB
330
1F
100
AcDbEntity
  8
0
  6
Continuous
 62
     7
370
    15
100
AcDbLine
 10
464.9948926127617
 20
334.8739316248685
 30
0.0
 11
464.9948926127617
 21
333.6414316248685
 31
0.0
  0
LINE
  5
3BC
330
1F
100
AcDbEntity
  8
0
  6
Continuous
 62
     7
370
    15
100
AcDbLine
 10
457.6627715008322
 20
333.6414316248685
 30
0.0
 11
457.6627715008322
 21
334.8739316248685
 31
0.0
  0
LINE
  5
3BD
330
1F
100
AcDbEntity
  8
0
  6
Continuous
 62
     7
370
    15
100
AcDbLine
 10
512.4288320567969
 20
321.7739316248684
 30
0.0
 11
512.3288320567976
 21
321.7739316248684
 31
0.0
  0
LINE
  5
3BE
330
1F
100
AcDbEntity
  8
0
  6
Continuous
 62
     7
370
    15
100
AcDbLine
 10
483.3288320567969
 20
329.7739316248684
 30
0.0
 11
482.678832056797
 21
329.7739316248684
 31
0.0
  0
LINE
  5
3BF
330
1F
100
AcDbEntity
  8
0
  6
Continuous
 62
     7
370
    15
100
AcDbLine
 10
410.3288320567976
 20
321.7739316248684
 30
0.0
 11
410.228832056797
 21
321.7739316248684
 31
0.0
  0
LINE
  5
3C0
330
1F
100
AcDbEntity
  8
0
  6
Continuous
 62
     7
370
    15
100
AcDbLine
 10
439.9788320567969
 20
329.7739316248684
 30
0.0
 11
439.3288320567968
 21
329.7739316248684
 31
0.0
  0
LINE
  5
3C1
330
1F
100
AcDbEntity
  8
0
  6
Continuous
 62
     7
370
    15
100
AcDbLine
 10
512.3288320567971
 20
283.2739316248685
 30
0.0
 11
512.3288320567971
 21
283.7739316248685
 31
0.0
  0
LINE
  5
3C2
330
1F
100
AcDbEntity
  8
0
  6
Continuous
 62
     7
370
    15
100
AcDbLine
 10
461.8288320567971
 20
283.2739316248685
 30
0.0
 11
512.3288320567971
 21
283.2739316248685
 31
0.0
  0
LINE
  5
3C3
330
1F
100
AcDbEntity
  8
0
  6
Continuous
 62
     7
370
    15
100
AcDbLine
 10
461.328832056797
 20
283.7739316248685
 30
0.0
 11
461.8288320567971
 21
283.2739316248685
 31
0.0
  0
LINE
  5
3C4
330
1F
100
AcDbEntity
  8
0
  6
Continuous
 62
     7
370
    15
100
AcDbLine
 10
461.328832056797
 20
283.7739316248685
 30
0.0
 11
512.3288320567971
 21
283.7739316248685
 31
0.0
  0
LINE
  5
3C5
330
1F
100
AcDbEntity
  8
0
  6
Continuous
 62
     7
370
    15
100
AcDbLine
 10
512.3288320567971
 20
283.7739316248685
 30
0.0
 11
512.3288320567971
 21
284.2739316248684
 31
0.0
  0
LINE
  5
3C6
330
1F
100
AcDbEntity
  8
0
  6
Continuous
 62
     7
370
    15
100
AcDbLine
 10
461.828832056797
 20
284.2739316248684
 30
0.0
 11
461.328832056797
 21
283.7739316248685
 31
0.0
  0
LINE
  5
3C7
330
1F
100
AcDbEntity
  8
0
  6
Continuous
 62
     7
370
    15
100
AcDbLine
 10
461.828832056797
 20
284.2739316248684
 30
0.0
 11
512.3288320567971
 21
284.2739316248684
 31
0.0
  0
LINE
  5
3C8
330
1F
100
AcDbEntity
  8
0
  6
Continuous
 62
     7
370
    15
100
AcDbLine
 10
483.328832056797
 20
327.2739316248685
 30
0.0
 11
483.3288320567971
 21
334.7739316248686
 31
0.0
  0
LINE
  5
3C9
330
1F
100
AcDbEntity
  8
0
  6
Continuous
 62
     7
370
    15
100
AcDbLine
 10
511.3288320567971
 20
334.7739316248686
 30
0.0
 11
483.3288320567971
 21
334.7739316248686
 31
0.0
  0
LINE
  5
3CA
330
1F
100
AcDbEntity
  8
0
  6
Continuous
 62
     7
370
    15
100
AcDbLine
 10
512.3288320567971
 20
284.2739316248684
 30
0.0
 11
512.3288320567971
 21
333.7739316248686
 31
0.0
  0
LINE
  5
3CB
330
1F
100
AcDbEntity
  8
0
  6
Continuous
 62
     7
370
    15
100
AcDbLine
 10
461.828832056797
 20
284.2739316248684
 30
0.0
 11
461.8288320567969
 21
327.2739316248685
 31
0.0
  0
LINE
  5
3CC
330
1F
100
AcDbEntity
  8
0
  6
Continuous
 62
     7
370
    15
100
AcDbLine
 10
461.8288320567969
 20
327.2739316248685
 30
0.0
 11
483.328832056797
 21
327.2739316248685
 31
0.0
  0
ARC
  5
3CD
330
1F
100
AcDbEntity
  8
0
  6
Continuous
 62
     7
370
    15
100
AcDbCircle
 10
511.3288320567971
 20
333.7739316248686
 30
0.0
 40
1.000000000000056
100
AcDbArc
 50
0.0
 51
90.0
  0
LINE
  5
3CE
330
1F
100
AcDbEntity
  8
0
  6
Continuous
 62
     7
370
    15
100
AcDbLine
 10
512.3288320567971
 20
233.7739316248684
 30
0.0
 11
512.3288320567971
 21
283.2739316248685
 31
0.0
  0
LINE
  5
3CF
330
1F
100
AcDbEntity
  8
0
  6
Continuous
 62
     7
370
    15
100
AcDbLine
 10
461.8288320567971
 20
232.7739316248682
 30
0.0
 11
511.3288320567971
 21
232.7739316248684
 31
0.0
  0
LINE
  5
3D0
330
1F
100
AcDbEntity
  8
0
  6
Continuous
 62
     7
370
    15
100
AcDbLine
 10
461.8288320567971
 20
232.7739316248682
 30
0.0
 11
461.8288320567971
 21
283.2739316248685
 31
0.0
  0
ARC
  5
3D1
330
1F
100
AcDbEntity
  8
0
  6
Continuous
 62
     7
370
    15
100
AcDbCircle
 10
511.3288320567971
 20
233.7739316248684
 30
0.0
 40
1.000000000000056
100
AcDbArc
 50
270.0000000000008
 51
0.0
  0
LINE
  5
3D2
330
1F
100
AcDbEntity
  8
0
  6
Continuous
 62
     7
370
    15
100
AcDbLine
 10
461.3288320567972
 20
232.7739316248682
 30
0.0
 11
461.328832056797
 21
283.7739316248685
 31
0.0
  0
LINE
  5
3D3
330
1F
100
AcDbEntity
  8
0
  6
Continuous
 62
     7
370
    15
100
AcDbLine
 10
461.8288320567971
 20
232.7739316248682
 30
0.0
 11
461.3288320567972
 21
232.7739316248682
 31
0.0
  0
LINE
  5
3D4
330
1F
100
AcDbEntity
  8
0
  6
Continuous
 62
     7
370
    15
100
AcDbLine
 10
461.328832056797
 20
283.7739316248685
 30
0.0
 11
461.3288320567969
 21
327.2739316248685
 31
0.0
  0
LINE
  5
3D5
330
1F
100
AcDbEntity
  8
0
  6
Continuous
 62
     7
370
    15
100
AcDbLine
 10
461.8288320567969
 20
327.2739316248685
 30
0.0
 11
461.3288320567969
 21
327.2739316248685
 31
0.0
  0
LINE
  5
3D6
330
1F
100
AcDbEntity
  8
0
  6
Continuous
 62
     7
370
    15
100
AcDbLine
 10
460.828832056797
 20
283.2739316248685
 30
0.0
 11
461.328832056797
 21
283.7739316248685
 31
0.0
  0
LINE
  5
3D7
330
1F
100
AcDbEntity
  8
0
  6
Continuous
 62
     7
370
    15
100
AcDbLine
 10
460.8288320567972
 20
232.7739316248682
 30
0.0
 11
460.828832056797
 21
283.2739316248685
 31
0.0
  0
LINE
  5
3D8
330
1F
100
AcDbEntity
  8
0
  6
Continuous
 62
     7
370
    15
100
AcDbLine
 10
461.3288320567972
 20
232.7739316248682
 30
0.0
 11
460.8288320567972
 21
232.7739316248682
 31
0.0
  0
LINE
  5
3D9
330
1F
100
AcDbEntity
  8
0
  6
Continuous
 62
     7
370
    15
100
AcDbLine
 10
417.828832056797
 20
284.2739316248684
 30
0.0
 11
417.828832056797
 21
283.7739316248685
 31
0.0
  0
LINE
  5
3DA
330
1F
100
AcDbEntity
  8
0
  6
Continuous
 62
     7
370
    15
100
AcDbLine
 10
417.828832056797
 20
284.2739316248684
 30
0.0
 11
460.828832056797
 21
284.2739316248684
 31
0.0
  0
LINE
  5
3DB
330
1F
100
AcDbEntity
  8
0
  6
Continuous
 62
     7
370
    15
100
AcDbLine
 10
461.328832056797
 20
283.7739316248685
 30
0.0
 11
460.828832056797
 21
284.2739316248684
 31
0.0
  0
LINE
  5
3DC
330
1F
100
AcDbEntity
  8
0
  6
Continuous
 62
     7
370
    15
100
AcDbLine
 10
417.828832056797
 20
283.7739316248685
 30
0.0
 11
461.328832056797
 21
283.7739316248685
 31
0.0
  0
LINE
  5
3DD
330
1F
100
AcDbEntity
  8
0
  6
Continuous
 62
     7
370
    15
100
AcDbLine
 10
460.828832056797
 20
284.2739316248684
 30
0.0
 11
460.8288320567969
 21
327.2739316248685
 31
0.0
  0
LINE
  5
3DE
330
1F
100
AcDbEntity
  8
0
  6
Continuous
 62
     7
370
    15
100
AcDbLine
 10
461.3288320567969
 20
327.2739316248685
 30
0.0
 11
460.8288320567969
 21
327.2739316248685
 31
0.0
  0
LINE
  5
3DF
330
1F
100
AcDbEntity
  8
0
  6
Continuous
 62
     7
370
    15
100
AcDbLine
 10
417.828832056797
 20
283.7739316248685
 30
0.0
 11
417.828832056797
 21
283.2739316248684
 31
0.0
  0
LINE
  5
3E0
330
1F
100
AcDbEntity
  8
0
  6
Continuous
 62
     7
370
    15
100
AcDbLine
 10
417.828832056797
 20
283.2739316248684
 30
0.0
 11
460.828832056797
 21
283.2739316248685
 31
0.0
  0
ARC
  5
3E1
330
1F
100
AcDbEntity
  8
0
  6
Continuous
 62
     7
370
    15
100
AcDbCircle
 10
411.3288320567969
 20
233.7739316248683
 30
0.0
 40
1.0
100
AcDbArc
 50
180.0
 51
270.0000000000008
  0
LINE
  5
3E2
330
1F
100
AcDbEntity
  8
0
  6
Continuous
 62
     7
370
    15
100
AcDbLine
 10
410.328832056797
 20
261.7739316248682
 30
0.0
 11
410.3288320567969
 21
233.7739316248683
 31
0.0
  0
LINE
  5
3E3
330
1F
100
AcDbEntity
  8
0
  6
Continuous
 62
     7
370
    15
100
AcDbLine
 10
417.828832056797
 20
261.7739316248683
 30
0.0
 11
410.328832056797
 21
261.7739316248682
 31
0.0
  0
LINE
  5
3E4
330
1F
100
AcDbEntity
  8
0
  6
Continuous
 62
     7
370
    15
100
AcDbLine
 10
417.828832056797
 20
261.7739316248683
 30
0.0
 11
417.828832056797
 21
283.2739316248684
 31
0.0
  0
LINE
  5
3E5
330
1F
100
AcDbEntity
  8
0
  6
Continuous
 62
     7
370
    15
100
AcDbLine
 10
411.3288320567969
 20
232.7739316248683
 30
0.0
 11
460.8288320567972
 21
232.7739316248682
 31
0.0
  0
LINE
  5
3E6
330
1F
100
AcDbEntity
  8
0
  6
Continuous
 62
     7
370
    15
100
AcDbLine
 10
417.828832056797
 20
284.2739316248684
 30
0.0
 11
417.8288320567968
 21
305.7739316248683
 31
0.0
  0
LINE
  5
3E7
330
1F
100
AcDbEntity
  8
0
  6
Continuous
 62
     7
370
    15
100
AcDbLine
 10
417.8288320567968
 20
305.7739316248683
 30
0.0
 11
410.3288320567968
 21
305.7739316248683
 31
0.0
  0
LINE
  5
3E8
330
1F
100
AcDbEntity
  8
0
  6
Continuous
 62
     7
370
    15
100
AcDbLine
 10
410.328832056797
 20
333.7739316248685
 30
0.0
 11
410.3288320567968
 21
305.7739316248683
 31
0.0
  0
ARC
  5
3E9
330
1F
100
AcDbEntity
  8
0
  6
Continuous
 62
     7
370
    15
100
AcDbCircle
 10
411.328832056797
 20
333.7739316248685
 30
0.0
 40
1.0
100
AcDbArc
 50
90.0
 51
180.0
  0
LINE
  5
3EA
330
1F
100
AcDbEntity
  8
0
  6
Continuous
 62
     7
370
    15
100
AcDbLine
 10
439.328832056797
 20
334.7739316248686
 30
0.0
 11
411.328832056797
 21
334.7739316248685
 31
0.0
  0
LINE
  5
3EB
330
1F
100
AcDbEntity
  8
0
  6
Continuous
 62
     7
370
    15
100
AcDbLine
 10
439.328832056797
 20
327.2739316248685
 30
0.0
 11
439.328832056797
 21
334.7739316248686
 31
0.0
  0
LINE
  5
3EC
330
1F
100
AcDbEntity
  8
0
  6
Continuous
 62
     7
370
    15
100
AcDbLine
 10
439.328832056797
 20
327.2739316248685
 30
0.0
 11
460.8288320567969
 21
327.2739316248685
 31
0.0
  0
LINE
  5
3ED
330
1F
100
AcDbEntity
  8
0
  6
Continuous
 62
     7
370
    15
100
AcDbLine
 10
410.328832056797
 20
305.7739316248683
 30
0.0
 11
410.328832056797
 21
261.7739316248683
 31
0.0
  0
LINE
  5
3EE
330
1F
100
AcDbEntity
  8
0
  6
Continuous
 62
     7
370
    15
100
AcDbLine
 10
475.628832056797
 20
331.5364316248685
 30
0.0
 11
475.628832056797
 21
330.1864316248685
 31
0.0
  0
LINE
  5
3EF
330
1F
100
AcDbEntity
  8
0
  6
Continuous
 62
     7
370
    15
100
AcDbLine
 10
447.028832056797
 20
331.5364316248685
 30
0.0
 11
475.628832056797
 21
331.5364316248685
 31
0.0
  0
LINE
  5
3F0
330
1F
100
AcDbEntity
  8
0
  6
Continuous
 62
     7
370
    15
100
AcDbLine
 10
447.028832056797
 20
330.1864316248685
 30
0.0
 11
447.028832056797
 21
331.5364316248685
 31
0.0
  0
LINE
  5
3F1
330
1F
100
AcDbEntity
  8
0
  6
Continuous
 62
     7
370
    15
100
AcDbLine
 10
475.628832056797
 20
330.1864316248685
 30
0.0
 11
447.028832056797
 21
330.1864316248685
 31
0.0
  0
LINE
  5
3F2
330
1F
100
AcDbEntity
  8
0
  6
Continuous
 62
     7
370
    15
100
AcDbLine
 10
475.473022875887
 20
329.1314316248685
 30
0.0
 11
447.184641237707
 21
329.1314316248685
 31
0.0
  0
LINE
  5
3F3
330
1F
100
AcDbEntity
  8
0
  6
Continuous
 62
     7
370
    15
100
AcDbLine
 10
446.278333450664
 20
329.7088133631261
 30
0.0
 11
445.597524269757
 21
331.1688133631275
 31
0.0
  0
LINE
  5
3F4
330
1F
100
AcDbEntity
  8
0
  6
Continuous
 62
     7
370
    15
100
AcDbLine
 10
477.0601398438302
 20
331.168813363121
 30
0.0
 11
476.379330662927
 21
329.7088133631275
 31
0.0
  0
LINE
  5
3F5
330
1F
100
AcDbEntity
  8
0
  6
Continuous
 62
     7
370
    15
100
AcDbLine
 10
446.5038320567971
 20
332.5914316248685
 30
0.0
 11
476.1538320567869
 21
332.5914316248685
 31
0.0
  0
ARC
  5
3F6
330
1F
100
AcDbEntity
  8
0
  6
Continuous
 62
     7
370
    15
100
AcDbCircle
 10
475.473022875887
 20
330.1314316248685
 30
0.0
 40
0.9999999999999431
100
AcDbArc
 50
270.0000000000008
 51
335.0000000000672
  0
ARC
  5
3F7
330
1F
100
AcDbEntity
  8
0
  6
Continuous
 62
     7
370
    15
100
AcDbCircle
 10
447.184641237707
 20
330.1314316248685
 30
0.0
 40
1.0
100
AcDbArc
 50
204.9999999998325
 51
270.0000000000008
  0
ARC
  5
3F8
330
1F
100
AcDbEntity
  8
0
  6
Continuous
 62
     7
370
    15
100
AcDbCircle
 10
446.5038320567971
 20
331.5914316248685
 30
0.0
 40
1.00000000000002
100
AcDbArc
 50
89.99999999943005
 51
204.9999999999317
  0
ARC
  5
3F9
330
1F
100
AcDbEntity
  8
0
  6
Continuous
 62
     7
370
    15
100
AcDbCircle
 10
476.153832056797
 20
331.5914316248685
 30
0.0
 40
1.000000000000007
100
AcDbArc
 50
334.9999999995629
 51
90.00000000057321
  0
LINE
  5
3FA
330
1F
100
AcDbEntity
  8
0
  6
Continuous
 62
     7
370
    15
100
AcDbLine
 10
478.4547380918387
 20
331.1614316248685
 30
0.0
 11
481.9029260217553
 21
331.1614316248685
 31
0.0
  0
ARC
  5
3FB
330
1F
100
AcDbEntity
  8
0
  6
Continuous
 62
     7
370
    15
100
AcDbCircle
 10
480.178832056797
 20
330.8614316248685
 30
0.0
 40
1.750000000001652
100
AcDbArc
 50
9.870889606130507
 51
170.1291103938695
  0
LINE
  5
3FC
330
1F
100
AcDbEntity
  8
0
  6
Continuous
 62
     7
370
    15
100
AcDbLine
 10
481.9029260217553
 20
330.5614316248685
 30
0.0
 11
478.4547380918387
 21
330.5614316248685
 31
0.0
  0
ARC
  5
3FD
330
1F
100
AcDbEntity
  8
0
  6
Continuous
 62
     7
370
    15
100
AcDbCircle
 10
480.178832056797
 20
330.8614316248685
 30
0.0
 40
1.750000000001643
100
AcDbArc
 50
189.8708896061295
 51
350.1291103938722
  0
ARC
  5
3FE
330
1F
100
AcDbEntity
  8
0
  6
Continuous
 62
     7
370
    15
100
AcDbCircle
 10
442.478832056797
 20
330.8614316248685
 30
0.0
 40
1.750000000001652
100
AcDbArc
 50
9.870889606130507
 51
170.1291103938691
  0
LINE
  5
3FF
330
1F
100
AcDbEntity
  8
0
  6
Continuous
 62
     7
370
    15
100
AcDbLine
 10
440.7547380918387
 20
331.1614316248685
 30
0.0
 11
444.2029260217553
 21
331.1614316248685
 31
0.0
  0
ARC
  5
400
330
1F
100
AcDbEntity
  8
0
  6
Continuous
 62
     7
370
    15
100
AcDbCircle
 10
442.478832056797
 20
330.8614316248685
 30
0.0
 40
1.750000000001643
100
AcDbArc
 50
189.8708896061298
 51
350.1291103938722
  0
LINE
  5
401
330
1F
100
AcDbEntity
  8
0
  6
Continuous
 62
     7
370
    15
100
AcDbLine
 10
444.2029260217553
 20
330.5614316248685
 30
0.0
 11
440.7547380918387
 21
330.5614316248685
 31
0.0
  0
LINE
  5
402
330
1F
100
AcDbEntity
  8
0
  6
Continuous
 62
     7
370
    15
100
AcDbLine
 10
474.6038320567969
 20
330.4614316248685
 30
0.0
 11
474.6038320567969
 21
330.1864316248685
 31
0.0
  0
LINE
  5
403
330
1F
100
AcDbEntity
  8
0
  6
Continuous
 62
     7
370
    15
100
AcDbLine
 10
474.853832056797
 20
330.4614316248685
 30
0.0
 11
474.853832056797
 21
330.1864316248685
 31
0.0
  0
LINE
  5
404
330
1F
100
AcDbEntity
  8
0
  6
Continuous
 62
     7
370
    15
100
AcDbLine
 10
474.6038320567969
 20
331.5364316248685
 30
0.0
 11
474.6038320567969
 21
331.2614316248684
 31
0.0
  0
LINE
  5
405
330
1F
100
AcDbEntity
  8
0
  6
Continuous
 62
     7
370
    15
100
AcDbLine
 10
474.853832056797
 20
331.2614316248684
 30
0.0
 11
474.853832056797
 21
331.5364316248685
 31
0.0
  0
LINE
  5
406
330
1F
100
AcDbEntity
  8
0
  6
Continuous
 62
     7
370
    15
100
AcDbLine
 10
473.803832056797
 20
331.5364316248685
 30
0.0
 11
473.803832056797
 21
331.2614316248684
 31
0.0
  0
LINE
  5
407
330
1F
100
AcDbEntity
  8
0
  6
Continuous
 62
     7
370
    15
100
AcDbLine
 10
474.053832056797
 20
331.2614316248684
 30
0.0
 11
474.053832056797
 21
331.5364316248685
 31
0.0
  0
LINE
  5
408
330
1F
100
AcDbEntity
  8
0
  6
Continuous
 62
     7
370
    15
100
AcDbLine
 10
473.803832056797
 20
330.4614316248685
 30
0.0
 11
473.803832056797
 21
330.1864316248685
 31
0.0
  0
LINE
  5
409
330
1F
100
AcDbEntity
  8
0
  6
Continuous
 62
     7
370
    15
100
AcDbLine
 10
474.053832056797
 20
330.4614316248685
 30
0.0
 11
474.053832056797
 21
330.1864316248685
 31
0.0
  0
LINE
  5
40A
330
1F
100
AcDbEntity
  8
0
  6
Continuous
 62
     7
370
    15
100
AcDbLine
 10
473.0038320567969
 20
331.5364316248685
 30
0.0
 11
473.0038320567969
 21
331.2614316248684
 31
0.0
  0
LINE
  5
40B
330
1F
100
AcDbEntity
  8
0
  6
Continuous
 62
     7
370
    15
100
AcDbLine
 10
473.2538320567971
 20
331.2614316248684
 30
0.0
 11
473.2538320567971
 21
331.5364316248685
 31
0.0
  0
LINE
  5
40C
330
1F
100
AcDbEntity
  8
0
  6
Continuous
 62
     7
370
    15
100
AcDbLine
 10
473.0038320567969
 20
330.4614316248685
 30
0.0
 11
473.0038320567969
 21
330.1864316248685
 31
0.0
  0
LINE
  5
40D
330
1F
100
AcDbEntity
  8
0
  6
Continuous
 62
     7
370
    15
100
AcDbLine
 10
473.2538320567971
 20
330.4614316248685
 30
0.0
 11
473.2538320567971
 21
330.1864316248685
 31
0.0
  0
LINE
  5
40E
330
1F
100
AcDbEntity
  8
0
  6
Continuous
 62
     7
370
    15
100
AcDbLine
 10
472.453832056797
 20
330.4614316248685
 30
0.0
 11
472.453832056797
 21
330.1864316248685
 31
0.0
  0
LINE
  5
40F
330
1F
100
AcDbEntity
  8
0
  6
Continuous
 62
     7
370
    15
100
AcDbLine
 10
472.203832056797
 20
330.4614316248685
 30
0.0
 11
472.203832056797
 21
330.1864316248685
 31
0.0
  0
LINE
  5
410
330
1F
100
AcDbEntity
  8
0
  6
Continuous
 62
     7
370
    15
100
AcDbLine
 10
472.203832056797
 20
331.5364316248685
 30
0.0
 11
472.203832056797
 21
331.2614316248684
 31
0.0
  0
LINE
  5
411
330
1F
100
AcDbEntity
  8
0
  6
Continuous
 62
     7
370
    15
100
AcDbLine
 10
472.453832056797
 20
331.2614316248684
 30
0.0
 11
472.453832056797
 21
331.5364316248685
 31
0.0
  0
LINE
  5
412
330
1F
100
AcDbEntity
  8
0
  6
Continuous
 62
     7
370
    15
100
AcDbLine
 10
471.403832056797
 20
330.4614316248685
 30
0.0
 11
471.403832056797
 21
330.1864316248685
 31
0.0
  0
LINE
  5
413
330
1F
100
AcDbEntity
  8
0
  6
Continuous
 62
     7
370
    15
100
AcDbLine
 10
471.653832056797
 20
330.4614316248685
 30
0.0
 11
471.653832056797
 21
330.1864316248685
 31
0.0
  0
LINE
  5
414
330
1F
100
AcDbEntity
  8
0
  6
Continuous
 62
     7
370
    15
100
AcDbLine
 10
471.403832056797
 20
331.5364316248685
 30
0.0
 11
471.403832056797
 21
331.2614316248684
 31
0.0
  0
LINE
  5
415
330
1F
100
AcDbEntity
  8
0
  6
Continuous
 62
     7
370
    15
100
AcDbLine
 10
471.653832056797
 20
331.2614316248684
 30
0.0
 11
471.653832056797
 21
331.5364316248685
 31
0.0
  0
LINE
  5
416
330
1F
100
AcDbEntity
  8
0
  6
Continuous
 62
     7
370
    15
100
AcDbLine
 10
470.6038320567969
 20
330.4614316248685
 30
0.0
 11
470.6038320567969
 21
330.1864316248685
 31
0.0
  0
LINE
  5
417
330
1F
100
AcDbEntity
  8
0
  6
Continuous
 62
     7
370
    15
100
AcDbLine
 10
470.853832056797
 20
330.4614316248685
 30
0.0
 11
470.853832056797
 21
330.1864316248685
 31
0.0
  0
LINE
  5
418
330
1F
100
AcDbEntity
  8
0
  6
Continuous
 62
     7
370
    15
100
AcDbLine
 10
470.853832056797
 20
331.2614316248684
 30
0.0
 11
470.853832056797
 21
331.5364316248685
 31
0.0
  0
LINE
  5
419
330
1F
100
AcDbEntity
  8
0
  6
Continuous
 62
     7
370
    15
100
AcDbLine
 10
470.6038320567969
 20
331.5364316248685
 30
0.0
 11
470.6038320567969
 21
331.2614316248684
 31
0.0
  0
LINE
  5
41A
330
1F
100
AcDbEntity
  8
0
  6
Continuous
 62
     7
370
    15
100
AcDbLine
 10
469.803832056797
 20
331.5364316248685
 30
0.0
 11
469.803832056797
 21
331.2614316248684
 31
0.0
  0
LINE
  5
41B
330
1F
100
AcDbEntity
  8
0
  6
Continuous
 62
     7
370
    15
100
AcDbLine
 10
470.053832056797
 20
331.2614316248684
 30
0.0
 11
470.053832056797
 21
331.5364316248685
 31
0.0
  0
LINE
  5
41C
330
1F
100
AcDbEntity
  8
0
  6
Continuous
 62
     7
370
    15
100
AcDbLine
 10
469.803832056797
 20
330.4614316248685
 30
0.0
 11
469.803832056797
 21
330.1864316248685
 31
0.0
  0
LINE
  5
41D
330
1F
100
AcDbEntity
  8
0
  6
Continuous
 62
     7
370
    15
100
AcDbLine
 10
470.053832056797
 20
330.4614316248685
 30
0.0
 11
470.053832056797
 21
330.1864316248685
 31
0.0
  0
LINE
  5
41E
330
1F
100
AcDbEntity
  8
0
  6
Continuous
 62
     7
370
    15
100
AcDbLine
 10
469.003832056797
 20
331.5364316248685
 30
0.0
 11
469.003832056797
 21
331.2614316248684
 31
0.0
  0
LINE
  5
41F
330
1F
100
AcDbEntity
  8
0
  6
Continuous
 62
     7
370
    15
100
AcDbLine
 10
469.253832056797
 20
331.2614316248684
 30
0.0
 11
469.253832056797
 21
331.5364316248685
 31
0.0
  0
LINE
  5
420
330
1F
100
AcDbEntity
  8
0
  6
Continuous
 62
     7
370
    15
100
AcDbLine
 10
469.253832056797
 20
330.4614316248685
 30
0.0
 11
469.253832056797
 21
330.1864316248685
 31
0.0
  0
LINE
  5
421
330
1F
100
AcDbEntity
  8
0
  6
Continuous
 62
     7
370
    15
100
AcDbLine
 10
469.003832056797
 20
330.4614316248685
 30
0.0
 11
469.003832056797
 21
330.1864316248685
 31
0.0
  0
LINE
  5
422
330
1F
100
AcDbEntity
  8
0
  6
Continuous
 62
     7
370
    15
100
AcDbLine
 10
468.203832056797
 20
331.5364316248685
 30
0.0
 11
468.203832056797
 21
331.2614316248684
 31
0.0
  0
LINE
  5
423
330
1F
100
AcDbEntity
  8
0
  6
Continuous
 62
     7
370
    15
100
AcDbLine
 10
468.453832056797
 20
331.2614316248684
 30
0.0
 11
468.453832056797
 21
331.5364316248685
 31
0.0
  0
LINE
  5
424
330
1F
100
AcDbEntity
  8
0
  6
Continuous
 62
     7
370
    15
100
AcDbLine
 10
468.203832056797
 20
330.4614316248685
 30
0.0
 11
468.203832056797
 21
330.1864316248685
 31
0.0
  0
LINE
  5
425
330
1F
100
AcDbEntity
  8
0
  6
Continuous
 62
     7
370
    15
100
AcDbLine
 10
468.453832056797
 20
330.4614316248685
 30
0.0
 11
468.453832056797
 21
330.1864316248685
 31
0.0
  0
LINE
  5
426
330
1F
100
AcDbEntity
  8
0
  6
Continuous
 62
     7
370
    15
100
AcDbLine
 10
467.653832056797
 20
330.4614316248685
 30
0.0
 11
467.653832056797
 21
330.1864316248685
 31
0.0
  0
LINE
  5
427
330
1F
100
AcDbEntity
  8
0
  6
Continuous
 62
     7
370
    15
100
AcDbLine
 10
467.403832056797
 20
330.4614316248685
 30
0.0
 11
467.403832056797
 21
330.1864316248685
 31
0.0
  0
LINE
  5
428
330
1F
100
AcDbEntity
  8
0
  6
Continuous
 62
     7
370
    15
100
AcDbLine
 10
467.403832056797
 20
331.5364316248685
 30
0.0
 11
467.403832056797
 21
331.2614316248684
 31
0.0
  0
LINE
  5
429
330
1F
100
AcDbEntity
  8
0
  6
Continuous
 62
     7
370
    15
100
AcDbLine
 10
467.653832056797
 20
331.2614316248684
 30
0.0
 11
467.653832056797
 21
331.5364316248685
 31
0.0
  0
LINE
  5
42A
330
1F
100
AcDbEntity
  8
0
  6
Continuous
 62
     7
370
    15
100
AcDbLine
 10
466.6038320567969
 20
331.5364316248685
 30
0.0
 11
466.6038320567969
 21
331.2614316248684
 31
0.0
  0
LINE
  5
42B
330
1F
100
AcDbEntity
  8
0
  6
Continuous
 62
     7
370
    15
100
AcDbLine
 10
466.853832056797
 20
331.2614316248684
 30
0.0
 11
466.853832056797
 21
331.5364316248685
 31
0.0
  0
LINE
  5
42C
330
1F
100
AcDbEntity
  8
0
  6
Continuous
 62
     7
370
    15
100
AcDbLine
 10
466.853832056797
 20
330.4614316248685
 30
0.0
 11
466.853832056797
 21
330.1864316248685
 31
0.0
  0
LINE
  5
42D
330
1F
100
AcDbEntity
  8
0
  6
Continuous
 62
     7
370
    15
100
AcDbLine
 10
466.6038320567969
 20
330.4614316248685
 30
0.0
 11
466.6038320567969
 21
330.1864316248685
 31
0.0
  0
LINE
  5
42E
330
1F
100
AcDbEntity
  8
0
  6
Continuous
 62
     7
370
    15
100
AcDbLine
 10
466.053832056797
 20
330.4614316248685
 30
0.0
 11
466.053832056797
 21
330.1864316248685
 31
0.0
  0
LINE
  5
42F
330
1F
100
AcDbEntity
  8
0
  6
Continuous
 62
     7
370
    15
100
AcDbLine
 10
465.803832056797
 20
330.4614316248685
 30
0.0
 11
465.803832056797
 21
330.1864316248685
 31
0.0
  0
LINE
  5
430
330
1F
100
AcDbEntity
  8
0
  6
Continuous
 62
     7
370
    15
100
AcDbLine
 10
465.803832056797
 20
331.5364316248685
 30
0.0
 11
465.803832056797
 21
331.2614316248684
 31
0.0
  0
LINE
  5
431
330
1F
100
AcDbEntity
  8
0
  6
Continuous
 62
     7
370
    15
100
AcDbLine
 10
466.053832056797
 20
331.2614316248684
 30
0.0
 11
466.053832056797
 21
331.5364316248685
 31
0.0
  0
LINE
  5
432
330
1F
100
AcDbEntity
  8
0
  6
Continuous
 62
     7
370
    15
100
AcDbLine
 10
465.253832056797
 20
330.4614316248685
 30
0.0
 11
465.253832056797
 21
330.1864316248685
 31
0.0
  0
LINE
  5
433
330
1F
100
AcDbEntity
  8
0
  6
Continuous
 62
     7
370
    15
100
AcDbLine
 10
465.003832056797
 20
330.4614316248685
 30
0.0
 11
465.003832056797
 21
330.1864316248685
 31
0.0
  0
LINE
  5
434
330
1F
100
AcDbEntity
  8
0
  6
Continuous
 62
     7
370
    15
100
AcDbLine
 10
465.003832056797
 20
331.5364316248685
 30
0.0
 11
465.003832056797
 21
331.2614316248684
 31
0.0
  0
LINE
  5
435
330
1F
100
AcDbEntity
  8
0
  6
Continuous
 62
     7
370
    15
100
AcDbLine
 10
465.253832056797
 20
331.2614316248684
 30
0.0
 11
465.253832056797
 21
331.5364316248685
 31
0.0
  0
LINE
  5
436
330
1F
100
AcDbEntity
  8
0
  6
Continuous
 62
     7
370
    15
100
AcDbLine
 10
464.453832056797
 20
330.4614316248685
 30
0.0
 11
464.453832056797
 21
330.1864316248685
 31
0.0
  0
LINE
  5
437
330
1F
100
AcDbEntity
  8
0
  6
Continuous
 62
     7
370
    15
100
AcDbLine
 10
464.203832056797
 20
330.4614316248685
 30
0.0
 11
464.203832056797
 21
330.1864316248685
 31
0.0
  0
LINE
  5
438
330
1F
100
AcDbEntity
  8
0
  6
Continuous
 62
     7
370
    15
100
AcDbLine
 10
464.203832056797
 20
331.5364316248685
 30
0.0
 11
464.203832056797
 21
331.2614316248684
 31
0.0
  0
LINE
  5
439
330
1F
100
AcDbEntity
  8
0
  6
Continuous
 62
     7
370
    15
100
AcDbLine
 10
464.453832056797
 20
331.2614316248684
 30
0.0
 11
464.453832056797
 21
331.5364316248685
 31
0.0
  0
LINE
  5
43A
330
1F
100
AcDbEntity
  8
0
  6
Continuous
 62
     7
370
    15
100
AcDbLine
 10
463.4038320567969
 20
331.5364316248685
 30
0.0
 11
463.4038320567969
 21
331.2614316248684
 31
0.0
  0
LINE
  5
43B
330
1F
100
AcDbEntity
  8
0
  6
Continuous
 62
     7
370
    15
100
AcDbLine
 10
463.6538320567971
 20
331.2614316248684
 30
0.0
 11
463.6538320567971
 21
331.5364316248685
 31
0.0
  0
LINE
  5
43C
330
1F
100
AcDbEntity
  8
0
  6
Continuous
 62
     7
370
    15
100
AcDbLine
 10
463.6538320567971
 20
330.4614316248685
 30
0.0
 11
463.6538320567971
 21
330.1864316248685
 31
0.0
  0
LINE
  5
43D
330
1F
100
AcDbEntity
  8
0
  6
Continuous
 62
     7
370
    15
100
AcDbLine
 10
463.4038320567969
 20
330.4614316248685
 30
0.0
 11
463.4038320567969
 21
330.1864316248685
 31
0.0
  0
LINE
  5
43E
330
1F
100
AcDbEntity
  8
0
  6
Continuous
 62
     7
370
    15
100
AcDbLine
 10
462.853832056797
 20
330.4614316248685
 30
0.0
 11
462.853832056797
 21
330.1864316248685
 31
0.0
  0
LINE
  5
43F
330
1F
100
AcDbEntity
  8
0
  6
Continuous
 62
     7
370
    15
100
AcDbLine
 10
462.603832056797
 20
330.4614316248685
 30
0.0
 11
462.603832056797
 21
330.1864316248685
 31
0.0
  0
LINE
  5
440
330
1F
100
AcDbEntity
  8
0
  6
Continuous
 62
     7
370
    15
100
AcDbLine
 10
462.853832056797
 20
331.2614316248684
 30
0.0
 11
462.853832056797
 21
331.5364316248685
 31
0.0
  0
LINE
  5
441
330
1F
100
AcDbEntity
  8
0
  6
Continuous
 62
     7
370
    15
100
AcDbLine
 10
462.603832056797
 20
331.5364316248685
 30
0.0
 11
462.603832056797
 21
331.2614316248684
 31
0.0
  0
LINE
  5
442
330
1F
100
AcDbEntity
  8
0
  6
Continuous
 62
     7
370
    15
100
AcDbLine
 10
462.053832056797
 20
330.4614316248685
 30
0.0
 11
462.053832056797
 21
330.1864316248685
 31
0.0
  0
LINE
  5
443
330
1F
100
AcDbEntity
  8
0
  6
Continuous
 62
     7
370
    15
100
AcDbLine
 10
461.803832056797
 20
330.4614316248685
 30
0.0
 11
461.803832056797
 21
330.1864316248685
 31
0.0
  0
LINE
  5
444
330
1F
100
AcDbEntity
  8
0
  6
Continuous
 62
     7
370
    15
100
AcDbLine
 10
461.803832056797
 20
331.5364316248685
 30
0.0
 11
461.803832056797
 21
331.2614316248684
 31
0.0
  0
LINE
  5
445
330
1F
100
AcDbEntity
  8
0
  6
Continuous
 62
     7
370
    15
100
AcDbLine
 10
462.053832056797
 20
331.2614316248684
 30
0.0
 11
462.053832056797
 21
331.5364316248685
 31
0.0
  0
LINE
  5
446
330
1F
100
AcDbEntity
  8
0
  6
Continuous
 62
     7
370
    15
100
AcDbLine
 10
461.253832056797
 20
330.4614316248685
 30
0.0
 11
461.253832056797
 21
330.1864316248685
 31
0.0
  0
LINE
  5
447
330
1F
100
AcDbEntity
  8
0
  6
Continuous
 62
     7
370
    15
100
AcDbLine
 10
461.003832056797
 20
330.4614316248685
 30
0.0
 11
461.003832056797
 21
330.1864316248685
 31
0.0
  0
LINE
  5
448
330
1F
100
AcDbEntity
  8
0
  6
Continuous
 62
     7
370
    15
100
AcDbLine
 10
461.003832056797
 20
331.5364316248685
 30
0.0
 11
461.003832056797
 21
331.2614316248684
 31
0.0
  0
LINE
  5
449
330
1F
100
AcDbEntity
  8
0
  6
Continuous
 62
     7
370
    15
100
AcDbLine
 10
461.253832056797
 20
331.2614316248684
 30
0.0
 11
461.253832056797
 21
331.5364316248685
 31
0.0
  0
LINE
  5
44A
330
1F
100
AcDbEntity
  8
0
  6
Continuous
 62
     7
370
    15
100
AcDbLine
 10
460.453832056797
 20
331.2614316248684
 30
0.0
 11
460.453832056797
 21
331.5364316248685
 31
0.0
  0
LINE
  5
44B
330
1F
100
AcDbEntity
  8
0
  6
Continuous
 62
     7
370
    15
100
AcDbLine
 10
460.203832056797
 20
331.5364316248685
 30
0.0
 11
460.203832056797
 21
331.2614316248684
 31
0.0
  0
LINE
  5
44C
330
1F
100
AcDbEntity
  8
0
  6
Continuous
 62
     7
370
    15
100
AcDbLine
 10
460.203832056797
 20
330.4614316248685
 30
0.0
 11
460.203832056797
 21
330.1864316248685
 31
0.0
  0
LINE
  5
44D
330
1F
100
AcDbEntity
  8
0
  6
Continuous
 62
     7
370
    15
100
AcDbLine
 10
460.453832056797
 20
330.4614316248685
 30
0.0
 11
460.453832056797
 21
330.1864316248685
 31
0.0
  0
LINE
  5
44E
330
1F
100
AcDbEntity
  8
0
  6
Continuous
 62
     7
370
    15
100
AcDbLine
 10
459.6538320567971
 20
330.4614316248685
 30
0.0
 11
459.6538320567971
 21
330.1864316248685
 31
0.0
  0
LINE
  5
44F
330
1F
100
AcDbEntity
  8
0
  6
Continuous
 62
     7
370
    15
100
AcDbLine
 10
459.4038320567969
 20
330.4614316248685
 30
0.0
 11
459.4038320567969
 21
330.1864316248685
 31
0.0
  0
LINE
  5
450
330
1F
100
AcDbEntity
  8
0
  6
Continuous
 62
     7
370
    15
100
AcDbLine
 10
459.4038320567969
 20
331.5364316248685
 30
0.0
 11
459.4038320567969
 21
331.2614316248684
 31
0.0
  0
LINE
  5
451
330
1F
100
AcDbEntity
  8
0
  6
Continuous
 62
     7
370
    15
100
AcDbLine
 10
459.6538320567971
 20
331.2614316248684
 30
0.0
 11
459.6538320567971
 21
331.5364316248685
 31
0.0
  0
LINE
  5
452
330
1F
100
AcDbEntity
  8
0
  6
Continuous
 62
     7
370
    15
100
AcDbLine
 10
458.603832056797
 20
330.4614316248685
 30
0.0
 11
458.603832056797
 21
330.1864316248685
 31
0.0
  0
LINE
  5
453
330
1F
100
AcDbEntity
  8
0
  6
Continuous
 62
     7
370
    15
100
AcDbLine
 10
458.853832056797
 20
330.4614316248685
 30
0.0
 11
458.853832056797
 21
330.1864316248685
 31
0.0
  0
LINE
  5
454
330
1F
100
AcDbEntity
  8
0
  6
Continuous
 62
     7
370
    15
100
AcDbLine
 10
458.853832056797
 20
331.2614316248684
 30
0.0
 11
458.853832056797
 21
331.5364316248685
 31
0.0
  0
LINE
  5
455
330
1F
100
AcDbEntity
  8
0
  6
Continuous
 62
     7
370
    15
100
AcDbLine
 10
458.603832056797
 20
331.5364316248685
 30
0.0
 11
458.603832056797
 21
331.2614316248684
 31
0.0
  0
LINE
  5
456
330
1F
100
AcDbEntity
  8
0
  6
Continuous
 62
     7
370
    15
100
AcDbLine
 10
457.803832056797
 20
331.5364316248685
 30
0.0
 11
457.803832056797
 21
331.2614316248684
 31
0.0
  0
LINE
  5
457
330
1F
100
AcDbEntity
  8
0
  6
Continuous
 62
     7
370
    15
100
AcDbLine
 10
458.053832056797
 20
331.2614316248684
 30
0.0
 11
458.053832056797
 21
331.5364316248685
 31
0.0
  0
LINE
  5
458
330
1F
100
AcDbEntity
  8
0
  6
Continuous
 62
     7
370
    15
100
AcDbLine
 10
457.803832056797
 20
330.4614316248685
 30
0.0
 11
457.803832056797
 21
330.1864316248685
 31
0.0
  0
LINE
  5
459
330
1F
100
AcDbEntity
  8
0
  6
Continuous
 62
     7
370
    15
100
AcDbLine
 10
458.053832056797
 20
330.4614316248685
 30
0.0
 11
458.053832056797
 21
330.1864316248685
 31
0.0
  0
LINE
  5
45A
330
1F
100
AcDbEntity
  8
0
  6
Continuous
 62
     7
370
    15
100
AcDbLine
 10
457.003832056797
 20
331.5364316248685
 30
0.0
 11
457.003832056797
 21
331.2614316248684
 31
0.0
  0
LINE
  5
45B
330
1F
100
AcDbEntity
  8
0
  6
Continuous
 62
     7
370
    15
100
AcDbLine
 10
457.253832056797
 20
331.2614316248684
 30
0.0
 11
457.253832056797
 21
331.5364316248685
 31
0.0
  0
LINE
  5
45C
330
1F
100
AcDbEntity
  8
0
  6
Continuous
 62
     7
370
    15
100
AcDbLine
 10
457.003832056797
 20
330.4614316248685
 30
0.0
 11
457.003832056797
 21
330.1864316248685
 31
0.0
  0
LINE
  5
45D
330
1F
100
AcDbEntity
  8
0
  6
Continuous
 62
     7
370
    15
100
AcDbLine
 10
457.253832056797
 20
330.4614316248685
 30
0.0
 11
457.253832056797
 21
330.1864316248685
 31
0.0
  0
LINE
  5
45E
330
1F
100
AcDbEntity
  8
0
  6
Continuous
 62
     7
370
    15
100
AcDbLine
 10
456.453832056797
 20
330.4614316248685
 30
0.0
 11
456.453832056797
 21
330.1864316248685
 31
0.0
  0
LINE
  5
45F
330
1F
100
AcDbEntity
  8
0
  6
Continuous
 62
     7
370
    15
100
AcDbLine
 10
456.203832056797
 20
330.4614316248685
 30
0.0
 11
456.203832056797
 21
330.1864316248685
 31
0.0
  0
LINE
  5
460
330
1F
100
AcDbEntity
  8
0
  6
Continuous
 62
     7
370
    15
100
AcDbLine
 10
456.203832056797
 20
331.5364316248685
 30
0.0
 11
456.203832056797
 21
331.2614316248684
 31
0.0
  0
LINE
  5
461
330
1F
100
AcDbEntity
  8
0
  6
Continuous
 62
     7
370
    15
100
AcDbLine
 10
456.453832056797
 20
331.2614316248684
 30
0.0
 11
456.453832056797
 21
331.5364316248685
 31
0.0
  0
LINE
  5
462
330
1F
100
AcDbEntity
  8
0
  6
Continuous
 62
     7
370
    15
100
AcDbLine
 10
455.4038320567969
 20
331.5364316248685
 30
0.0
 11
455.4038320567969
 21
331.2614316248684
 31
0.0
  0
LINE
  5
463
330
1F
100
AcDbEntity
  8
0
  6
Continuous
 62
     7
370
    15
100
AcDbLine
 10
455.6538320567971
 20
331.2614316248684
 30
0.0
 11
455.6538320567971
 21
331.5364316248685
 31
0.0
  0
LINE
  5
464
330
1F
100
AcDbEntity
  8
0
  6
Continuous
 62
     7
370
    15
100
AcDbLine
 10
455.4038320567969
 20
330.4614316248685
 30
0.0
 11
455.4038320567969
 21
330.1864316248685
 31
0.0
  0
LINE
  5
465
330
1F
100
AcDbEntity
  8
0
  6
Continuous
 62
     7
370
    15
100
AcDbLine
 10
455.6538320567971
 20
330.4614316248685
 30
0.0
 11
455.6538320567971
 21
330.1864316248685
 31
0.0
  0
LINE
  5
466
330
1F
100
AcDbEntity
  8
0
  6
Continuous
 62
     7
370
    15
100
AcDbLine
 10
454.603832056797
 20
331.5364316248685
 30
0.0
 11
454.603832056797
 21
331.2614316248684
 31
0.0
  0
LINE
  5
467
330
1F
100
AcDbEntity
  8
0
  6
Continuous
 62
     7
370
    15
100
AcDbLine
 10
454.853832056797
 20
331.2614316248684
 30
0.0
 11
454.853832056797
 21
331.5364316248685
 31
0.0
  0
LINE
  5
468
330
1F
100
AcDbEntity
  8
0
  6
Continuous
 62
     7
370
    15
100
AcDbLine
 10
454.603832056797
 20
330.4614316248685
 30
0.0
 11
454.603832056797
 21
330.1864316248685
 31
0.0
  0
LINE
  5
469
330
1F
100
AcDbEntity
  8
0
  6
Continuous
 62
     7
370
    15
100
AcDbLine
 10
454.853832056797
 20
330.4614316248685
 30
0.0
 11
454.853832056797
 21
330.1864316248685
 31
0.0
  0
LINE
  5
46A
330
1F
100
AcDbEntity
  8
0
  6
Continuous
 62
     7
370
    15
100
AcDbLine
 10
454.053832056797
 20
330.4614316248685
 30
0.0
 11
454.053832056797
 21
330.1864316248685
 31
0.0
  0
LINE
  5
46B
330
1F
100
AcDbEntity
  8
0
  6
Continuous
 62
     7
370
    15
100
AcDbLine
 10
453.803832056797
 20
330.4614316248685
 30
0.0
 11
453.803832056797
 21
330.1864316248685
 31
0.0
  0
LINE
  5
46C
330
1F
100
AcDbEntity
  8
0
  6
Continuous
 62
     7
370
    15
100
AcDbLine
 10
453.803832056797
 20
331.5364316248685
 30
0.0
 11
453.803832056797
 21
331.2614316248684
 31
0.0
  0
LINE
  5
46D
330
1F
100
AcDbEntity
  8
0
  6
Continuous
 62
     7
370
    15
100
AcDbLine
 10
454.053832056797
 20
331.2614316248684
 30
0.0
 11
454.053832056797
 21
331.5364316248685
 31
0.0
  0
LINE
  5
46E
330
1F
100
AcDbEntity
  8
0
  6
Continuous
 62
     7
370
    15
100
AcDbLine
 10
453.003832056797
 20
331.5364316248685
 30
0.0
 11
453.003832056797
 21
331.2614316248684
 31
0.0
  0
LINE
  5
46F
330
1F
100
AcDbEntity
  8
0
  6
Continuous
 62
     7
370
    15
100
AcDbLine
 10
453.253832056797
 20
331.2614316248684
 30
0.0
 11
453.253832056797
 21
331.5364316248685
 31
0.0
  0
LINE
  5
470
330
1F
100
AcDbEntity
  8
0
  6
Continuous
 62
     7
370
    15
100
AcDbLine
 10
453.003832056797
 20
330.4614316248685
 30
0.0
 11
453.003832056797
 21
330.1864316248685
 31
0.0
  0
LINE
  5
471
330
1F
100
AcDbEntity
  8
0
  6
Continuous
 62
     7
370
    15
100
AcDbLine
 10
453.253832056797
 20
330.4614316248685
 30
0.0
 11
453.253832056797
 21
330.1864316248685
 31
0.0
  0
LINE
  5
472
330
1F
100
AcDbEntity
  8
0
  6
Continuous
 62
     7
370
    15
100
AcDbLine
 10
452.203832056797
 20
330.4614316248685
 30
0.0
 11
452.203832056797
 21
330.1864316248685
 31
0.0
  0
LINE
  5
473
330
1F
100
AcDbEntity
  8
0
  6
Continuous
 62
     7
370
    15
100
AcDbLine
 10
452.453832056797
 20
330.4614316248685
 30
0.0
 11
452.453832056797
 21
330.1864316248685
 31
0.0
  0
LINE
  5
474
330
1F
100
AcDbEntity
  8
0
  6
Continuous
 62
     7
370
    15
100
AcDbLine
 10
452.203832056797
 20
331.5364316248685
 30
0.0
 11
452.203832056797
 21
331.2614316248684
 31
0.0
  0
LINE
  5
475
330
1F
100
AcDbEntity
  8
0
  6
Continuous
 62
     7
370
    15
100
AcDbLine
 10
452.453832056797
 20
331.2614316248684
 30
0.0
 11
452.453832056797
 21
331.5364316248685
 31
0.0
  0
LINE
  5
476
330
1F
100
AcDbEntity
  8
0
  6
Continuous
 62
     7
370
    15
100
AcDbLine
 10
451.4038320567969
 20
331.5364316248685
 30
0.0
 11
451.4038320567969
 21
331.2614316248684
 31
0.0
  0
LINE
  5
477
330
1F
100
AcDbEntity
  8
0
  6
Continuous
 62
     7
370
    15
100
AcDbLine
 10
451.653832056797
 20
331.2614316248684
 30
0.0
 11
451.653832056797
 21
331.5364316248685
 31
0.0
  0
LINE
  5
478
330
1F
100
AcDbEntity
  8
0
  6
Continuous
 62
     7
370
    15
100
AcDbLine
 10
451.653832056797
 20
330.4614316248685
 30
0.0
 11
451.653832056797
 21
330.1864316248685
 31
0.0
  0
LINE
  5
479
330
1F
100
AcDbEntity
  8
0
  6
Continuous
 62
     7
370
    15
100
AcDbLine
 10
451.4038320567969
 20
330.4614316248685
 30
0.0
 11
451.4038320567969
 21
330.1864316248685
 31
0.0
  0
LINE
  5
47A
330
1F
100
AcDbEntity
  8
0
  6
Continuous
 62
     7
370
    15
100
AcDbLine
 10
450.853832056797
 20
330.4614316248685
 30
0.0
 11
450.853832056797
 21
330.1864316248685
 31
0.0
  0
LINE
  5
47B
330
1F
100
AcDbEntity
  8
0
  6
Continuous
 62
     7
370
    15
100
AcDbLine
 10
450.603832056797
 20
330.4614316248685
 30
0.0
 11
450.603832056797
 21
330.1864316248685
 31
0.0
  0
LINE
  5
47C
330
1F
100
AcDbEntity
  8
0
  6
Continuous
 62
     7
370
    15
100
AcDbLine
 10
450.603832056797
 20
331.5364316248685
 30
0.0
 11
450.603832056797
 21
331.2614316248684
 31
0.0
  0
LINE
  5
47D
330
1F
100
AcDbEntity
  8
0
  6
Continuous
 62
     7
370
    15
100
AcDbLine
 10
450.853832056797
 20
331.2614316248684
 30
0.0
 11
450.853832056797
 21
331.5364316248685
 31
0.0
  0
LINE
  5
47E
330
1F
100
AcDbEntity
  8
0
  6
Continuous
 62
     7
370
    15
100
AcDbLine
 10
450.053832056797
 20
330.4614316248685
 30
0.0
 11
450.053832056797
 21
330.1864316248685
 31
0.0
  0
LINE
  5
47F
330
1F
100
AcDbEntity
  8
0
  6
Continuous
 62
     7
370
    15
100
AcDbLine
 10
449.803832056797
 20
330.4614316248685
 30
0.0
 11
449.803832056797
 21
330.1864316248685
 31
0.0
  0
LINE
  5
480
330
1F
100
AcDbEntity
  8
0
  6
Continuous
 62
     7
370
    15
100
AcDbLine
 10
450.053832056797
 20
331.2614316248684
 30
0.0
 11
450.053832056797
 21
331.5364316248685
 31
0.0
  0
LINE
  5
481
330
1F
100
AcDbEntity
  8
0
  6
Continuous
 62
     7
370
    15
100
AcDbLine
 10
449.803832056797
 20
331.5364316248685
 30
0.0
 11
449.803832056797
 21
331.2614316248684
 31
0.0
  0
LINE
  5
482
330
1F
100
AcDbEntity
  8
0
  6
Continuous
 62
     7
370
    15
100
AcDbLine
 10
449.253832056797
 20
330.4614316248685
 30
0.0
 11
449.253832056797
 21
330.1864316248685
 31
0.0
  0
LINE
  5
483
330
1F
100
AcDbEntity
  8
0
  6
Continuous
 62
     7
370
    15
100
AcDbLine
 10
449.003832056797
 20
330.4614316248685
 30
0.0
 11
449.003832056797
 21
330.1864316248685
 31
0.0
  0
LINE
  5
484
330
1F
100
AcDbEntity
  8
0
  6
Continuous
 62
     7
370
    15
100
AcDbLine
 10
449.003832056797
 20
331.5364316248685
 30
0.0
 11
449.003832056797
 21
331.2614316248684
 31
0.0
  0
LINE
  5
485
330
1F
100
AcDbEntity
  8
0
  6
Continuous
 62
     7
370
    15
100
AcDbLine
 10
449.253832056797
 20
331.2614316248684
 30
0.0
 11
449.253832056797
 21
331.5364316248685
 31
0.0
  0
LINE
  5
486
330
1F
100
AcDbEntity
  8
0
  6
Continuous
 62
     7
370
    15
100
AcDbLine
 10
448.453832056797
 20
331.2614316248684
 30
0.0
 11
448.453832056797
 21
331.5364316248685
 31
0.0
  0
LINE
  5
487
330
1F
100
AcDbEntity
  8
0
  6
Continuous
 62
     7
370
    15
100
AcDbLine
 10
448.203832056797
 20
331.5364316248685
 30
0.0
 11
448.203832056797
 21
331.2614316248684
 31
0.0
  0
LINE
  5
488
330
1F
100
AcDbEntity
  8
0
  6
Continuous
 62
     7
370
    15
100
AcDbLine
 10
448.453832056797
 20
330.4614316248685
 30
0.0
 11
448.453832056797
 21
330.1864316248685
 31
0.0
  0
LINE
  5
489
330
1F
100
AcDbEntity
  8
0
  6
Continuous
 62
     7
370
    15
100
AcDbLine
 10
448.203832056797
 20
330.4614316248685
 30
0.0
 11
448.203832056797
 21
330.1864316248685
 31
0.0
  0
ARC
  5
48A
330
1F
100
AcDbEntity
  8
0
  6
Continuous
 62
     7
370
    15
100
AcDbCircle
 10
480.178832056797
 20
330.8614316248685
 30
0.0
 40
1.750000000001652
100
AcDbArc
 50
170.1291103938695
 51
189.8708896061295
  0
ARC
  5
48B
330
1F
100
AcDbEntity
  8
0
  6
Continuous
 62
     7
370
    15
100
AcDbCircle
 10
480.178832056797
 20
330.8614316248685
 30
0.0
 40
1.750000000001652
100
AcDbArc
 50
350.1291103938722
 51
9.870889606130507
  0
ARC
  5
48C
330
1F
100
AcDbEntity
  8
0
  6
Continuous
 62
     7
370
    15
100
AcDbCircle
 10
442.478832056797
 20
330.8614316248685
 30
0.0
 40
1.750000000001596
100
AcDbArc
 50
170.1291103938691
 51
189.8708896061298
  0
ARC
  5
48D
330
1F
100
AcDbEntity
  8
0
  6
Continuous
 62
     7
370
    15
100
AcDbCircle
 10
442.478832056797
 20
330.8614316248685
 30
0.0
 40
1.750000000001652
100
AcDbArc
 50
350.1291103938722
 51
9.870889606130507
  0
LINE
  5
48E
330
1F
100
AcDbEntity
  8
0
  6
Continuous
 62
     7
370
    15
100
AcDbLine
 10
478.578832056797
 20
327.8614316248685
 30
0.0
 11
478.578832056797
 21
327.6114316248685
 31
0.0
  0
ARC
  5
48F
330
1F
100
AcDbEntity
  8
0
  6
Continuous
 62
     7
370
    15
100
AcDbCircle
 10
478.3288320567971
 20
327.8614316248685
 30
0.0
 40
0.2500000000001137
100
AcDbArc
 50
0.0
 51
179.9999999997785
  0
LINE
  5
490
330
1F
100
AcDbEntity
  8
0
  6
Continuous
 62
     7
370
    15
100
AcDbLine
 10
478.078832056797
 20
327.6114316248685
 30
0.0
 11
478.0788320567969
 21
327.8614316248694
 31
0.0
  0
LINE
  5
491
330
1F
100
AcDbEntity
  8
0
  6
Continuous
 62
     7
370
    15
100
AcDbLine
 10
474.3288320567971
 20
327.6114316248685
 30
0.0
 11
478.078832056797
 21
327.6114316248685
 31
0.0
  0
LINE
  5
492
330
1F
100
AcDbEntity
  8
0
  6
Continuous
 62
     7
370
    15
100
AcDbLine
 10
474.3288320567971
 20
329.1314316248685
 30
0.0
 11
474.3288320567971
 21
327.6114316248685
 31
0.0
  0
LINE
  5
493
330
1F
100
AcDbEntity
  8
0
  6
Continuous
 62
     7
370
    15
100
AcDbLine
 10
474.3288320567971
 20
333.6414316248685
 30
0.0
 11
474.3288320567971
 21
332.5914316248685
 31
0.0
  0
LINE
  5
494
330
1F
100
AcDbEntity
  8
0
  6
Continuous
 62
     7
370
    15
100
AcDbLine
 10
482.678832056797
 20
333.6414316248685
 30
0.0
 11
482.678832056797
 21
327.6114316248685
 31
0.0
  0
LINE
  5
495
330
1F
100
AcDbEntity
  8
0
  6
Continuous
 62
     7
370
    15
100
AcDbLine
 10
482.678832056797
 20
333.6414316248685
 30
0.0
 11
474.3288320567971
 21
333.6414316248685
 31
0.0
  0
LINE
  5
496
330
1F
100
AcDbEntity
  8
0
  6
Continuous
 62
     7
370
    15
100
AcDbLine
 10
463.3288320567969
 20
333.6414316248685
 30
0.0
 11
463.3288320567969
 21
332.5914316248685
 31
0.0
  0
LINE
  5
497
330
1F
100
AcDbEntity
  8
0
  6
Continuous
 62
     7
370
    15
100
AcDbLine
 10
463.3288320567969
 20
333.6414316248685
 30
0.0
 11
470.328832056797
 21
333.6414316248685
 31
0.0
  0
LINE
  5
498
330
1F
100
AcDbEntity
  8
0
  6
Continuous
 62
     7
370
    15
100
AcDbLine
 10
470.328832056797
 20
332.5914316248685
 30
0.0
 11
470.328832056797
 21
333.6414316248685
 31
0.0
  0
LINE
  5
499
330
1F
100
AcDbEntity
  8
0
  6
Continuous
 62
     7
370
    15
100
AcDbLine
 10
470.328832056797
 20
327.6114316248685
 30
0.0
 11
470.328832056797
 21
328.2814316248685
 31
0.0
  0
LINE
  5
49A
330
1F
100
AcDbEntity
  8
0
  6
Continuous
 62
     7
370
    15
100
AcDbLine
 10
470.328832056797
 20
327.6114316248685
 30
0.0
 11
463.3288320567969
 21
327.6114316248685
 31
0.0
  0
LINE
  5
49B
330
1F
100
AcDbEntity
  8
0
  6
Continuous
 62
     7
370
    15
100
AcDbLine
 10
463.3288320567969
 20
328.2814316248685
 30
0.0
 11
463.3288320567969
 21
327.6114316248685
 31
0.0
  0
LINE
  5
49C
330
1F
100
AcDbEntity
  8
0
  6
Continuous
 62
     7
370
    15
100
AcDbLine
 10
470.328832056797
 20
328.2814316248685
 30
0.0
 11
463.3288320567969
 21
328.2814316248685
 31
0.0
  0
LINE
  5
49D
330
1F
100
AcDbEntity
  8
0
  6
Continuous
 62
     7
370
    15
100
AcDbLine
 10
452.328832056797
 20
333.6414316248685
 30
0.0
 11
452.328832056797
 21
332.5914316248685
 31
0.0
  0
LINE
  5
49E
330
1F
100
AcDbEntity
  8
0
  6
Continuous
 62
     7
370
    15
100
AcDbLine
 10
452.328832056797
 20
333.6414316248685
 30
0.0
 11
459.328832056797
 21
333.6414316248685
 31
0.0
  0
LINE
  5
49F
330
1F
100
AcDbEntity
  8
0
  6
Continuous
 62
     7
370
    15
100
AcDbLine
 10
459.328832056797
 20
332.5914316248685
 30
0.0
 11
459.328832056797
 21
333.6414316248685
 31
0.0
  0
LINE
  5
4A0
330
1F
100
AcDbEntity
  8
0
  6
Continuous
 62
     7
370
    15
100
AcDbLine
 10
459.328832056797
 20
327.6114316248685
 30
0.0
 11
459.328832056797
 21
328.2814316248685
 31
0.0
  0
LINE
  5
4A1
330
1F
100
AcDbEntity
  8
0
  6
Continuous
 62
     7
370
    15
100
AcDbLine
 10
452.328832056797
 20
328.2814316248685
 30
0.0
 11
452.328832056797
 21
327.6114316248685
 31
0.0
  0
LINE
  5
4A2
330
1F
100
AcDbEntity
  8
0
  6
Continuous
 62
     7
370
    15
100
AcDbLine
 10
459.328832056797
 20
327.6114316248685
 30
0.0
 11
452.328832056797
 21
327.6114316248685
 31
0.0
  0
LINE
  5
4A3
330
1F
100
AcDbEntity
  8
0
  6
Continuous
 62
     7
370
    15
100
AcDbLine
 10
459.328832056797
 20
328.2814316248685
 30
0.0
 11
452.328832056797
 21
328.2814316248685
 31
0.0
  0
LINE
  5
4A4
330
1F
100
AcDbEntity
  8
0
  6
Continuous
 62
     7
370
    15
100
AcDbLine
 10
448.328832056797
 20
327.6114316248685
 30
0.0
 11
448.328832056797
 21
329.1314316248685
 31
0.0
  0
LINE
  5
4A5
330
1F
100
AcDbEntity
  8
0
  6
Continuous
 62
     7
370
    15
100
AcDbLine
 10
444.078832056797
 20
327.6114316248685
 30
0.0
 11
448.328832056797
 21
327.6114316248685
 31
0.0
  0
LINE
  5
4A6
330
1F
100
AcDbEntity
  8
0
  6
Continuous
 62
     7
370
    15
100
AcDbLine
 10
439.978832056797
 20
333.6414316248685
 30
0.0
 11
439.978832056797
 21
327.6114316248685
 31
0.0
  0
LINE
  5
4A7
330
1F
100
AcDbEntity
  8
0
  6
Continuous
 62
     7
370
    15
100
AcDbLine
 10
448.328832056797
 20
333.6414316248685
 30
0.0
 11
439.978832056797
 21
333.6414316248685
 31
0.0
  0
LINE
  5
4A8
330
1F
100
AcDbEntity
  8
0
  6
Continuous
 62
     7
370
    15
100
AcDbLine
 10
448.328832056797
 20
332.5914316248685
 30
0.0
 11
448.328832056797
 21
333.6414316248685
 31
0.0
  0
LINE
  5
4A9
330
1F
100
AcDbEntity
  8
0
  6
Continuous
 62
     7
370
    15
100
AcDbLine
 10
482.678832056797
 20
327.3614316248686
 30
0.0
 11
478.578832056797
 21
327.3614316248685
 31
0.0
  0
LINE
  5
4AA
330
1F
100
AcDbEntity
  8
0
  6
Continuous
 62
     7
370
    15
100
AcDbLine
 10
478.578832056797
 20
327.3614316248685
 30
0.0
 11
478.578832056797
 21
327.6114316248685
 31
0.0
  0
LINE
  5
4AB
330
1F
100
AcDbEntity
  8
0
  6
Continuous
 62
     7
370
    15
100
AcDbLine
 10
482.678832056797
 20
327.3614316248686
 30
0.0
 11
482.678832056797
 21
327.6114316248685
 31
0.0
  0
LINE
  5
4AC
330
1F
100
AcDbEntity
  8
0
  6
Continuous
 62
     7
370
    15
100
AcDbLine
 10
444.078832056797
 20
327.3614316248686
 30
0.0
 11
439.978832056797
 21
327.3614316248686
 31
0.0
  0
LINE
  5
4AD
330
1F
100
AcDbEntity
  8
0
  6
Continuous
 62
     7
370
    15
100
AcDbLine
 10
444.078832056797
 20
327.3614316248686
 30
0.0
 11
444.078832056797
 21
327.6114316248685
 31
0.0
  0
LINE
  5
4AE
330
1F
100
AcDbEntity
  8
0
  6
Continuous
 62
     7
370
    15
100
AcDbLine
 10
439.978832056797
 20
327.6114316248685
 30
0.0
 11
439.978832056797
 21
327.3614316248686
 31
0.0
  0
LINE
  5
4AF
330
1F
100
AcDbEntity
  8
0
  6
Continuous
 62
     7
370
    15
100
AcDbLine
 10
478.578832056797
 20
327.6114316248685
 30
0.0
 11
478.078832056797
 21
327.6114316248685
 31
0.0
  0
LINE
  5
4B0
330
1F
100
AcDbEntity
  8
0
  6
Continuous
 62
     7
370
    15
100
AcDbLine
 10
470.328832056797
 20
332.9614316248685
 30
0.0
 11
474.3288320567971
 21
332.9614316248684
 31
0.0
  0
LINE
  5
4B1
330
1F
100
AcDbEntity
  8
0
  6
Continuous
 62
     7
370
    15
100
AcDbLine
 10
463.3288320567969
 20
328.1114316248685
 30
0.0
 11
459.328832056797
 21
328.1114316248685
 31
0.0
  0
LINE
  5
4B2
330
1F
100
AcDbEntity
  8
0
  6
Continuous
 62
     7
370
    15
100
AcDbLine
 10
452.328832056797
 20
328.1114316248685
 30
0.0
 11
448.328832056797
 21
328.1114316248685
 31
0.0
  0
LINE
  5
4B3
330
1F
100
AcDbEntity
  8
0
  6
Continuous
 62
     7
370
    15
100
AcDbLine
 10
474.3288320567971
 20
328.1114316248685
 30
0.0
 11
470.328832056797
 21
328.1114316248685
 31
0.0
  0
LINE
  5
4B4
330
1F
100
AcDbEntity
  8
0
  6
Continuous
 62
     7
370
    15
100
AcDbLine
 10
459.328832056797
 20
332.9614316248685
 30
0.0
 11
463.3288320567969
 21
332.9614316248685
 31
0.0
  0
LINE
  5
4B5
330
1F
100
AcDbEntity
  8
0
  6
Continuous
 62
     7
370
    15
100
AcDbLine
 10
448.328832056797
 20
332.9614316248685
 30
0.0
 11
452.328832056797
 21
332.9614316248685
 31
0.0
  0
LINE
  5
4B6
330
1F
100
AcDbEntity
  8
0
  6
Continuous
 62
     7
370
    15
100
AcDbLine
 10
474.878832056797
 20
327.4614316248685
 30
0.0
 11
478.578832056797
 21
327.4614316248685
 31
0.0
  0
LINE
  5
4B7
330
1F
100
AcDbEntity
  8
0
  6
Continuous
 62
     7
370
    15
100
AcDbLine
 10
474.878832056797
 20
327.6114316248685
 30
0.0
 11
474.878832056797
 21
327.4614316248685
 31
0.0
  0
LINE
  5
4B8
330
1F
100
AcDbEntity
  8
0
  6
Continuous
 62
     7
370
    15
100
AcDbLine
 10
471.328832056797
 20
328.1114316248685
 30
0.0
 11
471.328832056797
 21
328.0614316248685
 31
0.0
  0
LINE
  5
4B9
330
1F
100
AcDbEntity
  8
0
  6
Continuous
 62
     7
370
    15
100
AcDbLine
 10
473.3288320567971
 20
328.0614316248685
 30
0.0
 11
473.3288320567971
 21
328.1114316248685
 31
0.0
  0
LINE
  5
4BA
330
1F
100
AcDbEntity
  8
0
  6
Continuous
 62
     7
370
    15
100
AcDbLine
 10
471.328832056797
 20
328.0614316248685
 30
0.0
 11
473.3288320567971
 21
328.0614316248685
 31
0.0
  0
LINE
  5
4BB
330
1F
100
AcDbEntity
  8
0
  6
Continuous
 62
     7
370
    15
100
AcDbLine
 10
460.328832056797
 20
328.0614316248685
 30
0.0
 11
462.328832056797
 21
328.0614316248685
 31
0.0
  0
LINE
  5
4BC
330
1F
100
AcDbEntity
  8
0
  6
Continuous
 62
     7
370
    15
100
AcDbLine
 10
460.328832056797
 20
328.1114316248685
 30
0.0
 11
460.328832056797
 21
328.0614316248685
 31
0.0
  0
LINE
  5
4BD
330
1F
100
AcDbEntity
  8
0
  6
Continuous
 62
     7
370
    15
100
AcDbLine
 10
462.328832056797
 20
328.0614316248685
 30
0.0
 11
462.328832056797
 21
328.1114316248685
 31
0.0
  0
LINE
  5
4BE
330
1F
100
AcDbEntity
  8
0
  6
Continuous
 62
     7
370
    15
100
AcDbLine
 10
449.328832056797
 20
328.1114316248685
 30
0.0
 11
449.328832056797
 21
328.0614316248685
 31
0.0
  0
LINE
  5
4BF
330
1F
100
AcDbEntity
  8
0
  6
Continuous
 62
     7
370
    15
100
AcDbLine
 10
451.328832056797
 20
328.0614316248685
 30
0.0
 11
451.328832056797
 21
328.1114316248685
 31
0.0
  0
LINE
  5
4C0
330
1F
100
AcDbEntity
  8
0
  6
Continuous
 62
     7
370
    15
100
AcDbLine
 10
449.328832056797
 20
328.0614316248685
 30
0.0
 11
451.328832056797
 21
328.0614316248685
 31
0.0
  0
LINE
  5
4C1
330
1F
100
AcDbEntity
  8
0
  6
Continuous
 62
     7
370
    15
100
AcDbLine
 10
444.078832056797
 20
327.4614316248685
 30
0.0
 11
447.7788320567969
 21
327.4614316248685
 31
0.0
  0
LINE
  5
4C2
330
1F
100
AcDbEntity
  8
0
  6
Continuous
 62
     7
370
    15
100
AcDbLine
 10
447.7788320567969
 20
327.6114316248685
 30
0.0
 11
447.7788320567969
 21
327.4614316248685
 31
0.0
  0
LINE
  5
4C3
330
1F
100
AcDbEntity
  8
0
  6
Continuous
 62
     7
370
    15
100
AcDbLine
 10
471.328832056797
 20
333.0114316248685
 30
0.0
 11
471.328832056797
 21
332.9614316248685
 31
0.0
  0
LINE
  5
4C4
330
1F
100
AcDbEntity
  8
0
  6
Continuous
 62
     7
370
    15
100
AcDbLine
 10
473.3288320567971
 20
332.9614316248684
 30
0.0
 11
473.3288320567971
 21
333.0114316248685
 31
0.0
  0
LINE
  5
4C5
330
1F
100
AcDbEntity
  8
0
  6
Continuous
 62
     7
370
    15
100
AcDbLine
 10
473.3288320567971
 20
333.0114316248685
 30
0.0
 11
471.328832056797
 21
333.0114316248685
 31
0.0
  0
LINE
  5
4C6
330
1F
100
AcDbEntity
  8
0
  6
Continuous
 62
     7
370
    15
100
AcDbLine
 10
460.328832056797
 20
333.0114316248685
 30
0.0
 11
460.328832056797
 21
332.9614316248685
 31
0.0
  0
LINE
  5
4C7
330
1F
100
AcDbEntity
  8
0
  6
Continuous
 62
     7
370
    15
100
AcDbLine
 10
462.328832056797
 20
332.9614316248685
 30
0.0
 11
462.328832056797
 21
333.0114316248685
 31
0.0
  0
LINE
  5
4C8
330
1F
100
AcDbEntity
  8
0
  6
Continuous
 62
     7
370
    15
100
AcDbLine
 10
462.328832056797
 20
333.0114316248685
 30
0.0
 11
460.328832056797
 21
333.0114316248685
 31
0.0
  0
LINE
  5
4C9
330
1F
100
AcDbEntity
  8
0
  6
Continuous
 62
     7
370
    15
100
AcDbLine
 10
449.328832056797
 20
333.0114316248685
 30
0.0
 11
449.328832056797
 21
332.9614316248685
 31
0.0
  0
LINE
  5
4CA
330
1F
100
AcDbEntity
  8
0
  6
Continuous
 62
     7
370
    15
100
AcDbLine
 10
451.328832056797
 20
332.9614316248685
 30
0.0
 11
451.328832056797
 21
333.0114316248685
 31
0.0
  0
LINE
  5
4CB
330
1F
100
AcDbEntity
  8
0
  6
Continuous
 62
     7
370
    15
100
AcDbLine
 10
451.328832056797
 20
333.0114316248685
 30
0.0
 11
449.328832056797
 21
333.0114316248685
 31
0.0
  0
LINE
  5
4CC
330
1F
100
AcDbEntity
  8
0
  6
Continuous
 62
     7
370
    15
100
AcDbLine
 10
473.3288320567971
 20
333.0955091943762
 30
0.0
 11
471.328832056797
 21
333.0955091943762
 31
0.0
  0
LINE
  5
4CD
330
1F
100
AcDbEntity
  8
0
  6
Continuous
 62
     7
370
    15
100
AcDbLine
 10
471.328832056797
 20
333.0955091943762
 30
0.0
 11
471.328832056797
 21
333.0114316248685
 31
0.0
  0
LINE
  5
4CE
330
1F
100
AcDbEntity
  8
0
  6
Continuous
 62
     7
370
    15
100
AcDbLine
 10
473.3288320567971
 20
333.0114316248685
 30
0.0
 11
473.3288320567971
 21
333.0955091943762
 31
0.0
  0
LINE
  5
4CF
330
1F
100
AcDbEntity
  8
0
  6
Continuous
 62
     7
370
    15
100
AcDbLine
 10
462.328832056797
 20
333.0955091943762
 30
0.0
 11
460.328832056797
 21
333.0955091943762
 31
0.0
  0
LINE
  5
4D0
330
1F
100
AcDbEntity
  8
0
  6
Continuous
 62
     7
370
    15
100
AcDbLine
 10
460.328832056797
 20
333.0955091943762
 30
0.0
 11
460.328832056797
 21
333.0114316248685
 31
0.0
  0
LINE
  5
4D1
330
1F
100
AcDbEntity
  8
0
  6
Continuous
 62
     7
370
    15
100
AcDbLine
 10
462.328832056797
 20
333.0114316248685
 30
0.0
 11
462.328832056797
 21
333.0955091943762
 31
0.0
  0
LINE
  5
4D2
330
1F
100
AcDbEntity
  8
0
  6
Continuous
 62
     7
370
    15
100
AcDbLine
 10
451.328832056797
 20
333.0955091943762
 30
0.0
 11
449.328832056797
 21
333.0955091943762
 31
0.0
  0
LINE
  5
4D3
330
1F
100
AcDbEntity
  8
0
  6
Continuous
 62
     7
370
    15
100
AcDbLine
 10
449.328832056797
 20
333.0955091943762
 30
0.0
 11
449.328832056797
 21
333.0114316248685
 31
0.0
  0
LINE
  5
4D4
330
1F
100
AcDbEntity
  8
0
  6
Continuous
 62
     7
370
    15
100
AcDbLine
 10
451.328832056797
 20
333.0114316248685
 30
0.0
 11
451.328832056797
 21
333.0955091943762
 31
0.0
  0
LINE
  5
4D5
330
1F
100
AcDbEntity
  8
0
  6
Continuous
 62
     7
370
    15
100
AcDbLine
 10
471.328832056797
 20
333.1581228401328
 30
0.0
 11
471.328832056797
 21
333.0955091943762
 31
0.0
  0
LINE
  5
4D6
330
1F
100
AcDbEntity
  8
0
  6
Continuous
 62
     7
370
    15
100
AcDbLine
 10
473.3288320567971
 20
333.0955091943762
 30
0.0
 11
473.3288320567971
 21
333.1581228401328
 31
0.0
  0
LINE
  5
4D7
330
1F
100
AcDbEntity
  8
0
  6
Continuous
 62
     7
370
    15
100
AcDbLine
 10
460.328832056797
 20
333.1581228401328
 30
0.0
 11
460.328832056797
 21
333.0955091943762
 31
0.0
  0
LINE
  5
4D8
330
1F
100
AcDbEntity
  8
0
  6
Continuous
 62
     7
370
    15
100
AcDbLine
 10
462.328832056797
 20
333.0955091943762
 30
0.0
 11
462.328832056797
 21
333.1581228401328
 31
0.0
  0
LINE
  5
4D9
330
1F
100
AcDbEntity
  8
0
  6
Continuous
 62
     7
370
    15
100
AcDbLine
 10
449.328832056797
 20
333.1581228401328
 30
0.0
 11
449.328832056797
 21
333.0955091943762
 31
0.0
  0
LINE
  5
4DA
330
1F
100
AcDbEntity
  8
0
  6
Continuous
 62
     7
370
    15
100
AcDbLine
 10
451.328832056797
 20
333.0955091943762
 30
0.0
 11
451.328832056797
 21
333.1581228401328
 31
0.0
  0
LINE
  5
4DB
330
1F
100
AcDbEntity
  8
0
  6
Continuous
 62
     7
370
    15
100
AcDbLine
 10
471.328832056797
 20
328.0614316248685
 30
0.0
 11
471.328832056797
 21
328.0147404096044
 31
0.0
  0
LINE
  5
4DC
330
1F
100
AcDbEntity
  8
0
  6
Continuous
 62
     7
370
    15
100
AcDbLine
 10
473.3288320567971
 20
328.0147404096044
 30
0.0
 11
473.3288320567971
 21
328.0614316248685
 31
0.0
  0
LINE
  5
4DD
330
1F
100
AcDbEntity
  8
0
  6
Continuous
 62
     7
370
    15
100
AcDbLine
 10
460.328832056797
 20
328.0614316248685
 30
0.0
 11
460.328832056797
 21
328.0147404096044
 31
0.0
  0
LINE
  5
4DE
330
1F
100
AcDbEntity
  8
0
  6
Continuous
 62
     7
370
    15
100
AcDbLine
 10
462.328832056797
 20
328.0147404096044
 30
0.0
 11
462.328832056797
 21
328.0614316248685
 31
0.0
  0
LINE
  5
4DF
330
1F
100
AcDbEntity
  8
0
  6
Continuous
 62
     7
370
    15
100
AcDbLine
 10
449.328832056797
 20
328.0614316248685
 30
0.0
 11
449.328832056797
 21
328.0147404096044
 31
0.0
  0
LINE
  5
4E0
330
1F
100
AcDbEntity
  8
0
  6
Continuous
 62
     7
370
    15
100
AcDbLine
 10
451.328832056797
 20
328.0147404096044
 30
0.0
 11
451.328832056797
 21
328.0614316248685
 31
0.0
  0
LINE
  5
4E1
330
1F
100
AcDbEntity
  8
0
  6
Continuous
 62
     7
370
    15
100
AcDbLine
 10
478.578832056797
 20
327.3714316248685
 30
0.0
 11
477.778832056797
 21
327.3714316248685
 31
0.0
  0
LINE
  5
4E2
330
1F
100
AcDbEntity
  8
0
  6
Continuous
 62
     7
370
    15
100
AcDbLine
 10
477.778832056797
 20
327.3714316248685
 30
0.0
 11
477.778832056797
 21
327.4614316248685
 31
0.0
  0
LINE
  5
4E3
330
1F
100
AcDbEntity
  8
0
  6
Continuous
 62
     7
370
    15
100
AcDbLine
 10
444.878832056797
 20
327.3714316248685
 30
0.0
 11
444.078832056797
 21
327.3714316248685
 31
0.0
  0
LINE
  5
4E4
330
1F
100
AcDbEntity
  8
0
  6
Continuous
 62
     7
370
    15
100
AcDbLine
 10
444.878832056797
 20
327.4614316248685
 30
0.0
 11
444.878832056797
 21
327.3714316248685
 31
0.0
  0
LINE
  5
4E5
330
1F
100
AcDbEntity
  8
0
  6
Continuous
 62
     7
370
    15
100
AcDbLine
 10
447.328832056797
 20
327.3614316248686
 30
0.0
 11
447.328832056797
 21
327.4614316248685
 31
0.0
  0
LINE
  5
4E6
330
1F
100
AcDbEntity
  8
0
  6
Continuous
 62
     7
370
    15
100
AcDbLine
 10
475.328832056797
 20
327.4614316248685
 30
0.0
 11
475.328832056797
 21
327.3614316248686
 31
0.0
  0
LINE
  5
4E7
330
1F
100
AcDbEntity
  8
0
  6
Continuous
 62
     7
370
    15
100
AcDbLine
 10
462.328832056797
 20
327.6114316248685
 30
0.0
 11
462.328832056797
 21
327.3614316248686
 31
0.0
  0
LINE
  5
4E8
330
1F
100
AcDbEntity
  8
0
  6
Continuous
 62
     7
370
    15
100
AcDbLine
 10
460.328832056797
 20
327.6114316248685
 30
0.0
 11
462.328832056797
 21
327.6114316248685
 31
0.0
  0
LINE
  5
4E9
330
1F
100
AcDbEntity
  8
0
  6
Continuous
 62
     7
370
    15
100
AcDbLine
 10
460.328832056797
 20
327.3614316248686
 30
0.0
 11
460.328832056797
 21
327.6114316248685
 31
0.0
  0
LINE
  5
4EA
330
1F
100
AcDbEntity
  8
0
  6
Continuous
 62
     7
370
    15
100
AcDbLine
 10
478.4038320567971
 20
327.3614316248685
 30
0.0
 11
478.4038320567971
 21
327.3714316248685
 31
0.0
  0
LINE
  5
4EB
330
1F
100
AcDbEntity
  8
0
  6
Continuous
 62
     7
370
    15
100
AcDbLine
 10
444.253832056797
 20
327.3614316248686
 30
0.0
 11
444.253832056797
 21
327.3714316248685
 31
0.0
  0
LINE
  5
4EC
330
1F
100
AcDbEntity
  8
0
  6
Continuous
 62
     7
370
    15
100
AcDbLine
 10
447.128832056797
 20
327.3714316248685
 30
0.0
 11
446.3288320567969
 21
327.3714316248685
 31
0.0
  0
LINE
  5
4ED
330
1F
100
AcDbEntity
  8
0
  6
Continuous
 62
     7
370
    15
100
AcDbLine
 10
446.3288320567969
 20
327.3714316248685
 30
0.0
 11
446.3288320567969
 21
327.4614316248685
 31
0.0
  0
LINE
  5
4EE
330
1F
100
AcDbEntity
  8
0
  6
Continuous
 62
     7
370
    15
100
AcDbLine
 10
447.128832056797
 20
327.4614316248685
 30
0.0
 11
447.128832056797
 21
327.3714316248685
 31
0.0
  0
LINE
  5
4EF
330
1F
100
AcDbEntity
  8
0
  6
Continuous
 62
     7
370
    15
100
AcDbLine
 10
475.5288320567969
 20
327.3714316248685
 30
0.0
 11
475.5288320567969
 21
327.4614316248685
 31
0.0
  0
LINE
  5
4F0
330
1F
100
AcDbEntity
  8
0
  6
Continuous
 62
     7
370
    15
100
AcDbLine
 10
476.328832056797
 20
327.4614316248685
 30
0.0
 11
476.328832056797
 21
327.3714316248685
 31
0.0
  0
LINE
  5
4F1
330
1F
100
AcDbEntity
  8
0
  6
Continuous
 62
     7
370
    15
100
AcDbLine
 10
476.328832056797
 20
327.3714316248685
 30
0.0
 11
475.5288320567969
 21
327.3714316248685
 31
0.0
  0
LINE
  5
4F2
330
1F
100
AcDbEntity
  8
0
  6
Continuous
 62
     7
370
    15
100
AcDbLine
 10
477.503832056797
 20
327.3614316248685
 30
0.0
 11
477.503832056797
 21
327.4614316248685
 31
0.0
  0
LINE
  5
4F3
330
1F
100
AcDbEntity
  8
0
  6
Continuous
 62
     7
370
    15
100
AcDbLine
 10
445.153832056797
 20
327.3614316248685
 30
0.0
 11
445.153832056797
 21
327.4614316248685
 31
0.0
  0
LINE
  5
4F4
330
1F
100
AcDbEntity
  8
0
  6
Continuous
 62
     7
370
    15
100
AcDbLine
 10
415.971332056797
 20
297.9181224439585
 30
0.0
 11
415.971332056797
 21
269.6297408057784
 31
0.0
  0
LINE
  5
4F5
330
1F
100
AcDbEntity
  8
0
  6
Continuous
 62
     7
370
    15
100
AcDbLine
 10
413.566332056797
 20
298.0739316248685
 30
0.0
 11
414.916332056797
 21
298.0739316248685
 31
0.0
  0
LINE
  5
4F6
330
1F
100
AcDbEntity
  8
0
  6
Continuous
 62
     7
370
    15
100
AcDbLine
 10
413.5663320567969
 20
269.4739316248684
 30
0.0
 11
413.566332056797
 21
298.0739316248685
 31
0.0
  0
LINE
  5
4F7
330
1F
100
AcDbEntity
  8
0
  6
Continuous
 62
     7
370
    15
100
AcDbLine
 10
414.916332056797
 20
269.4739316248684
 30
0.0
 11
413.5663320567969
 21
269.4739316248684
 31
0.0
  0
LINE
  5
4F8
330
1F
100
AcDbEntity
  8
0
  6
Continuous
 62
     7
370
    15
100
AcDbLine
 10
414.916332056797
 20
298.0739316248685
 30
0.0
 11
414.916332056797
 21
269.4739316248684
 31
0.0
  0
LINE
  5
4F9
330
1F
100
AcDbEntity
  8
0
  6
Continuous
 62
     7
370
    15
100
AcDbLine
 10
415.3939503185394
 20
268.7234330187354
 30
0.0
 11
413.9339503185381
 21
268.0426238378284
 31
0.0
  0
LINE
  5
4FA
330
1F
100
AcDbEntity
  8
0
  6
Continuous
 62
     7
370
    15
100
AcDbLine
 10
413.9339503185444
 20
299.5052394119016
 30
0.0
 11
415.393950318538
 21
298.8244302309985
 31
0.0
  0
LINE
  5
4FB
330
1F
100
AcDbEntity
  8
0
  6
Continuous
 62
     7
370
    15
100
AcDbLine
 10
412.511332056797
 20
268.9489316248685
 30
0.0
 11
412.511332056797
 21
298.5989316248584
 31
0.0
  0
ARC
  5
4FC
330
1F
100
AcDbEntity
  8
0
  6
Continuous
 62
     7
370
    15
100
AcDbCircle
 10
414.971332056797
 20
297.9181224439585
 30
0.0
 40
1.0
100
AcDbArc
 50
0.0
 51
65.00000000006775
  0
ARC
  5
4FD
330
1F
100
AcDbEntity
  8
0
  6
Continuous
 62
     7
370
    15
100
AcDbCircle
 10
414.971332056797
 20
269.6297408057784
 30
0.0
 40
1.0
100
AcDbArc
 50
294.9999999998296
 51
0.0
  0
ARC
  5
4FE
330
1F
100
AcDbEntity
  8
0
  6
Continuous
 62
     7
370
    15
100
AcDbCircle
 10
413.5113320567969
 20
268.9489316248685
 30
0.0
 40
1.0
100
AcDbArc
 50
179.9999999994268
 51
294.999999999936
  0
ARC
  5
4FF
330
1F
100
AcDbEntity
  8
0
  6
Continuous
 62
     7
370
    15
100
AcDbCircle
 10
413.5113320567969
 20
298.5989316248685
 30
0.0
 40
1.000000000000007
100
AcDbArc
 50
64.99999999956208
 51
180.000000000574
  0
LINE
  5
500
330
1F
100
AcDbEntity
  8
0
  6
Continuous
 62
     7
370
    15
100
AcDbLine
 10
414.5413320567969
 20
266.6480255898268
 30
0.0
 11
414.5413320567969
 21
263.1998376599101
 31
0.0
  0
ARC
  5
501
330
1F
100
AcDbEntity
  8
0
  6
Continuous
 62
     7
370
    15
100
AcDbCircle
 10
414.241332056797
 20
264.9239316248685
 30
0.0
 40
1.750000000001643
100
AcDbArc
 50
279.8708896061295
 51
80.12911039387132
  0
LINE
  5
502
330
1F
100
AcDbEntity
  8
0
  6
Continuous
 62
     7
370
    15
100
AcDbLine
 10
414.5413320567969
 20
304.3480255898268
 30
0.0
 11
414.5413320567969
 21
300.8998376599101
 31
0.0
  0
ARC
  5
503
330
1F
100
AcDbEntity
  8
0
  6
Continuous
 62
     7
370
    15
100
AcDbCircle
 10
414.241332056797
 20
302.6239316248684
 30
0.0
 40
1.750000000001643
100
AcDbArc
 50
279.8708896061298
 51
80.12911039387132
  0
LINE
  5
504
330
1F
100
AcDbEntity
  8
0
  6
Continuous
 62
     7
370
    15
100
AcDbLine
 10
413.941332056797
 20
263.1998376599101
 30
0.0
 11
413.941332056797
 21
266.6480255898268
 31
0.0
  0
ARC
  5
505
330
1F
100
AcDbEntity
  8
0
  6
Continuous
 62
     7
370
    15
100
AcDbCircle
 10
414.241332056797
 20
264.9239316248685
 30
0.0
 40
1.750000000001652
100
AcDbArc
 50
99.8708896061305
 51
260.1291103938703
  0
LINE
  5
506
330
1F
100
AcDbEntity
  8
0
  6
Continuous
 62
     7
370
    15
100
AcDbLine
 10
413.941332056797
 20
300.8998376599101
 30
0.0
 11
413.941332056797
 21
304.3480255898268
 31
0.0
  0
ARC
  5
507
330
1F
100
AcDbEntity
  8
0
  6
Continuous
 62
     7
370
    15
100
AcDbCircle
 10
414.241332056797
 20
302.6239316248684
 30
0.0
 40
1.750000000001652
100
AcDbArc
 50
99.8708896061305
 51
260.12911039387
  0
LINE
  5
508
330
1F
100
AcDbEntity
  8
0
  6
Continuous
 62
     7
370
    15
100
AcDbLine
 10
414.641332056797
 20
278.8989316248684
 30
0.0
 11
414.916332056797
 21
278.8989316248684
 31
0.0
  0
LINE
  5
509
330
1F
100
AcDbEntity
  8
0
  6
Continuous
 62
     7
370
    15
100
AcDbLine
 10
414.641332056797
 20
278.6489316248685
 30
0.0
 11
414.916332056797
 21
278.6489316248685
 31
0.0
  0
LINE
  5
50A
330
1F
100
AcDbEntity
  8
0
  6
Continuous
 62
     7
370
    15
100
AcDbLine
 10
414.641332056797
 20
285.2989316248685
 30
0.0
 11
414.916332056797
 21
285.2989316248685
 31
0.0
  0
LINE
  5
50B
330
1F
100
AcDbEntity
  8
0
  6
Continuous
 62
     7
370
    15
100
AcDbLine
 10
414.641332056797
 20
285.0489316248684
 30
0.0
 11
414.916332056797
 21
285.0489316248684
 31
0.0
  0
LINE
  5
50C
330
1F
100
AcDbEntity
  8
0
  6
Continuous
 62
     7
370
    15
100
AcDbLine
 10
414.641332056797
 20
279.6989316248684
 30
0.0
 11
414.916332056797
 21
279.6989316248684
 31
0.0
  0
LINE
  5
50D
330
1F
100
AcDbEntity
  8
0
  6
Continuous
 62
     7
370
    15
100
AcDbLine
 10
414.641332056797
 20
279.4489316248685
 30
0.0
 11
414.916332056797
 21
279.4489316248685
 31
0.0
  0
LINE
  5
50E
330
1F
100
AcDbEntity
  8
0
  6
Continuous
 62
     7
370
    15
100
AcDbLine
 10
414.6413320567971
 20
291.6989316248684
 30
0.0
 11
414.916332056797
 21
291.6989316248684
 31
0.0
  0
LINE
  5
50F
330
1F
100
AcDbEntity
  8
0
  6
Continuous
 62
     7
370
    15
100
AcDbLine
 10
414.6413320567971
 20
291.4489316248685
 30
0.0
 11
414.916332056797
 21
291.4489316248685
 31
0.0
  0
LINE
  5
510
330
1F
100
AcDbEntity
  8
0
  6
Continuous
 62
     7
370
    15
100
AcDbLine
 10
414.641332056797
 20
285.8489316248684
 30
0.0
 11
414.916332056797
 21
285.8489316248684
 31
0.0
  0
LINE
  5
511
330
1F
100
AcDbEntity
  8
0
  6
Continuous
 62
     7
370
    15
100
AcDbLine
 10
414.641332056797
 20
286.0989316248685
 30
0.0
 11
414.916332056797
 21
286.0989316248685
 31
0.0
  0
LINE
  5
512
330
1F
100
AcDbEntity
  8
0
  6
Continuous
 62
     7
370
    15
100
AcDbLine
 10
414.6413320567971
 20
292.4989316248685
 30
0.0
 11
414.916332056797
 21
292.4989316248685
 31
0.0
  0
LINE
  5
513
330
1F
100
AcDbEntity
  8
0
  6
Continuous
 62
     7
370
    15
100
AcDbLine
 10
414.6413320567971
 20
292.2489316248685
 30
0.0
 11
414.916332056797
 21
292.2489316248684
 31
0.0
  0
LINE
  5
514
330
1F
100
AcDbEntity
  8
0
  6
Continuous
 62
     7
370
    15
100
AcDbLine
 10
414.641332056797
 20
277.0489316248684
 30
0.0
 11
414.916332056797
 21
277.0489316248684
 31
0.0
  0
LINE
  5
515
330
1F
100
AcDbEntity
  8
0
  6
Continuous
 62
     7
370
    15
100
AcDbLine
 10
414.641332056797
 20
277.2989316248685
 30
0.0
 11
414.916332056797
 21
277.2989316248685
 31
0.0
  0
LINE
  5
516
330
1F
100
AcDbEntity
  8
0
  6
Continuous
 62
     7
370
    15
100
AcDbLine
 10
414.641332056797
 20
282.8989316248684
 30
0.0
 11
414.916332056797
 21
282.8989316248684
 31
0.0
  0
LINE
  5
517
330
1F
100
AcDbEntity
  8
0
  6
Continuous
 62
     7
370
    15
100
AcDbLine
 10
414.641332056797
 20
282.6489316248685
 30
0.0
 11
414.916332056797
 21
282.6489316248685
 31
0.0
  0
LINE
  5
518
330
1F
100
AcDbEntity
  8
0
  6
Continuous
 62
     7
370
    15
100
AcDbLine
 10
414.641332056797
 20
276.2489316248685
 30
0.0
 11
414.916332056797
 21
276.2489316248685
 31
0.0
  0
LINE
  5
519
330
1F
100
AcDbEntity
  8
0
  6
Continuous
 62
     7
370
    15
100
AcDbLine
 10
414.641332056797
 20
276.4989316248684
 30
0.0
 11
414.916332056797
 21
276.4989316248684
 31
0.0
  0
LINE
  5
51A
330
1F
100
AcDbEntity
  8
0
  6
Continuous
 62
     7
370
    15
100
AcDbLine
 10
414.641332056797
 20
274.8989316248684
 30
0.0
 11
414.916332056797
 21
274.8989316248684
 31
0.0
  0
LINE
  5
51B
330
1F
100
AcDbEntity
  8
0
  6
Continuous
 62
     7
370
    15
100
AcDbLine
 10
414.641332056797
 20
274.6489316248684
 30
0.0
 11
414.916332056797
 21
274.6489316248684
 31
0.0
  0
LINE
  5
51C
330
1F
100
AcDbEntity
  8
0
  6
Continuous
 62
     7
370
    15
100
AcDbLine
 10
414.641332056797
 20
289.2989316248685
 30
0.0
 11
414.916332056797
 21
289.2989316248685
 31
0.0
  0
LINE
  5
51D
330
1F
100
AcDbEntity
  8
0
  6
Continuous
 62
     7
370
    15
100
AcDbLine
 10
414.641332056797
 20
289.0489316248684
 30
0.0
 11
414.916332056797
 21
289.0489316248684
 31
0.0
  0
LINE
  5
51E
330
1F
100
AcDbEntity
  8
0
  6
Continuous
 62
     7
370
    15
100
AcDbLine
 10
414.641332056797
 20
286.8989316248685
 30
0.0
 11
414.916332056797
 21
286.8989316248685
 31
0.0
  0
LINE
  5
51F
330
1F
100
AcDbEntity
  8
0
  6
Continuous
 62
     7
370
    15
100
AcDbLine
 10
414.641332056797
 20
286.6489316248685
 30
0.0
 11
414.916332056797
 21
286.6489316248685
 31
0.0
  0
LINE
  5
520
330
1F
100
AcDbEntity
  8
0
  6
Continuous
 62
     7
370
    15
100
AcDbLine
 10
414.641332056797
 20
277.8489316248685
 30
0.0
 11
414.916332056797
 21
277.8489316248685
 31
0.0
  0
LINE
  5
521
330
1F
100
AcDbEntity
  8
0
  6
Continuous
 62
     7
370
    15
100
AcDbLine
 10
414.641332056797
 20
278.0989316248685
 30
0.0
 11
414.916332056797
 21
278.0989316248685
 31
0.0
  0
LINE
  5
522
330
1F
100
AcDbEntity
  8
0
  6
Continuous
 62
     7
370
    15
100
AcDbLine
 10
414.641332056797
 20
283.4489316248685
 30
0.0
 11
414.916332056797
 21
283.4489316248685
 31
0.0
  0
LINE
  5
523
330
1F
100
AcDbEntity
  8
0
  6
Continuous
 62
     7
370
    15
100
AcDbLine
 10
414.641332056797
 20
283.6989316248685
 30
0.0
 11
414.916332056797
 21
283.6989316248685
 31
0.0
  0
LINE
  5
524
330
1F
100
AcDbEntity
  8
0
  6
Continuous
 62
     7
370
    15
100
AcDbLine
 10
414.641332056797
 20
284.4989316248684
 30
0.0
 11
414.916332056797
 21
284.4989316248684
 31
0.0
  0
LINE
  5
525
330
1F
100
AcDbEntity
  8
0
  6
Continuous
 62
     7
370
    15
100
AcDbLine
 10
414.641332056797
 20
284.2489316248684
 30
0.0
 11
414.916332056797
 21
284.2489316248684
 31
0.0
  0
LINE
  5
526
330
1F
100
AcDbEntity
  8
0
  6
Continuous
 62
     7
370
    15
100
AcDbLine
 10
414.641332056797
 20
280.2489316248685
 30
0.0
 11
414.916332056797
 21
280.2489316248685
 31
0.0
  0
LINE
  5
527
330
1F
100
AcDbEntity
  8
0
  6
Continuous
 62
     7
370
    15
100
AcDbLine
 10
414.641332056797
 20
280.4989316248684
 30
0.0
 11
414.916332056797
 21
280.4989316248684
 31
0.0
  0
LINE
  5
528
330
1F
100
AcDbEntity
  8
0
  6
Continuous
 62
     7
370
    15
100
AcDbLine
 10
414.641332056797
 20
290.0989316248685
 30
0.0
 11
414.916332056797
 21
290.0989316248685
 31
0.0
  0
LINE
  5
529
330
1F
100
AcDbEntity
  8
0
  6
Continuous
 62
     7
370
    15
100
AcDbLine
 10
414.641332056797
 20
289.8489316248685
 30
0.0
 11
414.916332056797
 21
289.8489316248685
 31
0.0
  0
LINE
  5
52A
330
1F
100
AcDbEntity
  8
0
  6
Continuous
 62
     7
370
    15
100
AcDbLine
 10
414.641332056797
 20
271.6989316248685
 30
0.0
 11
414.916332056797
 21
271.6989316248685
 31
0.0
  0
LINE
  5
52B
330
1F
100
AcDbEntity
  8
0
  6
Continuous
 62
     7
370
    15
100
AcDbLine
 10
414.641332056797
 20
271.4489316248684
 30
0.0
 11
414.916332056797
 21
271.4489316248684
 31
0.0
  0
LINE
  5
52C
330
1F
100
AcDbEntity
  8
0
  6
Continuous
 62
     7
370
    15
100
AcDbLine
 10
414.641332056797
 20
270.8989316248684
 30
0.0
 11
414.916332056797
 21
270.8989316248684
 31
0.0
  0
LINE
  5
52D
330
1F
100
AcDbEntity
  8
0
  6
Continuous
 62
     7
370
    15
100
AcDbLine
 10
414.641332056797
 20
270.6489316248684
 30
0.0
 11
414.916332056797
 21
270.6489316248684
 31
0.0
  0
LINE
  5
52E
330
1F
100
AcDbEntity
  8
0
  6
Continuous
 62
     7
370
    15
100
AcDbLine
 10
414.6413320567971
 20
290.8989316248685
 30
0.0
 11
414.916332056797
 21
290.8989316248685
 31
0.0
  0
LINE
  5
52F
330
1F
100
AcDbEntity
  8
0
  6
Continuous
 62
     7
370
    15
100
AcDbLine
 10
414.6413320567971
 20
290.6489316248685
 30
0.0
 11
414.916332056797
 21
290.6489316248685
 31
0.0
  0
LINE
  5
530
330
1F
100
AcDbEntity
  8
0
  6
Continuous
 62
     7
370
    15
100
AcDbLine
 10
414.641332056797
 20
272.4989316248685
 30
0.0
 11
414.916332056797
 21
272.4989316248684
 31
0.0
  0
LINE
  5
531
330
1F
100
AcDbEntity
  8
0
  6
Continuous
 62
     7
370
    15
100
AcDbLine
 10
414.641332056797
 20
272.2489316248685
 30
0.0
 11
414.916332056797
 21
272.2489316248685
 31
0.0
  0
LINE
  5
532
330
1F
100
AcDbEntity
  8
0
  6
Continuous
 62
     7
370
    15
100
AcDbLine
 10
414.641332056797
 20
281.0489316248684
 30
0.0
 11
414.916332056797
 21
281.0489316248684
 31
0.0
  0
LINE
  5
533
330
1F
100
AcDbEntity
  8
0
  6
Continuous
 62
     7
370
    15
100
AcDbLine
 10
414.641332056797
 20
281.2989316248685
 30
0.0
 11
414.916332056797
 21
281.2989316248685
 31
0.0
  0
LINE
  5
534
330
1F
100
AcDbEntity
  8
0
  6
Continuous
 62
     7
370
    15
100
AcDbLine
 10
414.641332056797
 20
288.4989316248685
 30
0.0
 11
414.916332056797
 21
288.4989316248685
 31
0.0
  0
LINE
  5
535
330
1F
100
AcDbEntity
  8
0
  6
Continuous
 62
     7
370
    15
100
AcDbLine
 10
414.641332056797
 20
288.2489316248685
 30
0.0
 11
414.916332056797
 21
288.2489316248685
 31
0.0
  0
LINE
  5
536
330
1F
100
AcDbEntity
  8
0
  6
Continuous
 62
     7
370
    15
100
AcDbLine
 10
414.641332056797
 20
274.0989316248685
 30
0.0
 11
414.916332056797
 21
274.0989316248685
 31
0.0
  0
LINE
  5
537
330
1F
100
AcDbEntity
  8
0
  6
Continuous
 62
     7
370
    15
100
AcDbLine
 10
414.641332056797
 20
273.8489316248684
 30
0.0
 11
414.916332056797
 21
273.8489316248684
 31
0.0
  0
LINE
  5
538
330
1F
100
AcDbEntity
  8
0
  6
Continuous
 62
     7
370
    15
100
AcDbLine
 10
414.6413320567971
 20
293.0489316248684
 30
0.0
 11
414.916332056797
 21
293.0489316248684
 31
0.0
  0
LINE
  5
539
330
1F
100
AcDbEntity
  8
0
  6
Continuous
 62
     7
370
    15
100
AcDbLine
 10
414.6413320567971
 20
293.2989316248685
 30
0.0
 11
414.916332056797
 21
293.2989316248685
 31
0.0
  0
LINE
  5
53A
330
1F
100
AcDbEntity
  8
0
  6
Continuous
 62
     7
370
    15
100
AcDbLine
 10
414.6413320567971
 20
296.2489316248684
 30
0.0
 11
414.916332056797
 21
296.2489316248684
 31
0.0
  0
LINE
  5
53B
330
1F
100
AcDbEntity
  8
0
  6
Continuous
 62
     7
370
    15
100
AcDbLine
 10
414.6413320567971
 20
296.4989316248685
 30
0.0
 11
414.916332056797
 21
296.4989316248685
 31
0.0
  0
LINE
  5
53C
330
1F
100
AcDbEntity
  8
0
  6
Continuous
 62
     7
370
    15
100
AcDbLine
 10
414.641332056797
 20
273.0489316248685
 30
0.0
 11
414.916332056797
 21
273.0489316248684
 31
0.0
  0
LINE
  5
53D
330
1F
100
AcDbEntity
  8
0
  6
Continuous
 62
     7
370
    15
100
AcDbLine
 10
414.641332056797
 20
273.2989316248684
 30
0.0
 11
414.916332056797
 21
273.2989316248684
 31
0.0
  0
LINE
  5
53E
330
1F
100
AcDbEntity
  8
0
  6
Continuous
 62
     7
370
    15
100
AcDbLine
 10
414.6413320567971
 20
295.6989316248684
 30
0.0
 11
414.916332056797
 21
295.6989316248684
 31
0.0
  0
LINE
  5
53F
330
1F
100
AcDbEntity
  8
0
  6
Continuous
 62
     7
370
    15
100
AcDbLine
 10
414.6413320567971
 20
295.4489316248685
 30
0.0
 11
414.916332056797
 21
295.4489316248685
 31
0.0
  0
LINE
  5
540
330
1F
100
AcDbEntity
  8
0
  6
Continuous
 62
     7
370
    15
100
AcDbLine
 10
414.6413320567971
 20
294.0989316248685
 30
0.0
 11
414.916332056797
 21
294.0989316248685
 31
0.0
  0
LINE
  5
541
330
1F
100
AcDbEntity
  8
0
  6
Continuous
 62
     7
370
    15
100
AcDbLine
 10
414.6413320567971
 20
293.8489316248684
 30
0.0
 11
414.916332056797
 21
293.8489316248684
 31
0.0
  0
LINE
  5
542
330
1F
100
AcDbEntity
  8
0
  6
Continuous
 62
     7
370
    15
100
AcDbLine
 10
414.6413320567971
 20
297.2989316248685
 30
0.0
 11
414.916332056797
 21
297.2989316248685
 31
0.0
  0
LINE
  5
543
330
1F
100
AcDbEntity
  8
0
  6
Continuous
 62
     7
370
    15
100
AcDbLine
 10
414.6413320567971
 20
297.0489316248684
 30
0.0
 11
414.916332056797
 21
297.0489316248684
 31
0.0
  0
LINE
  5
544
330
1F
100
AcDbEntity
  8
0
  6
Continuous
 62
     7
370
    15
100
AcDbLine
 10
414.6413320567971
 20
294.6489316248685
 30
0.0
 11
414.916332056797
 21
294.6489316248685
 31
0.0
  0
LINE
  5
545
330
1F
100
AcDbEntity
  8
0
  6
Continuous
 62
     7
370
    15
100
AcDbLine
 10
414.6413320567971
 20
294.8989316248685
 30
0.0
 11
414.916332056797
 21
294.8989316248685
 31
0.0
  0
LINE
  5
546
330
1F
100
AcDbEntity
  8
0
  6
Continuous
 62
     7
370
    15
100
AcDbLine
 10
414.641332056797
 20
275.6989316248684
 30
0.0
 11
414.916332056797
 21
275.6989316248684
 31
0.0
  0
LINE
  5
547
330
1F
100
AcDbEntity
  8
0
  6
Continuous
 62
     7
370
    15
100
AcDbLine
 10
414.641332056797
 20
275.4489316248684
 30
0.0
 11
414.916332056797
 21
275.4489316248684
 31
0.0
  0
LINE
  5
548
330
1F
100
AcDbEntity
  8
0
  6
Continuous
 62
     7
370
    15
100
AcDbLine
 10
414.641332056797
 20
287.4489316248685
 30
0.0
 11
414.916332056797
 21
287.4489316248685
 31
0.0
  0
LINE
  5
549
330
1F
100
AcDbEntity
  8
0
  6
Continuous
 62
     7
370
    15
100
AcDbLine
 10
414.641332056797
 20
287.6989316248685
 30
0.0
 11
414.916332056797
 21
287.6989316248685
 31
0.0
  0
LINE
  5
54A
330
1F
100
AcDbEntity
  8
0
  6
Continuous
 62
     7
370
    15
100
AcDbLine
 10
414.641332056797
 20
282.0989316248684
 30
0.0
 11
414.916332056797
 21
282.0989316248684
 31
0.0
  0
LINE
  5
54B
330
1F
100
AcDbEntity
  8
0
  6
Continuous
 62
     7
370
    15
100
AcDbLine
 10
414.641332056797
 20
281.8489316248685
 30
0.0
 11
414.916332056797
 21
281.8489316248685
 31
0.0
  0
LINE
  5
54C
330
1F
100
AcDbEntity
  8
0
  6
Continuous
 62
     7
370
    15
100
AcDbLine
 10
413.5663320567969
 20
293.8489316248684
 30
0.0
 11
413.841332056797
 21
293.8489316248684
 31
0.0
  0
LINE
  5
54D
330
1F
100
AcDbEntity
  8
0
  6
Continuous
 62
     7
370
    15
100
AcDbLine
 10
413.841332056797
 20
294.0989316248685
 30
0.0
 11
413.5663320567969
 21
294.0989316248685
 31
0.0
  0
LINE
  5
54E
330
1F
100
AcDbEntity
  8
0
  6
Continuous
 62
     7
370
    15
100
AcDbLine
 10
413.5663320567969
 20
281.8489316248685
 30
0.0
 11
413.841332056797
 21
281.8489316248685
 31
0.0
  0
LINE
  5
54F
330
1F
100
AcDbEntity
  8
0
  6
Continuous
 62
     7
370
    15
100
AcDbLine
 10
413.841332056797
 20
282.0989316248684
 30
0.0
 11
413.5663320567969
 21
282.0989316248684
 31
0.0
  0
LINE
  5
550
330
1F
100
AcDbEntity
  8
0
  6
Continuous
 62
     7
370
    15
100
AcDbLine
 10
413.5663320567969
 20
276.2489316248685
 30
0.0
 11
413.841332056797
 21
276.2489316248685
 31
0.0
  0
LINE
  5
551
330
1F
100
AcDbEntity
  8
0
  6
Continuous
 62
     7
370
    15
100
AcDbLine
 10
413.841332056797
 20
276.4989316248684
 30
0.0
 11
413.5663320567969
 21
276.4989316248684
 31
0.0
  0
LINE
  5
552
330
1F
100
AcDbEntity
  8
0
  6
Continuous
 62
     7
370
    15
100
AcDbLine
 10
413.5663320567969
 20
275.4489316248684
 30
0.0
 11
413.841332056797
 21
275.4489316248684
 31
0.0
  0
LINE
  5
553
330
1F
100
AcDbEntity
  8
0
  6
Continuous
 62
     7
370
    15
100
AcDbLine
 10
413.841332056797
 20
275.6989316248684
 30
0.0
 11
413.5663320567969
 21
275.6989316248684
 31
0.0
  0
LINE
  5
554
330
1F
100
AcDbEntity
  8
0
  6
Continuous
 62
     7
370
    15
100
AcDbLine
 10
413.5663320567969
 20
289.0489316248684
 30
0.0
 11
413.841332056797
 21
289.0489316248684
 31
0.0
  0
LINE
  5
555
330
1F
100
AcDbEntity
  8
0
  6
Continuous
 62
     7
370
    15
100
AcDbLine
 10
413.841332056797
 20
289.2989316248685
 30
0.0
 11
413.5663320567969
 21
289.2989316248685
 31
0.0
  0
LINE
  5
556
330
1F
100
AcDbEntity
  8
0
  6
Continuous
 62
     7
370
    15
100
AcDbLine
 10
413.5663320567969
 20
273.8489316248684
 30
0.0
 11
413.841332056797
 21
273.8489316248684
 31
0.0
  0
LINE
  5
557
330
1F
100
AcDbEntity
  8
0
  6
Continuous
 62
     7
370
    15
100
AcDbLine
 10
413.841332056797
 20
274.0989316248685
 30
0.0
 11
413.5663320567969
 21
274.0989316248685
 31
0.0
  0
LINE
  5
558
330
1F
100
AcDbEntity
  8
0
  6
Continuous
 62
     7
370
    15
100
AcDbLine
 10
413.5663320567969
 20
270.6489316248684
 30
0.0
 11
413.841332056797
 21
270.6489316248684
 31
0.0
  0
LINE
  5
559
330
1F
100
AcDbEntity
  8
0
  6
Continuous
 62
     7
370
    15
100
AcDbLine
 10
413.841332056797
 20
270.8989316248684
 30
0.0
 11
413.5663320567969
 21
270.8989316248684
 31
0.0
  0
LINE
  5
55A
330
1F
100
AcDbEntity
  8
0
  6
Continuous
 62
     7
370
    15
100
AcDbLine
 10
413.841332056797
 20
274.8989316248684
 30
0.0
 11
413.5663320567969
 21
274.8989316248684
 31
0.0
  0
LINE
  5
55B
330
1F
100
AcDbEntity
  8
0
  6
Continuous
 62
     7
370
    15
100
AcDbLine
 10
413.5663320567969
 20
274.6489316248684
 30
0.0
 11
413.841332056797
 21
274.6489316248684
 31
0.0
  0
LINE
  5
55C
330
1F
100
AcDbEntity
  8
0
  6
Continuous
 62
     7
370
    15
100
AcDbLine
 10
413.5663320567969
 20
287.4489316248685
 30
0.0
 11
413.841332056797
 21
287.4489316248685
 31
0.0
  0
LINE
  5
55D
330
1F
100
AcDbEntity
  8
0
  6
Continuous
 62
     7
370
    15
100
AcDbLine
 10
413.841332056797
 20
287.6989316248685
 30
0.0
 11
413.5663320567969
 21
287.6989316248685
 31
0.0
  0
LINE
  5
55E
330
1F
100
AcDbEntity
  8
0
  6
Continuous
 62
     7
370
    15
100
AcDbLine
 10
413.5663320567969
 20
285.8489316248684
 30
0.0
 11
413.841332056797
 21
285.8489316248684
 31
0.0
  0
LINE
  5
55F
330
1F
100
AcDbEntity
  8
0
  6
Continuous
 62
     7
370
    15
100
AcDbLine
 10
413.841332056797
 20
286.0989316248685
 30
0.0
 11
413.5663320567969
 21
286.0989316248685
 31
0.0
  0
LINE
  5
560
330
1F
100
AcDbEntity
  8
0
  6
Continuous
 62
     7
370
    15
100
AcDbLine
 10
413.5663320567969
 20
279.4489316248685
 30
0.0
 11
413.841332056797
 21
279.4489316248685
 31
0.0
  0
LINE
  5
561
330
1F
100
AcDbEntity
  8
0
  6
Continuous
 62
     7
370
    15
100
AcDbLine
 10
413.841332056797
 20
279.6989316248684
 30
0.0
 11
413.5663320567969
 21
279.6989316248684
 31
0.0
  0
LINE
  5
562
330
1F
100
AcDbEntity
  8
0
  6
Continuous
 62
     7
370
    15
100
AcDbLine
 10
413.5663320567969
 20
295.4489316248685
 30
0.0
 11
413.841332056797
 21
295.4489316248685
 31
0.0
  0
LINE
  5
563
330
1F
100
AcDbEntity
  8
0
  6
Continuous
 62
     7
370
    15
100
AcDbLine
 10
413.841332056797
 20
295.6989316248684
 30
0.0
 11
413.5663320567969
 21
295.6989316248684
 31
0.0
  0
LINE
  5
564
330
1F
100
AcDbEntity
  8
0
  6
Continuous
 62
     7
370
    15
100
AcDbLine
 10
413.5663320567969
 20
280.2489316248685
 30
0.0
 11
413.841332056797
 21
280.2489316248685
 31
0.0
  0
LINE
  5
565
330
1F
100
AcDbEntity
  8
0
  6
Continuous
 62
     7
370
    15
100
AcDbLine
 10
413.841332056797
 20
280.4989316248684
 30
0.0
 11
413.5663320567969
 21
280.4989316248684
 31
0.0
  0
LINE
  5
566
330
1F
100
AcDbEntity
  8
0
  6
Continuous
 62
     7
370
    15
100
AcDbLine
 10
413.841332056797
 20
288.4989316248685
 30
0.0
 11
413.5663320567969
 21
288.4989316248685
 31
0.0
  0
LINE
  5
567
330
1F
100
AcDbEntity
  8
0
  6
Continuous
 62
     7
370
    15
100
AcDbLine
 10
413.5663320567969
 20
288.2489316248685
 30
0.0
 11
413.841332056797
 21
288.2489316248685
 31
0.0
  0
LINE
  5
568
330
1F
100
AcDbEntity
  8
0
  6
Continuous
 62
     7
370
    15
100
AcDbLine
 10
413.5663320567969
 20
294.6489316248685
 30
0.0
 11
413.841332056797
 21
294.6489316248685
 31
0.0
  0
LINE
  5
569
330
1F
100
AcDbEntity
  8
0
  6
Continuous
 62
     7
370
    15
100
AcDbLine
 10
413.841332056797
 20
294.8989316248685
 30
0.0
 11
413.5663320567969
 21
294.8989316248685
 31
0.0
  0
LINE
  5
56A
330
1F
100
AcDbEntity
  8
0
  6
Continuous
 62
     7
370
    15
100
AcDbLine
 10
413.5663320567969
 20
282.6489316248685
 30
0.0
 11
413.841332056797
 21
282.6489316248685
 31
0.0
  0
LINE
  5
56B
330
1F
100
AcDbEntity
  8
0
  6
Continuous
 62
     7
370
    15
100
AcDbLine
 10
413.841332056797
 20
282.8989316248684
 30
0.0
 11
413.5663320567969
 21
282.8989316248684
 31
0.0
  0
LINE
  5
56C
330
1F
100
AcDbEntity
  8
0
  6
Continuous
 62
     7
370
    15
100
AcDbLine
 10
413.5663320567969
 20
296.2489316248684
 30
0.0
 11
413.841332056797
 21
296.2489316248684
 31
0.0
  0
LINE
  5
56D
330
1F
100
AcDbEntity
  8
0
  6
Continuous
 62
     7
370
    15
100
AcDbLine
 10
413.841332056797
 20
296.4989316248685
 30
0.0
 11
413.5663320567969
 21
296.4989316248685
 31
0.0
  0
LINE
  5
56E
330
1F
100
AcDbEntity
  8
0
  6
Continuous
 62
     7
370
    15
100
AcDbLine
 10
413.5663320567969
 20
293.0489316248684
 30
0.0
 11
413.841332056797
 21
293.0489316248684
 31
0.0
  0
LINE
  5
56F
330
1F
100
AcDbEntity
  8
0
  6
Continuous
 62
     7
370
    15
100
AcDbLine
 10
413.841332056797
 20
293.2989316248685
 30
0.0
 11
413.5663320567969
 21
293.2989316248685
 31
0.0
  0
LINE
  5
570
330
1F
100
AcDbEntity
  8
0
  6
Continuous
 62
     7
370
    15
100
AcDbLine
 10
413.5663320567969
 20
273.0489316248684
 30
0.0
 11
413.841332056797
 21
273.0489316248685
 31
0.0
  0
LINE
  5
571
330
1F
100
AcDbEntity
  8
0
  6
Continuous
 62
     7
370
    15
100
AcDbLine
 10
413.841332056797
 20
273.2989316248684
 30
0.0
 11
413.5663320567969
 21
273.2989316248684
 31
0.0
  0
LINE
  5
572
330
1F
100
AcDbEntity
  8
0
  6
Continuous
 62
     7
370
    15
100
AcDbLine
 10
413.5663320567969
 20
292.2489316248684
 30
0.0
 11
413.841332056797
 21
292.2489316248685
 31
0.0
  0
LINE
  5
573
330
1F
100
AcDbEntity
  8
0
  6
Continuous
 62
     7
370
    15
100
AcDbLine
 10
413.841332056797
 20
292.4989316248685
 30
0.0
 11
413.5663320567969
 21
292.4989316248685
 31
0.0
  0
LINE
  5
574
330
1F
100
AcDbEntity
  8
0
  6
Continuous
 62
     7
370
    15
100
AcDbLine
 10
413.5663320567969
 20
297.0489316248684
 30
0.0
 11
413.841332056797
 21
297.0489316248684
 31
0.0
  0
LINE
  5
575
330
1F
100
AcDbEntity
  8
0
  6
Continuous
 62
     7
370
    15
100
AcDbLine
 10
413.841332056797
 20
297.2989316248685
 30
0.0
 11
413.5663320567969
 21
297.2989316248685
 31
0.0
  0
LINE
  5
576
330
1F
100
AcDbEntity
  8
0
  6
Continuous
 62
     7
370
    15
100
AcDbLine
 10
413.5663320567969
 20
291.4489316248685
 30
0.0
 11
413.841332056797
 21
291.4489316248685
 31
0.0
  0
LINE
  5
577
330
1F
100
AcDbEntity
  8
0
  6
Continuous
 62
     7
370
    15
100
AcDbLine
 10
413.841332056797
 20
291.6989316248684
 30
0.0
 11
413.5663320567969
 21
291.6989316248684
 31
0.0
  0
LINE
  5
578
330
1F
100
AcDbEntity
  8
0
  6
Continuous
 62
     7
370
    15
100
AcDbLine
 10
413.841332056797
 20
272.4989316248685
 30
0.0
 11
413.5663320567969
 21
272.4989316248684
 31
0.0
  0
LINE
  5
579
330
1F
100
AcDbEntity
  8
0
  6
Continuous
 62
     7
370
    15
100
AcDbLine
 10
413.5663320567969
 20
272.2489316248685
 30
0.0
 11
413.841332056797
 21
272.2489316248685
 31
0.0
  0
LINE
  5
57A
330
1F
100
AcDbEntity
  8
0
  6
Continuous
 62
     7
370
    15
100
AcDbLine
 10
413.5663320567969
 20
284.2489316248684
 30
0.0
 11
413.841332056797
 21
284.2489316248684
 31
0.0
  0
LINE
  5
57B
330
1F
100
AcDbEntity
  8
0
  6
Continuous
 62
     7
370
    15
100
AcDbLine
 10
413.841332056797
 20
284.4989316248684
 30
0.0
 11
413.5663320567969
 21
284.4989316248684
 31
0.0
  0
LINE
  5
57C
330
1F
100
AcDbEntity
  8
0
  6
Continuous
 62
     7
370
    15
100
AcDbLine
 10
413.5663320567969
 20
283.4489316248685
 30
0.0
 11
413.841332056797
 21
283.4489316248685
 31
0.0
  0
LINE
  5
57D
330
1F
100
AcDbEntity
  8
0
  6
Continuous
 62
     7
370
    15
100
AcDbLine
 10
413.841332056797
 20
283.6989316248685
 30
0.0
 11
413.5663320567969
 21
283.6989316248685
 31
0.0
  0
LINE
  5
57E
330
1F
100
AcDbEntity
  8
0
  6
Continuous
 62
     7
370
    15
100
AcDbLine
 10
413.5663320567969
 20
286.6489316248685
 30
0.0
 11
413.841332056797
 21
286.6489316248685
 31
0.0
  0
LINE
  5
57F
330
1F
100
AcDbEntity
  8
0
  6
Continuous
 62
     7
370
    15
100
AcDbLine
 10
413.841332056797
 20
286.8989316248685
 30
0.0
 11
413.5663320567969
 21
286.8989316248685
 31
0.0
  0
LINE
  5
580
330
1F
100
AcDbEntity
  8
0
  6
Continuous
 62
     7
370
    15
100
AcDbLine
 10
413.5663320567969
 20
277.0489316248684
 30
0.0
 11
413.841332056797
 21
277.0489316248684
 31
0.0
  0
LINE
  5
581
330
1F
100
AcDbEntity
  8
0
  6
Continuous
 62
     7
370
    15
100
AcDbLine
 10
413.841332056797
 20
277.2989316248685
 30
0.0
 11
413.5663320567969
 21
277.2989316248685
 31
0.0
  0
LINE
  5
582
330
1F
100
AcDbEntity
  8
0
  6
Continuous
 62
     7
370
    15
100
AcDbLine
 10
413.5663320567969
 20
290.6489316248685
 30
0.0
 11
413.841332056797
 21
290.6489316248685
 31
0.0
  0
LINE
  5
583
330
1F
100
AcDbEntity
  8
0
  6
Continuous
 62
     7
370
    15
100
AcDbLine
 10
413.841332056797
 20
290.8989316248685
 30
0.0
 11
413.5663320567969
 21
290.8989316248685
 31
0.0
  0
LINE
  5
584
330
1F
100
AcDbEntity
  8
0
  6
Continuous
 62
     7
370
    15
100
AcDbLine
 10
413.5663320567969
 20
278.6489316248685
 30
0.0
 11
413.841332056797
 21
278.6489316248685
 31
0.0
  0
LINE
  5
585
330
1F
100
AcDbEntity
  8
0
  6
Continuous
 62
     7
370
    15
100
AcDbLine
 10
413.841332056797
 20
278.8989316248684
 30
0.0
 11
413.5663320567969
 21
278.8989316248684
 31
0.0
  0
LINE
  5
586
330
1F
100
AcDbEntity
  8
0
  6
Continuous
 62
     7
370
    15
100
AcDbLine
 10
413.5663320567969
 20
271.4489316248684
 30
0.0
 11
413.841332056797
 21
271.4489316248684
 31
0.0
  0
LINE
  5
587
330
1F
100
AcDbEntity
  8
0
  6
Continuous
 62
     7
370
    15
100
AcDbLine
 10
413.841332056797
 20
271.6989316248685
 30
0.0
 11
413.5663320567969
 21
271.6989316248685
 31
0.0
  0
LINE
  5
588
330
1F
100
AcDbEntity
  8
0
  6
Continuous
 62
     7
370
    15
100
AcDbLine
 10
413.841332056797
 20
278.0989316248685
 30
0.0
 11
413.5663320567969
 21
278.0989316248685
 31
0.0
  0
LINE
  5
589
330
1F
100
AcDbEntity
  8
0
  6
Continuous
 62
     7
370
    15
100
AcDbLine
 10
413.5663320567969
 20
277.8489316248685
 30
0.0
 11
413.841332056797
 21
277.8489316248685
 31
0.0
  0
LINE
  5
58A
330
1F
100
AcDbEntity
  8
0
  6
Continuous
 62
     7
370
    15
100
AcDbLine
 10
413.841332056797
 20
290.0989316248685
 30
0.0
 11
413.5663320567969
 21
290.0989316248685
 31
0.0
  0
LINE
  5
58B
330
1F
100
AcDbEntity
  8
0
  6
Continuous
 62
     7
370
    15
100
AcDbLine
 10
413.5663320567969
 20
289.8489316248685
 30
0.0
 11
413.841332056797
 21
289.8489316248685
 31
0.0
  0
LINE
  5
58C
330
1F
100
AcDbEntity
  8
0
  6
Continuous
 62
     7
370
    15
100
AcDbLine
 10
413.841332056797
 20
281.2989316248685
 30
0.0
 11
413.5663320567969
 21
281.2989316248685
 31
0.0
  0
LINE
  5
58D
330
1F
100
AcDbEntity
  8
0
  6
Continuous
 62
     7
370
    15
100
AcDbLine
 10
413.5663320567969
 20
281.0489316248684
 30
0.0
 11
413.841332056797
 21
281.0489316248684
 31
0.0
  0
LINE
  5
58E
330
1F
100
AcDbEntity
  8
0
  6
Continuous
 62
     7
370
    15
100
AcDbLine
 10
413.841332056797
 20
285.2989316248685
 30
0.0
 11
413.5663320567969
 21
285.2989316248685
 31
0.0
  0
LINE
  5
58F
330
1F
100
AcDbEntity
  8
0
  6
Continuous
 62
     7
370
    15
100
AcDbLine
 10
413.5663320567969
 20
285.0489316248684
 30
0.0
 11
413.841332056797
 21
285.0489316248684
 31
0.0
  0
ARC
  5
590
330
1F
100
AcDbEntity
  8
0
  6
Continuous
 62
     7
370
    15
100
AcDbCircle
 10
414.241332056797
 20
264.9239316248685
 30
0.0
 40
1.750000000001652
100
AcDbArc
 50
260.1291103938703
 51
279.8708896061295
  0
ARC
  5
591
330
1F
100
AcDbEntity
  8
0
  6
Continuous
 62
     7
370
    15
100
AcDbCircle
 10
414.241332056797
 20
264.9239316248685
 30
0.0
 40
1.750000000001652
100
AcDbArc
 50
80.12911039387132
 51
99.8708896061305
  0
ARC
  5
592
330
1F
100
AcDbEntity
  8
0
  6
Continuous
 62
     7
370
    15
100
AcDbCircle
 10
414.241332056797
 20
302.6239316248684
 30
0.0
 40
1.750000000001596
100
AcDbArc
 50
260.12911039387
 51
279.8708896061298
  0
ARC
  5
593
330
1F
100
AcDbEntity
  8
0
  6
Continuous
 62
     7
370
    15
100
AcDbCircle
 10
414.241332056797
 20
302.6239316248684
 30
0.0
 40
1.750000000001652
100
AcDbArc
 50
80.12911039387132
 51
99.8708896061305
  0
LINE
  5
594
330
1F
100
AcDbEntity
  8
0
  6
Continuous
 62
     7
370
    15
100
AcDbLine
 10
417.4913320567969
 20
270.7739316248685
 30
0.0
 11
415.971332056797
 21
270.7739316248685
 31
0.0
  0
LINE
  5
595
330
1F
100
AcDbEntity
  8
0
  6
Continuous
 62
     7
370
    15
100
AcDbLine
 10
417.4913320567969
 20
266.5239316248685
 30
0.0
 11
417.4913320567969
 21
270.7739316248685
 31
0.0
  0
LINE
  5
596
330
1F
100
AcDbEntity
  8
0
  6
Continuous
 62
     7
370
    15
100
AcDbLine
 10
411.4613320567969
 20
270.7739316248685
 30
0.0
 11
411.4613320567969
 21
262.4239316248684
 31
0.0
  0
LINE
  5
597
330
1F
100
AcDbEntity
  8
0
  6
Continuous
 62
     7
370
    15
100
AcDbLine
 10
412.511332056797
 20
270.7739316248685
 30
0.0
 11
411.4613320567969
 21
270.7739316248685
 31
0.0
  0
LINE
  5
598
330
1F
100
AcDbEntity
  8
0
  6
Continuous
 62
     7
370
    15
100
AcDbLine
 10
411.4613320567969
 20
262.4239316248684
 30
0.0
 11
417.4913320567969
 21
262.4239316248684
 31
0.0
  0
LINE
  5
599
330
1F
100
AcDbEntity
  8
0
  6
Continuous
 62
     7
370
    15
100
AcDbLine
 10
411.4613320567969
 20
305.1239316248685
 30
0.0
 11
417.4913320567969
 21
305.1239316248685
 31
0.0
  0
LINE
  5
59A
330
1F
100
AcDbEntity
  8
0
  6
Continuous
 62
     7
370
    15
100
AcDbLine
 10
417.241332056797
 20
301.0239316248684
 30
0.0
 11
417.4913320567969
 21
301.0239316248684
 31
0.0
  0
ARC
  5
59B
330
1F
100
AcDbEntity
  8
0
  6
Continuous
 62
     7
370
    15
100
AcDbCircle
 10
417.241332056797
 20
300.7739316248684
 30
0.0
 40
0.2500000000000568
100
AcDbArc
 50
90.0
 51
269.9999999997663
  0
LINE
  5
59C
330
1F
100
AcDbEntity
  8
0
  6
Continuous
 62
     7
370
    15
100
AcDbLine
 10
417.4913320567969
 20
300.5239316248685
 30
0.0
 11
417.241332056796
 21
300.5239316248684
 31
0.0
  0
LINE
  5
59D
330
1F
100
AcDbEntity
  8
0
  6
Continuous
 62
     7
370
    15
100
AcDbLine
 10
417.4913320567969
 20
296.7739316248684
 30
0.0
 11
417.4913320567969
 21
300.5239316248685
 31
0.0
  0
LINE
  5
59E
330
1F
100
AcDbEntity
  8
0
  6
Continuous
 62
     7
370
    15
100
AcDbLine
 10
415.971332056797
 20
296.7739316248684
 30
0.0
 11
417.4913320567969
 21
296.7739316248684
 31
0.0
  0
LINE
  5
59F
330
1F
100
AcDbEntity
  8
0
  6
Continuous
 62
     7
370
    15
100
AcDbLine
 10
411.4613320567969
 20
296.7739316248684
 30
0.0
 11
412.511332056797
 21
296.7739316248684
 31
0.0
  0
LINE
  5
5A0
330
1F
100
AcDbEntity
  8
0
  6
Continuous
 62
     7
370
    15
100
AcDbLine
 10
411.4613320567969
 20
305.1239316248685
 30
0.0
 11
411.4613320567969
 21
296.7739316248684
 31
0.0
  0
LINE
  5
5A1
330
1F
100
AcDbEntity
  8
0
  6
Continuous
 62
     7
370
    15
100
AcDbLine
 10
417.4913320567969
 20
281.7739316248685
 30
0.0
 11
416.821332056797
 21
281.7739316248685
 31
0.0
  0
LINE
  5
5A2
330
1F
100
AcDbEntity
  8
0
  6
Continuous
 62
     7
370
    15
100
AcDbLine
 10
416.821332056797
 20
274.7739316248685
 30
0.0
 11
417.4913320567969
 21
274.7739316248685
 31
0.0
  0
LINE
  5
5A3
330
1F
100
AcDbEntity
  8
0
  6
Continuous
 62
     7
370
    15
100
AcDbLine
 10
416.821332056797
 20
281.7739316248685
 30
0.0
 11
416.821332056797
 21
274.7739316248685
 31
0.0
  0
LINE
  5
5A4
330
1F
100
AcDbEntity
  8
0
  6
Continuous
 62
     7
370
    15
100
AcDbLine
 10
417.4913320567969
 20
281.7739316248685
 30
0.0
 11
417.4913320567969
 21
274.7739316248685
 31
0.0
  0
LINE
  5
5A5
330
1F
100
AcDbEntity
  8
0
  6
Continuous
 62
     7
370
    15
100
AcDbLine
 10
417.4913320567969
 20
292.7739316248684
 30
0.0
 11
416.821332056797
 21
292.7739316248684
 31
0.0
  0
LINE
  5
5A6
330
1F
100
AcDbEntity
  8
0
  6
Continuous
 62
     7
370
    15
100
AcDbLine
 10
417.4913320567969
 20
292.7739316248684
 30
0.0
 11
417.4913320567969
 21
285.7739316248684
 31
0.0
  0
LINE
  5
5A7
330
1F
100
AcDbEntity
  8
0
  6
Continuous
 62
     7
370
    15
100
AcDbLine
 10
416.821332056797
 20
292.7739316248684
 30
0.0
 11
416.821332056797
 21
285.7739316248684
 31
0.0
  0
LINE
  5
5A8
330
1F
100
AcDbEntity
  8
0
  6
Continuous
 62
     7
370
    15
100
AcDbLine
 10
416.821332056797
 20
285.7739316248684
 30
0.0
 11
417.4913320567969
 21
285.7739316248684
 31
0.0
  0
LINE
  5
5A9
330
1F
100
AcDbEntity
  8
0
  6
Continuous
 62
     7
370
    15
100
AcDbLine
 10
411.4613320567969
 20
285.7739316248684
 30
0.0
 11
411.4613320567969
 21
292.7739316248684
 31
0.0
  0
LINE
  5
5AA
330
1F
100
AcDbEntity
  8
0
  6
Continuous
 62
     7
370
    15
100
AcDbLine
 10
412.511332056797
 20
292.7739316248684
 30
0.0
 11
411.4613320567969
 21
292.7739316248684
 31
0.0
  0
LINE
  5
5AB
330
1F
100
AcDbEntity
  8
0
  6
Continuous
 62
     7
370
    15
100
AcDbLine
 10
411.4613320567969
 20
285.7739316248684
 30
0.0
 11
412.511332056797
 21
285.7739316248684
 31
0.0
  0
LINE
  5
5AC
330
1F
100
AcDbEntity
  8
0
  6
Continuous
 62
     7
370
    15
100
AcDbLine
 10
411.4613320567969
 20
274.7739316248685
 30
0.0
 11
412.511332056797
 21
274.7739316248685
 31
0.0
  0
LINE
  5
5AD
330
1F
100
AcDbEntity
  8
0
  6
Continuous
 62
     7
370
    15
100
AcDbLine
 10
411.4613320567969
 20
274.7739316248685
 30
0.0
 11
411.4613320567969
 21
281.7739316248685
 31
0.0
  0
LINE
  5
5AE
330
1F
100
AcDbEntity
  8
0
  6
Continuous
 62
     7
370
    15
100
AcDbLine
 10
412.511332056797
 20
281.7739316248685
 30
0.0
 11
411.4613320567969
 21
281.7739316248685
 31
0.0
  0
LINE
  5
5AF
330
1F
100
AcDbEntity
  8
0
  6
Continuous
 62
     7
370
    15
100
AcDbLine
 10
417.7413320567969
 20
266.5239316248685
 30
0.0
 11
417.7413320567969
 21
262.4239316248684
 31
0.0
  0
LINE
  5
5B0
330
1F
100
AcDbEntity
  8
0
  6
Continuous
 62
     7
370
    15
100
AcDbLine
 10
417.7413320567969
 20
266.5239316248685
 30
0.0
 11
417.4913320567969
 21
266.5239316248685
 31
0.0
  0
LINE
  5
5B1
330
1F
100
AcDbEntity
  8
0
  6
Continuous
 62
     7
370
    15
100
AcDbLine
 10
417.4913320567969
 20
262.4239316248684
 30
0.0
 11
417.7413320567969
 21
262.4239316248684
 31
0.0
  0
LINE
  5
5B2
330
1F
100
AcDbEntity
  8
0
  6
Continuous
 62
     7
370
    15
100
AcDbLine
 10
417.7413320567969
 20
305.1239316248685
 30
0.0
 11
417.7413320567969
 21
301.0239316248684
 31
0.0
  0
LINE
  5
5B3
330
1F
100
AcDbEntity
  8
0
  6
Continuous
 62
     7
370
    15
100
AcDbLine
 10
417.7413320567969
 20
301.0239316248684
 30
0.0
 11
417.4913320567969
 21
301.0239316248684
 31
0.0
  0
LINE
  5
5B4
330
1F
100
AcDbEntity
  8
0
  6
Continuous
 62
     7
370
    15
100
AcDbLine
 10
417.7413320567969
 20
305.1239316248685
 30
0.0
 11
417.4913320567969
 21
305.1239316248685
 31
0.0
  0
LINE
  5
5B5
330
1F
100
AcDbEntity
  8
0
  6
Continuous
 62
     7
370
    15
100
AcDbLine
 10
416.9913320567969
 20
285.7739316248684
 30
0.0
 11
416.9913320567969
 21
281.7739316248685
 31
0.0
  0
LINE
  5
5B6
330
1F
100
AcDbEntity
  8
0
  6
Continuous
 62
     7
370
    15
100
AcDbLine
 10
416.9913320567969
 20
274.7739316248685
 30
0.0
 11
416.9913320567969
 21
270.7739316248685
 31
0.0
  0
LINE
  5
5B7
330
1F
100
AcDbEntity
  8
0
  6
Continuous
 62
     7
370
    15
100
AcDbLine
 10
416.9913320567969
 20
296.7739316248684
 30
0.0
 11
416.9913320567969
 21
292.7739316248684
 31
0.0
  0
LINE
  5
5B8
330
1F
100
AcDbEntity
  8
0
  6
Continuous
 62
     7
370
    15
100
AcDbLine
 10
417.4913320567969
 20
301.0239316248684
 30
0.0
 11
417.4913320567969
 21
300.5239316248685
 31
0.0
  0
LINE
  5
5B9
330
1F
100
AcDbEntity
  8
0
  6
Continuous
 62
     7
370
    15
100
AcDbLine
 10
412.1413320567969
 20
270.7739316248685
 30
0.0
 11
412.1413320567969
 21
274.7739316248685
 31
0.0
  0
LINE
  5
5BA
330
1F
100
AcDbEntity
  8
0
  6
Continuous
 62
     7
370
    15
100
AcDbLine
 10
412.1413320567969
 20
292.7739316248684
 30
0.0
 11
412.1413320567969
 21
296.7739316248684
 31
0.0
  0
LINE
  5
5BB
330
1F
100
AcDbEntity
  8
0
  6
Continuous
 62
     7
370
    15
100
AcDbLine
 10
412.1413320567969
 20
281.7739316248685
 30
0.0
 11
412.1413320567969
 21
285.7739316248684
 31
0.0
  0
LINE
  5
5BC
330
1F
100
AcDbEntity
  8
0
  6
Continuous
 62
     7
370
    15
100
AcDbLine
 10
417.041332056797
 20
293.7739316248685
 30
0.0
 11
417.041332056797
 21
295.7739316248685
 31
0.0
  0
LINE
  5
5BD
330
1F
100
AcDbEntity
  8
0
  6
Continuous
 62
     7
370
    15
100
AcDbLine
 10
416.9913320567969
 20
293.7739316248685
 30
0.0
 11
417.041332056797
 21
293.7739316248685
 31
0.0
  0
LINE
  5
5BE
330
1F
100
AcDbEntity
  8
0
  6
Continuous
 62
     7
370
    15
100
AcDbLine
 10
417.041332056797
 20
295.7739316248685
 30
0.0
 11
416.9913320567969
 21
295.7739316248685
 31
0.0
  0
LINE
  5
5BF
330
1F
100
AcDbEntity
  8
0
  6
Continuous
 62
     7
370
    15
100
AcDbLine
 10
417.641332056797
 20
297.3239316248685
 30
0.0
 11
417.641332056797
 21
301.0239316248684
 31
0.0
  0
LINE
  5
5C0
330
1F
100
AcDbEntity
  8
0
  6
Continuous
 62
     7
370
    15
100
AcDbLine
 10
417.4913320567969
 20
297.3239316248685
 30
0.0
 11
417.641332056797
 21
297.3239316248685
 31
0.0
  0
LINE
  5
5C1
330
1F
100
AcDbEntity
  8
0
  6
Continuous
 62
     7
370
    15
100
AcDbLine
 10
417.641332056797
 20
266.5239316248685
 30
0.0
 11
417.641332056797
 21
270.2239316248685
 31
0.0
  0
LINE
  5
5C2
330
1F
100
AcDbEntity
  8
0
  6
Continuous
 62
     7
370
    15
100
AcDbLine
 10
417.4913320567969
 20
270.2239316248685
 30
0.0
 11
417.641332056797
 21
270.2239316248685
 31
0.0
  0
LINE
  5
5C3
330
1F
100
AcDbEntity
  8
0
  6
Continuous
 62
     7
370
    15
100
AcDbLine
 10
417.041332056797
 20
282.7739316248685
 30
0.0
 11
417.041332056797
 21
284.7739316248684
 31
0.0
  0
LINE
  5
5C4
330
1F
100
AcDbEntity
  8
0
  6
Continuous
 62
     7
370
    15
100
AcDbLine
 10
416.9913320567969
 20
282.7739316248685
 30
0.0
 11
417.041332056797
 21
282.7739316248685
 31
0.0
  0
LINE
  5
5C5
330
1F
100
AcDbEntity
  8
0
  6
Continuous
 62
     7
370
    15
100
AcDbLine
 10
417.041332056797
 20
284.7739316248684
 30
0.0
 11
416.9913320567969
 21
284.7739316248684
 31
0.0
  0
LINE
  5
5C6
330
1F
100
AcDbEntity
  8
0
  6
Continuous
 62
     7
370
    15
100
AcDbLine
 10
417.041332056797
 20
271.7739316248684
 30
0.0
 11
417.041332056797
 21
273.7739316248684
 31
0.0
  0
LINE
  5
5C7
330
1F
100
AcDbEntity
  8
0
  6
Continuous
 62
     7
370
    15
100
AcDbLine
 10
416.9913320567969
 20
271.7739316248684
 30
0.0
 11
417.041332056797
 21
271.7739316248684
 31
0.0
  0
LINE
  5
5C8
330
1F
100
AcDbEntity
  8
0
  6
Continuous
 62
     7
370
    15
100
AcDbLine
 10
417.041332056797
 20
273.7739316248684
 30
0.0
 11
416.9913320567969
 21
273.7739316248684
 31
0.0
  0
LINE
  5
5C9
330
1F
100
AcDbEntity
  8
0
  6
Continuous
 62
     7
370
    15
100
AcDbLine
 10
412.1413320567969
 20
273.7739316248684
 30
0.0
 11
412.091332056797
 21
273.7739316248684
 31
0.0
  0
LINE
  5
5CA
330
1F
100
AcDbEntity
  8
0
  6
Continuous
 62
     7
370
    15
100
AcDbLine
 10
412.091332056797
 20
271.7739316248684
 30
0.0
 11
412.1413320567969
 21
271.7739316248684
 31
0.0
  0
LINE
  5
5CB
330
1F
100
AcDbEntity
  8
0
  6
Continuous
 62
     7
370
    15
100
AcDbLine
 10
412.091332056797
 20
273.7739316248684
 30
0.0
 11
412.091332056797
 21
271.7739316248684
 31
0.0
  0
LINE
  5
5CC
330
1F
100
AcDbEntity
  8
0
  6
Continuous
 62
     7
370
    15
100
AcDbLine
 10
412.091332056797
 20
295.7739316248685
 30
0.0
 11
412.091332056797
 21
293.7739316248685
 31
0.0
  0
LINE
  5
5CD
330
1F
100
AcDbEntity
  8
0
  6
Continuous
 62
     7
370
    15
100
AcDbLine
 10
412.1413320567969
 20
295.7739316248685
 30
0.0
 11
412.091332056797
 21
295.7739316248685
 31
0.0
  0
LINE
  5
5CE
330
1F
100
AcDbEntity
  8
0
  6
Continuous
 62
     7
370
    15
100
AcDbLine
 10
412.091332056797
 20
293.7739316248685
 30
0.0
 11
412.1413320567969
 21
293.7739316248685
 31
0.0
  0
LINE
  5
5CF
330
1F
100
AcDbEntity
  8
0
  6
Continuous
 62
     7
370
    15
100
AcDbLine
 10
412.091332056797
 20
284.7739316248684
 30
0.0
 11
412.091332056797
 21
282.7739316248685
 31
0.0
  0
LINE
  5
5D0
330
1F
100
AcDbEntity
  8
0
  6
Continuous
 62
     7
370
    15
100
AcDbLine
 10
412.091332056797
 20
282.7739316248685
 30
0.0
 11
412.1413320567969
 21
282.7739316248685
 31
0.0
  0
LINE
  5
5D1
330
1F
100
AcDbEntity
  8
0
  6
Continuous
 62
     7
370
    15
100
AcDbLine
 10
412.1413320567969
 20
284.7739316248684
 30
0.0
 11
412.091332056797
 21
284.7739316248684
 31
0.0
  0
LINE
  5
5D2
330
1F
100
AcDbEntity
  8
0
  6
Continuous
 62
     7
370
    15
100
AcDbLine
 10
412.0072544872892
 20
295.7739316248685
 30
0.0
 11
412.0072544872892
 21
293.7739316248685
 31
0.0
  0
LINE
  5
5D3
330
1F
100
AcDbEntity
  8
0
  6
Continuous
 62
     7
370
    15
100
AcDbLine
 10
412.091332056797
 20
295.7739316248685
 30
0.0
 11
412.0072544872892
 21
295.7739316248685
 31
0.0
  0
LINE
  5
5D4
330
1F
100
AcDbEntity
  8
0
  6
Continuous
 62
     7
370
    15
100
AcDbLine
 10
412.0072544872892
 20
293.7739316248685
 30
0.0
 11
412.091332056797
 21
293.7739316248685
 31
0.0
  0
LINE
  5
5D5
330
1F
100
AcDbEntity
  8
0
  6
Continuous
 62
     7
370
    15
100
AcDbLine
 10
412.0072544872892
 20
284.7739316248684
 30
0.0
 11
412.0072544872892
 21
282.7739316248685
 31
0.0
  0
LINE
  5
5D6
330
1F
100
AcDbEntity
  8
0
  6
Continuous
 62
     7
370
    15
100
AcDbLine
 10
412.0072544872892
 20
282.7739316248685
 30
0.0
 11
412.091332056797
 21
282.7739316248685
 31
0.0
  0
LINE
  5
5D7
330
1F
100
AcDbEntity
  8
0
  6
Continuous
 62
     7
370
    15
100
AcDbLine
 10
412.091332056797
 20
284.7739316248684
 30
0.0
 11
412.0072544872892
 21
284.7739316248684
 31
0.0
  0
LINE
  5
5D8
330
1F
100
AcDbEntity
  8
0
  6
Continuous
 62
     7
370
    15
100
AcDbLine
 10
412.0072544872892
 20
273.7739316248684
 30
0.0
 11
412.0072544872892
 21
271.7739316248684
 31
0.0
  0
LINE
  5
5D9
330
1F
100
AcDbEntity
  8
0
  6
Continuous
 62
     7
370
    15
100
AcDbLine
 10
412.091332056797
 20
273.7739316248684
 30
0.0
 11
412.0072544872892
 21
273.7739316248684
 31
0.0
  0
LINE
  5
5DA
330
1F
100
AcDbEntity
  8
0
  6
Continuous
 62
     7
370
    15
100
AcDbLine
 10
412.0072544872892
 20
271.7739316248684
 30
0.0
 11
412.091332056797
 21
271.7739316248684
 31
0.0
  0
LINE
  5
5DB
330
1F
100
AcDbEntity
  8
0
  6
Continuous
 62
     7
370
    15
100
AcDbLine
 10
412.0072544872892
 20
295.7739316248685
 30
0.0
 11
411.9446408415327
 21
295.7739316248685
 31
0.0
  0
LINE
  5
5DC
330
1F
100
AcDbEntity
  8
0
  6
Continuous
 62
     7
370
    15
100
AcDbLine
 10
411.9446408415327
 20
293.7739316248685
 30
0.0
 11
412.0072544872892
 21
293.7739316248685
 31
0.0
  0
LINE
  5
5DD
330
1F
100
AcDbEntity
  8
0
  6
Continuous
 62
     7
370
    15
100
AcDbLine
 10
412.0072544872892
 20
273.7739316248684
 30
0.0
 11
411.9446408415327
 21
273.7739316248684
 31
0.0
  0
LINE
  5
5DE
330
1F
100
AcDbEntity
  8
0
  6
Continuous
 62
     7
370
    15
100
AcDbLine
 10
411.9446408415327
 20
271.7739316248684
 30
0.0
 11
412.0072544872892
 21
271.7739316248684
 31
0.0
  0
LINE
  5
5DF
330
1F
100
AcDbEntity
  8
0
  6
Continuous
 62
     7
370
    15
100
AcDbLine
 10
411.9446408415327
 20
282.7739316248685
 30
0.0
 11
412.0072544872892
 21
282.7739316248685
 31
0.0
  0
LINE
  5
5E0
330
1F
100
AcDbEntity
  8
0
  6
Continuous
 62
     7
370
    15
100
AcDbLine
 10
412.0072544872892
 20
284.7739316248684
 30
0.0
 11
411.9446408415327
 21
284.7739316248684
 31
0.0
  0
LINE
  5
5E1
330
1F
100
AcDbEntity
  8
0
  6
Continuous
 62
     7
370
    15
100
AcDbLine
 10
417.041332056797
 20
271.7739316248684
 30
0.0
 11
417.0880232720611
 21
271.7739316248684
 31
0.0
  0
LINE
  5
5E2
330
1F
100
AcDbEntity
  8
0
  6
Continuous
 62
     7
370
    15
100
AcDbLine
 10
417.0880232720611
 20
273.7739316248684
 30
0.0
 11
417.041332056797
 21
273.7739316248684
 31
0.0
  0
LINE
  5
5E3
330
1F
100
AcDbEntity
  8
0
  6
Continuous
 62
     7
370
    15
100
AcDbLine
 10
417.0880232720611
 20
284.7739316248684
 30
0.0
 11
417.041332056797
 21
284.7739316248684
 31
0.0
  0
LINE
  5
5E4
330
1F
100
AcDbEntity
  8
0
  6
Continuous
 62
     7
370
    15
100
AcDbLine
 10
417.041332056797
 20
282.7739316248685
 30
0.0
 11
417.0880232720611
 21
282.7739316248685
 31
0.0
  0
LINE
  5
5E5
330
1F
100
AcDbEntity
  8
0
  6
Continuous
 62
     7
370
    15
100
AcDbLine
 10
417.041332056797
 20
293.7739316248685
 30
0.0
 11
417.0880232720611
 21
293.7739316248685
 31
0.0
  0
LINE
  5
5E6
330
1F
100
AcDbEntity
  8
0
  6
Continuous
 62
     7
370
    15
100
AcDbLine
 10
417.0880232720611
 20
295.7739316248685
 30
0.0
 11
417.041332056797
 21
295.7739316248685
 31
0.0
  0
LINE
  5
5E7
330
1F
100
AcDbEntity
  8
0
  6
Continuous
 62
     7
370
    15
100
AcDbLine
 10
417.731332056797
 20
301.0239316248684
 30
0.0
 11
417.731332056797
 21
300.2239316248684
 31
0.0
  0
LINE
  5
5E8
330
1F
100
AcDbEntity
  8
0
  6
Continuous
 62
     7
370
    15
100
AcDbLine
 10
417.731332056797
 20
300.2239316248684
 30
0.0
 11
417.641332056797
 21
300.2239316248684
 31
0.0
  0
LINE
  5
5E9
330
1F
100
AcDbEntity
  8
0
  6
Continuous
 62
     7
370
    15
100
AcDbLine
 10
417.641332056797
 20
267.3239316248685
 30
0.0
 11
417.731332056797
 21
267.3239316248685
 31
0.0
  0
LINE
  5
5EA
330
1F
100
AcDbEntity
  8
0
  6
Continuous
 62
     7
370
    15
100
AcDbLine
 10
417.731332056797
 20
267.3239316248685
 30
0.0
 11
417.731332056797
 21
266.5239316248685
 31
0.0
  0
LINE
  5
5EB
330
1F
100
AcDbEntity
  8
0
  6
Continuous
 62
     7
370
    15
100
AcDbLine
 10
417.7413320567969
 20
269.7739316248684
 30
0.0
 11
417.641332056797
 21
269.7739316248684
 31
0.0
  0
LINE
  5
5EC
330
1F
100
AcDbEntity
  8
0
  6
Continuous
 62
     7
370
    15
100
AcDbLine
 10
417.641332056797
 20
297.7739316248685
 30
0.0
 11
417.7413320567969
 21
297.7739316248685
 31
0.0
  0
LINE
  5
5ED
330
1F
100
AcDbEntity
  8
0
  6
Continuous
 62
     7
370
    15
100
AcDbLine
 10
417.4913320567969
 20
284.7739316248684
 30
0.0
 11
417.7413320567969
 21
284.7739316248684
 31
0.0
  0
LINE
  5
5EE
330
1F
100
AcDbEntity
  8
0
  6
Continuous
 62
     7
370
    15
100
AcDbLine
 10
417.4913320567969
 20
282.7739316248685
 30
0.0
 11
417.4913320567969
 21
284.7739316248684
 31
0.0
  0
LINE
  5
5EF
330
1F
100
AcDbEntity
  8
0
  6
Continuous
 62
     7
370
    15
100
AcDbLine
 10
417.7413320567969
 20
282.7739316248685
 30
0.0
 11
417.4913320567969
 21
282.7739316248685
 31
0.0
  0
LINE
  5
5F0
330
1F
100
AcDbEntity
  8
0
  6
Continuous
 62
     7
370
    15
100
AcDbLine
 10
417.7413320567969
 20
266.6989316248685
 30
0.0
 11
417.731332056797
 21
266.6989316248685
 31
0.0
  0
LINE
  5
5F1
330
1F
100
AcDbEntity
  8
0
  6
Continuous
 62
     7
370
    15
100
AcDbLine
 10
417.7413320567969
 20
300.8489316248685
 30
0.0
 11
417.731332056797
 21
300.8489316248685
 31
0.0
  0
LINE
  5
5F2
330
1F
100
AcDbEntity
  8
0
  6
Continuous
 62
     7
370
    15
100
AcDbLine
 10
417.731332056797
 20
269.5739316248685
 30
0.0
 11
417.731332056797
 21
268.7739316248685
 31
0.0
  0
LINE
  5
5F3
330
1F
100
AcDbEntity
  8
0
  6
Continuous
 62
     7
370
    15
100
AcDbLine
 10
417.731332056797
 20
268.7739316248685
 30
0.0
 11
417.641332056797
 21
268.7739316248685
 31
0.0
  0
LINE
  5
5F4
330
1F
100
AcDbEntity
  8
0
  6
Continuous
 62
     7
370
    15
100
AcDbLine
 10
417.641332056797
 20
269.5739316248685
 30
0.0
 11
417.731332056797
 21
269.5739316248685
 31
0.0
  0
LINE
  5
5F5
330
1F
100
AcDbEntity
  8
0
  6
Continuous
 62
     7
370
    15
100
AcDbLine
 10
417.641332056797
 20
298.7739316248685
 30
0.0
 11
417.731332056797
 21
298.7739316248685
 31
0.0
  0
LINE
  5
5F6
330
1F
100
AcDbEntity
  8
0
  6
Continuous
 62
     7
370
    15
100
AcDbLine
 10
417.731332056797
 20
298.7739316248685
 30
0.0
 11
417.731332056797
 21
297.9739316248684
 31
0.0
  0
LINE
  5
5F7
330
1F
100
AcDbEntity
  8
0
  6
Continuous
 62
     7
370
    15
100
AcDbLine
 10
417.731332056797
 20
297.9739316248684
 30
0.0
 11
417.641332056797
 21
297.9739316248684
 31
0.0
  0
LINE
  5
5F8
330
1F
100
AcDbEntity
  8
0
  6
Continuous
 62
     7
370
    15
100
AcDbLine
 10
417.7413320567969
 20
299.9489316248685
 30
0.0
 11
417.641332056797
 21
299.9489316248685
 31
0.0
  0
LINE
  5
5F9
330
1F
100
AcDbEntity
  8
0
  6
Continuous
 62
     7
370
    15
100
AcDbLine
 10
417.7413320567969
 20
267.5989316248685
 30
0.0
 11
417.641332056797
 21
267.5989316248685
 31
0.0
  0
LINE
  5
5FA
330
1F
100
AcDbEntity
  8
0
  6
Continuous
 62
     7
370
    15
100
AcDbLine
 10
417.7413320567969
 20
305.7739316248683
 30
0.0
 11
417.7413320567969
 21
261.7739316248683
 31
0.0
  0
LINE
  5
5FB
330
1F
100
AcDbEntity
  8
0
  6
Continuous
 62
     7
370
    15
100
AcDbLine
 10
483.3288320567971
 20
327.3614316248685
 30
0.0
 11
439.3288320567969
 21
327.3614316248685
 31
0.0
  0
LINE
  5
5FC
330
1F
100
AcDbEntity
  8
0
  6
Continuous
 62
     7
370
    15
100
AcDbLine
 10
439.828832056797
 20
327.3614316248685
 30
0.0
 11
439.828832056797
 21
328.2739316248684
 31
0.0
  0
LINE
  5
5FD
330
1F
100
AcDbEntity
  8
0
  6
Continuous
 62
     7
370
    15
100
AcDbLine
 10
439.828832056797
 20
328.2739316248684
 30
0.0
 11
439.9788320567969
 21
328.2739316248684
 31
0.0
  0
LINE
  5
5FE
330
1F
100
AcDbEntity
  8
0
  6
Continuous
 62
     7
370
    15
100
AcDbLine
 10
417.7413320567966
 20
262.2739316248685
 30
0.0
 11
416.8288320567969
 21
262.2739316248685
 31
0.0
  0
LINE
  5
5FF
330
1F
100
AcDbEntity
  8
0
  6
Continuous
 62
     7
370
    15
100
AcDbLine
 10
416.8288320567969
 20
262.2739316248685
 30
0.0
 11
416.8288320567969
 21
262.4239316248684
 31
0.0
  0
LINE
  5
600
330
1F
100
AcDbEntity
  8
0
  6
Continuous
 62
     7
370
    15
100
AcDbLine
 10
416.8288320567969
 20
305.2739316248685
 30
0.0
 11
416.8288320567969
 21
305.1239316248685
 31
0.0
  0
LINE
  5
601
330
1F
100
AcDbEntity
  8
0
  6
Continuous
 62
     7
370
    15
100
AcDbLine
 10
417.7413320567966
 20
305.2739316248685
 30
0.0
 11
416.8288320567969
 21
305.2739316248685
 31
0.0
  0
LINE
  5
602
330
1F
100
AcDbEntity
  8
0
  6
Continuous
 62
     7
370
    15
100
AcDbLine
 10
482.828832056797
 20
328.2739316248684
 30
0.0
 11
482.678832056797
 21
328.2739316248684
 31
0.0
  0
LINE
  5
603
330
1F
100
AcDbEntity
  8
0
  6
Continuous
 62
     7
370
    15
100
AcDbLine
 10
482.828832056797
 20
327.3614316248685
 30
0.0
 11
482.828832056797
 21
328.2739316248684
 31
0.0
  0
DIMENSION
  5
604
330
1F
100
AcDbEntity
  8
SLD-0
100
AcDbDimension
  2
_D_7
 10
461.3288320567971
 20
217.773931624868
 30
0.0
 11
439.7536292069473
 21
217.773931624868
 31
0.0
 70
   160
  1
<>
 71
     2
 42
47.08750000000037
  3
STANDARD
100
AcDbAlignedDimension
 13
414.2413320567967
 23
264.9239316248688
 33
0.0
 14
461.3288320567971
 24
232.7739316248682
 34
0.0
 50
0.0000000000001729
100
AcDbRotatedDimension
  0
DIMENSION
  5
60F
330
1F
100
AcDbEntity
  8
SLD-0
100
AcDbDimension
  2
_D_8
 10
389.8037805403328
 20
283.7739316248685
 30
0.0
 11
389.8037805403327
 21
306.8661381766674
 31
0.0
 70
   160
  1
<>
 71
     2
 42
47.08750000000003
  3
STANDARD
100
AcDbAlignedDimension
 13
442.4788320567972
 23
330.8614316248685
 33
0.0
 14
417.8288320567969
 24
283.7739316248685
 34
0.0
 50
90.00000000000019
100
AcDbRotatedDimension
  0
LEADER
  5
620
330
1F
100
AcDbEntity
  8
SLD-0
100
AcDbLeader
  3
SLDDIMSTYLE3
 76
     3
 10
411.4613320567968
 20
267.923477173068
 30
0.0
 10
399.1748882265275
 20
250.9249103313174
 30
0.0
 10
392.8248882265275
 20
250.9249103313174
 30
0.0
  0
LEADER
  5
627
330
1F
100
AcDbEntity
  8
SLD-0
100
AcDbLeader
  3
SLDDIMSTYLE3
 76
     3
 10
444.3404045902261
 20
333.6414316248686
 30
0.0
 10
424.8099624238185
 20
357.3332560839254
 30
0.0
 10
418.4582712369596
 20
357.3332560839254
 30
0.0
  0
MTEXT
  5
628
330
1F
100
AcDbEntity
  8
SLD-0
100
AcDbMText
 10
488.1576200562419
 20
218.2048754585889
 30
0.0
 40
3.962399999999999
 41
0.0
 71
     1
 72
     1
  1
FIDUCIAL GROOVES
 73
     1
 44
1.0
  0
LEADER
  5
629
330
1F
100
AcDbEntity
  8
SLD-0
100
AcDbLeader
  3
SLDDIMSTYLE3
 76
     3
 10
461.3288320567967
 20
242.2314413016439
 30
0.0
 10
481.3020119225035
 20
216.2006182299761
 30
0.0
 10
487.6520119225035
 20
216.2006182299761
 30
0.0
  0
MTEXT
  5
62A
330
1F
100
AcDbEntity
  8
SLD-0
100
AcDbMText
 10
152.1847267429494
 20
200.3453205659289
 30
0.0
 40
3.962399999999999
 41
0.0
 71
     1
 72
     1
  1
FIDUCIAL GROOVES
 73
     1
 44
1.0
  0
LEADER
  5
62B
330
1F
100
AcDbEntity
  8
SLD-0
100
AcDbLeader
  3
SLDDIMSTYLE3
 76
     3
 10
123.044971557646
 20
242.4518061571677
 30
0.0
 10
145.2364381520118
 20
198.3168626413021
 30
0.0
 10
151.5864381520119
 20
198.3168626413021
 30
0.0
  0
ARC
  5
62C
330
1F
100
AcDbEntity
  8
0
  6
Continuous
 62
     7
370
    15
100
AcDbCircle
 10
347.1754988108917
 20
170.7966594601734
 30
0.0
 40
0.3968749999999799
100
AcDbArc
 50
15.18928673718121
 51
105.4722513576306
  0
ARC
  5
62D
330
1F
100
AcDbEntity
  8
0
  6
Continuous
 62
     7
370
    15
100
AcDbCircle
 10
347.1754988108917
 20
158.8904094601734
 30
0.0
 40
0.3968749999999799
100
AcDbArc
 50
254.5277486423701
 51
344.8107132628196
  0
ARC
  5
62E
330
1F
100
AcDbEntity
  8
0
  6
Continuous
 62
     7
370
    15
100
AcDbCircle
 10
325.2481550608917
 20
164.8435344601734
 30
0.0
 40
23.11796874999996
100
AcDbArc
 50
344.810713262818
 51
15.18928673718301
  0
ARC
  5
62F
330
1F
100
AcDbEntity
  8
0
  6
Continuous
 62
     7
370
    15
100
AcDbCircle
 10
347.1754988108917
 20
108.7966594601733
 30
0.0
 40
0.3968749999999799
100
AcDbArc
 50
15.18928673718319
 51
105.4722513576306
  0
ARC
  5
630
330
1F
100
AcDbEntity
  8
0
  6
Continuous
 62
     7
370
    15
100
AcDbCircle
 10
347.1754988108917
 20
96.8904094601733
 30
0.0
 40
0.3968749999999935
100
AcDbArc
 50
254.5277486423707
 51
344.8107132628157
  0
ARC
  5
631
330
1F
100
AcDbEntity
  8
0
  6
Continuous
 62
     7
370
    15
100
AcDbCircle
 10
325.2481550608917
 20
102.8435344601733
 30
0.0
 40
23.11796874999996
100
AcDbArc
 50
344.8107132628178
 51
15.18928673718294
  0
ARC
  5
632
330
1F
100
AcDbEntity
  8
0
  6
Continuous
 62
     7
370
    15
100
AcDbCircle
 10
227.6727488108917
 20
96.89040946017321
 30
0.0
 40
0.3968750000000267
100
AcDbArc
 50
195.1892867371818
 51
0.0
  0
ARC
  5
633
330
1F
100
AcDbEntity
  8
0
  6
Continuous
 62
     7
370
    15
100
AcDbCircle
 10
227.6727488108917
 20
108.7966594601732
 30
0.0
 40
0.3968750000000305
100
AcDbArc
 50
0.0
 51
164.810713262817
  0
ARC
  5
634
330
1F
100
AcDbEntity
  8
0
  6
Continuous
 62
     7
370
    15
100
AcDbCircle
 10
249.6000925608917
 20
102.8435344601732
 30
0.0
 40
23.11796875000001
100
AcDbArc
 50
164.8107132628171
 51
195.1892867371837
  0
ARC
  5
635
330
1F
100
AcDbEntity
  8
0
  6
Continuous
 62
     7
370
    15
100
AcDbCircle
 10
227.6727488108917
 20
158.8904094601733
 30
0.0
 40
0.396875000000023
100
AcDbArc
 50
195.1892867371798
 51
0.0
  0
ARC
  5
636
330
1F
100
AcDbEntity
  8
0
  6
Continuous
 62
     7
370
    15
100
AcDbCircle
 10
227.6727488108917
 20
170.7966594601733
 30
0.0
 40
0.396875000000023
100
AcDbArc
 50
0.0
 51
164.810713262821
  0
ARC
  5
637
330
1F
100
AcDbEntity
  8
0
  6
Continuous
 62
     7
370
    15
100
AcDbCircle
 10
249.6000925608917
 20
164.8435344601733
 30
0.0
 40
23.11796875000002
100
AcDbArc
 50
164.8107132628171
 51
195.1892867371838
  0
ARC
  5
638
330
1F
100
AcDbEntity
  8
0
  6
Continuous
 62
     7
370
    15
100
AcDbCircle
 10
229.6696238108917
 20
76.34353446017366
 30
0.0
 40
1.600000000000008
100
AcDbArc
 50
180.0
 51
270.0000000000008
  0
ARC
  5
639
330
1F
100
AcDbEntity
  8
0
  6
Continuous
 62
     7
370
    15
100
AcDbCircle
 10
345.4696238108917
 20
76.34353446017366
 30
0.0
 40
1.600000000000022
100
AcDbArc
 50
270.0000000000008
 51
0.0000000000005089
  0
LINE
  5
63A
330
1F
100
AcDbEntity
  8
0
  6
Continuous
 62
     7
370
    15
100
AcDbLine
 10
345.4696238108917
 20
74.74353446017365
 30
0.0
 11
229.6696238108917
 21
74.74353446017365
 31
0.0
  0
LINE
  5
63B
330
1F
100
AcDbEntity
  8
0
  6
Continuous
 62
     7
370
    15
100
AcDbLine
 10
347.0696238108918
 20
191.3435344601736
 30
0.0
 11
347.0696238108918
 21
76.34353446017367
 31
0.0
  0
CIRCLE
  5
63C
330
1F
100
AcDbEntity
  8
0
  6
Continuous
 62
     7
370
    15
100
AcDbCircle
 10
317.5696238108917
 20
103.8435344601736
 30
0.0
 40
2.099999999999965
  0
CIRCLE
  5
63D
330
1F
100
AcDbEntity
  8
0
  6
Continuous
 62
     7
370
    15
100
AcDbCircle
 10
257.5696238108917
 20
103.8435344601736
 30
0.0
 40
2.099999999999965
  0
CIRCLE
  5
63E
330
1F
100
AcDbEntity
  8
0
  6
Continuous
 62
     7
370
    15
100
AcDbCircle
 10
341.5696238108917
 20
87.84353446017368
 30
0.0
 40
3.25
  0
LINE
  5
63F
330
1F
100
AcDbEntity
  8
0
  6
Continuous
 62
     7
370
    15
100
AcDbLine
 10
232.3196238108917
 20
176.5935344601737
 30
0.0
 11
233.8196238108917
 21
176.5935344601737
 31
0.0
  0
ARC
  5
640
330
1F
100
AcDbEntity
  8
0
  6
Continuous
 62
     7
370
    15
100
AcDbCircle
 10
233.8196238108917
 20
179.8435344601736
 30
0.0
 40
3.250000000000028
100
AcDbArc
 50
270.0000000000008
 51
90.0
  0
LINE
  5
641
330
1F
100
AcDbEntity
  8
0
  6
Continuous
 62
     7
370
    15
100
AcDbLine
 10
233.8196238108917
 20
183.0935344601737
 30
0.0
 11
232.3196238108917
 21
183.0935344601737
 31
0.0
  0
ARC
  5
642
330
1F
100
AcDbEntity
  8
0
  6
Continuous
 62
     7
370
    15
100
AcDbCircle
 10
232.3196238108917
 20
179.8435344601736
 30
0.0
 40
3.250000000000028
100
AcDbArc
 50
90.0
 51
144.6254095528449
  0
ARC
  5
643
330
1F
100
AcDbEntity
  8
0
  6
Continuous
 62
     7
370
    15
100
AcDbCircle
 10
232.3196238108917
 20
87.84353446017366
 30
0.0
 40
3.25
100
AcDbArc
 50
215.3745904471559
 51
270.0000000000008
  0
LINE
  5
644
330
1F
100
AcDbEntity
  8
0
  6
Continuous
 62
     7
370
    15
100
AcDbLine
 10
232.3196238108917
 20
84.59353446017365
 30
0.0
 11
233.8196238108917
 21
84.59353446017365
 31
0.0
  0
ARC
  5
645
330
1F
100
AcDbEntity
  8
0
  6
Continuous
 62
     7
370
    15
100
AcDbCircle
 10
233.8196238108917
 20
87.84353446017366
 30
0.0
 40
3.250000000000014
100
AcDbArc
 50
270.0000000000008
 51
90.0
  0
LINE
  5
646
330
1F
100
AcDbEntity
  8
0
  6
Continuous
 62
     7
370
    15
100
AcDbLine
 10
233.8196238108917
 20
91.09353446017367
 30
0.0
 11
232.3196238108917
 21
91.09353446017367
 31
0.0
  0
ARC
  5
647
330
1F
100
AcDbEntity
  8
0
  6
Continuous
 62
     7
370
    15
100
AcDbCircle
 10
232.3196238108917
 20
87.84353446017366
 30
0.0
 40
3.250000000000014
100
AcDbArc
 50
90.0
 51
144.6254095528447
  0
ARC
  5
648
330
1F
100
AcDbEntity
  8
0
  6
Continuous
 62
     7
370
    15
100
AcDbCircle
 10
232.3196238108917
 20
179.8435344601736
 30
0.0
 40
3.249999999999998
100
AcDbArc
 50
215.3745904471559
 51
270.0000000000008
  0
CIRCLE
  5
649
330
1F
100
AcDbEntity
  8
0
  6
Continuous
 62
     7
370
    15
100
AcDbCircle
 10
341.5696238108917
 20
179.8435344601737
 30
0.0
 40
3.25
  0
CIRCLE
  5
64A
330
1F
100
AcDbEntity
  8
0
  6
Continuous
 62
     7
370
    15
100
AcDbCircle
 10
257.5696238108917
 20
163.8435344601736
 30
0.0
 40
2.099999999999965
  0
CIRCLE
  5
64B
330
1F
100
AcDbEntity
  8
0
  6
Continuous
 62
     7
370
    15
100
AcDbCircle
 10
317.5696238108917
 20
163.8435344601736
 30
0.0
 40
2.099999999999965
  0
CIRCLE
  5
64C
330
1F
100
AcDbEntity
  8
0
  6
Continuous
 62
     7
370
    15
100
AcDbCircle
 10
257.5696238108917
 20
133.8435344601736
 30
0.0
 40
2.749999999999971
  0
ARC
  5
64D
330
1F
100
AcDbEntity
  8
0
  6
Continuous
 62
     7
370
    15
100
AcDbCircle
 10
316.0696238108917
 20
133.8435344601736
 30
0.0
 40
2.525000000000005
100
AcDbArc
 50
90.0
 51
270.0000000000008
  0
LINE
  5
64E
330
1F
100
AcDbEntity
  8
0
  6
Continuous
 62
     7
370
    15
100
AcDbLine
 10
316.0696238108917
 20
131.3185344601736
 30
0.0
 11
319.0696238108917
 21
131.3185344601736
 31
0.0
  0
ARC
  5
64F
330
1F
100
AcDbEntity
  8
0
  6
Continuous
 62
     7
370
    15
100
AcDbCircle
 10
319.0696238108917
 20
133.8435344601736
 30
0.0
 40
2.525000000000005
100
AcDbArc
 50
270.0000000000008
 51
90.0
  0
LINE
  5
650
330
1F
100
AcDbEntity
  8
0
  6
Continuous
 62
     7
370
    15
100
AcDbLine
 10
319.0696238108917
 20
136.3685344601736
 30
0.0
 11
316.0696238108917
 21
136.3685344601736
 31
0.0
  0
SPLINE
  5
651
330
1F
100
AcDbEntity
  8
0
  6
Continuous
 62
     7
370
    15
100
AcDbSpline
210
0.0
220
0.0
230
1.0
 70
     8
 71
     3
 72
    11
 73
     7
 74
     0
 42
0.0000000001
 43
0.0000000001
 40
0.0
 40
0.0
 40
0.0
 40
0.0
 40
0.2565567787768462
 40
0.5181201568479591
 40
0.7798092573069316
 40
1.0
 40
1.0
 40
1.0
 40
1.0
 10
229.6696238108917
 20
89.72502323239634
 30
0.0
 10
229.496585464339
 20
89.42684769829652
 30
0.0
 10
229.1471319995581
 20
88.82467785802729
 30
0.0
 10
229.0196298524538
 20
87.76826007879723
 30
0.0
 10
229.1869386322523
 20
86.77063022574825
 30
0.0
 10
229.5182390212219
 20
86.21564245371407
 30
0.0
 10
229.6696238108917
 20
85.96204568795098
 30
0.0
  0
LINE
  5
652
330
1F
100
AcDbEntity
  8
0
  6
Continuous
 62
     7
370
    15
100
AcDbLine
 10
228.0696238108918
 20
76.34353446017366
 30
0.0
 11
228.0696238108918
 21
191.3435344601736
 31
0.0
  0
SPLINE
  5
653
330
1F
100
AcDbEntity
  8
0
  6
Continuous
 62
     7
370
    15
100
AcDbSpline
210
0.0
220
0.0
230
1.0
 70
     8
 71
     3
 72
    11
 73
     7
 74
     0
 42
0.0000000001
 43
0.0000000001
 40
0.0
 40
0.0
 40
0.0
 40
0.0
 40
0.2565567787768462
 40
0.5181201568479591
 40
0.7798092573069316
 40
1.0
 40
1.0
 40
1.0
 40
1.0
 10
229.6696238108917
 20
181.7250232323963
 30
0.0
 10
229.496585464339
 20
181.4268476982965
 30
0.0
 10
229.1471319995581
 20
180.8246778580273
 30
0.0
 10
229.0196298524538
 20
179.7682600787972
 30
0.0
 10
229.1869386322523
 20
178.7706302257482
 30
0.0
 10
229.5182390212219
 20
178.2156424537141
 30
0.0
 10
229.6696238108917
 20
177.962045687951
 30
0.0
  0
CIRCLE
  5
654
330
1F
100
AcDbEntity
  8
0
  6
Continuous
 62
     7
370
    15
100
AcDbCircle
 10
257.5696238108917
 20
133.8435344601736
 30
0.0
 40
2.5
  0
LINE
  5
655
330
1F
100
AcDbEntity
  8
0
  6
Continuous
 62
     7
370
    15
100
AcDbLine
 10
229.6696238108917
 20
192.9435344601736
 30
0.0
 11
345.4696238108917
 21
192.9435344601736
 31
0.0
  0
ARC
  5
656
330
1F
100
AcDbEntity
  8
0
  6
Continuous
 62
     7
370
    15
100
AcDbCircle
 10
345.4696238108917
 20
191.3435344601736
 30
0.0
 40
1.600000000000022
100
AcDbArc
 50
0.0
 51
90.0
  0
ARC
  5
657
330
1F
100
AcDbEntity
  8
0
  6
Continuous
 62
     7
370
    15
100
AcDbCircle
 10
229.6696238108917
 20
191.3435344601736
 30
0.0
 40
1.599999999999994
100
AcDbArc
 50
90.0
 51
180.0
  0
LINE
  5
658
330
1F
100
AcDbEntity
  8
0
  6
Continuous
 62
     7
370
    15
100
AcDbLine
 10
342.7975130416064
 20
88.60223161347596
 30
0.0
 11
341.5265174177106
 21
89.2862663036572
 31
0.0
  0
LINE
  5
659
330
1F
100
AcDbEntity
  8
0
  6
Continuous
 62
     7
370
    15
100
AcDbLine
 10
341.5265174177106
 20
89.2862663036572
 30
0.0
 11
340.298628186996
 21
88.52756915035531
 31
0.0
  0
LINE
  5
65A
330
1F
100
AcDbEntity
  8
0
  6
Continuous
 62
     7
370
    15
100
AcDbLine
 10
340.298628186996
 20
88.52756915035531
 30
0.0
 11
340.341734580177
 21
87.08483730687216
 31
0.0
  0
LINE
  5
65B
330
1F
100
AcDbEntity
  8
0
  6
Continuous
 62
     7
370
    15
100
AcDbLine
 10
340.341734580177
 20
87.08483730687216
 30
0.0
 11
341.6127302040727
 21
86.40080261669087
 31
0.0
  0
LINE
  5
65C
330
1F
100
AcDbEntity
  8
0
  6
Continuous
 62
     7
370
    15
100
AcDbLine
 10
341.6127302040727
 20
86.40080261669087
 30
0.0
 11
342.8406194347874
 21
87.15949976999281
 31
0.0
  0
LINE
  5
65D
330
1F
100
AcDbEntity
  8
0
  6
Continuous
 62
     7
370
    15
100
AcDbLine
 10
342.8406194347874
 20
87.15949976999281
 30
0.0
 11
342.7975130416064
 21
88.60223161347596
 31
0.0
  0
CIRCLE
  5
65E
330
1F
100
AcDbEntity
  8
0
  6
Continuous
 62
     7
370
    15
100
AcDbCircle
 10
341.5696238108917
 20
87.84353446017407
 30
0.0
 40
2.500000000000023
  0
CIRCLE
  5
65F
330
1F
100
AcDbEntity
  8
0
  6
Continuous
 62
     7
370
    15
100
AcDbCircle
 10
341.5696238108917
 20
87.84353446017407
 30
0.0
 40
2.749999999999996
  0
LINE
  5
660
330
1F
100
AcDbEntity
  8
0
  6
Continuous
 62
     7
370
    15
100
AcDbLine
 10
342.7975130416064
 20
180.6022316134759
 30
0.0
 11
341.5265174177106
 21
181.2862663036572
 31
0.0
  0
LINE
  5
661
330
1F
100
AcDbEntity
  8
0
  6
Continuous
 62
     7
370
    15
100
AcDbLine
 10
341.5265174177106
 20
181.2862663036572
 30
0.0
 11
340.298628186996
 21
180.5275691503553
 31
0.0
  0
LINE
  5
662
330
1F
100
AcDbEntity
  8
0
  6
Continuous
 62
     7
370
    15
100
AcDbLine
 10
340.298628186996
 20
180.5275691503553
 30
0.0
 11
340.341734580177
 21
179.0848373068721
 31
0.0
  0
LINE
  5
663
330
1F
100
AcDbEntity
  8
0
  6
Continuous
 62
     7
370
    15
100
AcDbLine
 10
340.341734580177
 20
179.0848373068721
 30
0.0
 11
341.6127302040727
 21
178.4008026166908
 31
0.0
  0
LINE
  5
664
330
1F
100
AcDbEntity
  8
0
  6
Continuous
 62
     7
370
    15
100
AcDbLine
 10
341.6127302040727
 20
178.4008026166908
 30
0.0
 11
342.8406194347874
 21
179.1594997699928
 31
0.0
  0
LINE
  5
665
330
1F
100
AcDbEntity
  8
0
  6
Continuous
 62
     7
370
    15
100
AcDbLine
 10
342.8406194347874
 20
179.1594997699928
 30
0.0
 11
342.7975130416064
 21
180.6022316134759
 31
0.0
  0
CIRCLE
  5
666
330
1F
100
AcDbEntity
  8
0
  6
Continuous
 62
     7
370
    15
100
AcDbCircle
 10
341.5696238108917
 20
179.843534460174
 30
0.0
 40
2.500000000000035
  0
CIRCLE
  5
667
330
1F
100
AcDbEntity
  8
0
  6
Continuous
 62
     7
370
    15
100
AcDbCircle
 10
341.5696238108917
 20
179.843534460174
 30
0.0
 40
2.750000000000008
  0
LINE
  5
668
330
1F
100
AcDbEntity
  8
0
  6
Continuous
 62
     7
370
    15
100
AcDbLine
 10
234.4475130416063
 20
180.6022316134759
 30
0.0
 11
233.1765174177105
 21
181.2862663036572
 31
0.0
  0
LINE
  5
669
330
1F
100
AcDbEntity
  8
0
  6
Continuous
 62
     7
370
    15
100
AcDbLine
 10
233.1765174177105
 20
181.2862663036572
 30
0.0
 11
231.948628186996
 21
180.5275691503553
 31
0.0
  0
LINE
  5
66A
330
1F
100
AcDbEntity
  8
0
  6
Continuous
 62
     7
370
    15
100
AcDbLine
 10
231.948628186996
 20
180.5275691503553
 30
0.0
 11
231.9917345801771
 21
179.0848373068721
 31
0.0
  0
LINE
  5
66B
330
1F
100
AcDbEntity
  8
0
  6
Continuous
 62
     7
370
    15
100
AcDbLine
 10
231.9917345801771
 20
179.0848373068721
 30
0.0
 11
233.2627302040727
 21
178.4008026166908
 31
0.0
  0
LINE
  5
66C
330
1F
100
AcDbEntity
  8
0
  6
Continuous
 62
     7
370
    15
100
AcDbLine
 10
233.2627302040727
 20
178.4008026166908
 30
0.0
 11
234.4906194347874
 21
179.1594997699928
 31
0.0
  0
LINE
  5
66D
330
1F
100
AcDbEntity
  8
0
  6
Continuous
 62
     7
370
    15
100
AcDbLine
 10
234.4906194347874
 20
179.1594997699928
 30
0.0
 11
234.4475130416063
 21
180.6022316134759
 31
0.0
  0
CIRCLE
  5
66E
330
1F
100
AcDbEntity
  8
0
  6
Continuous
 62
     7
370
    15
100
AcDbCircle
 10
233.2196238108917
 20
179.843534460174
 30
0.0
 40
2.50000000000002
  0
CIRCLE
  5
66F
330
1F
100
AcDbEntity
  8
0
  6
Continuous
 62
     7
370
    15
100
AcDbCircle
 10
233.2196238108917
 20
179.843534460174
 30
0.0
 40
2.749999999999984
  0
LINE
  5
670
330
1F
100
AcDbEntity
  8
0
  6
Continuous
 62
     7
370
    15
100
AcDbLine
 10
234.4475130416063
 20
88.60223161347596
 30
0.0
 11
233.1765174177105
 21
89.28626630365718
 31
0.0
  0
LINE
  5
671
330
1F
100
AcDbEntity
  8
0
  6
Continuous
 62
     7
370
    15
100
AcDbLine
 10
233.1765174177105
 20
89.28626630365718
 30
0.0
 11
231.948628186996
 21
88.52756915035531
 31
0.0
  0
LINE
  5
672
330
1F
100
AcDbEntity
  8
0
  6
Continuous
 62
     7
370
    15
100
AcDbLine
 10
231.948628186996
 20
88.52756915035531
 30
0.0
 11
231.9917345801771
 21
87.08483730687216
 31
0.0
  0
LINE
  5
673
330
1F
100
AcDbEntity
  8
0
  6
Continuous
 62
     7
370
    15
100
AcDbLine
 10
231.9917345801771
 20
87.08483730687216
 30
0.0
 11
233.2627302040727
 21
86.40080261669087
 31
0.0
  0
LINE
  5
674
330
1F
100
AcDbEntity
  8
0
  6
Continuous
 62
     7
370
    15
100
AcDbLine
 10
233.2627302040727
 20
86.40080261669087
 30
0.0
 11
234.4906194347874
 21
87.15949976999281
 31
0.0
  0
LINE
  5
675
330
1F
100
AcDbEntity
  8
0
  6
Continuous
 62
     7
370
    15
100
AcDbLine
 10
234.4906194347874
 20
87.15949976999281
 30
0.0
 11
234.4475130416063
 21
88.60223161347596
 31
0.0
  0
CIRCLE
  5
676
330
1F
100
AcDbEntity
  8
0
  6
Continuous
 62
     7
370
    15
100
AcDbCircle
 10
233.2196238108917
 20
87.84353446017407
 30
0.0
 40
2.500000000000008
  0
CIRCLE
  5
677
330
1F
100
AcDbEntity
  8
0
  6
Continuous
 62
     7
370
    15
100
AcDbCircle
 10
233.2196238108917
 20
87.84353446017407
 30
0.0
 40
2.749999999999984
  0
DIMENSION
  5
678
330
1F
100
AcDbEntity
  8
SLD-0
100
AcDbDimension
  2
_D_9
 10
228.0696238108919
 20
64.7435344601718
 30
0.0
 11
242.1547472018728
 21
64.7435344601718
 31
0.0
 70
   160
  1
3X\P<>
 71
     2
 42
29.49999999999992
  3
STANDARD
100
AcDbAlignedDimension
 13
257.5696238108919
 23
99.84353446017344
 33
0.0
 14
228.0696238108919
 24
76.3435344601733
 34
0.0
 50
0.0000000000002208
100
AcDbRotatedDimension
  0
DIMENSION
  5
684
330
1F
100
AcDbEntity
  8
SLD-0
100
AcDbDimension
  2
_D_10
 10
317.5696238108919
 20
64.7435344601718
 30
0.0
 11
289.8232208464446
 21
64.7435344601718
 31
0.0
 70
   160
  1
3X\P<>
 71
     2
 42
60.0
  3
STANDARD
100
AcDbAlignedDimension
 13
257.5696238108919
 23
99.84353446017344
 33
0.0
 14
317.5696238108919
 24
99.84353446017363
 34
0.0
100
AcDbRotatedDimension
  0
DIMENSION
  5
690
330
1F
100
AcDbEntity
  8
SLD-0
100
AcDbDimension
  2
_D_11
 10
382.366123810892
 20
103.8435344601736
 30
0.0
 11
382.366123810892
 21
119.1266309402499
 31
0.0
 70
   160
  1
2X\P<>
 71
     2
 42
30.00000000000011
  3
STANDARD
100
AcDbAlignedDimension
 13
351.8196238108918
 23
133.8435344601737
 33
0.0
 14
321.5696238108919
 24
103.8435344601736
 34
0.0
 50
90.00000000000019
100
AcDbRotatedDimension
  0
DIMENSION
  5
69C
330
1F
100
AcDbEntity
  8
SLD-0
100
AcDbDimension
  2
_D_12
 10
400.366123810892
 20
163.8435344601736
 30
0.0
 11
400.3661238108919
 21
136.5403459717146
 31
0.0
 70
   160
  1
2X\P<>
 71
     2
 42
60.0
  3
STANDARD
100
AcDbAlignedDimension
 13
321.5696238108919
 23
103.8435344601736
 33
0.0
 14
321.5696238108916
 24
163.8435344601736
 34
0.0
 50
90.00000000000019
100
AcDbRotatedDimension
  0
DIMENSION
  5
6A8
330
1F
100
AcDbEntity
  8
SLD-0
100
AcDbDimension
  2
_D_13
 10
259.533432275207
 20
103.0995880135227
 30
0.0
 11
195.6388020617601
 21
118.1321486478077
 31
0.0
 70
   163
  1
4X\PM5X0.8 {\fGDT|b0|i0|c0|p0;x} 7
 71
     6
 42
4.19999999999996
  3
STANDARD
100
AcDbDiametricDimension
 15
255.6058153465769
 25
104.5874809068242
 35
0.0
 40
0.0
  0
DIMENSION
  5
6BB
330
1F
100
AcDbEntity
  8
SLD-0
100
AcDbDimension
  2
_D_14
 10
355.3000639226339
 20
136.3685344601736
 30
0.0
 11
378.7659826767683
 21
151.386419117664
 31
0.0
 70
   160
  1
<> {\fGDT|b0|i0|c0|p0;X} 6 DEEP
 71
     2
 42
5.050000000000011
  3
TOL
100
AcDbAlignedDimension
 13
319.0696238108917
 23
131.3185344601736
 33
0.0
 14
319.0696238108917
 24
136.3685344601736
 34
0.0
 50
90.00000000000019
100
AcDbRotatedDimension
1001
ACAD
1000
DSTYLE
1002
{
1070
    47
1040
0.0
1070
    48
1040
0.03
1002
}
  0
DIMENSION
  5
6CC
330
1F
100
AcDbEntity
  8
SLD-0
100
AcDbDimension
  2
_D_15
 10
319.0696238108917
 20
119.1266309402501
 30
0.0
 11
361.0871427721763
 21
119.1266309402501
 31
0.0
 70
   160
  1
<>
 71
     2
 42
3.0
  3
STANDARD
100
AcDbAlignedDimension
 13
316.0696238108918
 23
131.3185344601736
 33
0.0
 14
319.0696238108917
 24
131.3185344601736
 34
0.0
 50
0.0000000000002714
100
AcDbRotatedDimension
  0
INSERT
  5
6EE
330
1F
100
AcDbEntity
  8
SLD-0
100
AcDbBlockReference
  2
SW_CENTERMARKSYMBOL_0
 10
257.5696238108916
 20
163.8435344601734
 30
0.0
  0
INSERT
  5
6F6
330
1F
100
AcDbEntity
  8
SLD-0
100
AcDbBlockReference
  2
SW_CENTERMARKSYMBOL_1
 10
317.5696238108918
 20
133.8435344601736
 30
0.0
  0
INSERT
  5
6FE
330
1F
100
AcDbEntity
  8
SLD-0
100
AcDbBlockReference
  2
SW_CENTERMARKSYMBOL_2
 10
257.5696238108918
 20
133.8435344601734
 30
0.0
  0
INSERT
  5
706
330
1F
100
AcDbEntity
  8
SLD-0
100
AcDbBlockReference
  2
SW_CENTERMARKSYMBOL_3
 10
257.5696238108919
 20
103.8435344601734
 30
0.0
  0
INSERT
  5
70E
330
1F
100
AcDbEntity
  8
SLD-0
100
AcDbBlockReference
  2
SW_CENTERMARKSYMBOL_4
 10
317.5696238108919
 20
103.8435344601736
 30
0.0
  0
INSERT
  5
716
330
1F
100
AcDbEntity
  8
SLD-0
100
AcDbBlockReference
  2
SW_CENTERMARKSYMBOL_5
 10
317.5696238108916
 20
163.8435344601736
 30
0.0
  0
CIRCLE
  5
717
330
1F
100
AcDbEntity
  8
SLD-0
100
AcDbCircle
 10
257.5696238108916
 20
163.8435344601734
 30
0.0
 40
2.5
  0
CIRCLE
  5
718
330
1F
100
AcDbEntity
  8
SLD-0
100
AcDbCircle
 10
257.5696238108918
 20
103.8435344601734
 30
0.0
 40
2.5
  0
CIRCLE
  5
719
330
1F
100
AcDbEntity
  8
SLD-0
100
AcDbCircle
 10
317.5696238108916
 20
163.8435344601736
 30
0.0
 40
2.5
  0
CIRCLE
  5
71A
330
1F
100
AcDbEntity
  8
SLD-0
100
AcDbCircle
 10
317.5696238108918
 20
103.8435344601736
 30
0.0
 40
2.5
  0
LINE
  5
71B
330
1F
100
AcDbEntity
  8
SLD-0
  6
CENTERX2
370
     0
100
AcDbLine
 10
351.8196238108918
 20
133.8435344601737
 30
0.0
 11
210.0279722885477
 21
133.8435344601737
 31
0.0
  0
DIMENSION
  5
AE6
330
1F
100
AcDbEntity
  8
0
100
AcDbDimension
  2
*D23
 10
259.771048002002
 20
132.6587426933241
 30
0.0
 11
192.3123562809852
 21
155.2604849212445
 31
0.0
 70
   163
  1
<> X 6 DEEP
 71
     5
 42
5.0
  3
TOL
100
AcDbDiametricDimension
 15
255.3681996197814
 25
135.0283262270231
 35
0.0
 40
0.0
1001
ACAD
1000
DSTYLE
1002
{
1070
   288
1070
     1
1002
}
  0
MTEXT
  5
C68
330
1F
100
AcDbEntity
  8
SLD-0
 62
     0
100
AcDbMText
 10
417.8382675230686
 20
359.4241395561888
 30
0.0
 40
3.962399999999999
 41
0.0
 71
     3
 72
     1
  1
68-PIN VHDCI\PCHANNELS 65-128
 73
     1
 44
1.0
  0
MTEXT
  5
C6E
330
1F
100
AcDbEntity
  8
SLD-0
 62
     0
100
AcDbMText
 10
391.1459429522433
 20
253.2144405190184
 30
0.0
 40
3.962399999999999
 41
0.0
 71
     3
 72
     1
  1
68-PIN VHDCI\PCHANNELS 1-64
 73
     1
 44
1.0
  0
DIMENSION
  5
DDC
330
1F
100
AcDbEntity
  8
0
100
AcDbDimension
  2
*D26
 10
192.8888346334618
 20
247.7739331745892
 30
0.0
 11
192.8888346334617
 21
283.7739316248685
 31
0.0
 70
    32
  1
%%C<>
 71
     5
 42
71.99999690055841
  3
STANDARD
100
AcDbAlignedDimension
 13
123.0647214788763
 23
319.7739300751477
 33
0.0
 14
123.054721479129
 24
247.7739331745893
 34
0.0
 50
90.0
100
AcDbRotatedDimension
1001
ACAD
1000
DSTYLE
1002
{
1070
   174
1070
     1
1002
}
  0
ENDSEC
  0
SECTION
  2
OBJECTS
  0
DICTIONARY
  5
C
330
0
100
AcDbDictionary
281
     1
  3
ACAD_COLOR
350
71E
  3
ACAD_GROUP
350
D
  3
ACAD_LAYOUT
350
1A
  3
ACAD_MATERIAL
350
71D
  3
ACAD_MLINESTYLE
350
17
  3
ACAD_PLOTSETTINGS
350
19
  3
ACAD_PLOTSTYLENAME
350
E
  3
ACAD_SCALELIST
350
47
  3
ACAD_TABLESTYLE
350
71F
  3
AcDbVariableDictionary
350
728
  0
DICTIONARY
  5
724
330
2
100
AcDbDictionary
280
     1
281
     1
  3
ACAD_LAYERFILTERS
360
726
  3
ACLYDICTIONARY
360
725
  0
DICTIONARY
  5
C6A
330
1F
100
AcDbDictionary
280
     1
281
     1
  3
ACAD_SORTENTS
360
C6B
  0
DICTIONARY
  5
71E
102
{ACAD_REACTORS
330
C
102
}
330
C
100
AcDbDictionary
281
     1
  0
DICTIONARY
  5
D
102
{ACAD_REACTORS
330
C
102
}
330
C
100
AcDbDictionary
281
     1
  0
DICTIONARY
  5
1A
102
{ACAD_REACTORS
330
C
102
}
330
C
100
AcDbDictionary
281
     1
  3
Layout1
350
1E
  3
Layout2
350
26
  3
Model
350
22
  0
DICTIONARY
  5
71D
102
{ACAD_REACTORS
330
C
102
}
330
C
100
AcDbDictionary
281
     1
  0
DICTIONARY
  5
17
102
{ACAD_REACTORS
330
C
102
}
330
C
100
AcDbDictionary
281
     1
  3
Standard
350
18
  0
DICTIONARY
  5
19
102
{ACAD_REACTORS
330
C
102
}
330
C
100
AcDbDictionary
281
     1
  0
ACDBDICTIONARYWDFLT
  5
E
102
{ACAD_REACTORS
330
C
102
}
330
C
100
AcDbDictionary
281
     1
  3
Normal
350
F
100
AcDbDictionaryWithDefault
340
F
  0
DICTIONARY
  5
47
102
{ACAD_REACTORS
330
C
102
}
330
C
100
AcDbDictionary
281
     1
  3
A0
350
48
  3
A1
350
49
  3
A2
350
4A
  3
A3
350
4B
  3
A4
350
4C
  3
A5
350
4D
  3
A6
350
4E
  3
A7
350
4F
  3
A8
350
50
  3
A9
350
51
  3
B0
350
52
  3
B1
350
53
  3
B2
350
54
  3
B3
350
55
  3
B4
350
56
  3
B5
350
57
  3
B6
350
58
  3
B7
350
59
  3
B8
350
5A
  3
B9
350
5B
  3
C0
350
5C
  3
C1
350
5D
  3
C2
350
5E
  3
C3
350
5F
  3
C4
350
60
  3
C5
350
61
  3
C6
350
62
  3
C7
350
63
  3
C8
350
64
  3
C9
350
65
  3
D0
350
66
  3
D1
350
67
  3
D2
350
68
  0
DICTIONARY
  5
71F
102
{ACAD_REACTORS
330
C
102
}
330
C
100
AcDbDictionary
281
     1
  3
Standard
350
720
  0
DICTIONARY
  5
728
102
{ACAD_REACTORS
330
C
102
}
330
C
100
AcDbDictionary
281
     1
  3
CTABLESTYLE
350
729
  0
DICTIONARY
  5
726
102
{ACAD_REACTORS
330
724
102
}
330
724
100
AcDbDictionary
281
     1
  0
DICTIONARY
  5
725
102
{ACAD_REACTORS
330
724
102
}
330
724
100
AcDbDictionary
281
     1
1001
ACAD
1000
<All
  0
SORTENTSTABLE
  5
C6B
102
{ACAD_REACTORS
330
C6A
102
}
330
C6A
100
AcDbSortentsTable
330
1F
331
6BB
  5
6FE
331
66D
  5
671
331
62F
  5
633
331
5F1
  5
5F1
331
5B3
  5
5B3
331
5D2
  5
5D2
331
64E
  5
652
331
39D
  5
39D
331
37E
  5
37E
331
348
  5
348
331
30A
  5
30A
331
2B5
  5
2B5
331
241
  5
241
331
222
  5
222
331
203
  5
203
331
296
  5
296
331
329
  5
329
331
35F
  5
35F
331
3BC
  5
3BC
331
66E
  5
672
331
64F
  5
653
331
630
  5
634
331
5D3
  5
5D3
331
5B4
  5
5B4
331
5F2
  5
5F2
331
3BD
  5
3BD
331
37F
  5
37F
331
360
  5
360
331
32A
  5
32A
331
30B
  5
30B
331
297
  5
297
331
242
  5
242
331
204
  5
204
331
223
  5
223
331
278
  5
278
331
2B6
  5
2B6
331
349
  5
349
331
39E
  5
39E
331
66F
  5
673
331
631
  5
635
331
5F3
  5
5F3
331
5B5
  5
5B5
331
5D4
  5
5D4
331
650
  5
654
331
39F
  5
39F
331
380
  5
380
331
34A
  5
34A
331
30C
  5
30C
331
2B7
  5
2B7
331
243
  5
243
331
224
  5
224
331
205
  5
205
331
298
  5
298
331
32B
  5
32B
331
361
  5
361
331
3BE
  5
3BE
331
651
  5
655
331
632
  5
636
331
5D5
  5
5D5
331
5B6
  5
5B6
331
5F4
  5
5F4
331
670
  5
674
331
3BF
  5
3BF
331
3A0
  5
3A0
331
362
  5
362
331
32C
  5
32C
331
30D
  5
30D
331
299
  5
299
331
244
  5
244
331
206
  5
206
331
225
  5
225
331
2B8
  5
2B8
331
34B
  5
34B
331
381
  5
381
331
6EE
  5
70E
331
671
  5
675
331
633
  5
637
331
5F5
  5
5F5
331
5B7
  5
5B7
331
5D6
  5
5D6
331
652
  5
656
331
3A1
  5
3A1
331
382
  5
382
331
34C
  5
34C
331
30E
  5
30E
331
2B9
  5
2B9
331
29A
  5
29A
331
226
  5
226
331
207
  5
207
331
245
  5
245
331
32D
  5
32D
331
363
  5
363
331
3C0
  5
3C0
331
70E
  5
719
331
653
  5
657
331
634
  5
638
331
5D7
  5
5D7
331
5B8
  5
5B8
331
5F6
  5
5F6
331
672
  5
676
331
3C1
  5
3C1
331
3A2
  5
3A2
331
364
  5
364
331
32E
  5
32E
331
30F
  5
30F
331
29B
  5
29B
331
246
  5
246
331
227
  5
227
331
2BA
  5
2BA
331
2F0
  5
2F0
331
34D
  5
34D
331
383
  5
383
331
673
  5
677
331
635
  5
639
331
5F7
  5
5F7
331
5B9
  5
5B9
331
5D8
  5
5D8
331
654
  5
658
331
3C2
  5
3C2
331
384
  5
384
331
34E
  5
34E
331
310
  5
310
331
2BB
  5
2BB
331
29C
  5
29C
331
247
  5
247
331
32F
  5
32F
331
365
  5
365
331
3A3
  5
3A3
331
655
  5
659
331
636
  5
63A
331
5D9
  5
5D9
331
5BA
  5
5BA
331
5F8
  5
5F8
331
674
  5
678
331
3C3
  5
3C3
331
3A4
  5
3A4
331
366
  5
366
331
330
  5
330
331
311
  5
311
331
29D
  5
29D
331
2BC
  5
2BC
331
2F2
  5
2F2
331
34F
  5
34F
331
385
  5
385
331
675
  5
684
331
637
  5
63B
331
5F9
  5
5F9
331
5BB
  5
5BB
331
5DA
  5
5DA
331
620
  5
629
331
656
  5
65A
331
69C
  5
6EE
331
3C4
  5
3C4
331
386
  5
386
331
331
  5
331
331
2BD
  5
2BD
331
29E
  5
29E
331
2F3
  5
2F3
331
312
  5
312
331
367
  5
367
331
3A5
  5
3A5
331
1DD
  5
1DD
331
6CC
  5
706
331
657
  5
65B
331
638
  5
63C
331
5DB
  5
5DB
331
5BC
  5
5BC
331
5FA
  5
5FA
331
676
  5
690
331
3A6
  5
3A6
331
332
  5
332
331
313
  5
313
331
29F
  5
29F
331
2BE
  5
2BE
331
2F4
  5
2F4
331
368
  5
368
331
387
  5
387
331
3C5
  5
3C5
331
1DE
  5
1DE
331
677
  5
69C
331
639
  5
63D
331
5FB
  5
5FB
331
5DC
  5
5DC
331
5BD
  5
5BD
331
658
  5
65C
331
3C6
  5
3C6
331
388
  5
388
331
333
  5
333
331
2BF
  5
2BF
331
2F5
  5
2F5
331
314
  5
314
331
369
  5
369
331
3A7
  5
3A7
331
1DF
  5
1DF
331
659
  5
65D
331
63A
  5
63E
331
5DD
  5
5DD
331
5BE
  5
5BE
331
5FC
  5
5FC
331
678
  5
6A8
331
3A8
  5
3A8
331
36A
  5
36A
331
315
  5
315
331
2F6
  5
2F6
331
334
  5
334
331
389
  5
389
331
3C7
  5
3C7
331
1E0
  5
1E0
331
AE6
  5
C6D
331
6A8
  5
6F6
331
63B
  5
63F
331
5FD
  5
5FD
331
5DE
  5
5DE
331
5BF
  5
5BF
331
65A
  5
65E
331
6F6
  5
716
331
38A
  5
38A
331
335
  5
335
331
2F7
  5
2F7
331
316
  5
316
331
36B
  5
36B
331
3A9
  5
3A9
331
3C8
  5
3C8
331
1E1
  5
1E1
331
65B
  5
65F
331
63C
  5
640
331
5FE
  5
5FE
331
5C0
  5
5C0
331
5DF
  5
5DF
331
716
  5
71A
331
3AA
  5
3AA
331
36C
  5
36C
331
317
  5
317
331
336
  5
336
331
38B
  5
38B
331
3E8
  5
3E8
331
3C9
  5
3C9
331
1E2
  5
1E2
331
717
  5
71B
331
65C
  5
660
331
5FF
  5
5FF
331
5E0
  5
5E0
331
5C1
  5
5C1
331
63D
  5
641
331
38C
  5
38C
331
337
  5
337
331
36D
  5
36D
331
3AB
  5
3AB
331
408
  5
408
331
3CA
  5
3CA
331
3E9
  5
3E9
331
1E3
  5
1E3
331
65D
  5
661
331
63E
  5
642
331
600
  5
600
331
5C2
  5
5C2
331
5E1
  5
5E1
331
627
  5
62B
331
718
  5
AE6
331
3AC
  5
3AC
331
36E
  5
36E
331
38D
  5
38D
331
428
  5
428
331
3EA
  5
3EA
331
3CB
  5
3CB
331
409
  5
409
331
1E4
  5
1E4
331
719
  5
C68
331
65E
  5
662
331
63F
  5
643
331
5E2
  5
5E2
331
5C3
  5
5C3
331
601
  5
601
331
38E
  5
38E
331
36F
  5
36F
331
3AD
  5
3AD
331
440
  5
440
331
40A
  5
40A
331
3CC
  5
3CC
331
3EB
  5
3EB
331
429
  5
429
331
1E5
  5
1E5
331
71A
  5
C69
331
640
  5
644
331
602
  5
602
331
5C4
  5
5C4
331
5E3
  5
5E3
331
65F
  5
663
331
3AE
  5
3AE
331
38F
  5
38F
331
441
  5
441
331
42A
  5
42A
331
3EC
  5
3EC
331
3CD
  5
3CD
331
40B
  5
40B
331
460
  5
460
331
1E6
  5
1E6
331
660
  5
664
331
641
  5
645
331
5E4
  5
5E4
331
5C5
  5
5C5
331
603
  5
603
331
71B
  5
C6C
331
3AF
  5
3AF
331
480
  5
480
331
442
  5
442
331
40C
  5
40C
331
3CE
  5
3CE
331
3ED
  5
3ED
331
42B
  5
42B
331
461
  5
461
331
1E7
  5
1E7
331
642
  5
646
331
604
  5
604
331
5C6
  5
5C6
331
5E5
  5
5E5
331
661
  5
665
331
4A0
  5
4A0
331
443
  5
443
331
42C
  5
42C
331
3EE
  5
3EE
331
3CF
  5
3CF
331
40D
  5
40D
331
462
  5
462
331
481
  5
481
331
662
  5
666
331
5E6
  5
5E6
331
5C7
  5
5C7
331
643
  5
647
331
6FE
  5
717
331
4A1
  5
4A1
331
482
  5
482
331
444
  5
444
331
40E
  5
40E
331
3EF
  5
3EF
331
3D0
  5
3D0
331
42D
  5
42D
331
463
  5
463
331
4B8
  5
4B8
331
644
  5
648
331
5E7
  5
5E7
331
663
  5
667
331
4B9
  5
4B9
331
4A2
  5
4A2
331
464
  5
464
331
42E
  5
42E
331
40F
  5
40F
331
3D1
  5
3D1
331
3F0
  5
3F0
331
445
  5
445
331
483
  5
483
331
4D8
  5
4D8
331
664
  5
668
331
645
  5
649
331
4D9
  5
4D9
331
4BA
  5
4BA
331
484
  5
484
331
446
  5
446
331
410
  5
410
331
3F1
  5
3F1
331
3D2
  5
3D2
331
42F
  5
42F
331
465
  5
465
331
4A3
  5
4A3
331
4F8
  5
4F8
331
684
  5
6BB
331
646
  5
64A
331
665
  5
669
331
4F9
  5
4F9
331
4BB
  5
4BB
331
4A4
  5
4A4
331
466
  5
466
331
430
  5
430
331
411
  5
411
331
3D3
  5
3D3
331
3F2
  5
3F2
331
447
  5
447
331
485
  5
485
331
4DA
  5
4DA
331
518
  5
518
331
666
  5
66A
331
647
  5
64B
331
530
  5
530
331
519
  5
519
331
4DB
  5
4DB
331
4BC
  5
4BC
331
486
  5
486
331
448
  5
448
331
431
  5
431
331
3F3
  5
3F3
331
3D4
  5
3D4
331
412
  5
412
331
467
  5
467
331
4A5
  5
4A5
331
4FA
  5
4FA
331
667
  5
66B
331
531
  5
531
331
4FB
  5
4FB
331
4BD
  5
4BD
331
4A6
  5
4A6
331
468
  5
468
331
432
  5
432
331
413
  5
413
331
3D5
  5
3D5
331
3F4
  5
3F4
331
449
  5
449
331
487
  5
487
331
4DC
  5
4DC
331
51A
  5
51A
331
550
  5
550
331
532
  5
532
331
51B
  5
51B
331
4DD
  5
4DD
331
4BE
  5
4BE
331
488
  5
488
331
44A
  5
44A
331
433
  5
433
331
3F5
  5
3F5
331
3D6
  5
3D6
331
414
  5
414
331
469
  5
469
331
4A7
  5
4A7
331
4FC
  5
4FC
331
551
  5
551
331
570
  5
570
331
590
  5
590
331
571
  5
571
331
533
  5
533
331
4FD
  5
4FD
331
4BF
  5
4BF
331
4A8
  5
4A8
331
46A
  5
46A
331
44B
  5
44B
331
415
  5
415
331
3D7
  5
3D7
331
3F6
  5
3F6
331
434
  5
434
331
489
  5
489
331
4DE
  5
4DE
331
51C
  5
51C
331
552
  5
552
331
706
  5
718
331
591
  5
591
331
553
  5
553
331
51D
  5
51D
331
4FE
  5
4FE
331
4C0
  5
4C0
331
48A
  5
48A
331
44C
  5
44C
331
435
  5
435
331
3F7
  5
3F7
331
3D8
  5
3D8
331
416
  5
416
331
46B
  5
46B
331
4A9
  5
4A9
331
4DF
  5
4DF
331
534
  5
534
331
572
  5
572
331
573
  5
573
331
535
  5
535
331
4FF
  5
4FF
331
4E0
  5
4E0
331
4AA
  5
4AA
331
46C
  5
46C
331
44D
  5
44D
331
417
  5
417
331
3D9
  5
3D9
331
3F8
  5
3F8
331
436
  5
436
331
48B
  5
48B
331
4C1
  5
4C1
331
51E
  5
51E
331
554
  5
554
331
592
  5
592
331
593
  5
593
331
555
  5
555
331
51F
  5
51F
331
500
  5
500
331
4C2
  5
4C2
331
48C
  5
48C
331
46D
  5
46D
331
437
  5
437
331
3F9
  5
3F9
331
3DA
  5
3DA
331
418
  5
418
331
44E
  5
44E
331
4AB
  5
4AB
331
4E1
  5
4E1
331
536
  5
536
331
574
  5
574
331
575
  5
575
331
537
  5
537
331
520
  5
520
331
4E2
  5
4E2
331
4AC
  5
4AC
331
46E
  5
46E
331
44F
  5
44F
331
419
  5
419
331
3DB
  5
3DB
331
3FA
  5
3FA
331
438
  5
438
331
48D
  5
48D
331
4C3
  5
4C3
331
501
  5
501
331
556
  5
556
331
594
  5
594
331
595
  5
595
331
557
  5
557
331
521
  5
521
331
502
  5
502
331
4C4
  5
4C4
331
48E
  5
48E
331
46F
  5
46F
331
439
  5
439
331
3FB
  5
3FB
331
3DC
  5
3DC
331
41A
  5
41A
331
450
  5
450
331
4AD
  5
4AD
331
4E3
  5
4E3
331
538
  5
538
331
576
  5
576
331
577
  5
577
331
539
  5
539
331
522
  5
522
331
4E4
  5
4E4
331
4AE
  5
4AE
331
48F
  5
48F
331
451
  5
451
331
41B
  5
41B
331
3DD
  5
3DD
331
3FC
  5
3FC
331
43A
  5
43A
331
470
  5
470
331
4C5
  5
4C5
331
503
  5
503
331
558
  5
558
331
596
  5
596
331
597
  5
597
331
559
  5
559
331
53A
  5
53A
331
504
  5
504
331
4C6
  5
4C6
331
490
  5
490
331
471
  5
471
331
43B
  5
43B
331
3FD
  5
3FD
331
3DE
  5
3DE
331
41C
  5
41C
331
452
  5
452
331
4AF
  5
4AF
331
4E5
  5
4E5
331
523
  5
523
331
578
  5
578
331
579
  5
579
331
53B
  5
53B
331
524
  5
524
331
4E6
  5
4E6
331
4B0
  5
4B0
331
491
  5
491
331
453
  5
453
331
41D
  5
41D
331
3FE
  5
3FE
331
3DF
  5
3DF
331
43C
  5
43C
331
472
  5
472
331
4C7
  5
4C7
331
505
  5
505
331
55A
  5
55A
331
598
  5
598
331
599
  5
599
331
55B
  5
55B
331
53C
  5
53C
331
506
  5
506
331
4C8
  5
4C8
331
4B1
  5
4B1
331
473
  5
473
331
43D
  5
43D
331
3FF
  5
3FF
331
3E0
  5
3E0
331
41E
  5
41E
331
454
  5
454
331
492
  5
492
331
4E7
  5
4E7
331
525
  5
525
331
57A
  5
57A
331
1E8
  5
1E8
331
57B
  5
57B
331
55C
  5
55C
331
526
  5
526
331
4E8
  5
4E8
331
4B2
  5
4B2
331
493
  5
493
331
455
  5
455
331
41F
  5
41F
331
400
  5
400
331
3E1
  5
3E1
331
43E
  5
43E
331
474
  5
474
331
4C9
  5
4C9
331
507
  5
507
331
53D
  5
53D
331
59A
  5
59A
331
208
  5
208
331
1E9
  5
1E9
331
59B
  5
59B
331
55D
  5
55D
331
53E
  5
53E
331
508
  5
508
331
4CA
  5
4CA
331
4B3
  5
4B3
331
475
  5
475
331
43F
  5
43F
331
420
  5
420
331
3E2
  5
3E2
331
401
  5
401
331
456
  5
456
331
494
  5
494
331
4E9
  5
4E9
331
527
  5
527
331
57C
  5
57C
331
228
  5
228
331
1EA
  5
1EA
331
209
  5
209
331
57D
  5
57D
331
55E
  5
55E
331
528
  5
528
331
4EA
  5
4EA
331
4CB
  5
4CB
331
495
  5
495
331
421
  5
421
331
402
  5
402
331
3E3
  5
3E3
331
457
  5
457
331
476
  5
476
331
4B4
  5
4B4
331
509
  5
509
331
53F
  5
53F
331
59C
  5
59C
331
248
  5
248
331
20A
  5
20A
331
1EB
  5
1EB
331
229
  5
229
331
59D
  5
59D
331
57E
  5
57E
331
540
  5
540
331
50A
  5
50A
331
4CC
  5
4CC
331
4B5
  5
4B5
331
477
  5
477
331
422
  5
422
331
3E4
  5
3E4
331
403
  5
403
331
458
  5
458
331
496
  5
496
331
4EB
  5
4EB
331
529
  5
529
331
55F
  5
55F
331
22A
  5
22A
331
1EC
  5
1EC
331
20B
  5
20B
331
249
  5
249
331
57F
  5
57F
331
560
  5
560
331
52A
  5
52A
331
4EC
  5
4EC
331
4CD
  5
4CD
331
497
  5
497
331
459
  5
459
331
404
  5
404
331
3E5
  5
3E5
331
423
  5
423
331
478
  5
478
331
4B6
  5
4B6
331
50B
  5
50B
331
541
  5
541
331
59E
  5
59E
331
261
  5
261
331
24A
  5
24A
331
20C
  5
20C
331
1ED
  5
1ED
331
22B
  5
22B
331
59F
  5
59F
331
580
  5
580
331
542
  5
542
331
50C
  5
50C
331
4ED
  5
4ED
331
4B7
  5
4B7
331
479
  5
479
331
424
  5
424
331
3E6
  5
3E6
331
405
  5
405
331
45A
  5
45A
331
498
  5
498
331
4CE
  5
4CE
331
52B
  5
52B
331
561
  5
561
331
2A0
  5
2A0
331
22C
  5
22C
331
1EE
  5
1EE
331
20D
  5
20D
331
24B
  5
24B
331
5A0
  5
5A0
331
562
  5
562
331
52C
  5
52C
331
4EE
  5
4EE
331
499
  5
499
331
45B
  5
45B
331
406
  5
406
331
3E7
  5
3E7
331
425
  5
425
331
47A
  5
47A
331
4CF
  5
4CF
331
50D
  5
50D
331
543
  5
543
331
581
  5
581
331
2A1
  5
2A1
331
24C
  5
24C
331
20E
  5
20E
331
1EF
  5
1EF
331
22D
  5
22D
331
2C0
  5
2C0
331
5A1
  5
5A1
331
582
  5
582
331
544
  5
544
331
50E
  5
50E
331
4EF
  5
4EF
331
47B
  5
47B
331
426
  5
426
331
407
  5
407
331
45C
  5
45C
331
49A
  5
49A
331
4D0
  5
4D0
331
52D
  5
52D
331
563
  5
563
331
2C1
  5
2C1
331
2A2
  5
2A2
331
22E
  5
22E
331
20F
  5
20F
331
1F0
  5
1F0
331
24D
  5
24D
331
283
  5
283
331
5A2
  5
5A2
331
564
  5
564
331
52E
  5
52E
331
50F
  5
50F
331
49B
  5
49B
331
45D
  5
45D
331
427
  5
427
331
47C
  5
47C
331
4D1
  5
4D1
331
4F0
  5
4F0
331
545
  5
545
331
583
  5
583
331
2C2
  5
2C2
331
24E
  5
24E
331
210
  5
210
331
1F1
  5
1F1
331
22F
  5
22F
331
284
  5
284
331
2A3
  5
2A3
331
2F8
  5
2F8
331
584
  5
584
331
546
  5
546
331
510
  5
510
331
4F1
  5
4F1
331
47D
  5
47D
331
45E
  5
45E
331
49C
  5
49C
331
4D2
  5
4D2
331
52F
  5
52F
331
565
  5
565
331
5A3
  5
5A3
331
2C3
  5
2C3
331
2A4
  5
2A4
331
230
  5
230
331
211
  5
211
331
1F2
  5
1F2
331
24F
  5
24F
331
285
  5
285
331
2F9
  5
2F9
331
318
  5
318
331
5A4
  5
5A4
331
566
  5
566
331
511
  5
511
331
49D
  5
49D
331
47E
  5
47E
331
45F
  5
45F
331
4D3
  5
4D3
331
4F2
  5
4F2
331
547
  5
547
331
585
  5
585
331
319
  5
319
331
2DB
  5
2DB
331
2C4
  5
2C4
331
250
  5
250
331
231
  5
231
331
1F3
  5
1F3
331
212
  5
212
331
286
  5
286
331
2A5
  5
2A5
331
2FA
  5
2FA
331
338
  5
338
331
586
  5
586
331
548
  5
548
331
4F3
  5
4F3
331
47F
  5
47F
331
49E
  5
49E
331
4D4
  5
4D4
331
512
  5
512
331
567
  5
567
331
5A5
  5
5A5
331
350
  5
350
331
339
  5
339
331
2FB
  5
2FB
331
2A6
  5
2A6
331
232
  5
232
331
213
  5
213
331
1F4
  5
1F4
331
251
  5
251
331
287
  5
287
331
2C5
  5
2C5
331
31A
  5
31A
331
5A6
  5
5A6
331
568
  5
568
331
513
  5
513
331
49F
  5
49F
331
4D5
  5
4D5
331
4F4
  5
4F4
331
549
  5
549
331
587
  5
587
331
351
  5
351
331
31B
  5
31B
331
2C6
  5
2C6
331
252
  5
252
331
233
  5
233
331
1F5
  5
1F5
331
214
  5
214
331
288
  5
288
331
2A7
  5
2A7
331
2FC
  5
2FC
331
33A
  5
33A
331
370
  5
370
331
588
  5
588
331
54A
  5
54A
331
4F5
  5
4F5
331
4D6
  5
4D6
331
514
  5
514
331
569
  5
569
331
5A7
  5
5A7
331
390
  5
390
331
352
  5
352
331
33B
  5
33B
331
2FD
  5
2FD
331
2A8
  5
2A8
331
253
  5
253
331
215
  5
215
331
1F6
  5
1F6
331
234
  5
234
331
289
  5
289
331
2C7
  5
2C7
331
31C
  5
31C
331
371
  5
371
331
56A
  5
56A
331
515
  5
515
331
4D7
  5
4D7
331
4F6
  5
4F6
331
54B
  5
54B
331
589
  5
589
331
3B0
  5
3B0
331
391
  5
391
331
353
  5
353
331
31D
  5
31D
331
2C8
  5
2C8
331
254
  5
254
331
235
  5
235
331
1F7
  5
1F7
331
216
  5
216
331
28A
  5
28A
331
2A9
  5
2A9
331
2FE
  5
2FE
331
33C
  5
33C
331
372
  5
372
331
58A
  5
58A
331
54C
  5
54C
331
4F7
  5
4F7
331
516
  5
516
331
56B
  5
56B
331
3B1
  5
3B1
331
354
  5
354
331
33D
  5
33D
331
2FF
  5
2FF
331
2AA
  5
2AA
331
255
  5
255
331
217
  5
217
331
1F8
  5
1F8
331
236
  5
236
331
28B
  5
28B
331
2C9
  5
2C9
331
31E
  5
31E
331
373
  5
373
331
392
  5
392
331
5A8
  5
5A8
331
56C
  5
56C
331
517
  5
517
331
54D
  5
54D
331
58B
  5
58B
331
5C8
  5
5C8
331
3B2
  5
3B2
331
393
  5
393
331
355
  5
355
331
31F
  5
31F
331
2CA
  5
2CA
331
28C
  5
28C
331
237
  5
237
331
1F9
  5
1F9
331
218
  5
218
331
26D
  5
26D
331
2AB
  5
2AB
331
300
  5
300
331
33E
  5
33E
331
374
  5
374
331
5A9
  5
5A9
331
58C
  5
58C
331
56D
  5
56D
331
54E
  5
54E
331
C68
  5
62A
331
5E8
  5
5E8
331
3B3
  5
3B3
331
375
  5
375
331
33F
  5
33F
331
320
  5
320
331
2AC
  5
2AC
331
28D
  5
28D
331
219
  5
219
331
1FA
  5
1FA
331
238
  5
238
331
2CB
  5
2CB
331
301
  5
301
331
356
  5
356
331
394
  5
394
331
5AA
  5
5AA
331
5C9
  5
5C9
331
56E
  5
56E
331
54F
  5
54F
331
58D
  5
58D
331
5CA
  5
5CA
331
395
  5
395
331
357
  5
357
331
321
  5
321
331
2CC
  5
2CC
331
28E
  5
28E
331
239
  5
239
331
1FB
  5
1FB
331
21A
  5
21A
331
2AD
  5
2AD
331
302
  5
302
331
340
  5
340
331
376
  5
376
331
3B4
  5
3B4
331
5AB
  5
5AB
331
5E9
  5
5E9
331
58E
  5
58E
331
56F
  5
56F
331
628
  5
62C
331
5EA
  5
5EA
331
3B5
  5
3B5
331
377
  5
377
331
341
  5
341
331
322
  5
322
331
2AE
  5
2AE
331
28F
  5
28F
331
21B
  5
21B
331
1FC
  5
1FC
331
23A
  5
23A
331
2CD
  5
2CD
331
303
  5
303
331
358
  5
358
331
396
  5
396
331
5AC
  5
5AC
331
5CB
  5
5CB
331
58F
  5
58F
331
648
  5
64C
331
629
  5
62D
331
5CC
  5
5CC
331
397
  5
397
331
359
  5
359
331
342
  5
342
331
2CE
  5
2CE
331
290
  5
290
331
23B
  5
23B
331
1FD
  5
1FD
331
21C
  5
21C
331
2AF
  5
2AF
331
304
  5
304
331
323
  5
323
331
378
  5
378
331
3B6
  5
3B6
331
5AD
  5
5AD
331
5EB
  5
5EB
331
668
  5
66C
331
62A
  5
62E
331
5EC
  5
5EC
331
3B7
  5
3B7
331
379
  5
379
331
343
  5
343
331
324
  5
324
331
2E6
  5
2E6
331
2B0
  5
2B0
331
291
  5
291
331
21D
  5
21D
331
1FE
  5
1FE
331
23C
  5
23C
331
2CF
  5
2CF
331
305
  5
305
331
35A
  5
35A
331
398
  5
398
331
5AE
  5
5AE
331
5CD
  5
5CD
331
649
  5
64D
331
160
  5
160
331
690
  5
6CC
331
64A
  5
64E
331
62B
  5
62F
331
5ED
  5
5ED
331
399
  5
399
331
35B
  5
35B
331
344
  5
344
331
306
  5
306
331
2B1
  5
2B1
331
23D
  5
23D
331
1FF
  5
1FF
331
21E
  5
21E
331
292
  5
292
331
325
  5
325
331
37A
  5
37A
331
3B8
  5
3B8
331
5AF
  5
5AF
331
5CE
  5
5CE
331
669
  5
66D
331
161
  5
161
331
66A
  5
66E
331
64B
  5
64F
331
5EE
  5
5EE
331
5CF
  5
5CF
331
3B9
  5
3B9
331
37B
  5
37B
331
35C
  5
35C
331
326
  5
326
331
2B2
  5
2B2
331
293
  5
293
331
21F
  5
21F
331
200
  5
200
331
23E
  5
23E
331
307
  5
307
331
345
  5
345
331
39A
  5
39A
331
5B0
  5
5B0
331
62C
  5
630
331
64C
  5
650
331
62D
  5
631
331
5EF
  5
5EF
331
39B
  5
39B
331
35D
  5
35D
331
346
  5
346
331
308
  5
308
331
2B3
  5
2B3
331
23F
  5
23F
331
220
  5
220
331
201
  5
201
331
294
  5
294
331
327
  5
327
331
37C
  5
37C
331
3BA
  5
3BA
331
5B1
  5
5B1
331
5D0
  5
5D0
331
66B
  5
66F
331
66C
  5
670
331
64D
  5
651
331
60F
  5
60F
331
5D1
  5
5D1
331
3BB
  5
3BB
331
37D
  5
37D
331
35E
  5
35E
331
328
  5
328
331
309
  5
309
331
295
  5
295
331
221
  5
221
331
202
  5
202
331
240
  5
240
331
2B4
  5
2B4
331
347
  5
347
331
39C
  5
39C
331
5B2
  5
5B2
331
5F0
  5
5F0
331
62E
  5
632
  0
LAYOUT
  5
1E
102
{ACAD_REACTORS
330
1A
102
}
330
1A
100
AcDbPlotSettings
  1

  2
none_device
  4

  6

 40
0.0
 41
0.0
 42
0.0
 43
0.0
 44
0.0
 45
0.0
 46
0.0
 47
0.0
 48
0.0
 49
0.0
140
0.0
141
0.0
142
1.0
143
1.0
 70
   688
 72
     1
 73
     0
 74
     5
  7

 75
    16
147
1.0
 76
     0
 77
     2
 78
   300
148
0.0
149
0.0
100
AcDbLayout
  1
Layout1
 70
     1
 71
     1
 10
0.0
 20
0.0
 11
420.0
 21
297.0
 12
0.0
 22
0.0
 32
0.0
 14
1.000000000000000E+20
 24
1.000000000000000E+20
 34
1.000000000000000E+20
 15
-1.000000000000000E+20
 25
-1.000000000000000E+20
 35
-1.000000000000000E+20
146
0.0
 13
0.0
 23
0.0
 33
0.0
 16
1.0
 26
0.0
 36
0.0
 17
0.0
 27
1.0
 37
0.0
 76
     0
330
1B
  0
LAYOUT
  5
26
102
{ACAD_REACTORS
330
1A
102
}
330
1A
100
AcDbPlotSettings
  1

  2
none_device
  4

  6

 40
0.0
 41
0.0
 42
0.0
 43
0.0
 44
0.0
 45
0.0
 46
0.0
 47
0.0
 48
0.0
 49
0.0
140
0.0
141
0.0
142
1.0
143
1.0
 70
   688
 72
     1
 73
     0
 74
     5
  7

 75
    16
147
1.0
 76
     0
 77
     2
 78
   300
148
0.0
149
0.0
100
AcDbLayout
  1
Layout2
 70
     1
 71
     2
 10
0.0
 20
0.0
 11
0.0
 21
0.0
 12
0.0
 22
0.0
 32
0.0
 14
0.0
 24
0.0
 34
0.0
 15
0.0
 25
0.0
 35
0.0
146
0.0
 13
0.0
 23
0.0
 33
0.0
 16
1.0
 26
0.0
 36
0.0
 17
0.0
 27
1.0
 37
0.0
 76
     0
330
23
  0
LAYOUT
  5
22
102
{ACAD_REACTORS
330
1A
102
}
330
1A
100
AcDbPlotSettings
  1

  2
none_device
  4
Letter_(8.50_x_11.00_Inches)
  6

 40
6.349999999999999
 41
6.349999999999999
 42
6.350005079999999
 43
6.350005079999999
 44
215.9
 45
279.4
 46
0.0
 47
0.0
 48
0.0
 49
0.0
140
0.0
141
0.0
142
1.0
143
1.0
 70
  1712
 72
     1
 73
     0
 74
     0
  7

 75
     0
147
1.0
 76
     0
 77
     2
 78
   300
148
0.0
149
0.0
100
AcDbLayout
  1
Model
 70
     1
 71
     0
 10
0.0
 20
0.0
 11
594.0
 21
420.0
 12
0.0
 22
0.0
 32
0.0
 14
0.0
 24
0.0
 34
0.0
 15
594.0
 25
420.0
 35
0.0
146
0.0
 13
0.0
 23
0.0
 33
0.0
 16
1.0
 26
0.0
 36
0.0
 17
0.0
 27
1.0
 37
0.0
 76
     0
330
1F
  0
MLINESTYLE
  5
18
102
{ACAD_REACTORS
330
17
102
}
330
17
100
AcDbMlineStyle
  2
STANDARD
 70
     0
  3

 62
   256
 51
90.0
 52
90.0
 71
     2
 49
0.5
 62
   256
  6
BYLAYER
 49
-0.5
 62
   256
  6
BYLAYER
  0
ACDBPLACEHOLDER
  5
F
102
{ACAD_REACTORS
330
E
102
}
330
E
  0
ACAD_PROXY_OBJECT
  5
48
102
{ACAD_REACTORS
330
47
102
}
330
47
100
AcDbProxyObject
 90
      499
 91
      503
 95
   393239
 70
     0
 93
       41
310
903313A31580
 94
        0
  0
ACAD_PROXY_OBJECT
  5
49
102
{ACAD_REACTORS
330
47
102
}
330
47
100
AcDbProxyObject
 90
      499
 91
      503
 95
   393239
 70
     0
 93
      105
310
903313A324000000000000004013
 94
        0
  0
ACAD_PROXY_OBJECT
  5
4A
102
{ACAD_REACTORS
330
47
102
}
330
47
100
AcDbProxyObject
 90
      499
 91
      503
 95
   393239
 70
     0
 93
      105
310
903313A34400000000000010400C
 94
        0
  0
ACAD_PROXY_OBJECT
  5
4B
102
{ACAD_REACTORS
330
47
102
}
330
47
100
AcDbProxyObject
 90
      499
 91
      503
 95
   393239
 70
     0
 93
      105
310
903313A354000000000000144013
 94
        0
  0
ACAD_PROXY_OBJECT
  5
4C
102
{ACAD_REACTORS
330
47
102
}
330
47
100
AcDbProxyObject
 90
      499
 91
      503
 95
   393239
 70
     0
 93
      105
310
903313A38400000000000020400C
 94
        0
  0
ACAD_PROXY_OBJECT
  5
4D
102
{ACAD_REACTORS
330
47
102
}
330
47
100
AcDbProxyObject
 90
      499
 91
      503
 95
   393239
 70
     0
 93
      113
310
904313A31304000000000000244023
 94
        0
  0
ACAD_PROXY_OBJECT
  5
4E
102
{ACAD_REACTORS
330
47
102
}
330
47
100
AcDbProxyObject
 90
      499
 91
      503
 95
   393239
 70
     0
 93
      113
310
904313A31364000000000000304057
 94
        0
  0
ACAD_PROXY_OBJECT
  5
4F
102
{ACAD_REACTORS
330
47
102
}
330
47
100
AcDbProxyObject
 90
      499
 91
      503
 95
   393239
 70
     0
 93
      113
310
904313A32304000000000000344023
 94
        0
  0
ACAD_PROXY_OBJECT
  5
50
102
{ACAD_REACTORS
330
47
102
}
330
47
100
AcDbProxyObject
 90
      499
 91
      503
 95
   393239
 70
     0
 93
      113
310
904313A333040000000000003E4057
 94
        0
  0
ACAD_PROXY_OBJECT
  5
51
102
{ACAD_REACTORS
330
47
102
}
330
47
100
AcDbProxyObject
 90
      499
 91
      503
 95
   393239
 70
     0
 93
      113
310
904313A34304000000000000444023
 94
        0
  0
ACAD_PROXY_OBJECT
  5
52
102
{ACAD_REACTORS
330
47
102
}
330
47
100
AcDbProxyObject
 90
      499
 91
      503
 95
   393239
 70
     0
 93
      113
310
904313A35304000000000000494057
 94
        0
  0
ACAD_PROXY_OBJECT
  5
53
102
{ACAD_REACTORS
330
47
102
}
330
47
100
AcDbProxyObject
 90
      499
 91
      503
 95
   393239
 70
     0
 93
      121
310
905313A3130304000000000000594015
 94
        0
  0
ACAD_PROXY_OBJECT
  5
54
102
{ACAD_REACTORS
330
47
102
}
330
47
100
AcDbProxyObject
 90
      499
 91
      503
 95
   393239
 70
     0
 93
      105
310
903323A310000000000000010140
 94
        0
  0
ACAD_PROXY_OBJECT
  5
55
102
{ACAD_REACTORS
330
47
102
}
330
47
100
AcDbProxyObject
 90
      499
 91
      503
 95
   393239
 70
     0
 93
      105
310
903343A310000000000000410159
 94
        0
  0
ACAD_PROXY_OBJECT
  5
56
102
{ACAD_REACTORS
330
47
102
}
330
47
100
AcDbProxyObject
 90
      499
 91
      503
 95
   393239
 70
     0
 93
      105
310
903383A310000000000000810140
 94
        0
  0
ACAD_PROXY_OBJECT
  5
57
102
{ACAD_REACTORS
330
47
102
}
330
47
100
AcDbProxyObject
 90
      499
 91
      503
 95
   393239
 70
     0
 93
      113
310
90431303A310000000000000910140
 94
        0
  0
ACAD_PROXY_OBJECT
  5
58
102
{ACAD_REACTORS
330
47
102
}
330
47
100
AcDbProxyObject
 90
      499
 91
      503
 95
   393239
 70
     0
 93
      121
310
9053130303A310000000000001650115
 94
        0
  0
ACAD_PROXY_OBJECT
  5
59
102
{ACAD_REACTORS
330
47
102
}
330
47
100
AcDbProxyObject
 90
      499
 91
      503
 95
   393239
 70
     0
 93
      257
310
90E312F31323822203D2031272D3022000000000000200FC000000000000284000
 94
        0
  0
ACAD_PROXY_OBJECT
  5
5A
102
{ACAD_REACTORS
330
47
102
}
330
47
100
AcDbProxyObject
 90
      499
 91
      503
 95
   393239
 70
     0
 93
      249
310
90D312F363422203D2031272D3022000000000000240FC000000000000284000
 94
        0
  0
ACAD_PROXY_OBJECT
  5
5B
102
{ACAD_REACTORS
330
47
102
}
330
47
100
AcDbProxyObject
 90
      499
 91
      503
 95
   393239
 70
     0
 93
      249
310
90D312F333222203D2031272D3022000000000000280FC000000000000284040
 94
        0
  0
ACAD_PROXY_OBJECT
  5
5C
102
{ACAD_REACTORS
330
47
102
}
330
47
100
AcDbProxyObject
 90
      499
 91
      503
 95
   393239
 70
     0
 93
      249
310
90D312F313622203D2031272D30220000000000002C0FC000000000000284000
 94
        0
  0
ACAD_PROXY_OBJECT
  5
5D
102
{ACAD_REACTORS
330
47
102
}
330
47
100
AcDbProxyObject
 90
      499
 91
      503
 95
   393239
 70
     0
 93
      249
310
90D332F333222203D2031272D30220000000000002E0FC000000000000284040
 94
        0
  0
ACAD_PROXY_OBJECT
  5
5E
102
{ACAD_REACTORS
330
47
102
}
330
47
100
AcDbProxyObject
 90
      499
 91
      503
 95
   393239
 70
     0
 93
      241
310
90C312F3822203D2031272D3022000000000000300FC000000000000284040
 94
        0
  0
ACAD_PROXY_OBJECT
  5
5F
102
{ACAD_REACTORS
330
47
102
}
330
47
100
AcDbProxyObject
 90
      499
 91
      503
 95
   393239
 70
     0
 93
      249
310
90D332F313622203D2031272D3022000000000000320FC000000000000284040
 94
        0
  0
ACAD_PROXY_OBJECT
  5
60
102
{ACAD_REACTORS
330
47
102
}
330
47
100
AcDbProxyObject
 90
      499
 91
      503
 95
   393239
 70
     0
 93
      241
310
90C312F3422203D2031272D3022000000000000340FC000000000000284040
 94
        0
  0
ACAD_PROXY_OBJECT
  5
61
102
{ACAD_REACTORS
330
47
102
}
330
47
100
AcDbProxyObject
 90
      499
 91
      503
 95
   393239
 70
     0
 93
      241
310
90C332F3822203D2031272D3022000000000000360FC000000000000284040
 94
        0
  0
ACAD_PROXY_OBJECT
  5
62
102
{ACAD_REACTORS
330
47
102
}
330
47
100
AcDbProxyObject
 90
      499
 91
      503
 95
   393239
 70
     0
 93
      241
310
90C312F3222203D2031272D3022000000000000380FC000000000000284040
 94
        0
  0
ACAD_PROXY_OBJECT
  5
63
102
{ACAD_REACTORS
330
47
102
}
330
47
100
AcDbProxyObject
 90
      499
 91
      503
 95
   393239
 70
     0
 93
      241
310
90C332F3422203D2031272D30220000000000003A0FC000000000000284040
 94
        0
  0
ACAD_PROXY_OBJECT
  5
64
102
{ACAD_REACTORS
330
47
102
}
330
47
100
AcDbProxyObject
 90
      499
 91
      503
 95
   393239
 70
     0
 93
      161
310
90A3122203D2031272D30224000000000000284000
 94
        0
  0
ACAD_PROXY_OBJECT
  5
65
102
{ACAD_REACTORS
330
47
102
}
330
47
100
AcDbProxyObject
 90
      499
 91
      503
 95
   393239
 70
     0
 93
      257
310
90E312D312F3222203D2031272D30220000000000003E0FC000000000000284000
 94
        0
  0
ACAD_PROXY_OBJECT
  5
66
102
{ACAD_REACTORS
330
47
102
}
330
47
100
AcDbProxyObject
 90
      499
 91
      503
 95
   393239
 70
     0
 93
      225
310
90A3322203D2031272D302200000000000002100000000000000284028
 94
        0
  0
ACAD_PROXY_OBJECT
  5
67
102
{ACAD_REACTORS
330
47
102
}
330
47
100
AcDbProxyObject
 90
      499
 91
      503
 95
   393239
 70
     0
 93
      225
310
90A3622203D2031272D302200000000000006100000000000000284000
 94
        0
  0
ACAD_PROXY_OBJECT
  5
68
102
{ACAD_REACTORS
330
47
102
}
330
47
100
AcDbProxyObject
 90
      499
 91
      503
 95
   393239
 70
     0
 93
      249
310
90D31272D3022203D2031272D30220000000000000A100000000000000284000
 94
        0
  0
TABLESTYLE
  5
720
102
{ACAD_REACTORS
330
71F
102
}
330
71F
100
AcDbTableStyle
  3
Standard
 70
     0
 71
     8
 40
1.5
 41
1.5
280
     0
281
     0
  7
Standard
140
4.5
170
     2
 62
     0
 63
     7
283
     0
274
    -2
284
     1
 64
     0
275
    -2
285
     1
 65
     0
276
    -2
286
     1
 66
     0
277
    -2
287
     1
 67
     0
278
    -2
288
     1
 68
     0
279
    -2
289
     1
 69
     0
  7
Standard
140
6.0
170
     5
 62
     0
 63
     7
283
     0
274
    -2
284
     1
 64
     0
275
    -2
285
     1
 65
     0
276
    -2
286
     1
 66
     0
277
    -2
287
     1
 67
     0
278
    -2
288
     1
 68
     0
279
    -2
289
     1
 69
     0
  7
Standard
140
4.5
170
     5
 62
     0
 63
     7
283
     0
274
    -2
284
     1
 64
     0
275
    -2
285
     1
 65
     0
276
    -2
286
     1
 66
     0
277
    -2
287
     1
 67
     0
278
    -2
288
     1
 68
     0
279
    -2
289
     1
 69
     0
  0
DICTIONARYVAR
  5
729
102
{ACAD_REACTORS
330
728
102
}
330
728
100
DictionaryVariables
280
     0
  1
STANDARD
  0
ENDSEC
  0
EOF
