  0
SECTION
  2
HEADER
  9
$ACADVER
  1
AC1015
  9
$ACADMAINTVER
 70
    20
  9
$DWGCODEPAGE
  3
ANSI_1252
  9
$INSBASE
 10
0.0
 20
0.0
 30
0.0
  9
$EXTMIN
 10
9.038865585906384
 20
51.65401428730287
 30
0.0
  9
$EXTMAX
 10
405.2737509395591
 20
216.1764307644722
 30
0.0
  9
$LIMMIN
 10
0.0
 20
0.0
  9
$LIMMAX
 10
441.9318623272745
 20
270.3572505770324
  9
$ORTHOMODE
 70
     1
  9
$REGENMODE
 70
     1
  9
$FILLMODE
 70
     1
  9
$QTEXTMODE
 70
     0
  9
$MIRRTEXT
 70
     1
  9
$LTSCALE
 40
1.0
  9
$ATTMODE
 70
     1
  9
$TEXTSIZE
 40
3.962399999999998
  9
$TRACEWID
 40
1.0
  9
$TEXTSTYLE
  7
Arial
  9
$CLAYER
  8
0
  9
$CELTYPE
  6
ByLayer
  9
$CECOLOR
 62
   256
  9
$CELTSCALE
 40
1.0
  9
$DISPSILH
 70
     0
  9
$DIMSCALE
 40
2.0
  9
$DIMASZ
 40
2.5
  9
$DIMEXO
 40
0.625
  9
$DIMDLI
 40
3.75
  9
$DIMRND
 40
0.0
  9
$DIMDLE
 40
0.0
  9
$DIMEXE
 40
0.625
  9
$DIMTP
 40
0.0
  9
$DIMTM
 40
0.0
  9
$DIMTXT
 40
2.0
  9
$DIMCEN
 40
0.0
  9
$DIMTSZ
 40
0.0
  9
$DIMTOL
 70
     0
  9
$DIMLIM
 70
     0
  9
$DIMTIH
 70
     1
  9
$DIMTOH
 70
     1
  9
$DIMSE1
 70
     0
  9
$DIMSE2
 70
     0
  9
$DIMTAD
 70
     0
  9
$DIMZIN
 70
     1
  9
$DIMBLK
  1

  9
$DIMASO
 70
     1
  9
$DIMSHO
 70
     1
  9
$DIMPOST
  1

  9
$DIMAPOST
  1

  9
$DIMALT
 70
     0
  9
$DIMALTD
 70
     3
  9
$DIMALTF
 40
0.03937007874016
  9
$DIMLFAC
 40
1.0
  9
$DIMTOFL
 70
     0
  9
$DIMTVP
 40
0.0
  9
$DIMTIX
 70
     0
  9
$DIMSOXD
 70
     0
  9
$DIMSAH
 70
     0
  9
$DIMBLK1
  1

  9
$DIMBLK2
  1

  9
$DIMSTYLE
  2
STANDARD
  9
$DIMCLRD
 70
     0
  9
$DIMCLRE
 70
     0
  9
$DIMCLRT
 70
     0
  9
$DIMTFAC
 40
1.0
  9
$DIMGAP
 40
0.625
  9
$DIMJUST
 70
     0
  9
$DIMSD1
 70
     0
  9
$DIMSD2
 70
     0
  9
$DIMTOLJ
 70
     0
  9
$DIMTZIN
 70
     8
  9
$DIMALTZ
 70
     0
  9
$DIMALTTZ
 70
     0
  9
$DIMUPT
 70
     0
  9
$DIMDEC
 70
     1
  9
$DIMTDEC
 70
     1
  9
$DIMALTU
 70
     2
  9
$DIMALTTD
 70
     3
  9
$DIMTXSTY
  7
Arial
  9
$DIMAUNIT
 70
     0
  9
$DIMADEC
 70
     1
  9
$DIMALTRND
 40
0.0
  9
$DIMAZIN
 70
     0
  9
$DIMDSEP
 70
    46
  9
$DIMATFIT
 70
     3
  9
$DIMFRAC
 70
     0
  9
$DIMLDRBLK
  1

  9
$DIMLUNIT
 70
     2
  9
$DIMLWD
 70
    -2
  9
$DIMLWE
 70
    -2
  9
$DIMTMOVE
 70
     0
  9
$LUNITS
 70
     2
  9
$LUPREC
 70
     2
  9
$SKETCHINC
 40
1.0
  9
$FILLETRAD
 40
10.0
  9
$AUNITS
 70
     0
  9
$AUPREC
 70
     2
  9
$MENU
  1
.
  9
$ELEVATION
 40
0.0
  9
$PELEVATION
 40
0.0
  9
$THICKNESS
 40
0.0
  9
$LIMCHECK
 70
     0
  9
$CHAMFERA
 40
10.0
  9
$CHAMFERB
 40
10.0
  9
$CHAMFERC
 40
20.0
  9
$CHAMFERD
 40
0.0
  9
$SKPOLY
 70
     0
  9
$TDCREATE
 40
2455629.585523611
  9
$TDUCREATE
 40
2455629.752190278
  9
$TDUPDATE
 40
2456757.630093298
  9
$TDUUPDATE
 40
2456757.796759966
  9
$TDINDWG
 40
0.0240790972
  9
$TDUSRTIMER
 40
0.0240790972
  9
$USRTIMER
 70
     1
  9
$ANGBASE
 50
0.0
  9
$ANGDIR
 70
     0
  9
$PDMODE
 70
     0
  9
$PDSIZE
 40
-1.0
  9
$PLINEWID
 40
0.0
  9
$SPLFRAME
 70
     0
  9
$SPLINETYPE
 70
     6
  9
$SPLINESEGS
 70
     8
  9
$HANDSEED
  5
B17
  9
$SURFTAB1
 70
     6
  9
$SURFTAB2
 70
     6
  9
$SURFTYPE
 70
     6
  9
$SURFU
 70
     6
  9
$SURFV
 70
     6
  9
$UCSBASE
  2

  9
$UCSNAME
  2

  9
$UCSORG
 10
0.0
 20
0.0
 30
0.0
  9
$UCSXDIR
 10
1.0
 20
0.0
 30
0.0
  9
$UCSYDIR
 10
0.0
 20
1.0
 30
0.0
  9
$UCSORTHOREF
  2

  9
$UCSORTHOVIEW
 70
     0
  9
$UCSORGTOP
 10
0.0
 20
0.0
 30
0.0
  9
$UCSORGBOTTOM
 10
0.0
 20
0.0
 30
0.0
  9
$UCSORGLEFT
 10
0.0
 20
0.0
 30
0.0
  9
$UCSORGRIGHT
 10
0.0
 20
0.0
 30
0.0
  9
$UCSORGFRONT
 10
0.0
 20
0.0
 30
0.0
  9
$UCSORGBACK
 10
0.0
 20
0.0
 30
0.0
  9
$PUCSBASE
  2

  9
$PUCSNAME
  2

  9
$PUCSORG
 10
0.0
 20
0.0
 30
0.0
  9
$PUCSXDIR
 10
1.0
 20
0.0
 30
0.0
  9
$PUCSYDIR
 10
0.0
 20
1.0
 30
0.0
  9
$PUCSORTHOREF
  2

  9
$PUCSORTHOVIEW
 70
     0
  9
$PUCSORGTOP
 10
0.0
 20
0.0
 30
0.0
  9
$PUCSORGBOTTOM
 10
0.0
 20
0.0
 30
0.0
  9
$PUCSORGLEFT
 10
0.0
 20
0.0
 30
0.0
  9
$PUCSORGRIGHT
 10
0.0
 20
0.0
 30
0.0
  9
$PUCSORGFRONT
 10
0.0
 20
0.0
 30
0.0
  9
$PUCSORGBACK
 10
0.0
 20
0.0
 30
0.0
  9
$USERI1
 70
     0
  9
$USERI2
 70
     0
  9
$USERI3
 70
     0
  9
$USERI4
 70
     0
  9
$USERI5
 70
     0
  9
$USERR1
 40
0.0
  9
$USERR2
 40
0.0
  9
$USERR3
 40
0.0
  9
$USERR4
 40
0.0
  9
$USERR5
 40
0.0
  9
$WORLDVIEW
 70
     1
  9
$SHADEDGE
 70
     3
  9
$SHADEDIF
 70
    70
  9
$TILEMODE
 70
     1
  9
$MAXACTVP
 70
    64
  9
$PINSBASE
 10
0.0
 20
0.0
 30
0.0
  9
$PLIMCHECK
 70
     0
  9
$PEXTMIN
 10
1.000000000000000E+20
 20
1.000000000000000E+20
 30
1.000000000000000E+20
  9
$PEXTMAX
 10
-1.000000000000000E+20
 20
-1.000000000000000E+20
 30
-1.000000000000000E+20
  9
$PLIMMIN
 10
0.0
 20
0.0
  9
$PLIMMAX
 10
420.0
 20
297.0
  9
$UNITMODE
 70
     0
  9
$VISRETAIN
 70
     1
  9
$PLINEGEN
 70
     0
  9
$PSLTSCALE
 70
     1
  9
$TREEDEPTH
 70
  3020
  9
$CMLSTYLE
  2
Standard
  9
$CMLJUST
 70
     0
  9
$CMLSCALE
 40
20.0
  9
$PROXYGRAPHICS
 70
     1
  9
$MEASUREMENT
 70
     1
  9
$CELWEIGHT
370
    -1
  9
$ENDCAPS
280
     0
  9
$JOINSTYLE
280
     0
  9
$LWDISPLAY
290
     1
  9
$INSUNITS
 70
     4
  9
$HYPERLINKBASE
  1

  9
$STYLESHEET
  1

  9
$XEDIT
290
     1
  9
$CEPSNTYPE
380
     0
  9
$PSTYLEMODE
290
     1
  9
$FINGERPRINTGUID
  2
{B8987193-B612-437E-B768-248E4C7EE962}
  9
$VERSIONGUID
  2
{6CB385F1-578F-4F6C-86EF-E21246C9B732}
  9
$EXTNAMES
290
     1
  9
$PSVPSCALE
 40
0.0
  9
$OLESTARTUP
290
     0
  0
ENDSEC
  0
SECTION
  2
CLASSES
  0
CLASS
  1
ACDBDICTIONARYWDFLT
  2
AcDbDictionaryWithDefault
  3
ObjectDBX Classes
 90
        0
280
     0
281
     0
  0
CLASS
  1
VISUALSTYLE
  2
AcDbVisualStyle
  3
ObjectDBX Classes
 90
    36863
280
     0
281
     0
  0
CLASS
  1
MATERIAL
  2
AcDbMaterial
  3
ObjectDBX Classes
 90
    32768
280
     0
281
     0
  0
CLASS
  1
ACDBPLACEHOLDER
  2
AcDbPlaceHolder
  3
ObjectDBX Classes
 90
        0
280
     0
281
     0
  0
CLASS
  1
LAYOUT
  2
AcDbLayout
  3
ObjectDBX Classes
 90
        0
280
     0
281
     0
  0
CLASS
  1
SCALE
  2
AcDbScale
  3
ObjectDBX Classes
 90
     1153
280
     0
281
     0
  0
CLASS
  1
TABLESTYLE
  2
AcDbTableStyle
  3
ObjectDBX Classes
 90
     2047
280
     0
281
     0
  0
CLASS
  1
SORTENTSTABLE
  2
AcDbSortentsTable
  3
ObjectDBX Classes
 90
        0
280
     0
281
     0
  0
CLASS
  1
DICTIONARYVAR
  2
AcDbDictionaryVar
  3
ObjectDBX Classes
 90
        0
280
     0
281
     0
  0
ENDSEC
  0
SECTION
  2
TABLES
  0
TABLE
  2
VPORT
  5
8
330
0
100
AcDbSymbolTable
 70
     3
  0
VPORT
  5
B0F
330
8
100
AcDbSymbolTableRecord
100
AcDbViewportTableRecord
  2
*Active
 70
     0
 10
0.0
 20
0.0
 11
1.0
 21
1.0
 12
220.9659311636373
 22
135.1786252885162
 13
0.0
 23
0.0
 14
10.0
 24
10.0
 15
10.0
 25
10.0
 16
0.0
 26
0.0
 36
1.0
 17
0.0
 27
0.0
 37
0.0
 40
273.1254135522238
 41
1.76068376068376
 42
50.0
 43
0.0
 44
0.0
 50
0.0
 51
0.0
 71
     0
 72
  2000
 73
     1
 74
     3
 75
     0
 76
     0
 77
     0
 78
     0
281
     0
 65
     1
110
0.0
120
0.0
130
0.0
111
1.0
121
0.0
131
0.0
112
0.0
122
1.0
132
0.0
 79
     0
146
0.0
  0
ENDTAB
  0
TABLE
  2
LTYPE
  5
5
330
0
100
AcDbSymbolTable
 70
     2
  0
LTYPE
  5
14
330
5
100
AcDbSymbolTableRecord
100
AcDbLinetypeTableRecord
  2
ByBlock
 70
     0
  3

 72
    65
 73
     0
 40
0.0
  0
LTYPE
  5
15
330
5
100
AcDbSymbolTableRecord
100
AcDbLinetypeTableRecord
  2
ByLayer
 70
     0
  3

 72
    65
 73
     0
 40
0.0
  0
LTYPE
  5
16
330
5
100
AcDbSymbolTableRecord
100
AcDbLinetypeTableRecord
  2
Continuous
 70
     0
  3
Solid line
 72
    65
 73
     0
 40
0.0
  0
LTYPE
  5
42
330
5
100
AcDbSymbolTableRecord
100
AcDbLinetypeTableRecord
  2
CENTERX2
 70
     0
  3
Center (2x) ________  __  ________  __  _____
 72
    65
 73
     4
 40
20.32
 49
12.7
 74
     0
 49
-2.54
 74
     0
 49
2.54
 74
     0
 49
-2.54
 74
     0
  0
ENDTAB
  0
TABLE
  2
LAYER
  5
2
330
0
100
AcDbSymbolTable
 70
     2
  0
LAYER
  5
10
330
2
100
AcDbSymbolTableRecord
100
AcDbLayerTableRecord
  2
0
 70
     0
 62
     7
  6
Continuous
370
    -3
390
F
  0
LAYER
  5
476
330
2
100
AcDbSymbolTableRecord
100
AcDbLayerTableRecord
  2
Defpoints
 70
     0
 62
     7
  6
Continuous
290
     0
370
    -3
390
F
  0
ENDTAB
  0
TABLE
  2
STYLE
  5
3
330
0
100
AcDbSymbolTable
 70
     3
  0
STYLE
  5
11
330
3
100
AcDbSymbolTableRecord
100
AcDbTextStyleTableRecord
  2
Standard
 70
     0
 40
0.0
 41
1.0
 50
0.0
 71
     0
 42
2.5
  3
ARIAL.TTF
  4

1001
ACAD
1000
Arial
1071
       34
  0
STYLE
  5
AF
330
3
100
AcDbSymbolTableRecord
100
AcDbTextStyleTableRecord
  2
SLDTEXTSTYLE0
 70
     0
 40
0.0
 41
0.75
 50
0.0
 71
     0
 42
0.2
  3
TXT
  4

  0
STYLE
  5
40C
330
3
100
AcDbSymbolTableRecord
100
AcDbTextStyleTableRecord
  2
Arial
 70
     0
 40
0.0
 41
1.0
 50
0.0
 71
     0
 42
3.962399999999998
  3
ARIAL.TTF
  4

1001
ACAD
1000
Arial
1071
       34
  0
ENDTAB
  0
TABLE
  2
VIEW
  5
6
330
0
100
AcDbSymbolTable
 70
     0
  0
ENDTAB
  0
TABLE
  2
UCS
  5
7
330
0
100
AcDbSymbolTable
 70
     0
  0
ENDTAB
  0
TABLE
  2
APPID
  5
9
330
0
100
AcDbSymbolTable
 70
     2
  0
APPID
  5
12
330
9
100
AcDbSymbolTableRecord
100
AcDbRegAppTableRecord
  2
ACAD
 70
     0
  0
APPID
  5
2BB
330
9
100
AcDbSymbolTableRecord
100
AcDbRegAppTableRecord
  2
ACAD_DSTYLE_DIMTEXT_FILL
 70
     0
  0
ENDTAB
  0
TABLE
  2
DIMSTYLE
  5
A
330
0
100
AcDbSymbolTable
 70
     1
100
AcDbDimStyleTable
 71
     1
340
522
  0
DIMSTYLE
105
522
102
{ACAD_REACTORS
330
89E
330
88F
330
884
330
87F
330
264
330
250
330
244
330
239
330
22E
330
223
330
1D9
330
1CE
330
1C3
330
1B7
330
1AC
330
13C
330
130
330
D2
330
C7
330
BB
330
AE
330
AAB
330
AB9
102
}
330
A
100
AcDbSymbolTableRecord
100
AcDbDimStyleTableRecord
  2
STANDARD
 70
     0
 40
2.0
 41
2.5
 42
0.625
 43
3.75
 44
0.0625
 78
     1
140
2.0
141
2.5
143
0.03937007874016
147
0.625
171
     3
271
     2
272
     2
274
     3
283
     0
284
     8
340
40C
  0
ENDTAB
  0
TABLE
  2
BLOCK_RECORD
  5
1
330
0
100
AcDbSymbolTable
 70
    28
  0
BLOCK_RECORD
  5
1F
102
{ACAD_XDICTIONARY
360
87C
102
}
330
1
100
AcDbSymbolTableRecord
100
AcDbBlockTableRecord
  2
*Model_Space
340
22
  0
BLOCK_RECORD
  5
1B
330
1
100
AcDbSymbolTableRecord
100
AcDbBlockTableRecord
  2
*Paper_Space
340
1E
  0
BLOCK_RECORD
  5
23
330
1
100
AcDbSymbolTableRecord
100
AcDbBlockTableRecord
  2
*Paper_Space0
340
26
  0
BLOCK_RECORD
  5
B1
330
1
100
AcDbSymbolTableRecord
100
AcDbBlockTableRecord
  2
*D1
340
0
  0
BLOCK_RECORD
  5
BD
330
1
100
AcDbSymbolTableRecord
100
AcDbBlockTableRecord
  2
*D2
340
0
  0
BLOCK_RECORD
  5
C8
330
1
100
AcDbSymbolTableRecord
100
AcDbBlockTableRecord
  2
*D3
340
0
  0
BLOCK_RECORD
  5
D3
330
1
100
AcDbSymbolTableRecord
100
AcDbBlockTableRecord
  2
*D4
340
0
  0
BLOCK_RECORD
  5
EC
330
1
100
AcDbSymbolTableRecord
100
AcDbBlockTableRecord
  2
SW_CENTERMARKSYMBOL_0
340
0
102
{BLKREFS
331
F3
102
}
  0
BLOCK_RECORD
  5
F4
330
1
100
AcDbSymbolTableRecord
100
AcDbBlockTableRecord
  2
SW_CENTERMARKSYMBOL_1
340
0
102
{BLKREFS
331
FB
102
}
  0
BLOCK_RECORD
  5
132
330
1
100
AcDbSymbolTableRecord
100
AcDbBlockTableRecord
  2
*D7
340
0
  0
BLOCK_RECORD
  5
13D
330
1
100
AcDbSymbolTableRecord
100
AcDbBlockTableRecord
  2
*D8
340
0
  0
BLOCK_RECORD
  5
1AD
330
1
100
AcDbSymbolTableRecord
100
AcDbBlockTableRecord
  2
*D9
340
0
  0
BLOCK_RECORD
  5
1B9
330
1
100
AcDbSymbolTableRecord
100
AcDbBlockTableRecord
  2
*D10
340
0
  0
BLOCK_RECORD
  5
1C4
330
1
100
AcDbSymbolTableRecord
100
AcDbBlockTableRecord
  2
*D11
340
0
  0
BLOCK_RECORD
  5
1CF
330
1
100
AcDbSymbolTableRecord
100
AcDbBlockTableRecord
  2
*D12
340
0
  0
BLOCK_RECORD
  5
1DB
330
1
100
AcDbSymbolTableRecord
100
AcDbBlockTableRecord
  2
*D13
340
0
  0
BLOCK_RECORD
  5
1EC
330
1
100
AcDbSymbolTableRecord
100
AcDbBlockTableRecord
  2
SW_CENTERMARKSYMBOL_2
340
0
102
{BLKREFS
331
1F3
102
}
  0
BLOCK_RECORD
  5
1F4
330
1
100
AcDbSymbolTableRecord
100
AcDbBlockTableRecord
  2
SW_CENTERMARKSYMBOL_3
340
0
102
{BLKREFS
331
1FB
102
}
  0
BLOCK_RECORD
  5
224
330
1
100
AcDbSymbolTableRecord
100
AcDbBlockTableRecord
  2
*D16
340
0
  0
BLOCK_RECORD
  5
22F
330
1
100
AcDbSymbolTableRecord
100
AcDbBlockTableRecord
  2
*D17
340
0
  0
BLOCK_RECORD
  5
23A
330
1
100
AcDbSymbolTableRecord
100
AcDbBlockTableRecord
  2
*D18
340
0
  0
BLOCK_RECORD
  5
245
330
1
100
AcDbSymbolTableRecord
100
AcDbBlockTableRecord
  2
*D19
340
0
  0
BLOCK_RECORD
  5
252
330
1
100
AcDbSymbolTableRecord
100
AcDbBlockTableRecord
  2
*D20
340
0
  0
BLOCK_RECORD
  5
265
330
1
100
AcDbSymbolTableRecord
100
AcDbBlockTableRecord
  2
*D21
340
0
  0
BLOCK_RECORD
  5
26F
330
1
100
AcDbSymbolTableRecord
100
AcDbBlockTableRecord
  2
SW_CENTERMARKSYMBOL_4
340
0
102
{BLKREFS
331
276
102
}
  0
BLOCK_RECORD
  5
277
330
1
100
AcDbSymbolTableRecord
100
AcDbBlockTableRecord
  2
SW_CENTERMARKSYMBOL_5
340
0
102
{BLKREFS
331
27E
102
}
  0
BLOCK_RECORD
  5
27F
330
1
100
AcDbSymbolTableRecord
100
AcDbBlockTableRecord
  2
SW_CENTERMARKSYMBOL_6
340
0
102
{BLKREFS
331
286
102
}
  0
BLOCK_RECORD
  5
287
330
1
100
AcDbSymbolTableRecord
100
AcDbBlockTableRecord
  2
SW_CENTERMARKSYMBOL_7
340
0
102
{BLKREFS
331
28E
102
}
  0
BLOCK_RECORD
  5
AAC
330
1
100
AcDbSymbolTableRecord
100
AcDbBlockTableRecord
  2
*D26
340
0
  0
BLOCK_RECORD
  5
ABA
330
1
100
AcDbSymbolTableRecord
100
AcDbBlockTableRecord
  2
*D27
340
0
  0
ENDTAB
  0
ENDSEC
  0
SECTION
  2
BLOCKS
  0
BLOCK
  5
20
330
1F
100
AcDbEntity
  8
0
100
AcDbBlockBegin
  2
*Model_Space
 70
     0
 10
0.0
 20
0.0
 30
0.0
  3
*Model_Space
  1

  0
ENDBLK
  5
21
330
1F
100
AcDbEntity
  8
0
100
AcDbBlockEnd
  0
BLOCK
  5
1C
330
1B
100
AcDbEntity
 67
     1
  8
0
100
AcDbBlockBegin
  2
*Paper_Space
 70
     0
 10
0.0
 20
0.0
 30
0.0
  3
*Paper_Space
  1

  0
ENDBLK
  5
1D
330
1B
100
AcDbEntity
 67
     1
  8
0
100
AcDbBlockEnd
  0
BLOCK
  5
24
330
23
100
AcDbEntity
  8
0
100
AcDbBlockBegin
  2
*Paper_Space0
 70
     0
 10
0.0
 20
0.0
 30
0.0
  3
*Paper_Space0
  1

  0
ENDBLK
  5
25
330
23
100
AcDbEntity
  8
0
100
AcDbBlockEnd
  0
BLOCK
  5
B2
330
B1
100
AcDbEntity
  8
0
100
AcDbBlockBegin
  2
*D1
 70
     1
 10
0.0
 20
0.0
 30
0.0
  3
*D1
  1

  0
LINE
  5
AC7
330
B1
100
AcDbEntity
  8
0
  6
Continuous
 62
     0
370
    -2
100
AcDbLine
 10
92.46203862282879
 20
178.0160240171872
 30
0.0
 11
92.46203862282879
 21
150.0246872111454
 31
0.0
  0
LINE
  5
AC8
330
B1
100
AcDbEntity
  8
0
  6
Continuous
 62
     0
370
    -2
100
AcDbLine
 10
81.46203862282881
 20
170.4685240171871
 30
0.0
 11
81.46203862282881
 21
150.0246872111454
 31
0.0
  0
LINE
  5
AC9
330
B1
100
AcDbEntity
  8
0
  6
Continuous
 62
     0
370
    -2
100
AcDbLine
 10
97.46203862282882
 20
151.2746872111454
 30
0.0
 11
102.4620386228288
 21
151.2746872111454
 31
0.0
  0
LINE
  5
ACA
330
B1
100
AcDbEntity
  8
0
  6
Continuous
 62
     0
370
    -2
100
AcDbLine
 10
76.46203862282881
 20
151.2746872111454
 30
0.0
 11
68.26967845911804
 21
151.2746872111454
 31
0.0
  0
SOLID
  5
ACB
330
B1
100
AcDbEntity
  8
0
  6
Continuous
 62
     0
100
AcDbTrace
 10
97.46203862282882
 20
152.1080205444786
 30
0.0
 11
97.46203862282882
 21
150.4413538778121
 31
0.0
 12
92.46203862282879
 22
151.2746872111454
 32
0.0
 13
92.46203862282879
 23
151.2746872111454
 33
0.0
  0
SOLID
  5
ACC
330
B1
100
AcDbEntity
  8
0
  6
Continuous
 62
     0
100
AcDbTrace
 10
76.46203862282881
 20
152.1080205444786
 30
0.0
 11
76.46203862282881
 21
150.4413538778121
 31
0.0
 12
81.46203862282881
 22
151.2746872111454
 32
0.0
 13
81.46203862282881
 23
151.2746872111454
 33
0.0
  0
MTEXT
  5
ACD
330
B1
100
AcDbEntity
  8
0
  6
Continuous
 62
     0
370
     0
100
AcDbMText
 10
62.01967845911804
 20
153.3169791620322
 30
0.0
 40
4.0
 41
0.0
 71
     2
 72
     1
  1
11.0
  7
Arial
 73
     1
 44
1.0
1001
ACAD
1000
MTEXTBEGIN
1070
    73
1070
     1
1070
    44
1040
1.0
1070
    74
1070
     0
1000
MTEXTEND
  0
POINT
  5
ACE
330
B1
100
AcDbEntity
  8
Defpoints
  6
Continuous
 62
     0
100
AcDbPoint
 10
92.46203862282879
 20
179.2660240171872
 30
0.0
  0
POINT
  5
ACF
330
B1
100
AcDbEntity
  8
Defpoints
  6
Continuous
 62
     0
100
AcDbPoint
 10
81.46203862282881
 20
171.7185240171872
 30
0.0
  0
POINT
  5
AD0
330
B1
100
AcDbEntity
  8
Defpoints
  6
Continuous
 62
     0
100
AcDbPoint
 10
81.46203862282881
 20
151.2746872111454
 30
0.0
  0
ENDBLK
  5
B3
330
B1
100
AcDbEntity
  8
0
100
AcDbBlockEnd
  0
BLOCK
  5
BE
330
BD
100
AcDbEntity
  8
0
100
AcDbBlockBegin
  2
*D2
 70
     1
 10
0.0
 20
0.0
 30
0.0
  3
*D2
  1

  0
LINE
  5
AD1
330
BD
100
AcDbEntity
  8
0
  6
Continuous
 62
     0
370
    -2
100
AcDbLine
 10
103.9620386228288
 20
181.4160240171871
 30
0.0
 11
103.9620386228288
 21
139.5171167409207
 31
0.0
  0
LINE
  5
AD2
330
BD
100
AcDbEntity
  8
0
  6
Continuous
 62
     0
370
    -2
100
AcDbLine
 10
81.46203862282881
 20
170.4685240171871
 30
0.0
 11
81.46203862282881
 21
139.5171167409207
 31
0.0
  0
LINE
  5
AD3
330
BD
100
AcDbEntity
  8
0
  6
Continuous
 62
     0
370
    -2
100
AcDbLine
 10
108.9620386228288
 20
140.7671167409207
 30
0.0
 11
113.9620386228288
 21
140.7671167409207
 31
0.0
  0
LINE
  5
AD4
330
BD
100
AcDbEntity
  8
0
  6
Continuous
 62
     0
370
    -2
100
AcDbLine
 10
76.46203862282881
 20
140.7671167409207
 30
0.0
 11
71.46203862282881
 21
140.7671167409207
 31
0.0
  0
SOLID
  5
AD5
330
BD
100
AcDbEntity
  8
0
  6
Continuous
 62
     0
100
AcDbTrace
 10
108.9620386228288
 20
141.6004500742541
 30
0.0
 11
108.9620386228288
 21
139.9337834075874
 31
0.0
 12
103.9620386228288
 22
140.7671167409207
 32
0.0
 13
103.9620386228288
 23
140.7671167409207
 33
0.0
  0
SOLID
  5
AD6
330
BD
100
AcDbEntity
  8
0
  6
Continuous
 62
     0
100
AcDbTrace
 10
76.46203862282881
 20
141.6004500742541
 30
0.0
 11
76.46203862282881
 21
139.9337834075874
 31
0.0
 12
81.46203862282881
 22
140.7671167409207
 32
0.0
 13
81.46203862282881
 23
140.7671167409207
 33
0.0
  0
MTEXT
  5
AD7
330
BD
100
AcDbEntity
  8
0
  6
Continuous
 62
     0
370
     0
100
AcDbMText
 10
92.14660795437131
 20
142.8094086918075
 30
0.0
 40
4.0
 41
0.0
 71
     2
 72
     1
  1
22.5
  7
Arial
 73
     1
 44
1.0
1001
ACAD
1000
MTEXTBEGIN
1070
    73
1070
     1
1070
    44
1040
1.0
1070
    74
1070
     0
1000
MTEXTEND
  0
POINT
  5
AD8
330
BD
100
AcDbEntity
  8
Defpoints
  6
Continuous
 62
     0
100
AcDbPoint
 10
103.9620386228288
 20
182.6660240171871
 30
0.0
  0
POINT
  5
AD9
330
BD
100
AcDbEntity
  8
Defpoints
  6
Continuous
 62
     0
100
AcDbPoint
 10
81.46203862282881
 20
171.7185240171872
 30
0.0
  0
POINT
  5
ADA
330
BD
100
AcDbEntity
  8
Defpoints
  6
Continuous
 62
     0
100
AcDbPoint
 10
81.46203862282881
 20
140.7671167409207
 30
0.0
  0
ENDBLK
  5
BF
330
BD
100
AcDbEntity
  8
0
100
AcDbBlockEnd
  0
BLOCK
  5
C9
330
C8
100
AcDbEntity
  8
0
100
AcDbBlockBegin
  2
*D3
 70
     1
 10
0.0
 20
0.0
 30
0.0
  3
*D3
  1

  0
LINE
  5
ADB
330
C8
100
AcDbEntity
  8
0
  6
Continuous
 62
     0
370
    -2
100
AcDbLine
 10
88.67203862282881
 20
181.8060240171872
 30
0.0
 11
63.21420174198627
 21
181.8060240171872
 31
0.0
  0
LINE
  5
ADC
330
C8
100
AcDbEntity
  8
0
  6
Continuous
 62
     0
370
    -2
100
AcDbLine
 10
82.21203862282882
 20
169.7185240171872
 30
0.0
 11
63.21420174198626
 21
169.7185240171872
 31
0.0
  0
LINE
  5
ADD
330
C8
100
AcDbEntity
  8
0
  6
Continuous
 62
     0
370
    -2
100
AcDbLine
 10
64.46420174198627
 20
186.8060240171871
 30
0.0
 11
64.46420174198627
 21
191.8060240171872
 31
0.0
  0
LINE
  5
ADE
330
C8
100
AcDbEntity
  8
0
  6
Continuous
 62
     0
370
    -2
100
AcDbLine
 10
64.46420174198627
 20
164.7185240171872
 30
0.0
 11
64.46420174198626
 21
159.7185240171872
 31
0.0
  0
SOLID
  5
ADF
330
C8
100
AcDbEntity
  8
0
  6
Continuous
 62
     0
100
AcDbTrace
 10
63.63086840865292
 20
186.8060240171871
 30
0.0
 11
65.2975350753196
 21
186.8060240171871
 31
0.0
 12
64.46420174198627
 22
181.8060240171872
 32
0.0
 13
64.46420174198627
 23
181.8060240171872
 33
0.0
  0
SOLID
  5
AE0
330
C8
100
AcDbEntity
  8
0
  6
Continuous
 62
     0
100
AcDbTrace
 10
63.63086840865292
 20
164.7185240171872
 30
0.0
 11
65.2975350753196
 21
164.7185240171872
 31
0.0
 12
64.46420174198627
 22
169.7185240171872
 32
0.0
 13
64.46420174198627
 23
169.7185240171872
 33
0.0
  0
MTEXT
  5
AE1
330
C8
100
AcDbEntity
  8
0
  6
Continuous
 62
     0
370
     0
100
AcDbMText
 10
64.46420174198625
 20
177.7704595560685
 30
0.0
 40
4.0
 41
0.0
 71
     2
 72
     1
  1
12.1
  7
Arial
 73
     1
 44
1.0
1001
ACAD
1000
MTEXTBEGIN
1070
    73
1070
     1
1070
    44
1040
1.0
1070
    74
1070
     0
1000
MTEXTEND
  0
POINT
  5
AE2
330
C8
100
AcDbEntity
  8
Defpoints
  6
Continuous
 62
     0
100
AcDbPoint
 10
89.92203862282881
 20
181.8060240171872
 30
0.0
  0
POINT
  5
AE3
330
C8
100
AcDbEntity
  8
Defpoints
  6
Continuous
 62
     0
100
AcDbPoint
 10
83.46203862282882
 20
169.7185240171872
 30
0.0
  0
POINT
  5
AE4
330
C8
100
AcDbEntity
  8
Defpoints
  6
Continuous
 62
     0
100
AcDbPoint
 10
64.46420174198627
 20
169.7185240171872
 30
0.0
  0
ENDBLK
  5
CA
330
C8
100
AcDbEntity
  8
0
100
AcDbBlockEnd
  0
BLOCK
  5
D4
330
D3
100
AcDbEntity
  8
0
100
AcDbBlockBegin
  2
*D4
 70
     1
 10
0.0
 20
0.0
 30
0.0
  3
*D4
  1

  0
LINE
  5
AE5
330
D3
100
AcDbEntity
  8
0
  6
Continuous
 62
     0
370
    -2
100
AcDbLine
 10
107.7520386228288
 20
185.2060240171871
 30
0.0
 11
131.0304683489958
 21
185.2060240171871
 31
0.0
  0
LINE
  5
AE6
330
D3
100
AcDbEntity
  8
0
  6
Continuous
 62
     0
370
    -2
100
AcDbLine
 10
115.7120386228288
 20
169.7185240171872
 30
0.0
 11
131.0304683489958
 21
169.7185240171872
 31
0.0
  0
LINE
  5
AE7
330
D3
100
AcDbEntity
  8
0
  6
Continuous
 62
     0
370
    -2
100
AcDbLine
 10
129.7804683489958
 20
190.206024017187
 30
0.0
 11
129.7804683489958
 21
195.2060240171871
 31
0.0
  0
LINE
  5
AE8
330
D3
100
AcDbEntity
  8
0
  6
Continuous
 62
     0
370
    -2
100
AcDbLine
 10
129.7804683489958
 20
164.7185240171872
 30
0.0
 11
129.7804683489958
 21
159.7185240171872
 31
0.0
  0
SOLID
  5
AE9
330
D3
100
AcDbEntity
  8
0
  6
Continuous
 62
     0
100
AcDbTrace
 10
128.9471350156624
 20
190.206024017187
 30
0.0
 11
130.6138016823291
 21
190.206024017187
 31
0.0
 12
129.7804683489958
 22
185.2060240171871
 32
0.0
 13
129.7804683489958
 23
185.2060240171871
 33
0.0
  0
SOLID
  5
AEA
330
D3
100
AcDbEntity
  8
0
  6
Continuous
 62
     0
100
AcDbTrace
 10
128.9471350156624
 20
164.7185240171872
 30
0.0
 11
130.6138016823291
 21
164.7185240171872
 31
0.0
 12
129.7804683489958
 22
169.7185240171872
 32
0.0
 13
129.7804683489958
 23
169.7185240171872
 33
0.0
  0
MTEXT
  5
AEB
330
D3
100
AcDbEntity
  8
0
  6
Continuous
 62
     0
370
     0
100
AcDbMText
 10
129.7804683489958
 20
179.5364871247525
 30
0.0
 40
4.0
 41
0.0
 71
     2
 72
     1
  1
15.5
  7
Arial
 73
     1
 44
1.0
1001
ACAD
1000
MTEXTBEGIN
1070
    73
1070
     1
1070
    44
1040
1.0
1070
    74
1070
     0
1000
MTEXTEND
  0
POINT
  5
AEC
330
D3
100
AcDbEntity
  8
Defpoints
  6
Continuous
 62
     0
100
AcDbPoint
 10
106.5020386228288
 20
185.2060240171871
 30
0.0
  0
POINT
  5
AED
330
D3
100
AcDbEntity
  8
Defpoints
  6
Continuous
 62
     0
100
AcDbPoint
 10
114.4620386228288
 20
169.7185240171872
 30
0.0
  0
POINT
  5
AEE
330
D3
100
AcDbEntity
  8
Defpoints
  6
Continuous
 62
     0
100
AcDbPoint
 10
129.7804683489958
 20
169.7185240171872
 30
0.0
  0
ENDBLK
  5
D5
330
D3
100
AcDbEntity
  8
0
100
AcDbBlockEnd
  0
BLOCK
  5
ED
330
EC
100
AcDbEntity
  8
0
100
AcDbBlockBegin
  2
SW_CENTERMARKSYMBOL_0
 70
     0
 10
0.0
 20
0.0
 30
0.0
  3
SW_CENTERMARKSYMBOL_0
  1

  0
LINE
  5
EF
330
EC
100
AcDbEntity
  8
0
  6
Continuous
 62
     0
370
     0
100
AcDbLine
 10
0.0
 20
0.0
 30
0.0
 11
0.0
 21
2.539999999999985
 31
0.0
  0
LINE
  5
F0
330
EC
100
AcDbEntity
  8
0
  6
Continuous
 62
     0
370
     0
100
AcDbLine
 10
0.0
 20
0.0
 30
0.0
 11
-2.54
 21
0.0
 31
0.0
  0
LINE
  5
F1
330
EC
100
AcDbEntity
  8
0
  6
Continuous
 62
     0
370
     0
100
AcDbLine
 10
0.0
 20
0.0
 30
0.0
 11
0.0
 21
-2.540000000000014
 31
0.0
  0
LINE
  5
F2
330
EC
100
AcDbEntity
  8
0
  6
Continuous
 62
     0
370
     0
100
AcDbLine
 10
0.0
 20
0.0
 30
0.0
 11
2.54
 21
0.0
 31
0.0
  0
ENDBLK
  5
EE
330
EC
100
AcDbEntity
  8
0
100
AcDbBlockEnd
  0
BLOCK
  5
F5
330
F4
100
AcDbEntity
  8
0
100
AcDbBlockBegin
  2
SW_CENTERMARKSYMBOL_1
 70
     0
 10
0.0
 20
0.0
 30
0.0
  3
SW_CENTERMARKSYMBOL_1
  1

  0
LINE
  5
F7
330
F4
100
AcDbEntity
  8
0
  6
Continuous
 62
     0
370
     0
100
AcDbLine
 10
0.0
 20
0.0
 30
0.0
 11
0.0
 21
2.540000000000014
 31
0.0
  0
LINE
  5
F8
330
F4
100
AcDbEntity
  8
0
  6
Continuous
 62
     0
370
     0
100
AcDbLine
 10
0.0
 20
0.0
 30
0.0
 11
-2.54
 21
0.0
 31
0.0
  0
LINE
  5
F9
330
F4
100
AcDbEntity
  8
0
  6
Continuous
 62
     0
370
     0
100
AcDbLine
 10
0.0
 20
0.0
 30
0.0
 11
0.0
 21
-2.539999999999985
 31
0.0
  0
LINE
  5
FA
330
F4
100
AcDbEntity
  8
0
  6
Continuous
 62
     0
370
     0
100
AcDbLine
 10
0.0
 20
0.0
 30
0.0
 11
2.54
 21
0.0
 31
0.0
  0
ENDBLK
  5
F6
330
F4
100
AcDbEntity
  8
0
100
AcDbBlockEnd
  0
BLOCK
  5
133
330
132
100
AcDbEntity
  8
0
100
AcDbBlockBegin
  2
*D7
 70
     1
 10
0.0
 20
0.0
 30
0.0
  3
*D7
  1

  0
LINE
  5
A02
330
132
100
AcDbEntity
  8
0
  6
Continuous
 62
     0
370
    -2
100
AcDbLine
 10
190.7239121425836
 20
193.7185240171872
 30
0.0
 11
162.4531704591648
 21
193.7185240171872
 31
0.0
  0
LINE
  5
A03
330
132
100
AcDbEntity
  8
0
  6
Continuous
 62
     0
370
    -2
100
AcDbLine
 10
190.7239121425836
 20
169.7185240171872
 30
0.0
 11
162.4531704591648
 21
169.7185240171872
 31
0.0
  0
LINE
  5
A04
330
132
100
AcDbEntity
  8
0
  6
Continuous
 62
     0
370
    -2
100
AcDbLine
 10
163.7031704591648
 20
188.7185240171872
 30
0.0
 11
163.7031704591648
 21
184.3219916991568
 31
0.0
  0
LINE
  5
A05
330
132
100
AcDbEntity
  8
0
  6
Continuous
 62
     0
370
    -2
100
AcDbLine
 10
163.7031704591648
 20
174.7185240171871
 30
0.0
 11
163.7031704591648
 21
177.7374077973833
 31
0.0
  0
SOLID
  5
A06
330
132
100
AcDbEntity
  8
0
  6
Continuous
 62
     0
100
AcDbTrace
 10
162.8698371258314
 20
188.7185240171872
 30
0.0
 11
164.5365037924981
 21
188.7185240171872
 31
0.0
 12
163.7031704591648
 22
193.7185240171872
 32
0.0
 13
163.7031704591648
 23
193.7185240171872
 33
0.0
  0
SOLID
  5
A07
330
132
100
AcDbEntity
  8
0
  6
Continuous
 62
     0
100
AcDbTrace
 10
162.8698371258314
 20
174.7185240171871
 30
0.0
 11
164.5365037924981
 21
174.7185240171871
 31
0.0
 12
163.7031704591648
 22
169.7185240171872
 32
0.0
 13
163.7031704591648
 23
169.7185240171872
 33
0.0
  0
MTEXT
  5
A08
330
132
100
AcDbEntity
  8
0
  6
Continuous
 62
     0
370
     0
100
AcDbMText
 10
163.7031704591647
 20
183.0719916991569
 30
0.0
 40
4.0
 41
0.0
 71
     2
 72
     1
  1
24.0
  7
Arial
 73
     1
 44
1.0
1001
ACAD
1000
MTEXTBEGIN
1070
    73
1070
     1
1070
    44
1040
1.0
1070
    74
1070
     0
1000
MTEXTEND
  0
POINT
  5
A09
330
132
100
AcDbEntity
  8
Defpoints
  6
Continuous
 62
     0
100
AcDbPoint
 10
191.9739121425836
 20
193.7185240171872
 30
0.0
  0
POINT
  5
A0A
330
132
100
AcDbEntity
  8
Defpoints
  6
Continuous
 62
     0
100
AcDbPoint
 10
191.9739121425836
 20
169.7185240171872
 30
0.0
  0
POINT
  5
A0B
330
132
100
AcDbEntity
  8
Defpoints
  6
Continuous
 62
     0
100
AcDbPoint
 10
163.7031704591648
 20
169.7185240171872
 30
0.0
  0
ENDBLK
  5
134
330
132
100
AcDbEntity
  8
0
100
AcDbBlockEnd
  0
BLOCK
  5
13E
330
13D
100
AcDbEntity
  8
0
100
AcDbBlockBegin
  2
*D8
 70
     1
 10
0.0
 20
0.0
 30
0.0
  3
*D8
  1

  0
LINE
  5
9F8
330
13D
100
AcDbEntity
  8
0
  6
Continuous
 62
     0
370
    -2
100
AcDbLine
 10
191.9739121425836
 20
168.4685240171871
 30
0.0
 11
191.9739121425836
 21
153.9993382800366
 31
0.0
  0
LINE
  5
9F9
330
13D
100
AcDbEntity
  8
0
  6
Continuous
 62
     0
370
    -2
100
AcDbLine
 10
241.9739121425837
 20
168.4685240171871
 30
0.0
 11
241.9739121425837
 21
153.9993382800366
 31
0.0
  0
LINE
  5
9FA
330
13D
100
AcDbEntity
  8
0
  6
Continuous
 62
     0
370
    -2
100
AcDbLine
 10
196.9739121425836
 20
155.2493382800365
 30
0.0
 11
210.09315751154
 21
155.2493382800365
 31
0.0
  0
LINE
  5
9FB
330
13D
100
AcDbEntity
  8
0
  6
Continuous
 62
     0
370
    -2
100
AcDbLine
 10
236.9739121425836
 20
155.2493382800365
 30
0.0
 11
222.9696923000803
 21
155.2493382800365
 31
0.0
  0
SOLID
  5
9FC
330
13D
100
AcDbEntity
  8
0
  6
Continuous
 62
     0
100
AcDbTrace
 10
196.9739121425836
 20
156.0826716133699
 30
0.0
 11
196.9739121425836
 21
154.4160049467032
 31
0.0
 12
191.9739121425836
 22
155.2493382800365
 32
0.0
 13
191.9739121425836
 23
155.2493382800365
 33
0.0
  0
SOLID
  5
9FD
330
13D
100
AcDbEntity
  8
0
  6
Continuous
 62
     0
100
AcDbTrace
 10
236.9739121425836
 20
156.0826716133699
 30
0.0
 11
236.9739121425836
 21
154.4160049467032
 31
0.0
 12
241.9739121425837
 22
155.2493382800365
 32
0.0
 13
241.9739121425837
 23
155.2493382800365
 33
0.0
  0
MTEXT
  5
9FE
330
13D
100
AcDbEntity
  8
0
  6
Continuous
 62
     0
370
     0
100
AcDbMText
 10
216.5314249058101
 20
157.2916302309233
 30
0.0
 40
4.0
 41
0.0
 71
     2
 72
     1
  1
50.0
  7
Arial
 73
     1
 44
1.0
1001
ACAD
1000
MTEXTBEGIN
1070
    73
1070
     1
1070
    44
1040
1.0
1070
    74
1070
     0
1000
MTEXTEND
  0
POINT
  5
9FF
330
13D
100
AcDbEntity
  8
Defpoints
  6
Continuous
 62
     0
100
AcDbPoint
 10
191.9739121425836
 20
169.7185240171872
 30
0.0
  0
POINT
  5
A00
330
13D
100
AcDbEntity
  8
Defpoints
  6
Continuous
 62
     0
100
AcDbPoint
 10
241.9739121425837
 20
169.7185240171872
 30
0.0
  0
POINT
  5
A01
330
13D
100
AcDbEntity
  8
Defpoints
  6
Continuous
 62
     0
100
AcDbPoint
 10
241.9739121425837
 20
155.2493382800365
 30
0.0
  0
ENDBLK
  5
13F
330
13D
100
AcDbEntity
  8
0
100
AcDbBlockEnd
  0
BLOCK
  5
1AE
330
1AD
100
AcDbEntity
  8
0
100
AcDbBlockBegin
  2
*D9
 70
     1
 10
0.0
 20
0.0
 30
0.0
  3
*D9
  1

  0
LINE
  5
9EE
330
1AD
100
AcDbEntity
  8
0
  6
Continuous
 62
     0
370
    -2
100
AcDbLine
 10
333.8922790638545
 20
170.4685240171871
 30
0.0
 11
333.8922790638545
 21
152.1867340526421
 31
0.0
  0
LINE
  5
9EF
330
1AD
100
AcDbEntity
  8
0
  6
Continuous
 62
     0
370
    -2
100
AcDbLine
 10
322.8922790638543
 20
178.0160240171872
 30
0.0
 11
322.8922790638543
 21
152.1867340526421
 31
0.0
  0
LINE
  5
9F0
330
1AD
100
AcDbEntity
  8
0
  6
Continuous
 62
     0
370
    -2
100
AcDbLine
 10
317.8922790638543
 20
153.4367340526421
 30
0.0
 11
312.8922790638543
 21
153.4367340526421
 31
0.0
  0
LINE
  5
9F1
330
1AD
100
AcDbEntity
  8
0
  6
Continuous
 62
     0
370
    -2
100
AcDbLine
 10
338.8922790638545
 20
153.4367340526421
 30
0.0
 11
345.1422790638545
 21
153.4367340526421
 31
0.0
  0
SOLID
  5
9F2
330
1AD
100
AcDbEntity
  8
0
  6
Continuous
 62
     0
100
AcDbTrace
 10
317.8922790638543
 20
154.2700673859754
 30
0.0
 11
317.8922790638543
 21
152.6034007193088
 31
0.0
 12
322.8922790638543
 22
153.4367340526421
 32
0.0
 13
322.8922790638543
 23
153.4367340526421
 33
0.0
  0
SOLID
  5
9F3
330
1AD
100
AcDbEntity
  8
0
  6
Continuous
 62
     0
100
AcDbTrace
 10
338.8922790638545
 20
154.2700673859754
 30
0.0
 11
338.8922790638545
 21
152.6034007193088
 31
0.0
 12
333.8922790638545
 22
153.4367340526421
 32
0.0
 13
333.8922790638545
 23
153.4367340526421
 33
0.0
  0
MTEXT
  5
9F4
330
1AD
100
AcDbEntity
  8
0
  6
Continuous
 62
     0
370
     0
100
AcDbMText
 10
351.3922790638545
 20
155.4790260035289
 30
0.0
 40
4.0
 41
0.0
 71
     2
 72
     1
  1
11.0
  7
Arial
 73
     1
 44
1.0
1001
ACAD
1000
MTEXTBEGIN
1070
    73
1070
     1
1070
    44
1040
1.0
1070
    74
1070
     0
1000
MTEXTEND
  0
POINT
  5
9F5
330
1AD
100
AcDbEntity
  8
Defpoints
  6
Continuous
 62
     0
100
AcDbPoint
 10
333.8922790638545
 20
171.7185240171872
 30
0.0
  0
POINT
  5
9F6
330
1AD
100
AcDbEntity
  8
Defpoints
  6
Continuous
 62
     0
100
AcDbPoint
 10
322.8922790638543
 20
179.2660240171872
 30
0.0
  0
POINT
  5
9F7
330
1AD
100
AcDbEntity
  8
Defpoints
  6
Continuous
 62
     0
100
AcDbPoint
 10
322.8922790638543
 20
153.4367340526421
 30
0.0
  0
ENDBLK
  5
1AF
330
1AD
100
AcDbEntity
  8
0
100
AcDbBlockEnd
  0
BLOCK
  5
1BA
330
1B9
100
AcDbEntity
  8
0
100
AcDbBlockBegin
  2
*D10
 70
     1
 10
0.0
 20
0.0
 30
0.0
  3
*D10
  1

  0
LINE
  5
9E4
330
1B9
100
AcDbEntity
  8
0
  6
Continuous
 62
     0
370
    -2
100
AcDbLine
 10
333.8922790638545
 20
170.4685240171871
 30
0.0
 11
333.8922790638545
 21
144.0057610381449
 31
0.0
  0
LINE
  5
9E5
330
1B9
100
AcDbEntity
  8
0
  6
Continuous
 62
     0
370
    -2
100
AcDbLine
 10
307.6222790638543
 20
177.5640240171872
 30
0.0
 11
307.6222790638543
 21
144.0057610381449
 31
0.0
  0
LINE
  5
9E6
330
1B9
100
AcDbEntity
  8
0
  6
Continuous
 62
     0
370
    -2
100
AcDbLine
 10
328.8922790638545
 20
145.2557610381449
 30
0.0
 11
328.3774449975283
 21
145.2557610381449
 31
0.0
  0
LINE
  5
9E7
330
1B9
100
AcDbEntity
  8
0
  6
Continuous
 62
     0
370
    -2
100
AcDbLine
 10
312.6222790638544
 20
145.2557610381449
 30
0.0
 11
315.419054820175
 21
145.2557610381449
 31
0.0
  0
SOLID
  5
9E8
330
1B9
100
AcDbEntity
  8
0
  6
Continuous
 62
     0
100
AcDbTrace
 10
328.8922790638545
 20
146.0890943714782
 30
0.0
 11
328.8922790638545
 21
144.4224277048115
 31
0.0
 12
333.8922790638545
 22
145.2557610381449
 32
0.0
 13
333.8922790638545
 23
145.2557610381449
 33
0.0
  0
SOLID
  5
9E9
330
1B9
100
AcDbEntity
  8
0
  6
Continuous
 62
     0
100
AcDbTrace
 10
312.6222790638544
 20
146.0890943714782
 30
0.0
 11
312.6222790638544
 21
144.4224277048115
 31
0.0
 12
307.6222790638543
 22
145.2557610381449
 32
0.0
 13
307.6222790638543
 23
145.2557610381449
 33
0.0
  0
MTEXT
  5
9EA
330
1B9
100
AcDbEntity
  8
0
  6
Continuous
 62
     0
370
     0
100
AcDbMText
 10
321.8982499088517
 20
147.2994172455118
 30
0.0
 40
4.0
 41
0.0
 71
     2
 72
     1
  1
26.3
  7
Arial
 73
     1
 44
1.0
1001
ACAD
1000
MTEXTBEGIN
1070
    73
1070
     1
1070
    44
1040
1.0
1070
    74
1070
     0
1000
MTEXTEND
  0
POINT
  5
9EB
330
1B9
100
AcDbEntity
  8
Defpoints
  6
Continuous
 62
     0
100
AcDbPoint
 10
333.8922790638545
 20
171.7185240171872
 30
0.0
  0
POINT
  5
9EC
330
1B9
100
AcDbEntity
  8
Defpoints
  6
Continuous
 62
     0
100
AcDbPoint
 10
307.6222790638543
 20
178.8140240171872
 30
0.0
  0
POINT
  5
9ED
330
1B9
100
AcDbEntity
  8
Defpoints
  6
Continuous
 62
     0
100
AcDbPoint
 10
307.6222790638543
 20
145.2557610381449
 30
0.0
  0
ENDBLK
  5
1BB
330
1B9
100
AcDbEntity
  8
0
100
AcDbBlockEnd
  0
BLOCK
  5
1C5
330
1C4
100
AcDbEntity
  8
0
100
AcDbBlockBegin
  2
*D11
 70
     1
 10
0.0
 20
0.0
 30
0.0
  3
*D11
  1

  0
LINE
  5
9DA
330
1C4
100
AcDbEntity
  8
0
  6
Continuous
 62
     0
370
    -2
100
AcDbLine
 10
333.1422790638545
 20
169.7185240171872
 30
0.0
 11
351.1586058085192
 21
169.7185240171872
 31
0.0
  0
LINE
  5
9DB
330
1C4
100
AcDbEntity
  8
0
  6
Continuous
 62
     0
370
    -2
100
AcDbLine
 10
326.6822790638544
 20
181.8060240171872
 30
0.0
 11
351.1586058085192
 21
181.8060240171872
 31
0.0
  0
LINE
  5
9DC
330
1C4
100
AcDbEntity
  8
0
  6
Continuous
 62
     0
370
    -2
100
AcDbLine
 10
349.9086058085191
 20
164.7185240171872
 30
0.0
 11
349.9086058085191
 21
159.7185240171872
 31
0.0
  0
LINE
  5
9DD
330
1C4
100
AcDbEntity
  8
0
  6
Continuous
 62
     0
370
    -2
100
AcDbLine
 10
349.9086058085191
 20
186.806024017187
 30
0.0
 11
349.9086058085191
 21
191.8060240171872
 31
0.0
  0
SOLID
  5
9DE
330
1C4
100
AcDbEntity
  8
0
  6
Continuous
 62
     0
100
AcDbTrace
 10
349.0752724751858
 20
164.7185240171872
 30
0.0
 11
350.7419391418523
 21
164.7185240171872
 31
0.0
 12
349.9086058085191
 22
169.7185240171872
 32
0.0
 13
349.9086058085191
 23
169.7185240171872
 33
0.0
  0
SOLID
  5
9DF
330
1C4
100
AcDbEntity
  8
0
  6
Continuous
 62
     0
100
AcDbTrace
 10
349.0752724751858
 20
186.806024017187
 30
0.0
 11
350.7419391418523
 21
186.806024017187
 31
0.0
 12
349.9086058085191
 22
181.8060240171872
 32
0.0
 13
349.9086058085191
 23
181.8060240171872
 33
0.0
  0
MTEXT
  5
9E0
330
1C4
100
AcDbEntity
  8
0
  6
Continuous
 62
     0
370
     0
100
AcDbMText
 10
349.9086058085191
 20
177.7704595560686
 30
0.0
 40
4.0
 41
0.0
 71
     2
 72
     1
  1
12.1
  7
Arial
 73
     1
 44
1.0
1001
ACAD
1000
MTEXTBEGIN
1070
    73
1070
     1
1070
    44
1040
1.0
1070
    74
1070
     0
1000
MTEXTEND
  0
POINT
  5
9E1
330
1C4
100
AcDbEntity
  8
Defpoints
  6
Continuous
 62
     0
100
AcDbPoint
 10
331.8922790638545
 20
169.7185240171872
 30
0.0
  0
POINT
  5
9E2
330
1C4
100
AcDbEntity
  8
Defpoints
  6
Continuous
 62
     0
100
AcDbPoint
 10
325.4322790638544
 20
181.8060240171872
 30
0.0
  0
POINT
  5
9E3
330
1C4
100
AcDbEntity
  8
Defpoints
  6
Continuous
 62
     0
100
AcDbPoint
 10
349.9086058085191
 20
181.8060240171872
 30
0.0
  0
ENDBLK
  5
1C6
330
1C4
100
AcDbEntity
  8
0
100
AcDbBlockEnd
  0
BLOCK
  5
1D0
330
1CF
100
AcDbEntity
  8
0
100
AcDbBlockBegin
  2
*D12
 70
     1
 10
0.0
 20
0.0
 30
0.0
  3
*D12
  1

  0
LINE
  5
9D0
330
1CF
100
AcDbEntity
  8
0
  6
Continuous
 62
     0
370
    -2
100
AcDbLine
 10
303.8322790638543
 20
181.3540240171872
 30
0.0
 11
281.6422790638544
 21
181.3540240171872
 31
0.0
  0
LINE
  5
9D1
330
1CF
100
AcDbEntity
  8
0
  6
Continuous
 62
     0
370
    -2
100
AcDbLine
 10
300.6172790638545
 20
169.7185240171872
 30
0.0
 11
281.6422790638544
 21
169.7185240171872
 31
0.0
  0
LINE
  5
9D2
330
1CF
100
AcDbEntity
  8
0
  6
Continuous
 62
     0
370
    -2
100
AcDbLine
 10
282.8922790638543
 20
186.3540240171872
 30
0.0
 11
282.8922790638543
 21
191.3540240171872
 31
0.0
  0
LINE
  5
9D3
330
1CF
100
AcDbEntity
  8
0
  6
Continuous
 62
     0
370
    -2
100
AcDbLine
 10
282.8922790638543
 20
164.7185240171872
 30
0.0
 11
282.8922790638543
 21
159.7185240171872
 31
0.0
  0
SOLID
  5
9D4
330
1CF
100
AcDbEntity
  8
0
  6
Continuous
 62
     0
100
AcDbTrace
 10
282.0589457305212
 20
186.3540240171872
 30
0.0
 11
283.7256123971877
 21
186.3540240171872
 31
0.0
 12
282.8922790638543
 22
181.3540240171872
 32
0.0
 13
282.8922790638543
 23
181.3540240171872
 33
0.0
  0
SOLID
  5
9D5
330
1CF
100
AcDbEntity
  8
0
  6
Continuous
 62
     0
100
AcDbTrace
 10
282.0589457305212
 20
164.7185240171872
 30
0.0
 11
283.7256123971877
 21
164.7185240171872
 31
0.0
 12
282.8922790638543
 22
169.7185240171872
 32
0.0
 13
282.8922790638543
 23
169.7185240171872
 33
0.0
  0
MTEXT
  5
9D6
330
1CF
100
AcDbEntity
  8
0
  6
Continuous
 62
     0
370
     0
100
AcDbMText
 10
282.8922790638543
 20
177.578565968074
 30
0.0
 40
4.0
 41
0.0
 71
     2
 72
     1
  1
11.6
  7
Arial
 73
     1
 44
1.0
1001
ACAD
1000
MTEXTBEGIN
1070
    73
1070
     1
1070
    44
1040
1.0
1070
    74
1070
     0
1000
MTEXTEND
  0
POINT
  5
9D7
330
1CF
100
AcDbEntity
  8
Defpoints
  6
Continuous
 62
     0
100
AcDbPoint
 10
305.0822790638544
 20
181.3540240171872
 30
0.0
  0
POINT
  5
9D8
330
1CF
100
AcDbEntity
  8
Defpoints
  6
Continuous
 62
     0
100
AcDbPoint
 10
301.8672790638545
 20
169.7185240171872
 30
0.0
  0
POINT
  5
9D9
330
1CF
100
AcDbEntity
  8
Defpoints
  6
Continuous
 62
     0
100
AcDbPoint
 10
282.8922790638543
 20
169.7185240171872
 30
0.0
  0
ENDBLK
  5
1D1
330
1CF
100
AcDbEntity
  8
0
100
AcDbBlockEnd
  0
BLOCK
  5
1DC
330
1DB
100
AcDbEntity
  8
0
100
AcDbBlockBegin
  2
*D13
 70
     1
 10
0.0
 20
0.0
 30
0.0
  3
*D13
  1

  0
LINE
  5
9CA
330
1DB
100
AcDbEntity
  8
0
  6
Continuous
 62
     0
370
    -2
100
AcDbLine
 10
279.5044285561965
 20
150.741430917876
 30
0.0
 11
288.9283712574234
 21
150.741430917876
 31
0.0
  0
LINE
  5
9CB
330
1DB
100
AcDbEntity
  8
0
  6
Continuous
 62
     0
370
    -2
100
AcDbLine
 10
288.9283712574234
 20
150.741430917876
 30
0.0
 11
297.4243340892698
 21
165.6379518686755
 31
0.0
  0
MTEXT
  5
9CC
330
1DB
100
AcDbEntity
  8
0
  6
Continuous
 62
     0
370
     0
100
AcDbMText
 10
258.4017682560601
 20
152.7837228687628
 30
0.0
 40
4.0
 41
0.0
 71
     1
 72
     1
  1
4X R2.0
  7
Arial
 73
     1
 44
1.0
1001
ACAD
1000
MTEXTBEGIN
1070
    73
1070
     1
1070
    44
1040
1.0
1070
    74
1070
     0
1000
MTEXTEND
  0
SOLID
  5
9CD
330
1DB
100
AcDbEntity
  8
0
  6
Continuous
 62
     0
100
AcDbTrace
 10
296.7004564525423
 20
166.0508024608879
 30
0.0
 11
298.1482117259975
 21
165.225101276463
 31
0.0
 12
299.9014376425445
 22
169.9812176890409
 32
0.0
 13
299.9014376425445
 23
169.9812176890409
 33
0.0
  0
POINT
  5
9CE
330
1DB
100
AcDbEntity
  8
Defpoints
  6
Continuous
 62
     0
100
AcDbPoint
 10
299.9014376425445
 20
169.9812176890409
 30
0.0
  0
POINT
  5
9CF
330
1DB
100
AcDbEntity
  8
Defpoints
  6
Continuous
 62
     0
100
AcDbPoint
 10
300.8922790638543
 20
171.7185240171871
 30
0.0
  0
ENDBLK
  5
1DD
330
1DB
100
AcDbEntity
  8
0
100
AcDbBlockEnd
  0
BLOCK
  5
1ED
330
1EC
100
AcDbEntity
  8
0
100
AcDbBlockBegin
  2
SW_CENTERMARKSYMBOL_2
 70
     0
 10
0.0
 20
0.0
 30
0.0
  3
SW_CENTERMARKSYMBOL_2
  1

  0
LINE
  5
1EF
330
1EC
100
AcDbEntity
  8
0
  6
Continuous
 62
     0
370
     0
100
AcDbLine
 10
0.0
 20
0.0
 30
0.0
 11
0.0
 21
2.540000000000014
 31
0.0
  0
LINE
  5
1F0
330
1EC
100
AcDbEntity
  8
0
  6
Continuous
 62
     0
370
     0
100
AcDbLine
 10
0.0
 20
0.0
 30
0.0
 11
-2.539999999999985
 21
0.0
 31
0.0
  0
LINE
  5
1F1
330
1EC
100
AcDbEntity
  8
0
  6
Continuous
 62
     0
370
     0
100
AcDbLine
 10
0.0
 20
0.0
 30
0.0
 11
0.0
 21
-2.539999999999985
 31
0.0
  0
LINE
  5
1F2
330
1EC
100
AcDbEntity
  8
0
  6
Continuous
 62
     0
370
     0
100
AcDbLine
 10
0.0
 20
0.0
 30
0.0
 11
2.540000000000042
 21
0.0
 31
0.0
  0
ENDBLK
  5
1EE
330
1EC
100
AcDbEntity
  8
0
100
AcDbBlockEnd
  0
BLOCK
  5
1F5
330
1F4
100
AcDbEntity
  8
0
100
AcDbBlockBegin
  2
SW_CENTERMARKSYMBOL_3
 70
     0
 10
0.0
 20
0.0
 30
0.0
  3
SW_CENTERMARKSYMBOL_3
  1

  0
LINE
  5
1F7
330
1F4
100
AcDbEntity
  8
0
  6
Continuous
 62
     0
370
     0
100
AcDbLine
 10
0.0
 20
0.0
 30
0.0
 11
0.0
 21
2.539999999999985
 31
0.0
  0
LINE
  5
1F8
330
1F4
100
AcDbEntity
  8
0
  6
Continuous
 62
     0
370
     0
100
AcDbLine
 10
0.0
 20
0.0
 30
0.0
 11
-2.540000000000042
 21
0.0
 31
0.0
  0
LINE
  5
1F9
330
1F4
100
AcDbEntity
  8
0
  6
Continuous
 62
     0
370
     0
100
AcDbLine
 10
0.0
 20
0.0
 30
0.0
 11
0.0
 21
-2.540000000000014
 31
0.0
  0
LINE
  5
1FA
330
1F4
100
AcDbEntity
  8
0
  6
Continuous
 62
     0
370
     0
100
AcDbLine
 10
0.0
 20
0.0
 30
0.0
 11
2.539999999999985
 21
0.0
 31
0.0
  0
ENDBLK
  5
1F6
330
1F4
100
AcDbEntity
  8
0
100
AcDbBlockEnd
  0
BLOCK
  5
225
330
224
100
AcDbEntity
  8
0
100
AcDbBlockBegin
  2
*D16
 70
     1
 10
0.0
 20
0.0
 30
0.0
  3
*D16
  1

  0
LINE
  5
A72
330
224
100
AcDbEntity
  8
0
  6
Continuous
 62
     0
370
    -2
100
AcDbLine
 10
204.9739121425838
 20
65.02226803900838
 30
0.0
 11
204.9739121425838
 21
53.56226803900822
 31
0.0
  0
LINE
  5
A73
330
224
100
AcDbEntity
  8
0
  6
Continuous
 62
     0
370
    -2
100
AcDbLine
 10
191.9739121425837
 20
63.56226803900831
 30
0.0
 11
191.9739121425837
 21
53.56226803900822
 31
0.0
  0
LINE
  5
A74
330
224
100
AcDbEntity
  8
0
  6
Continuous
 62
     0
370
    -2
100
AcDbLine
 10
199.9739121425838
 20
54.81226803900822
 30
0.0
 11
196.9739121425837
 21
54.81226803900822
 31
0.0
  0
LINE
  5
A75
330
224
100
AcDbEntity
  8
0
  6
Continuous
 62
     0
370
    -2
100
AcDbLine
 10
191.9739121425837
 20
54.81226803900822
 30
0.0
 11
183.781551978873
 21
54.81226803900822
 31
0.0
  0
SOLID
  5
A76
330
224
100
AcDbEntity
  8
0
  6
Continuous
 62
     0
100
AcDbTrace
 10
199.9739121425838
 20
55.64560137234156
 30
0.0
 11
199.9739121425838
 21
53.97893470567488
 31
0.0
 12
204.9739121425838
 22
54.81226803900822
 32
0.0
 13
204.9739121425838
 23
54.81226803900822
 33
0.0
  0
SOLID
  5
A77
330
224
100
AcDbEntity
  8
0
  6
Continuous
 62
     0
100
AcDbTrace
 10
196.9739121425837
 20
55.64560137234156
 30
0.0
 11
196.9739121425837
 21
53.97893470567488
 31
0.0
 12
191.9739121425837
 22
54.81226803900822
 32
0.0
 13
191.9739121425837
 23
54.81226803900822
 33
0.0
  0
MTEXT
  5
A78
330
224
100
AcDbEntity
  8
0
  6
Continuous
 62
     0
370
     0
100
AcDbMText
 10
177.531551978873
 20
56.85592424637522
 30
0.0
 40
4.0
 41
0.0
 71
     2
 72
     1
  1
13.0
  7
Arial
 73
     1
 44
1.0
1001
ACAD
1000
MTEXTBEGIN
1070
    73
1070
     1
1070
    44
1040
1.0
1070
    74
1070
     0
1000
MTEXTEND
  0
POINT
  5
A79
330
224
100
AcDbEntity
  8
Defpoints
  6
Continuous
 62
     0
100
AcDbPoint
 10
204.9739121425838
 20
66.27226803900838
 30
0.0
  0
POINT
  5
A7A
330
224
100
AcDbEntity
  8
Defpoints
  6
Continuous
 62
     0
100
AcDbPoint
 10
191.9739121425837
 20
64.81226803900831
 30
0.0
  0
POINT
  5
A7B
330
224
100
AcDbEntity
  8
Defpoints
  6
Continuous
 62
     0
100
AcDbPoint
 10
191.9739121425837
 20
54.81226803900822
 30
0.0
  0
ENDBLK
  5
226
330
224
100
AcDbEntity
  8
0
100
AcDbBlockEnd
  0
BLOCK
  5
230
330
22F
100
AcDbEntity
  8
0
100
AcDbBlockBegin
  2
*D17
 70
     1
 10
0.0
 20
0.0
 30
0.0
  3
*D17
  1

  0
LINE
  5
A7C
330
22F
100
AcDbEntity
  8
0
  6
Continuous
 62
     0
370
    -2
100
AcDbLine
 10
204.9739121425838
 20
65.02226803900838
 30
0.0
 11
204.9739121425838
 21
53.5622680390082
 31
0.0
  0
LINE
  5
A7D
330
22F
100
AcDbEntity
  8
0
  6
Continuous
 62
     0
370
    -2
100
AcDbLine
 10
228.9739121425837
 20
65.02226803900846
 30
0.0
 11
228.9739121425837
 21
53.5622680390082
 31
0.0
  0
LINE
  5
A7E
330
22F
100
AcDbEntity
  8
0
  6
Continuous
 62
     0
370
    -2
100
AcDbLine
 10
199.9739121425838
 20
54.8122680390082
 30
0.0
 11
194.9739121425837
 21
54.8122680390082
 31
0.0
  0
LINE
  5
A7F
330
22F
100
AcDbEntity
  8
0
  6
Continuous
 62
     0
370
    -2
100
AcDbLine
 10
233.9739121425838
 20
54.8122680390082
 30
0.0
 11
238.9739121425837
 21
54.8122680390082
 31
0.0
  0
SOLID
  5
A80
330
22F
100
AcDbEntity
  8
0
  6
Continuous
 62
     0
100
AcDbTrace
 10
199.9739121425838
 20
55.64560137234153
 30
0.0
 11
199.9739121425838
 21
53.97893470567487
 31
0.0
 12
204.9739121425838
 22
54.8122680390082
 32
0.0
 13
204.9739121425838
 23
54.8122680390082
 33
0.0
  0
SOLID
  5
A81
330
22F
100
AcDbEntity
  8
0
  6
Continuous
 62
     0
100
AcDbTrace
 10
233.9739121425838
 20
55.64560137234153
 30
0.0
 11
233.9739121425838
 21
53.97893470567487
 31
0.0
 12
228.9739121425837
 22
54.8122680390082
 32
0.0
 13
228.9739121425837
 23
54.8122680390082
 33
0.0
  0
MTEXT
  5
A82
330
22F
100
AcDbEntity
  8
0
  6
Continuous
 62
     0
370
     0
100
AcDbMText
 10
217.5900388709345
 20
56.85455998989496
 30
0.0
 40
4.0
 41
0.0
 71
     2
 72
     1
  1
24.0
  7
Arial
 73
     1
 44
1.0
1001
ACAD
1000
MTEXTBEGIN
1070
    73
1070
     1
1070
    44
1040
1.0
1070
    74
1070
     0
1000
MTEXTEND
  0
POINT
  5
A83
330
22F
100
AcDbEntity
  8
Defpoints
  6
Continuous
 62
     0
100
AcDbPoint
 10
204.9739121425838
 20
66.27226803900838
 30
0.0
  0
POINT
  5
A84
330
22F
100
AcDbEntity
  8
Defpoints
  6
Continuous
 62
     0
100
AcDbPoint
 10
228.9739121425837
 20
66.27226803900846
 30
0.0
  0
POINT
  5
A85
330
22F
100
AcDbEntity
  8
Defpoints
  6
Continuous
 62
     0
100
AcDbPoint
 10
228.9739121425837
 20
54.8122680390082
 30
0.0
  0
ENDBLK
  5
231
330
22F
100
AcDbEntity
  8
0
100
AcDbBlockEnd
  0
BLOCK
  5
23B
330
23A
100
AcDbEntity
  8
0
100
AcDbBlockBegin
  2
*D18
 70
     1
 10
0.0
 20
0.0
 30
0.0
  3
*D18
  1

  0
LINE
  5
A86
330
23A
100
AcDbEntity
  8
0
  6
Continuous
 62
     0
370
    -2
100
AcDbLine
 10
232.7639121425837
 20
68.81226803900846
 30
0.0
 11
264.4739121425838
 21
68.81226803900846
 31
0.0
  0
LINE
  5
A87
330
23A
100
AcDbEntity
  8
0
  6
Continuous
 62
     0
370
    -2
100
AcDbLine
 10
232.7639121425836
 20
95.81226803900849
 30
0.0
 11
264.4739121425838
 21
95.81226803900849
 31
0.0
  0
LINE
  5
A88
330
23A
100
AcDbEntity
  8
0
  6
Continuous
 62
     0
370
    -2
100
AcDbLine
 10
263.2239121425838
 20
73.81226803900846
 30
0.0
 11
263.2239121425838
 21
79.01997608812189
 31
0.0
  0
LINE
  5
A89
330
23A
100
AcDbEntity
  8
0
  6
Continuous
 62
     0
370
    -2
100
AcDbLine
 10
263.2239121425838
 20
90.81226803900849
 30
0.0
 11
263.2239121425838
 21
85.60455998989542
 31
0.0
  0
SOLID
  5
A8A
330
23A
100
AcDbEntity
  8
0
  6
Continuous
 62
     0
100
AcDbTrace
 10
262.3905788092505
 20
73.81226803900846
 30
0.0
 11
264.0572454759171
 21
73.81226803900846
 31
0.0
 12
263.2239121425838
 22
68.81226803900846
 32
0.0
 13
263.2239121425838
 23
68.81226803900846
 33
0.0
  0
SOLID
  5
A8B
330
23A
100
AcDbEntity
  8
0
  6
Continuous
 62
     0
100
AcDbTrace
 10
262.3905788092505
 20
90.81226803900849
 30
0.0
 11
264.0572454759171
 21
90.81226803900849
 31
0.0
 12
263.2239121425838
 22
95.81226803900849
 32
0.0
 13
263.2239121425838
 23
95.81226803900849
 33
0.0
  0
MTEXT
  5
A8C
330
23A
100
AcDbEntity
  8
0
  6
Continuous
 62
     0
370
     0
100
AcDbMText
 10
263.2239121425838
 20
84.35455998989544
 30
0.0
 40
4.0
 41
0.0
 71
     2
 72
     1
  1
27.0
  7
Arial
 73
     1
 44
1.0
1001
ACAD
1000
MTEXTBEGIN
1070
    73
1070
     1
1070
    44
1040
1.0
1070
    74
1070
     0
1000
MTEXTEND
  0
POINT
  5
A8D
330
23A
100
AcDbEntity
  8
Defpoints
  6
Continuous
 62
     0
100
AcDbPoint
 10
231.5139121425837
 20
68.81226803900846
 30
0.0
  0
POINT
  5
A8E
330
23A
100
AcDbEntity
  8
Defpoints
  6
Continuous
 62
     0
100
AcDbPoint
 10
231.5139121425836
 20
95.81226803900849
 30
0.0
  0
POINT
  5
A8F
330
23A
100
AcDbEntity
  8
Defpoints
  6
Continuous
 62
     0
100
AcDbPoint
 10
263.2239121425838
 20
95.81226803900849
 30
0.0
  0
ENDBLK
  5
23C
330
23A
100
AcDbEntity
  8
0
100
AcDbBlockEnd
  0
BLOCK
  5
246
330
245
100
AcDbEntity
  8
0
100
AcDbBlockBegin
  2
*D19
 70
     1
 10
0.0
 20
0.0
 30
0.0
  3
*D19
  1

  0
LINE
  5
A90
330
245
100
AcDbEntity
  8
0
  6
Continuous
 62
     0
370
    -2
100
AcDbLine
 10
243.2239121425838
 20
64.81226803900849
 30
0.0
 11
264.4503403933148
 21
64.81226803900849
 31
0.0
  0
LINE
  5
A91
330
245
100
AcDbEntity
  8
0
  6
Continuous
 62
     0
370
    -2
100
AcDbLine
 10
232.7639121425837
 20
68.81226803900846
 30
0.0
 11
264.4503403933148
 21
68.81226803900846
 31
0.0
  0
LINE
  5
A92
330
245
100
AcDbEntity
  8
0
  6
Continuous
 62
     0
370
    -2
100
AcDbLine
 10
263.2003403933148
 20
73.81226803900846
 30
0.0
 11
263.2003403933148
 21
78.81226803900846
 31
0.0
  0
LINE
  5
A93
330
245
100
AcDbEntity
  8
0
  6
Continuous
 62
     0
370
    -2
100
AcDbLine
 10
263.2003403933148
 20
59.81226803900849
 30
0.0
 11
263.2003403933148
 21
54.81226803900849
 31
0.0
  0
LINE
  5
A94
330
245
100
AcDbEntity
  8
0
  6
Continuous
 62
     0
370
    -2
100
AcDbLine
 10
263.2003403933148
 20
54.81226803900849
 30
0.0
 11
258.2003403933148
 21
54.81226803900849
 31
0.0
  0
SOLID
  5
A95
330
245
100
AcDbEntity
  8
0
  6
Continuous
 62
     0
100
AcDbTrace
 10
262.3670070599815
 20
73.81226803900846
 30
0.0
 11
264.0336737266481
 21
73.81226803900846
 31
0.0
 12
263.2003403933148
 22
68.81226803900846
 32
0.0
 13
263.2003403933148
 23
68.81226803900846
 33
0.0
  0
SOLID
  5
A96
330
245
100
AcDbEntity
  8
0
  6
Continuous
 62
     0
100
AcDbTrace
 10
262.3670070599815
 20
59.81226803900849
 30
0.0
 11
264.0336737266481
 21
59.81226803900849
 31
0.0
 12
263.2003403933148
 22
64.81226803900849
 32
0.0
 13
263.2003403933148
 23
64.81226803900849
 33
0.0
  0
MTEXT
  5
A97
330
245
100
AcDbEntity
  8
0
  6
Continuous
 62
     0
370
     0
100
AcDbMText
 10
253.2354699976804
 20
56.85455998989528
 30
0.0
 40
4.0
 41
0.0
 71
     2
 72
     1
  1
4.0
  7
Arial
 73
     1
 44
1.0
1001
ACAD
1000
MTEXTBEGIN
1070
    73
1070
     1
1070
    44
1040
1.0
1070
    74
1070
     0
1000
MTEXTEND
  0
POINT
  5
A98
330
245
100
AcDbEntity
  8
Defpoints
  6
Continuous
 62
     0
100
AcDbPoint
 10
241.9739121425838
 20
64.81226803900849
 30
0.0
  0
POINT
  5
A99
330
245
100
AcDbEntity
  8
Defpoints
  6
Continuous
 62
     0
100
AcDbPoint
 10
231.5139121425837
 20
68.81226803900846
 30
0.0
  0
POINT
  5
A9A
330
245
100
AcDbEntity
  8
Defpoints
  6
Continuous
 62
     0
100
AcDbPoint
 10
263.2003403933148
 20
68.81226803900846
 30
0.0
  0
ENDBLK
  5
247
330
245
100
AcDbEntity
  8
0
100
AcDbBlockEnd
  0
BLOCK
  5
253
330
252
100
AcDbEntity
  8
0
100
AcDbBlockBegin
  2
*D20
 70
     1
 10
0.0
 20
0.0
 30
0.0
  3
*D20
  1

  0
LINE
  5
AF7
330
252
100
AcDbEntity
  8
0
  6
Continuous
 62
     0
370
    -2
100
AcDbLine
 10
175.8545669023168
 20
114.6746960865934
 30
0.0
 11
186.1114840949971
 21
114.6746960865934
 31
0.0
  0
LINE
  5
AF8
330
252
100
AcDbEntity
  8
0
  6
Continuous
 62
     0
370
    -2
100
AcDbLine
 10
186.1114840949971
 20
114.6746960865934
 30
0.0
 11
200.7135937859345
 21
100.0725863956572
 31
0.0
  0
MTEXT
  5
AF9
330
252
100
AcDbEntity
  8
0
  6
Continuous
 62
     0
370
     0
100
AcDbMText
 10
174.6045669023168
 20
114.6746960865934
 30
0.0
 40
4.0
 41
0.0
 71
     6
 72
     1
  1
4X\PTAPPED HOLE\PM2.5X0.45 {\fGDT|b0|i0|c0|p0;x} 5
  7
Arial
 73
     1
 44
1.0
1001
ACAD
1000
MTEXTBEGIN
1070
    73
1070
     1
1070
    44
1040
1.0
1070
    74
1070
     0
1000
MTEXTEND
  0
SOLID
  5
AFA
330
252
100
AcDbEntity
  8
0
  6
Continuous
 62
     0
100
AcDbTrace
 10
201.3028494369233
 20
100.661842046646
 30
0.0
 11
200.1243381349457
 21
99.48333074466836
 31
0.0
 12
204.2491276918674
 22
96.5370524897246
 32
0.0
 13
204.2491276918674
 23
96.5370524897246
 33
0.0
  0
POINT
  5
AFB
330
252
100
AcDbEntity
  8
Defpoints
  6
Continuous
 62
     0
100
AcDbPoint
 10
204.2491276918674
 20
96.5370524897246
 30
0.0
  0
POINT
  5
AFC
330
252
100
AcDbEntity
  8
Defpoints
  6
Continuous
 62
     0
100
AcDbPoint
 10
205.6986965932999
 20
95.08748358829221
 30
0.0
  0
ENDBLK
  5
254
330
252
100
AcDbEntity
  8
0
100
AcDbBlockEnd
  0
BLOCK
  5
266
330
265
100
AcDbEntity
  8
0
100
AcDbBlockBegin
  2
*D21
 70
     1
 10
0.0
 20
0.0
 30
0.0
  3
*D21
  1

  0
LINE
  5
AA1
330
265
100
AcDbEntity
  8
0
  6
Continuous
 62
     0
370
    -2
100
AcDbLine
 10
243.2239121425838
 20
64.81226803900849
 30
0.0
 11
279.5943959793935
 21
64.81226803900849
 31
0.0
  0
LINE
  5
AA2
330
265
100
AcDbEntity
  8
0
  6
Continuous
 62
     0
370
    -2
100
AcDbLine
 10
243.2239121425836
 20
99.81226803900852
 30
0.0
 11
279.5943959793935
 21
99.81226803900852
 31
0.0
  0
LINE
  5
AA3
330
265
100
AcDbEntity
  8
0
  6
Continuous
 62
     0
370
    -2
100
AcDbLine
 10
278.3443959793935
 20
69.81226803900849
 30
0.0
 11
278.3443959793935
 21
79.35663998426533
 31
0.0
  0
LINE
  5
AA4
330
265
100
AcDbEntity
  8
0
  6
Continuous
 62
     0
370
    -2
100
AcDbLine
 10
278.3443959793935
 20
94.81226803900851
 30
0.0
 11
278.3443959793935
 21
85.94395239899929
 31
0.0
  0
SOLID
  5
AA5
330
265
100
AcDbEntity
  8
0
  6
Continuous
 62
     0
100
AcDbTrace
 10
277.5110626460602
 20
69.81226803900849
 30
0.0
 11
279.1777293127268
 21
69.81226803900849
 31
0.0
 12
278.3443959793935
 22
64.81226803900849
 32
0.0
 13
278.3443959793935
 23
64.81226803900849
 33
0.0
  0
SOLID
  5
AA6
330
265
100
AcDbEntity
  8
0
  6
Continuous
 62
     0
100
AcDbTrace
 10
277.5110626460602
 20
94.81226803900851
 30
0.0
 11
279.1777293127268
 21
94.81226803900851
 31
0.0
 12
278.3443959793935
 22
99.81226803900852
 32
0.0
 13
278.3443959793935
 23
99.81226803900852
 33
0.0
  0
MTEXT
  5
AA7
330
265
100
AcDbEntity
  8
0
  6
Continuous
 62
     0
370
     0
100
AcDbMText
 10
278.3443959793935
 20
84.69395239899933
 30
0.0
 40
4.0
 41
0.0
 71
     2
 72
     1
  1
35.0
  7
Arial
 73
     1
 44
1.0
1001
ACAD
1000
MTEXTBEGIN
1070
    73
1070
     1
1070
    44
1040
1.0
1070
    74
1070
     0
1000
MTEXTEND
  0
POINT
  5
AA8
330
265
100
AcDbEntity
  8
Defpoints
  6
Continuous
 62
     0
100
AcDbPoint
 10
241.9739121425838
 20
64.81226803900849
 30
0.0
  0
POINT
  5
AA9
330
265
100
AcDbEntity
  8
Defpoints
  6
Continuous
 62
     0
100
AcDbPoint
 10
241.9739121425837
 20
99.81226803900852
 30
0.0
  0
POINT
  5
AAA
330
265
100
AcDbEntity
  8
Defpoints
  6
Continuous
 62
     0
100
AcDbPoint
 10
278.3443959793935
 20
99.81226803900852
 30
0.0
  0
ENDBLK
  5
267
330
265
100
AcDbEntity
  8
0
100
AcDbBlockEnd
  0
BLOCK
  5
270
330
26F
100
AcDbEntity
  8
0
100
AcDbBlockBegin
  2
SW_CENTERMARKSYMBOL_4
 70
     0
 10
0.0
 20
0.0
 30
0.0
  3
SW_CENTERMARKSYMBOL_4
  1

  0
LINE
  5
272
330
26F
100
AcDbEntity
  8
0
  6
Continuous
 62
     0
370
     0
100
AcDbLine
 10
0.0
 20
0.0
 30
0.0
 11
0.0
 21
2.54
 31
0.0
  0
LINE
  5
273
330
26F
100
AcDbEntity
  8
0
  6
Continuous
 62
     0
370
     0
100
AcDbLine
 10
0.0
 20
0.0
 30
0.0
 11
-2.539999999999985
 21
0.0
 31
0.0
  0
LINE
  5
274
330
26F
100
AcDbEntity
  8
0
  6
Continuous
 62
     0
370
     0
100
AcDbLine
 10
0.0
 20
0.0
 30
0.0
 11
0.0
 21
-2.54
 31
0.0
  0
LINE
  5
275
330
26F
100
AcDbEntity
  8
0
  6
Continuous
 62
     0
370
     0
100
AcDbLine
 10
0.0
 20
0.0
 30
0.0
 11
2.540000000000014
 21
0.0
 31
0.0
  0
ENDBLK
  5
271
330
26F
100
AcDbEntity
  8
0
100
AcDbBlockEnd
  0
BLOCK
  5
278
330
277
100
AcDbEntity
  8
0
100
AcDbBlockBegin
  2
SW_CENTERMARKSYMBOL_5
 70
     0
 10
0.0
 20
0.0
 30
0.0
  3
SW_CENTERMARKSYMBOL_5
  1

  0
LINE
  5
27A
330
277
100
AcDbEntity
  8
0
  6
Continuous
 62
     0
370
     0
100
AcDbLine
 10
0.0
 20
0.0
 30
0.0
 11
0.0
 21
2.54
 31
0.0
  0
LINE
  5
27B
330
277
100
AcDbEntity
  8
0
  6
Continuous
 62
     0
370
     0
100
AcDbLine
 10
0.0
 20
0.0
 30
0.0
 11
-2.539999999999985
 21
0.0
 31
0.0
  0
LINE
  5
27C
330
277
100
AcDbEntity
  8
0
  6
Continuous
 62
     0
370
     0
100
AcDbLine
 10
0.0
 20
0.0
 30
0.0
 11
0.0
 21
-2.54
 31
0.0
  0
LINE
  5
27D
330
277
100
AcDbEntity
  8
0
  6
Continuous
 62
     0
370
     0
100
AcDbLine
 10
0.0
 20
0.0
 30
0.0
 11
2.540000000000014
 21
0.0
 31
0.0
  0
ENDBLK
  5
279
330
277
100
AcDbEntity
  8
0
100
AcDbBlockEnd
  0
BLOCK
  5
280
330
27F
100
AcDbEntity
  8
0
100
AcDbBlockBegin
  2
SW_CENTERMARKSYMBOL_6
 70
     0
 10
0.0
 20
0.0
 30
0.0
  3
SW_CENTERMARKSYMBOL_6
  1

  0
LINE
  5
282
330
27F
100
AcDbEntity
  8
0
  6
Continuous
 62
     0
370
     0
100
AcDbLine
 10
0.0
 20
0.0
 30
0.0
 11
0.0
 21
2.54
 31
0.0
  0
LINE
  5
283
330
27F
100
AcDbEntity
  8
0
  6
Continuous
 62
     0
370
     0
100
AcDbLine
 10
0.0
 20
0.0
 30
0.0
 11
-2.540000000000014
 21
0.0
 31
0.0
  0
LINE
  5
284
330
27F
100
AcDbEntity
  8
0
  6
Continuous
 62
     0
370
     0
100
AcDbLine
 10
0.0
 20
0.0
 30
0.0
 11
0.0
 21
-2.54
 31
0.0
  0
LINE
  5
285
330
27F
100
AcDbEntity
  8
0
  6
Continuous
 62
     0
370
     0
100
AcDbLine
 10
0.0
 20
0.0
 30
0.0
 11
2.539999999999985
 21
0.0
 31
0.0
  0
ENDBLK
  5
281
330
27F
100
AcDbEntity
  8
0
100
AcDbBlockEnd
  0
BLOCK
  5
288
330
287
100
AcDbEntity
  8
0
100
AcDbBlockBegin
  2
SW_CENTERMARKSYMBOL_7
 70
     0
 10
0.0
 20
0.0
 30
0.0
  3
SW_CENTERMARKSYMBOL_7
  1

  0
LINE
  5
28A
330
287
100
AcDbEntity
  8
0
  6
Continuous
 62
     0
370
     0
100
AcDbLine
 10
0.0
 20
0.0
 30
0.0
 11
0.0
 21
2.539999999999985
 31
0.0
  0
LINE
  5
28B
330
287
100
AcDbEntity
  8
0
  6
Continuous
 62
     0
370
     0
100
AcDbLine
 10
0.0
 20
0.0
 30
0.0
 11
-2.540000000000014
 21
0.0
 31
0.0
  0
LINE
  5
28C
330
287
100
AcDbEntity
  8
0
  6
Continuous
 62
     0
370
     0
100
AcDbLine
 10
0.0
 20
0.0
 30
0.0
 11
0.0
 21
-2.54
 31
0.0
  0
LINE
  5
28D
330
287
100
AcDbEntity
  8
0
  6
Continuous
 62
     0
370
     0
100
AcDbLine
 10
0.0
 20
0.0
 30
0.0
 11
2.539999999999985
 21
0.0
 31
0.0
  0
ENDBLK
  5
289
330
287
100
AcDbEntity
  8
0
100
AcDbBlockEnd
  0
BLOCK
  5
AB7
330
AAC
100
AcDbEntity
  8
0
100
AcDbBlockBegin
  2
*D26
 70
     1
 10
0.0
 20
0.0
 30
0.0
  3
*D26
  1

  0
LINE
  5
AAD
330
AAC
100
AcDbEntity
  8
0
 62
     0
370
    -2
100
AcDbLine
 10
182.6239114332884
 20
179.9560240775369
 30
0.0
 11
182.6239114332884
 21
140.9051318671603
 31
0.0
  0
LINE
  5
AAE
330
AAC
100
AcDbEntity
  8
0
 62
     0
370
    -2
100
AcDbLine
 10
247.2239125225633
 20
177.4560241334162
 30
0.0
 11
247.2239125225633
 21
140.9051318671603
 31
0.0
  0
LINE
  5
AAF
330
AAC
100
AcDbEntity
  8
0
 62
     0
370
    -2
100
AcDbLine
 10
187.6239114332884
 20
142.1551318671603
 30
0.0
 11
208.4692735058931
 21
142.1551318671603
 31
0.0
  0
LINE
  5
AB0
330
AAC
100
AcDbEntity
  8
0
 62
     0
370
    -2
100
AcDbLine
 10
242.2239125225633
 20
142.1551318671603
 30
0.0
 11
221.3785504499586
 21
142.1551318671603
 31
0.0
  0
SOLID
  5
AB1
330
AAC
100
AcDbEntity
  8
0
 62
     0
100
AcDbTrace
 10
187.6239114332884
 20
142.9884652004936
 30
0.0
 11
187.6239114332884
 21
141.321798533827
 31
0.0
 12
182.6239114332884
 22
142.1551318671603
 32
0.0
 13
182.6239114332884
 23
142.1551318671603
 33
0.0
  0
SOLID
  5
AB2
330
AAC
100
AcDbEntity
  8
0
 62
     0
100
AcDbTrace
 10
242.2239125225633
 20
142.9884652004936
 30
0.0
 11
242.2239125225633
 21
141.321798533827
 31
0.0
 12
247.2239125225633
 22
142.1551318671603
 32
0.0
 13
247.2239125225633
 23
142.1551318671603
 33
0.0
  0
MTEXT
  5
AB3
330
AAC
100
AcDbEntity
  8
0
 62
     0
100
AcDbMText
 10
214.9239119779259
 20
142.1551318671603
 30
0.0
 40
4.0
 41
0.0
 71
     5
 72
     1
  1
64.6
  7
Arial
 73
     1
 44
1.0
1001
ACAD
1000
MTEXTBEGIN
1070
    73
1070
     1
1070
    44
1040
1.0
1070
    74
1070
     0
1000
MTEXTEND
  0
POINT
  5
AB4
330
AAC
100
AcDbEntity
  8
Defpoints
 62
     0
100
AcDbPoint
 10
182.6239114332884
 20
181.2060240775369
 30
0.0
  0
POINT
  5
AB5
330
AAC
100
AcDbEntity
  8
Defpoints
 62
     0
100
AcDbPoint
 10
247.2239125225633
 20
178.7060241334162
 30
0.0
  0
POINT
  5
AB6
330
AAC
100
AcDbEntity
  8
Defpoints
 62
     0
100
AcDbPoint
 10
247.2239125225633
 20
142.1551318671603
 30
0.0
  0
ENDBLK
  5
AB8
330
AAC
100
AcDbEntity
  8
0
100
AcDbBlockEnd
  0
BLOCK
  5
AC5
330
ABA
100
AcDbEntity
  8
0
100
AcDbBlockBegin
  2
*D27
 70
     1
 10
0.0
 20
0.0
 30
0.0
  3
*D27
  1

  0
LINE
  5
ABB
330
ABA
100
AcDbEntity
  8
0
 62
     0
370
    -2
100
AcDbLine
 10
191.9739132452695
 20
168.4685238011203
 30
0.0
 11
191.9739132452695
 21
154.0066801482875
 31
0.0
  0
LINE
  5
ABC
330
ABA
100
AcDbEntity
  8
0
 62
     0
370
    -2
100
AcDbLine
 10
182.6239114332884
 20
179.9560240775369
 30
0.0
 11
182.6239114332884
 21
154.0066801482875
 31
0.0
  0
LINE
  5
ABD
330
ABA
100
AcDbEntity
  8
0
 62
     0
370
    -2
100
AcDbLine
 10
196.9739132452696
 20
155.2566801482875
 30
0.0
 11
201.9739132452696
 21
155.2566801482875
 31
0.0
  0
LINE
  5
ABE
330
ABA
100
AcDbEntity
  8
0
 62
     0
370
    -2
100
AcDbLine
 10
177.6239114332884
 20
155.2566801482875
 30
0.0
 11
172.6239114332884
 21
155.2566801482875
 31
0.0
  0
SOLID
  5
ABF
330
ABA
100
AcDbEntity
  8
0
 62
     0
100
AcDbTrace
 10
196.9739132452696
 20
156.0900134816208
 30
0.0
 11
196.9739132452696
 21
154.4233468149541
 31
0.0
 12
191.9739132452695
 22
155.2566801482875
 32
0.0
 13
191.9739132452695
 23
155.2566801482875
 33
0.0
  0
SOLID
  5
AC0
330
ABA
100
AcDbEntity
  8
0
 62
     0
100
AcDbTrace
 10
177.6239114332884
 20
156.0900134816208
 30
0.0
 11
177.6239114332884
 21
154.4233468149541
 31
0.0
 12
182.6239114332884
 22
155.2566801482875
 32
0.0
 13
182.6239114332884
 23
155.2566801482875
 33
0.0
  0
MTEXT
  5
AC1
330
ABA
100
AcDbEntity
  8
0
 62
     0
100
AcDbMText
 10
167.7408964264671
 20
155.2566801482875
 30
0.0
 40
4.0
 41
0.0
 71
     5
 72
     1
  1
9.4
  7
Arial
 73
     1
 44
1.0
1001
ACAD
1000
MTEXTBEGIN
1070
    73
1070
     1
1070
    44
1040
1.0
1070
    74
1070
     0
1000
MTEXTEND
  0
POINT
  5
AC2
330
ABA
100
AcDbEntity
  8
Defpoints
 62
     0
100
AcDbPoint
 10
191.9739132452695
 20
169.7185238011203
 30
0.0
  0
POINT
  5
AC3
330
ABA
100
AcDbEntity
  8
Defpoints
 62
     0
100
AcDbPoint
 10
182.6239114332884
 20
181.2060240775369
 30
0.0
  0
POINT
  5
AC4
330
ABA
100
AcDbEntity
  8
Defpoints
 62
     0
100
AcDbPoint
 10
182.6239114332884
 20
155.2566801482875
 30
0.0
  0
ENDBLK
  5
AC6
330
ABA
100
AcDbEntity
  8
0
100
AcDbBlockEnd
  0
ENDSEC
  0
SECTION
  2
ENTITIES
  0
LINE
  5
44
330
1F
100
AcDbEntity
  8
0
  6
Continuous
 62
     7
370
    15
100
AcDbLine
 10
84.68098645809543
 20
190.4142287679038
 30
0.0
 11
84.70983044955382
 21
190.3741418503246
 31
0.0
  0
LINE
  5
45
330
1F
100
AcDbEntity
  8
0
  6
Continuous
 62
     7
370
    15
100
AcDbLine
 10
84.68098645809543
 20
190.4142287679038
 30
0.0
 11
85.37185644510637
 21
190.3015396676979
 31
0.0
  0
LINE
  5
46
330
1F
100
AcDbEntity
  8
0
  6
Continuous
 62
     7
370
    15
100
AcDbLine
 10
85.37185644510637
 20
190.3015396676979
 30
0.0
 11
85.40070043656481
 21
190.2614527501188
 31
0.0
  0
LINE
  5
47
330
1F
100
AcDbEntity
  8
0
  6
Continuous
 62
     7
370
    15
100
AcDbLine
 10
84.70983044955382
 20
190.3741418503246
 30
0.0
 11
85.40070043656481
 21
190.2614527501188
 31
0.0
  0
LINE
  5
48
330
1F
100
AcDbEntity
  8
0
  6
Continuous
 62
     7
370
    15
100
AcDbLine
 10
83.46687337163341
 20
190.6122642688475
 30
0.0
 11
83.42678645405422
 21
190.5834212087117
 31
0.0
  0
LINE
  5
49
330
1F
100
AcDbEntity
  8
0
  6
Continuous
 62
     7
370
    15
100
AcDbLine
 10
83.46687337163341
 20
190.6122642688475
 30
0.0
 11
84.15774335864433
 21
190.4995760999641
 31
0.0
  0
LINE
  5
4A
330
1F
100
AcDbEntity
  8
0
  6
Continuous
 62
     7
370
    15
100
AcDbLine
 10
84.15774335864433
 20
190.4995760999641
 30
0.0
 11
84.1176564410652
 21
190.4707321085058
 31
0.0
  0
LINE
  5
4B
330
1F
100
AcDbEntity
  8
0
  6
Continuous
 62
     7
370
    15
100
AcDbLine
 10
83.42678645405422
 20
190.5834212087117
 30
0.0
 11
84.1176564410652
 21
190.4707321085058
 31
0.0
  0
LINE
  5
4C
330
1F
100
AcDbEntity
  8
0
  6
Continuous
 62
     7
370
    15
100
AcDbLine
 10
84.04505425843845
 20
189.8087061129532
 30
0.0
 11
84.00496734085928
 21
189.7798621214948
 31
0.0
  0
LINE
  5
4D
330
1F
100
AcDbEntity
  8
0
  6
Continuous
 62
     7
370
    15
100
AcDbLine
 10
84.04505425843845
 20
189.8087061129532
 30
0.0
 11
84.56829828921209
 21
189.7233587808929
 31
0.0
  0
LINE
  5
4E
330
1F
100
AcDbEntity
  8
0
  6
Continuous
 62
     7
370
    15
100
AcDbLine
 10
84.56829828921209
 20
189.7233587808929
 30
0.0
 11
84.59714134934793
 21
189.6832718633137
 31
0.0
  0
LINE
  5
4F
330
1F
100
AcDbEntity
  8
0
  6
Continuous
 62
     7
370
    15
100
AcDbLine
 10
84.00496734085928
 20
189.7798621214948
 30
0.0
 11
84.59714134934793
 21
189.6832718633137
 31
0.0
  0
LINE
  5
50
330
1F
100
AcDbEntity
  8
0
  6
Continuous
 62
     7
370
    15
100
AcDbLine
 10
83.55222070369373
 20
191.1355082996211
 30
0.0
 11
83.52337671223532
 21
191.1755952172003
 31
0.0
  0
LINE
  5
51
330
1F
100
AcDbEntity
  8
0
  6
Continuous
 62
     7
370
    15
100
AcDbLine
 10
83.55222070369373
 20
191.1355082996211
 30
0.0
 11
83.46687337163341
 21
190.6122642688475
 31
0.0
  0
LINE
  5
52
330
1F
100
AcDbEntity
  8
0
  6
Continuous
 62
     7
370
    15
100
AcDbLine
 10
83.52337671223532
 20
191.1755952172003
 30
0.0
 11
83.42678645405422
 21
190.5834212087117
 31
0.0
  0
CIRCLE
  5
53
330
1F
100
AcDbEntity
  8
0
  6
Continuous
 62
     7
370
    15
100
AcDbCircle
 10
84.46203862282882
 20
190.7185240171872
 30
0.0
 40
2.350000000000014
  0
LINE
  5
54
330
1F
100
AcDbEntity
  8
0
  6
Continuous
 62
     7
370
    15
100
AcDbLine
 10
84.1176564410652
 20
190.4707321085058
 30
0.0
 11
84.00496734085928
 21
189.7798621214948
 31
0.0
  0
LINE
  5
55
330
1F
100
AcDbEntity
  8
0
  6
Continuous
 62
     7
370
    15
100
AcDbLine
 10
84.59714134934793
 20
189.6832718633137
 30
0.0
 11
84.70983044955382
 21
190.3741418503246
 31
0.0
  0
LINE
  5
56
330
1F
100
AcDbEntity
  8
0
  6
Continuous
 62
     7
370
    15
100
AcDbLine
 10
85.40070043656481
 20
190.2614527501188
 30
0.0
 11
85.49729069474587
 21
190.8536267586074
 31
0.0
  0
LINE
  5
57
330
1F
100
AcDbEntity
  8
0
  6
Continuous
 62
     7
370
    15
100
AcDbLine
 10
85.49729069474587
 20
190.8536267586074
 30
0.0
 11
84.80642070773495
 21
190.9663158588133
 31
0.0
  0
LINE
  5
58
330
1F
100
AcDbEntity
  8
0
  6
Continuous
 62
     7
370
    15
100
AcDbLine
 10
84.80642070773495
 20
190.9663158588133
 30
0.0
 11
84.91910980794083
 21
191.6571858458243
 31
0.0
  0
LINE
  5
59
330
1F
100
AcDbEntity
  8
0
  6
Continuous
 62
     7
370
    15
100
AcDbLine
 10
84.91910980794083
 20
191.6571858458243
 30
0.0
 11
84.32693579945217
 21
191.7537761040054
 31
0.0
  0
LINE
  5
5A
330
1F
100
AcDbEntity
  8
0
  6
Continuous
 62
     7
370
    15
100
AcDbLine
 10
84.32693579945217
 20
191.7537761040054
 30
0.0
 11
84.21424669924626
 21
191.0629061169944
 31
0.0
  0
LINE
  5
5B
330
1F
100
AcDbEntity
  8
0
  6
Continuous
 62
     7
370
    15
100
AcDbLine
 10
84.21424669924626
 20
191.0629061169944
 30
0.0
 11
83.52337671223532
 21
191.1755952172003
 31
0.0
  0
LINE
  5
5C
330
1F
100
AcDbEntity
  8
0
  6
Continuous
 62
     7
370
    15
100
AcDbLine
 10
85.45720377716669
 20
190.8247836984716
 30
0.0
 11
85.49729069474587
 21
190.8536267586074
 31
0.0
  0
LINE
  5
5D
330
1F
100
AcDbEntity
  8
0
  6
Continuous
 62
     7
370
    15
100
AcDbLine
 10
85.45720377716669
 20
190.8247836984716
 30
0.0
 11
84.76633379015575
 21
190.9374718673549
 31
0.0
  0
LINE
  5
5E
330
1F
100
AcDbEntity
  8
0
  6
Continuous
 62
     7
370
    15
100
AcDbLine
 10
84.76633379015575
 20
190.9374718673549
 30
0.0
 11
84.80642070773495
 21
190.9663158588133
 31
0.0
  0
LINE
  5
5F
330
1F
100
AcDbEntity
  8
0
  6
Continuous
 62
     7
370
    15
100
AcDbLine
 10
84.87902289036165
 20
191.6283418543659
 30
0.0
 11
84.91910980794083
 21
191.6571858458243
 31
0.0
  0
LINE
  5
60
330
1F
100
AcDbEntity
  8
0
  6
Continuous
 62
     7
370
    15
100
AcDbLine
 10
84.87902289036165
 20
191.6283418543659
 30
0.0
 11
84.35577885958801
 21
191.7136891864262
 31
0.0
  0
LINE
  5
61
330
1F
100
AcDbEntity
  8
0
  6
Continuous
 62
     7
370
    15
100
AcDbLine
 10
84.35577885958801
 20
191.7136891864262
 30
0.0
 11
84.32693579945217
 21
191.7537761040054
 31
0.0
  0
LINE
  5
62
330
1F
100
AcDbEntity
  8
0
  6
Continuous
 62
     7
370
    15
100
AcDbLine
 10
84.76633379015575
 20
190.9374718673549
 30
0.0
 11
84.87902289036165
 21
191.6283418543659
 31
0.0
  0
LINE
  5
63
330
1F
100
AcDbEntity
  8
0
  6
Continuous
 62
     7
370
    15
100
AcDbLine
 10
85.37185644510637
 20
190.3015396676979
 30
0.0
 11
85.45720377716669
 21
190.8247836984716
 31
0.0
  0
LINE
  5
64
330
1F
100
AcDbEntity
  8
0
  6
Continuous
 62
     7
370
    15
100
AcDbLine
 10
84.56829828921209
 20
189.7233587808929
 30
0.0
 11
84.68098645809543
 21
190.4142287679038
 31
0.0
  0
LINE
  5
65
330
1F
100
AcDbEntity
  8
0
  6
Continuous
 62
     7
370
    15
100
AcDbLine
 10
84.15774335864433
 20
190.4995760999641
 30
0.0
 11
84.04505425843845
 21
189.8087061129532
 31
0.0
  0
LINE
  5
66
330
1F
100
AcDbEntity
  8
0
  6
Continuous
 62
     7
370
    15
100
AcDbLine
 10
84.35577885958801
 20
191.7136891864262
 30
0.0
 11
84.24309069070469
 21
191.0228191994152
 31
0.0
  0
LINE
  5
67
330
1F
100
AcDbEntity
  8
0
  6
Continuous
 62
     7
370
    15
100
AcDbLine
 10
84.24309069070469
 20
191.0228191994152
 30
0.0
 11
84.21424669924626
 21
191.0629061169944
 31
0.0
  0
LINE
  5
68
330
1F
100
AcDbEntity
  8
0
  6
Continuous
 62
     7
370
    15
100
AcDbLine
 10
84.24309069070469
 20
191.0228191994152
 30
0.0
 11
83.55222070369373
 21
191.1355082996211
 31
0.0
  0
LINE
  5
69
330
1F
100
AcDbEntity
  8
0
  6
Continuous
 62
     7
370
    15
100
AcDbLine
 10
114.3718565419639
 20
190.3015396676979
 30
0.0
 11
114.4007005334223
 21
190.2614527501188
 31
0.0
  0
LINE
  5
6A
330
1F
100
AcDbEntity
  8
0
  6
Continuous
 62
     7
370
    15
100
AcDbLine
 10
114.3718565419639
 20
190.3015396676979
 30
0.0
 11
114.4572038740242
 21
190.8247836984716
 31
0.0
  0
LINE
  5
6B
330
1F
100
AcDbEntity
  8
0
  6
Continuous
 62
     7
370
    15
100
AcDbLine
 10
114.4572038740242
 20
190.8247836984716
 30
0.0
 11
114.4972907916034
 21
190.8536267586074
 31
0.0
  0
LINE
  5
6C
330
1F
100
AcDbEntity
  8
0
  6
Continuous
 62
     7
370
    15
100
AcDbLine
 10
114.4007005334223
 20
190.2614527501188
 30
0.0
 11
114.4972907916034
 21
190.8536267586074
 31
0.0
  0
LINE
  5
6D
330
1F
100
AcDbEntity
  8
0
  6
Continuous
 62
     7
370
    15
100
AcDbLine
 10
112.4668734684909
 20
190.6122642688475
 30
0.0
 11
112.4267865509118
 21
190.5834212087117
 31
0.0
  0
LINE
  5
6E
330
1F
100
AcDbEntity
  8
0
  6
Continuous
 62
     7
370
    15
100
AcDbLine
 10
112.4668734684909
 20
190.6122642688475
 30
0.0
 11
113.1577434555019
 21
190.4995760999641
 31
0.0
  0
LINE
  5
6F
330
1F
100
AcDbEntity
  8
0
  6
Continuous
 62
     7
370
    15
100
AcDbLine
 10
113.1577434555019
 20
190.4995760999641
 30
0.0
 11
113.1176565379227
 21
190.4707321085058
 31
0.0
  0
LINE
  5
70
330
1F
100
AcDbEntity
  8
0
  6
Continuous
 62
     7
370
    15
100
AcDbLine
 10
112.4267865509118
 20
190.5834212087117
 30
0.0
 11
113.1176565379227
 21
190.4707321085058
 31
0.0
  0
LINE
  5
71
330
1F
100
AcDbEntity
  8
0
  6
Continuous
 62
     7
370
    15
100
AcDbLine
 10
113.7663338870133
 20
190.9374718673549
 30
0.0
 11
113.8064208045925
 21
190.9663158588133
 31
0.0
  0
LINE
  5
72
330
1F
100
AcDbEntity
  8
0
  6
Continuous
 62
     7
370
    15
100
AcDbLine
 10
113.7663338870133
 20
190.9374718673549
 30
0.0
 11
113.8790229872192
 21
191.6283418543659
 31
0.0
  0
LINE
  5
73
330
1F
100
AcDbEntity
  8
0
  6
Continuous
 62
     7
370
    15
100
AcDbLine
 10
113.8790229872192
 20
191.6283418543659
 30
0.0
 11
113.9191099047984
 21
191.6571858458243
 31
0.0
  0
LINE
  5
74
330
1F
100
AcDbEntity
  8
0
  6
Continuous
 62
     7
370
    15
100
AcDbLine
 10
113.8064208045925
 20
190.9663158588133
 30
0.0
 11
113.9191099047984
 21
191.6571858458243
 31
0.0
  0
LINE
  5
75
330
1F
100
AcDbEntity
  8
0
  6
Continuous
 62
     7
370
    15
100
AcDbLine
 10
113.8790229872192
 20
191.6283418543659
 30
0.0
 11
113.3557789564455
 21
191.7136891864262
 31
0.0
  0
LINE
  5
76
330
1F
100
AcDbEntity
  8
0
  6
Continuous
 62
     7
370
    15
100
AcDbLine
 10
113.3557789564455
 20
191.7136891864262
 30
0.0
 11
113.3269358963097
 21
191.7537761040054
 31
0.0
  0
LINE
  5
77
330
1F
100
AcDbEntity
  8
0
  6
Continuous
 62
     7
370
    15
100
AcDbLine
 10
113.9191099047984
 20
191.6571858458243
 30
0.0
 11
113.3269358963097
 21
191.7537761040054
 31
0.0
  0
LINE
  5
78
330
1F
100
AcDbEntity
  8
0
  6
Continuous
 62
     7
370
    15
100
AcDbLine
 10
114.4572038740242
 20
190.8247836984716
 30
0.0
 11
113.7663338870133
 21
190.9374718673549
 31
0.0
  0
LINE
  5
79
330
1F
100
AcDbEntity
  8
0
  6
Continuous
 62
     7
370
    15
100
AcDbLine
 10
114.4972907916034
 20
190.8536267586074
 30
0.0
 11
113.8064208045925
 21
190.9663158588133
 31
0.0
  0
LINE
  5
7A
330
1F
100
AcDbEntity
  8
0
  6
Continuous
 62
     7
370
    15
100
AcDbLine
 10
113.680986554953
 20
190.4142287679038
 30
0.0
 11
113.7098305464114
 21
190.3741418503246
 31
0.0
  0
LINE
  5
7B
330
1F
100
AcDbEntity
  8
0
  6
Continuous
 62
     7
370
    15
100
AcDbLine
 10
113.680986554953
 20
190.4142287679038
 30
0.0
 11
114.3718565419639
 21
190.3015396676979
 31
0.0
  0
LINE
  5
7C
330
1F
100
AcDbEntity
  8
0
  6
Continuous
 62
     7
370
    15
100
AcDbLine
 10
113.7098305464114
 20
190.3741418503246
 30
0.0
 11
114.4007005334223
 21
190.2614527501188
 31
0.0
  0
LINE
  5
7D
330
1F
100
AcDbEntity
  8
0
  6
Continuous
 62
     7
370
    15
100
AcDbLine
 10
113.045054355296
 20
189.8087061129532
 30
0.0
 11
113.0049674377168
 21
189.7798621214948
 31
0.0
  0
LINE
  5
7E
330
1F
100
AcDbEntity
  8
0
  6
Continuous
 62
     7
370
    15
100
AcDbLine
 10
113.045054355296
 20
189.8087061129532
 30
0.0
 11
113.5682983860696
 21
189.7233587808929
 31
0.0
  0
LINE
  5
7F
330
1F
100
AcDbEntity
  8
0
  6
Continuous
 62
     7
370
    15
100
AcDbLine
 10
113.5682983860696
 20
189.7233587808929
 30
0.0
 11
113.5971414462055
 21
189.6832718633137
 31
0.0
  0
LINE
  5
80
330
1F
100
AcDbEntity
  8
0
  6
Continuous
 62
     7
370
    15
100
AcDbLine
 10
113.0049674377168
 20
189.7798621214948
 30
0.0
 11
113.5971414462055
 21
189.6832718633137
 31
0.0
  0
LINE
  5
81
330
1F
100
AcDbEntity
  8
0
  6
Continuous
 62
     7
370
    15
100
AcDbLine
 10
113.3557789564455
 20
191.7136891864262
 30
0.0
 11
113.2430907875622
 21
191.0228191994152
 31
0.0
  0
LINE
  5
82
330
1F
100
AcDbEntity
  8
0
  6
Continuous
 62
     7
370
    15
100
AcDbLine
 10
113.2430907875622
 20
191.0228191994152
 30
0.0
 11
113.2142467961038
 21
191.0629061169944
 31
0.0
  0
LINE
  5
83
330
1F
100
AcDbEntity
  8
0
  6
Continuous
 62
     7
370
    15
100
AcDbLine
 10
113.3269358963097
 20
191.7537761040054
 30
0.0
 11
113.2142467961038
 21
191.0629061169944
 31
0.0
  0
LINE
  5
84
330
1F
100
AcDbEntity
  8
0
  6
Continuous
 62
     7
370
    15
100
AcDbLine
 10
112.5522208005513
 20
191.1355082996211
 30
0.0
 11
112.5233768090929
 21
191.1755952172003
 31
0.0
  0
LINE
  5
85
330
1F
100
AcDbEntity
  8
0
  6
Continuous
 62
     7
370
    15
100
AcDbLine
 10
112.5522208005513
 20
191.1355082996211
 30
0.0
 11
112.4668734684909
 21
190.6122642688475
 31
0.0
  0
LINE
  5
86
330
1F
100
AcDbEntity
  8
0
  6
Continuous
 62
     7
370
    15
100
AcDbLine
 10
112.5233768090929
 20
191.1755952172003
 30
0.0
 11
112.4267865509118
 21
190.5834212087117
 31
0.0
  0
LINE
  5
87
330
1F
100
AcDbEntity
  8
0
  6
Continuous
 62
     7
370
    15
100
AcDbLine
 10
113.5682983860696
 20
189.7233587808929
 30
0.0
 11
113.680986554953
 21
190.4142287679038
 31
0.0
  0
LINE
  5
88
330
1F
100
AcDbEntity
  8
0
  6
Continuous
 62
     7
370
    15
100
AcDbLine
 10
113.5971414462055
 20
189.6832718633137
 30
0.0
 11
113.7098305464114
 21
190.3741418503246
 31
0.0
  0
LINE
  5
89
330
1F
100
AcDbEntity
  8
0
  6
Continuous
 62
     7
370
    15
100
AcDbLine
 10
113.1577434555019
 20
190.4995760999641
 30
0.0
 11
113.045054355296
 21
189.8087061129532
 31
0.0
  0
LINE
  5
8A
330
1F
100
AcDbEntity
  8
0
  6
Continuous
 62
     7
370
    15
100
AcDbLine
 10
113.1176565379227
 20
190.4707321085058
 30
0.0
 11
113.0049674377168
 21
189.7798621214948
 31
0.0
  0
LINE
  5
8B
330
1F
100
AcDbEntity
  8
0
  6
Continuous
 62
     7
370
    15
100
AcDbLine
 10
113.2430907875622
 20
191.0228191994152
 30
0.0
 11
112.5522208005513
 21
191.1355082996211
 31
0.0
  0
LINE
  5
8C
330
1F
100
AcDbEntity
  8
0
  6
Continuous
 62
     7
370
    15
100
AcDbLine
 10
113.2142467961038
 20
191.0629061169944
 30
0.0
 11
112.5233768090929
 21
191.1755952172003
 31
0.0
  0
CIRCLE
  5
8D
330
1F
100
AcDbEntity
  8
0
  6
Continuous
 62
     7
370
    15
100
AcDbCircle
 10
113.4620386228288
 20
190.7185240171872
 30
0.0
 40
2.350000000000008
  0
ARC
  5
8E
330
1F
100
AcDbEntity
  8
0
  6
Continuous
 62
     7
370
    15
100
AcDbCircle
 10
83.46203862282882
 20
191.7185240171871
 30
0.0
 40
2.0
100
AcDbArc
 50
90.0
 51
180.0
  0
ARC
  5
8F
330
1F
100
AcDbEntity
  8
0
  6
Continuous
 62
     7
370
    15
100
AcDbCircle
 10
114.4620386228288
 20
191.7185240171871
 30
0.0
 40
2.000000000000027
100
AcDbArc
 50
0.0
 51
90.0
  0
LINE
  5
90
330
1F
100
AcDbEntity
  8
0
  6
Continuous
 62
     7
370
    15
100
AcDbLine
 10
116.4620386973346
 20
191.718523681911
 30
0.0
 11
116.4620386973346
 21
171.7185241289459
 31
0.0
  0
ARC
  5
91
330
1F
100
AcDbEntity
  8
0
  6
Continuous
 62
     7
370
    15
100
AcDbCircle
 10
114.4620386228288
 20
171.7185240171872
 30
0.0
 40
2.000000000000027
100
AcDbArc
 50
270.0000000000008
 51
0.0
  0
LINE
  5
92
330
1F
100
AcDbEntity
  8
0
  6
Continuous
 62
     7
370
    15
100
AcDbLine
 10
114.4620383695091
 20
169.7185238011203
 30
0.0
 11
83.46203887614857
 21
169.7185238011203
 31
0.0
  0
ARC
  5
93
330
1F
100
AcDbEntity
  8
0
  6
Continuous
 62
     7
370
    15
100
AcDbCircle
 10
83.46203862282882
 20
171.7185240171872
 30
0.0
 40
2.0
100
AcDbArc
 50
180.0
 51
270.0000000000008
  0
LINE
  5
94
330
1F
100
AcDbEntity
  8
0
  6
Continuous
 62
     7
370
    15
100
AcDbLine
 10
81.462038548323
 20
191.718523681911
 30
0.0
 11
81.462038548323
 21
171.7185241289459
 31
0.0
  0
CIRCLE
  5
95
330
1F
100
AcDbEntity
  8
0
  6
Continuous
 62
     7
370
    15
100
AcDbCircle
 10
92.46203862282879
 20
181.8060240171872
 30
0.0
 40
3.75
  0
CIRCLE
  5
96
330
1F
100
AcDbEntity
  8
0
  6
Continuous
 62
     7
370
    15
100
AcDbCircle
 10
103.9620386228288
 20
185.2060240171871
 30
0.0
 40
4.900000000000018
  0
CIRCLE
  5
97
330
1F
100
AcDbEntity
  8
0
  6
Continuous
 62
     7
370
    15
100
AcDbCircle
 10
84.46203862282882
 20
190.7185240171872
 30
0.0
 40
2.5
  0
CIRCLE
  5
98
330
1F
100
AcDbEntity
  8
0
  6
Continuous
 62
     7
370
    15
100
AcDbCircle
 10
113.4620386228288
 20
190.7185240171872
 30
0.0
 40
2.500000000000028
  0
LINE
  5
99
330
1F
100
AcDbEntity
  8
0
  6
Continuous
 62
     7
370
    15
100
AcDbLine
 10
114.4620383695091
 20
193.7185249410591
 30
0.0
 11
83.46203887614857
 21
193.7185249410591
 31
0.0
  0
CIRCLE
  5
9A
330
1F
100
AcDbEntity
  8
0
  6
Continuous
 62
     7
370
    15
100
AcDbCircle
 10
103.9620386228288
 20
185.2060240171871
 30
0.0
 40
4.0
  0
CIRCLE
  5
9B
330
1F
100
AcDbEntity
  8
0
  6
Continuous
 62
     7
370
    15
100
AcDbCircle
 10
103.9620386228288
 20
185.2060240171871
 30
0.0
 40
4.500000000000028
  0
ARC
  5
9C
330
1F
100
AcDbEntity
  8
0
  6
Continuous
 62
     7
370
    15
100
AcDbCircle
 10
103.9620386228288
 20
185.2060240171871
 30
0.0
 40
3.500000000000008
100
AcDbArc
 50
98.21321070173816
 51
81.78678929826181
  0
LINE
  5
9D
330
1F
100
AcDbEntity
  8
0
  6
Continuous
 62
     7
370
    15
100
AcDbLine
 10
104.4620385930265
 20
188.6701260812602
 30
0.0
 11
104.4620385930265
 21
189.0060243316017
 31
0.0
  0
LINE
  5
9E
330
1F
100
AcDbEntity
  8
0
  6
Continuous
 62
     7
370
    15
100
AcDbLine
 10
104.4620385930265
 20
189.0060243316017
 30
0.0
 11
103.4620384291137
 21
189.0060243316017
 31
0.0
  0
LINE
  5
9F
330
1F
100
AcDbEntity
  8
0
  6
Continuous
 62
     7
370
    15
100
AcDbLine
 10
103.4620384291137
 20
189.0060243316017
 30
0.0
 11
103.4620384291137
 21
188.6701260812602
 31
0.0
  0
CIRCLE
  5
A0
330
1F
100
AcDbEntity
  8
0
  6
Continuous
 62
     7
370
    15
100
AcDbCircle
 10
105.2620386228289
 20
186.5060240171872
 30
0.0
 40
0.5
  0
CIRCLE
  5
A1
330
1F
100
AcDbEntity
  8
0
  6
Continuous
 62
     7
370
    15
100
AcDbCircle
 10
102.6620386228288
 20
183.9060240171871
 30
0.0
 40
0.5
  0
CIRCLE
  5
A2
330
1F
100
AcDbEntity
  8
0
  6
Continuous
 62
     7
370
    15
100
AcDbCircle
 10
103.9620386228288
 20
185.2060240171871
 30
0.0
 40
3.100000000000021
  0
CIRCLE
  5
A3
330
1F
100
AcDbEntity
  8
0
  6
Continuous
 62
     7
370
    15
100
AcDbCircle
 10
102.6620386228288
 20
186.5060240171871
 30
0.0
 40
0.5
  0
CIRCLE
  5
A4
330
1F
100
AcDbEntity
  8
0
  6
Continuous
 62
     7
370
    15
100
AcDbCircle
 10
105.2620386228289
 20
183.9060240171871
 30
0.0
 40
0.5
  0
CIRCLE
  5
A5
330
1F
100
AcDbEntity
  8
0
  6
Continuous
 62
     7
370
    15
100
AcDbCircle
 10
92.46203862282879
 20
181.8060240171872
 30
0.0
 40
2.549999999999997
  0
CIRCLE
  5
A6
330
1F
100
AcDbEntity
  8
0
  6
Continuous
 62
     7
370
    15
100
AcDbCircle
 10
92.46203862282879
 20
181.8060240171872
 30
0.0
 40
3.100000000000021
  0
CIRCLE
  5
A7
330
1F
100
AcDbEntity
  8
0
  6
Continuous
 62
     7
370
    15
100
AcDbCircle
 10
92.46203862282879
 20
181.8060240171872
 30
0.0
 40
3.400000000000004
  0
CIRCLE
  5
A8
330
1F
100
AcDbEntity
  8
0
  6
Continuous
 62
     7
370
    15
100
AcDbCircle
 10
92.46203862282879
 20
181.8060240171872
 30
0.0
 40
1.099999999999994
  0
CIRCLE
  5
A9
330
1F
100
AcDbEntity
  8
0
  6
Continuous
 62
     7
370
    15
100
AcDbCircle
 10
92.46203862282879
 20
181.8060240171872
 30
0.0
 40
0.5
  0
LINE
  5
AA
330
1F
100
AcDbEntity
  8
0
  6
Continuous
 62
     7
370
    15
100
AcDbLine
 10
95.96203859675181
 20
183.1523150324843
 30
0.0
 11
95.96203859675181
 21
180.459732713925
 31
0.0
  0
LINE
  5
AB
330
1F
100
AcDbEntity
  8
0
  6
Continuous
 62
     7
370
    15
100
AcDbLine
 10
88.96203884634623
 20
183.1523150324843
 30
0.0
 11
88.96203884634623
 21
180.459732713925
 31
0.0
  0
LINE
  5
AC
330
1F
100
AcDbEntity
  8
0
  6
Continuous
 62
     7
370
    15
100
AcDbLine
 10
91.11574744585405
 20
185.3060240976534
 30
0.0
 11
93.808329997244
 21
185.3060240976534
 31
0.0
  0
LINE
  5
AD
330
1F
100
AcDbEntity
  8
0
  6
Continuous
 62
     7
370
    15
100
AcDbLine
 10
91.11574744585405
 20
178.3060239980019
 30
0.0
 11
93.808329997244
 21
178.3060239980019
 31
0.0
  0
DIMENSION
  5
AE
330
1F
100
AcDbEntity
  8
0
  6
Continuous
 62
     7
370
     0
100
AcDbDimension
  2
*D1
 10
81.46203862282881
 20
151.2746872111454
 30
0.0
 11
62.01967845911804
 21
151.2746872111454
 31
0.0
 70
   160
 71
     2
 42
11.0
  3
STANDARD
100
AcDbAlignedDimension
 13
92.46203862282879
 23
179.2660240171872
 33
0.0
 14
81.46203862282881
 24
171.7185240171872
 34
0.0
100
AcDbRotatedDimension
1001
ACAD
1000
DSTYLE
1002
{
1070
    44
1040
0.625
1070
   141
1040
0.0
1070
   179
1070
     1
1070
   271
1070
     1
1070
   272
1070
     1
1002
}
  0
DIMENSION
  5
BB
330
1F
100
AcDbEntity
  8
0
  6
Continuous
 62
     7
370
     0
100
AcDbDimension
  2
*D2
 10
81.46203862282881
 20
140.7671167409207
 30
0.0
 11
92.14660795437131
 21
140.7671167409207
 31
0.0
 70
   160
 71
     2
 42
22.50000000000006
  3
STANDARD
100
AcDbAlignedDimension
 13
103.9620386228288
 23
182.6660240171871
 33
0.0
 14
81.46203862282881
 24
171.7185240171872
 34
0.0
100
AcDbRotatedDimension
1001
ACAD
1000
DSTYLE
1002
{
1070
    44
1040
0.625
1070
   141
1040
0.0
1070
   179
1070
     1
1070
   271
1070
     1
1070
   272
1070
     1
1002
}
  0
DIMENSION
  5
C7
330
1F
100
AcDbEntity
  8
0
  6
Continuous
 62
     7
370
     0
100
AcDbDimension
  2
*D3
 10
64.46420174198627
 20
169.7185240171872
 30
0.0
 11
64.46420174198625
 21
175.7622740171872
 31
0.0
 70
   160
 71
     2
 42
12.08750000000003
  3
STANDARD
100
AcDbAlignedDimension
 13
89.92203862282881
 23
181.8060240171872
 33
0.0
 14
83.46203862282882
 24
169.7185240171872
 34
0.0
 50
90.00000000000019
100
AcDbRotatedDimension
1001
ACAD
1000
DSTYLE
1002
{
1070
    44
1040
0.625
1070
   141
1040
0.0
1070
   179
1070
     1
1070
   271
1070
     1
1070
   272
1070
     1
1002
}
  0
DIMENSION
  5
D2
330
1F
100
AcDbEntity
  8
0
  6
Continuous
 62
     7
370
     0
100
AcDbDimension
  2
*D4
 10
129.7804683489958
 20
169.7185240171872
 30
0.0
 11
129.7804683489958
 21
177.4941951738657
 31
0.0
 70
   160
 71
     2
 42
15.48749999999998
  3
STANDARD
100
AcDbAlignedDimension
 13
106.5020386228288
 23
185.2060240171871
 33
0.0
 14
114.4620386228288
 24
169.7185240171872
 34
0.0
 50
90.00000000000019
100
AcDbRotatedDimension
1001
ACAD
1000
DSTYLE
1002
{
1070
    44
1040
0.625
1070
   141
1040
0.0
1070
   179
1070
     1
1070
   271
1070
     1
1070
   272
1070
     1
1002
}
  0
INSERT
  5
F3
330
1F
100
AcDbEntity
  8
0
  6
Continuous
 62
     7
370
     0
100
AcDbBlockReference
  2
SW_CENTERMARKSYMBOL_0
 10
92.46203862282879
 20
181.8060240171872
 30
0.0
  0
INSERT
  5
FB
330
1F
100
AcDbEntity
  8
0
  6
Continuous
 62
     7
370
     0
100
AcDbBlockReference
  2
SW_CENTERMARKSYMBOL_1
 10
103.9620386228288
 20
185.2060240171871
 30
0.0
  0
LINE
  5
FC
330
1F
100
AcDbEntity
  8
0
  6
Continuous
 62
     7
370
    15
100
AcDbLine
 10
234.2239122543424
 20
178.3060239980019
 30
0.0
 11
234.2239122543424
 21
178.3185239767677
 31
0.0
  0
LINE
  5
FD
330
1F
100
AcDbEntity
  8
0
  6
Continuous
 62
     7
370
    15
100
AcDbLine
 10
230.2239125300139
 20
178.3185239767677
 30
0.0
 11
230.2239125300139
 21
178.3060239980019
 31
0.0
  0
LINE
  5
FE
330
1F
100
AcDbEntity
  8
0
  6
Continuous
 62
     7
370
    15
100
AcDbLine
 10
203.7239109802932
 20
178.3060239980019
 30
0.0
 11
203.7239109802932
 21
178.3185239767677
 31
0.0
  0
LINE
  5
FF
330
1F
100
AcDbEntity
  8
0
  6
Continuous
 62
     7
370
    15
100
AcDbLine
 10
199.723910324642
 20
178.3185239767677
 30
0.0
 11
199.723910324642
 21
178.3060239980019
 31
0.0
  0
LINE
  5
100
330
1F
100
AcDbEntity
  8
0
  6
Continuous
 62
     7
370
    15
100
AcDbLine
 10
191.9739132452695
 20
189.7060240738116
 30
0.0
 11
183.1239124465674
 21
189.7060240738116
 31
0.0
  0
LINE
  5
101
330
1F
100
AcDbEntity
  8
0
  6
Continuous
 62
     7
370
    15
100
AcDbLine
 10
183.1239124465674
 20
180.7060239955805
 30
0.0
 11
191.9739132452695
 21
180.7060239955805
 31
0.0
  0
LINE
  5
102
330
1F
100
AcDbEntity
  8
0
  6
Continuous
 62
     7
370
    15
100
AcDbLine
 10
183.1239124465674
 20
189.7060240738116
 30
0.0
 11
182.6239114332884
 21
189.2060239918552
 31
0.0
  0
LINE
  5
103
330
1F
100
AcDbEntity
  8
0
  6
Continuous
 62
     7
370
    15
100
AcDbLine
 10
182.6239114332884
 20
181.2060240775369
 30
0.0
 11
183.1239124465674
 21
180.7060239955805
 31
0.0
  0
LINE
  5
104
330
1F
100
AcDbEntity
  8
0
  6
Continuous
 62
     7
370
    15
100
AcDbLine
 10
186.5239103961676
 20
178.4060240609593
 30
0.0
 11
191.9739132452695
 21
178.4060240609593
 31
0.0
  0
LINE
  5
105
330
1F
100
AcDbEntity
  8
0
  6
Continuous
 62
     7
370
    15
100
AcDbLine
 10
186.2239127684325
 20
178.7060241334162
 30
0.0
 11
186.5239103961676
 21
178.4060240609593
 31
0.0
  0
LINE
  5
106
330
1F
100
AcDbEntity
  8
0
  6
Continuous
 62
     7
370
    15
100
AcDbLine
 10
246.9239121008605
 20
178.4060240609593
 30
0.0
 11
247.2239125225633
 21
178.7060241334162
 31
0.0
  0
LINE
  5
107
330
1F
100
AcDbEntity
  8
0
  6
Continuous
 62
     7
370
    15
100
AcDbLine
 10
247.2239125225633
 20
184.9060238458238
 30
0.0
 11
246.9239121008605
 21
185.2060242675267
 31
0.0
  0
LINE
  5
108
330
1F
100
AcDbEntity
  8
0
  6
Continuous
 62
     7
370
    15
100
AcDbLine
 10
241.9739121276826
 20
178.4060240609593
 30
0.0
 11
246.9239121008605
 21
178.4060240609593
 31
0.0
  0
LINE
  5
109
330
1F
100
AcDbEntity
  8
0
  6
Continuous
 62
     7
370
    15
100
AcDbLine
 10
246.9239121008605
 20
185.2060242675267
 30
0.0
 11
241.9739121276826
 21
185.2060242675267
 31
0.0
  0
LINE
  5
10A
330
1F
100
AcDbEntity
  8
0
  6
Continuous
 62
     7
370
    15
100
AcDbLine
 10
194.4739108610838
 20
191.718523681911
 30
0.0
 11
194.4739108610838
 21
193.7185249410591
 31
0.0
  0
LINE
  5
10B
330
1F
100
AcDbEntity
  8
0
  6
Continuous
 62
     7
370
    15
100
AcDbLine
 10
194.4739108610838
 20
193.7185249410591
 30
0.0
 11
241.9739121276826
 21
193.7185249410591
 31
0.0
  0
LINE
  5
10C
330
1F
100
AcDbEntity
  8
0
  6
Continuous
 62
     7
370
    15
100
AcDbLine
 10
241.9739121276826
 20
193.7185249410591
 30
0.0
 11
241.9739121276826
 21
191.718523681911
 31
0.0
  0
LINE
  5
10D
330
1F
100
AcDbEntity
  8
0
  6
Continuous
 62
     7
370
    15
100
AcDbLine
 10
241.9739121276826
 20
171.7185241289459
 30
0.0
 11
241.9739121276826
 21
169.7185238011203
 31
0.0
  0
LINE
  5
10E
330
1F
100
AcDbEntity
  8
0
  6
Continuous
 62
     7
370
    15
100
AcDbLine
 10
241.9739121276826
 20
169.7185238011203
 30
0.0
 11
239.4739121544581
 21
169.7185238011203
 31
0.0
  0
LINE
  5
10F
330
1F
100
AcDbEntity
  8
0
  6
Continuous
 62
     7
370
    15
100
AcDbLine
 10
239.4739121544581
 20
169.7185238011203
 30
0.0
 11
239.4739121544581
 21
171.7185241289459
 31
0.0
  0
LINE
  5
110
330
1F
100
AcDbEntity
  8
0
  6
Continuous
 62
     7
370
    15
100
AcDbLine
 10
239.4739121544581
 20
178.3185239767677
 30
0.0
 11
194.4739108610838
 21
178.3185239767677
 31
0.0
  0
LINE
  5
111
330
1F
100
AcDbEntity
  8
0
  6
Continuous
 62
     7
370
    15
100
AcDbLine
 10
194.4739108610838
 20
191.718523681911
 30
0.0
 11
194.4739108610838
 21
178.3185239767677
 31
0.0
  0
LINE
  5
112
330
1F
100
AcDbEntity
  8
0
  6
Continuous
 62
     7
370
    15
100
AcDbLine
 10
239.4739121544581
 20
178.3185239767677
 30
0.0
 11
239.4739121544581
 21
171.7185241289459
 31
0.0
  0
LINE
  5
113
330
1F
100
AcDbEntity
  8
0
  6
Continuous
 62
     7
370
    15
100
AcDbLine
 10
241.9739121276826
 20
171.7185241289459
 30
0.0
 11
241.9739121276826
 21
191.718523681911
 31
0.0
  0
LINE
  5
114
330
1F
100
AcDbEntity
  8
0
  6
Continuous
 62
     7
370
    15
100
AcDbLine
 10
239.4739121544581
 20
169.7185238011203
 30
0.0
 11
191.9739132452695
 21
169.7185238011203
 31
0.0
  0
LINE
  5
115
330
1F
100
AcDbEntity
  8
0
  6
Continuous
 62
     7
370
    15
100
AcDbLine
 10
191.9739132452695
 20
169.7185238011203
 30
0.0
 11
191.9739132452695
 21
171.7185241289459
 31
0.0
  0
LINE
  5
116
330
1F
100
AcDbEntity
  8
0
  6
Continuous
 62
     7
370
    15
100
AcDbLine
 10
194.4739108610838
 20
176.7185240171871
 30
0.0
 11
194.4739108610838
 21
191.718523681911
 31
0.0
  0
LINE
  5
117
330
1F
100
AcDbEntity
  8
0
  6
Continuous
 62
     7
370
    15
100
AcDbLine
 10
191.9739132452695
 20
191.718523681911
 30
0.0
 11
191.9739132452695
 21
171.7185241289459
 31
0.0
  0
LINE
  5
118
330
1F
100
AcDbEntity
  8
0
  6
Continuous
 62
     7
370
    15
100
AcDbLine
 10
239.4739121544581
 20
171.7185241289459
 30
0.0
 11
239.4739121544581
 21
176.7185240171871
 31
0.0
  0
LINE
  5
119
330
1F
100
AcDbEntity
  8
0
  6
Continuous
 62
     7
370
    15
100
AcDbLine
 10
239.4739121544581
 20
176.7185240171871
 30
0.0
 11
194.4739108610838
 21
176.7185240171871
 31
0.0
  0
LINE
  5
11A
330
1F
100
AcDbEntity
  8
0
  6
Continuous
 62
     7
370
    15
100
AcDbLine
 10
191.9739132452695
 20
191.718523681911
 30
0.0
 11
191.9739132452695
 21
193.7185249410591
 31
0.0
  0
LINE
  5
11B
330
1F
100
AcDbEntity
  8
0
  6
Continuous
 62
     7
370
    15
100
AcDbLine
 10
191.9739132452695
 20
193.7185249410591
 30
0.0
 11
194.4739108610838
 21
193.7185249410591
 31
0.0
  0
LINE
  5
11C
330
1F
100
AcDbEntity
  8
0
  6
Continuous
 62
     7
370
    15
100
AcDbLine
 10
238.7879121405013
 20
178.3060239980019
 30
0.0
 11
238.7879121405013
 21
178.3185239767677
 31
0.0
  0
LINE
  5
11D
330
1F
100
AcDbEntity
  8
0
  6
Continuous
 62
     7
370
    15
100
AcDbLine
 10
210.3239128071755
 20
178.3185239767677
 30
0.0
 11
210.3239128071755
 21
178.3060239980019
 31
0.0
  0
LINE
  5
11E
330
1F
100
AcDbEntity
  8
0
  6
Continuous
 62
     7
370
    15
100
AcDbLine
 10
209.8239117938966
 20
178.3060239980019
 30
0.0
 11
209.8239117938966
 21
178.3185239767677
 31
0.0
  0
LINE
  5
11F
330
1F
100
AcDbEntity
  8
0
  6
Continuous
 62
     7
370
    15
100
AcDbLine
 10
197.6239120293349
 20
178.3185239767677
 30
0.0
 11
197.6239120293349
 21
178.3060239980019
 31
0.0
  0
LINE
  5
120
330
1F
100
AcDbEntity
  8
0
  6
Continuous
 62
     7
370
    15
100
AcDbLine
 10
197.1239110160559
 20
178.3060239980019
 30
0.0
 11
197.1239110160559
 21
178.3185239767677
 31
0.0
  0
LINE
  5
121
330
1F
100
AcDbEntity
  8
0
  6
Continuous
 62
     7
370
    15
100
AcDbLine
 10
183.1239124465674
 20
185.2060242675267
 30
0.0
 11
183.1239124465674
 21
180.7060239955805
 31
0.0
  0
LINE
  5
122
330
1F
100
AcDbEntity
  8
0
  6
Continuous
 62
     7
370
    15
100
AcDbLine
 10
183.1239124465674
 20
189.7060240738116
 30
0.0
 11
183.1239124465674
 21
185.2060242675267
 31
0.0
  0
LINE
  5
123
330
1F
100
AcDbEntity
  8
0
  6
Continuous
 62
     7
370
    15
100
AcDbLine
 10
182.6239114332884
 20
185.2060242675267
 30
0.0
 11
182.6239114332884
 21
189.2060239918552
 31
0.0
  0
LINE
  5
124
330
1F
100
AcDbEntity
  8
0
  6
Continuous
 62
     7
370
    15
100
AcDbLine
 10
182.6239114332884
 20
181.2060240775369
 30
0.0
 11
182.6239114332884
 21
185.2060242675267
 31
0.0
  0
LINE
  5
125
330
1F
100
AcDbEntity
  8
0
  6
Continuous
 62
     7
370
    15
100
AcDbLine
 10
196.7239116955489
 20
178.3185239767677
 30
0.0
 11
196.7239116955489
 21
178.3060239980019
 31
0.0
  0
LINE
  5
126
330
1F
100
AcDbEntity
  8
0
  6
Continuous
 62
     7
370
    15
100
AcDbLine
 10
186.5239103961676
 20
180.7060239955805
 30
0.0
 11
186.5239103961676
 21
178.4060240609593
 31
0.0
  0
LINE
  5
127
330
1F
100
AcDbEntity
  8
0
  6
Continuous
 62
     7
370
    15
100
AcDbLine
 10
186.2239127684325
 20
178.7060241334162
 30
0.0
 11
186.2239127684325
 21
180.7060239955805
 31
0.0
  0
LINE
  5
128
330
1F
100
AcDbEntity
  8
0
  6
Continuous
 62
     7
370
    15
100
AcDbLine
 10
230.0239119384378
 20
178.3185239767677
 30
0.0
 11
230.0239119384378
 21
178.3060239980019
 31
0.0
  0
LINE
  5
129
330
1F
100
AcDbEntity
  8
0
  6
Continuous
 62
     7
370
    15
100
AcDbLine
 10
229.7239124480575
 20
178.3185239767677
 30
0.0
 11
229.7239124480575
 21
178.3060239980019
 31
0.0
  0
LINE
  5
12A
330
1F
100
AcDbEntity
  8
0
  6
Continuous
 62
     7
370
    15
100
AcDbLine
 10
247.2239125225633
 20
184.9060238458238
 30
0.0
 11
247.2239125225633
 21
178.7060241334162
 31
0.0
  0
LINE
  5
12B
330
1F
100
AcDbEntity
  8
0
  6
Continuous
 62
     7
370
    15
100
AcDbLine
 10
246.9239121008605
 20
178.4060240609593
 30
0.0
 11
246.9239121008605
 21
185.2060242675267
 31
0.0
  0
LINE
  5
12C
330
1F
100
AcDbEntity
  8
0
  6
Continuous
 62
     7
370
    15
100
AcDbLine
 10
194.7239113677233
 20
178.3060239980019
 30
0.0
 11
194.7239113677233
 21
176.7185240171871
 31
0.0
  0
LINE
  5
12D
330
1F
100
AcDbEntity
  8
0
  6
Continuous
 62
     7
370
    15
100
AcDbLine
 10
194.7239113677233
 20
178.3060239980019
 30
0.0
 11
239.2239121425837
 21
178.3060239980019
 31
0.0
  0
LINE
  5
12E
330
1F
100
AcDbEntity
  8
0
  6
Continuous
 62
     7
370
    15
100
AcDbLine
 10
239.2239121425837
 20
178.3060239980019
 30
0.0
 11
239.2239121425837
 21
176.7185240171871
 31
0.0
  0
LINE
  5
12F
330
1F
100
AcDbEntity
  8
0
  6
Continuous
 62
     7
370
    15
100
AcDbLine
 10
194.7239113677233
 20
176.7185240171871
 30
0.0
 11
239.2239121425837
 21
176.7185240171871
 31
0.0
  0
DIMENSION
  5
130
330
1F
100
AcDbEntity
  8
0
  6
Continuous
 62
     7
370
     0
100
AcDbDimension
  2
*D7
 10
163.7031704591648
 20
169.7185240171872
 30
0.0
 11
163.7031704591647
 21
181.0296997482701
 31
0.0
 70
   160
 71
     2
 42
24.00000000000003
  3
STANDARD
100
AcDbAlignedDimension
 13
191.9739121425836
 23
193.7185240171872
 33
0.0
 14
191.9739121425836
 24
169.7185240171872
 34
0.0
 50
90.00000000000019
100
AcDbRotatedDimension
1001
ACAD
1000
DSTYLE
1002
{
1070
    44
1040
0.625
1070
   141
1040
0.0
1070
   179
1070
     1
1070
   271
1070
     1
1070
   272
1070
     1
1002
}
  0
DIMENSION
  5
13C
330
1F
100
AcDbEntity
  8
0
  6
Continuous
 62
     7
370
     0
100
AcDbDimension
  2
*D8
 10
241.9739121425837
 20
155.2493382800365
 30
0.0
 11
216.5314249058101
 21
155.2493382800365
 31
0.0
 70
   160
 71
     2
 42
50.0
  3
STANDARD
100
AcDbAlignedDimension
 13
191.9739121425836
 23
169.7185240171872
 33
0.0
 14
241.9739121425837
 24
169.7185240171872
 34
0.0
100
AcDbRotatedDimension
1001
ACAD
1000
DSTYLE
1002
{
1070
    44
1040
0.625
1070
   141
1040
0.0
1070
   179
1070
     1
1070
   271
1070
     1
1070
   272
1070
     1
1002
}
  0
LINE
  5
147
330
1F
100
AcDbEntity
  8
0
  6
CENTERX2
 62
     7
370
     0
100
AcDbLine
 10
230.3739121425838
 20
181.8060240171872
 30
0.0
 11
253.2739121425838
 21
181.8060240171872
 31
0.0
  0
LINE
  5
148
330
1F
100
AcDbEntity
  8
0
  6
CENTERX2
 62
     7
370
     0
100
AcDbLine
 10
176.7739121425837
 20
185.2060240171871
 30
0.0
 11
203.4739121425837
 21
185.2060240171872
 31
0.0
  0
CIRCLE
  5
149
330
1F
100
AcDbEntity
  8
0
  6
Continuous
 62
     7
370
    15
100
AcDbCircle
 10
301.8922790638543
 20
172.7185240171872
 30
0.0
 40
2.349999999999976
  0
LINE
  5
14A
330
1F
100
AcDbEntity
  8
0
  6
Continuous
 62
     7
370
    15
100
AcDbLine
 10
301.5147213093378
 20
172.9120435778073
 30
0.0
 11
300.8484633840062
 21
172.697331582012
 31
0.0
  0
LINE
  5
14B
330
1F
100
AcDbEntity
  8
0
  6
Continuous
 62
     7
370
    15
100
AcDbLine
 10
300.8484633840062
 20
172.697331582012
 30
0.0
 11
301.032502037976
 21
172.1262538924835
 31
0.0
  0
LINE
  5
14C
330
1F
100
AcDbEntity
  8
0
  6
Continuous
 62
     7
370
    15
100
AcDbLine
 10
301.032502037976
 20
172.1262538924835
 30
0.0
 11
301.6987599633076
 21
172.3409656554482
 31
0.0
  0
LINE
  5
14D
330
1F
100
AcDbEntity
  8
0
  6
Continuous
 62
     7
370
    15
100
AcDbLine
 10
301.6987599633076
 20
172.3409656554482
 30
0.0
 11
301.9134717262723
 21
171.6747086614392
 31
0.0
  0
LINE
  5
14E
330
1F
100
AcDbEntity
  8
0
  6
Continuous
 62
     7
370
    15
100
AcDbLine
 10
301.9134717262723
 20
171.6747086614392
 30
0.0
 11
302.4845494158008
 21
171.858747315409
 31
0.0
  0
LINE
  5
14F
330
1F
100
AcDbEntity
  8
0
  6
Continuous
 62
     7
370
    15
100
AcDbLine
 10
302.4845494158008
 20
171.858747315409
 30
0.0
 11
302.2698376528361
 21
172.525004309418
 31
0.0
  0
LINE
  5
150
330
1F
100
AcDbEntity
  8
0
  6
Continuous
 62
     7
370
    15
100
AcDbLine
 10
302.2698376528361
 20
172.525004309418
 30
0.0
 11
302.9360946468451
 21
172.7397160723827
 31
0.0
  0
LINE
  5
151
330
1F
100
AcDbEntity
  8
0
  6
Continuous
 62
     7
370
    15
100
AcDbLine
 10
302.9360946468451
 20
172.7397160723827
 30
0.0
 11
302.7520559928754
 21
173.3107939947418
 31
0.0
  0
LINE
  5
152
330
1F
100
AcDbEntity
  8
0
  6
Continuous
 62
     7
370
    15
100
AcDbLine
 10
302.7520559928754
 20
173.3107939947418
 30
0.0
 11
302.0857989988663
 21
173.096082231777
 31
0.0
  0
LINE
  5
153
330
1F
100
AcDbEntity
  8
0
  6
Continuous
 62
     7
370
    15
100
AcDbLine
 10
302.0857989988663
 20
173.096082231777
 30
0.0
 11
301.8710872359017
 21
173.7623394586168
 31
0.0
  0
LINE
  5
154
330
1F
100
AcDbEntity
  8
0
  6
Continuous
 62
     7
370
    15
100
AcDbLine
 10
301.8710872359017
 20
173.7623394586168
 30
0.0
 11
301.3000095463731
 21
173.578300804647
 31
0.0
  0
LINE
  5
155
330
1F
100
AcDbEntity
  8
0
  6
Continuous
 62
     7
370
    15
100
AcDbLine
 10
301.3000095463731
 20
173.578300804647
 30
0.0
 11
301.5147213093378
 21
172.9120435778073
 31
0.0
  0
LINE
  5
156
330
1F
100
AcDbEntity
  8
0
  6
Continuous
 62
     7
370
    15
100
AcDbLine
 10
302.2258885405399
 20
172.5475306741915
 30
0.0
 11
302.2698376528361
 21
172.525004309418
 31
0.0
  0
LINE
  5
157
330
1F
100
AcDbEntity
  8
0
  6
Continuous
 62
     7
370
    15
100
AcDbLine
 10
302.2258885405399
 20
172.5475306741915
 30
0.0
 11
302.892145534549
 21
172.7622424371562
 31
0.0
  0
LINE
  5
158
330
1F
100
AcDbEntity
  8
0
  6
Continuous
 62
     7
370
    15
100
AcDbLine
 10
302.892145534549
 20
172.7622424371562
 30
0.0
 11
302.9360946468451
 21
172.7397160723827
 31
0.0
  0
LINE
  5
159
330
1F
100
AcDbEntity
  8
0
  6
Continuous
 62
     7
370
    15
100
AcDbLine
 10
302.892145534549
 20
172.7622424371562
 30
0.0
 11
302.7295300937631
 21
173.266845348107
 31
0.0
  0
LINE
  5
15A
330
1F
100
AcDbEntity
  8
0
  6
Continuous
 62
     7
370
    15
100
AcDbLine
 10
302.7295300937631
 20
173.266845348107
 30
0.0
 11
302.7520559928754
 21
173.3107939947418
 31
0.0
  0
LINE
  5
15B
330
1F
100
AcDbEntity
  8
0
  6
Continuous
 62
     7
370
    15
100
AcDbLine
 10
302.7295300937631
 20
173.266845348107
 30
0.0
 11
302.0632721684315
 21
173.0521335851423
 31
0.0
  0
LINE
  5
15C
330
1F
100
AcDbEntity
  8
0
  6
Continuous
 62
     7
370
    15
100
AcDbLine
 10
302.0632721684315
 20
173.0521335851423
 30
0.0
 11
302.0857989988663
 21
173.096082231777
 31
0.0
  0
LINE
  5
15D
330
1F
100
AcDbEntity
  8
0
  6
Continuous
 62
     7
370
    15
100
AcDbLine
 10
302.4406003035047
 20
171.8812732145211
 30
0.0
 11
302.4845494158008
 21
171.858747315409
 31
0.0
  0
LINE
  5
15E
330
1F
100
AcDbEntity
  8
0
  6
Continuous
 62
     7
370
    15
100
AcDbLine
 10
302.4406003035047
 20
171.8812732145211
 30
0.0
 11
302.2258885405399
 21
172.5475306741915
 31
0.0
  0
LINE
  5
15F
330
1F
100
AcDbEntity
  8
0
  6
Continuous
 62
     7
370
    15
100
AcDbLine
 10
301.9359976253845
 20
171.718657308074
 30
0.0
 11
301.9134717262723
 21
171.6747086614392
 31
0.0
  0
LINE
  5
160
330
1F
100
AcDbEntity
  8
0
  6
Continuous
 62
     7
370
    15
100
AcDbLine
 10
301.9359976253845
 20
171.718657308074
 30
0.0
 11
302.4406003035047
 21
171.8812732145211
 31
0.0
  0
LINE
  5
161
330
1F
100
AcDbEntity
  8
0
  6
Continuous
 62
     7
370
    15
100
AcDbLine
 10
302.0632721684315
 20
173.0521335851423
 30
0.0
 11
301.8485604054668
 21
173.7183908119819
 31
0.0
  0
LINE
  5
162
330
1F
100
AcDbEntity
  8
0
  6
Continuous
 62
     7
370
    15
100
AcDbLine
 10
301.8485604054668
 20
173.7183908119819
 30
0.0
 11
301.8710872359017
 21
173.7623394586168
 31
0.0
  0
LINE
  5
163
330
1F
100
AcDbEntity
  8
0
  6
Continuous
 62
     7
370
    15
100
AcDbLine
 10
301.7212858624198
 20
172.3849147677443
 30
0.0
 11
301.6987599633076
 21
172.3409656554482
 31
0.0
  0
LINE
  5
164
330
1F
100
AcDbEntity
  8
0
  6
Continuous
 62
     7
370
    15
100
AcDbLine
 10
301.7212858624198
 20
172.3849147677443
 30
0.0
 11
301.9359976253845
 21
171.718657308074
 31
0.0
  0
LINE
  5
165
330
1F
100
AcDbEntity
  8
0
  6
Continuous
 62
     7
370
    15
100
AcDbLine
 10
301.8485604054668
 20
173.7183908119819
 30
0.0
 11
301.3439577273466
 21
173.5557746727041
 31
0.0
  0
LINE
  5
166
330
1F
100
AcDbEntity
  8
0
  6
Continuous
 62
     7
370
    15
100
AcDbLine
 10
301.3439577273466
 20
173.5557746727041
 30
0.0
 11
301.3000095463731
 21
173.578300804647
 31
0.0
  0
LINE
  5
167
330
1F
100
AcDbEntity
  8
0
  6
Continuous
 62
     7
370
    15
100
AcDbLine
 10
301.0550279370882
 20
172.1702030047796
 30
0.0
 11
301.032502037976
 21
172.1262538924835
 31
0.0
  0
LINE
  5
168
330
1F
100
AcDbEntity
  8
0
  6
Continuous
 62
     7
370
    15
100
AcDbLine
 10
301.0550279370882
 20
172.1702030047796
 30
0.0
 11
301.7212858624198
 21
172.3849147677443
 31
0.0
  0
LINE
  5
169
330
1F
100
AcDbEntity
  8
0
  6
Continuous
 62
     7
370
    15
100
AcDbLine
 10
301.5586694903114
 20
172.8895174458645
 30
0.0
 11
301.5147213093378
 21
172.9120435778073
 31
0.0
  0
LINE
  5
16A
330
1F
100
AcDbEntity
  8
0
  6
Continuous
 62
     7
370
    15
100
AcDbLine
 10
301.5586694903114
 20
172.8895174458645
 30
0.0
 11
300.8924124963023
 21
172.6748056828997
 31
0.0
  0
LINE
  5
16B
330
1F
100
AcDbEntity
  8
0
  6
Continuous
 62
     7
370
    15
100
AcDbLine
 10
300.8924124963023
 20
172.6748056828997
 30
0.0
 11
300.8484633840062
 21
172.697331582012
 31
0.0
  0
LINE
  5
16C
330
1F
100
AcDbEntity
  8
0
  6
Continuous
 62
     7
370
    15
100
AcDbLine
 10
301.3439577273466
 20
173.5557746727041
 30
0.0
 11
301.5586694903114
 21
172.8895174458645
 31
0.0
  0
LINE
  5
16D
330
1F
100
AcDbEntity
  8
0
  6
Continuous
 62
     7
370
    15
100
AcDbLine
 10
300.8924124963023
 20
172.6748056828997
 30
0.0
 11
301.0550279370882
 21
172.1702030047796
 31
0.0
  0
CIRCLE
  5
16E
330
1F
100
AcDbEntity
  8
0
  6
Continuous
 62
     7
370
    15
100
AcDbCircle
 10
330.8922790638545
 20
172.7185240171872
 30
0.0
 40
2.350000000000031
  0
LINE
  5
16F
330
1F
100
AcDbEntity
  8
0
  6
Continuous
 62
     7
370
    15
100
AcDbLine
 10
330.5147204748728
 20
172.9120435778073
 30
0.0
 11
329.8484634808638
 21
172.697331582012
 31
0.0
  0
LINE
  5
170
330
1F
100
AcDbEntity
  8
0
  6
Continuous
 62
     7
370
    15
100
AcDbLine
 10
329.8484634808638
 20
172.697331582012
 30
0.0
 11
330.0325021348335
 21
172.1262538924835
 31
0.0
  0
LINE
  5
171
330
1F
100
AcDbEntity
  8
0
  6
Continuous
 62
     7
370
    15
100
AcDbLine
 10
330.0325021348335
 20
172.1262538924835
 30
0.0
 11
330.6987591288426
 21
172.3409656554482
 31
0.0
  0
LINE
  5
172
330
1F
100
AcDbEntity
  8
0
  6
Continuous
 62
     7
370
    15
100
AcDbLine
 10
330.6987591288426
 20
172.3409656554482
 30
0.0
 11
330.9134708918073
 21
171.6747086614392
 31
0.0
  0
LINE
  5
173
330
1F
100
AcDbEntity
  8
0
  6
Continuous
 62
     7
370
    15
100
AcDbLine
 10
330.9134708918073
 20
171.6747086614392
 30
0.0
 11
331.4845485813358
 21
171.858747315409
 31
0.0
  0
LINE
  5
174
330
1F
100
AcDbEntity
  8
0
  6
Continuous
 62
     7
370
    15
100
AcDbLine
 10
331.4845485813358
 20
171.858747315409
 30
0.0
 11
331.269836818371
 21
172.525004309418
 31
0.0
  0
LINE
  5
175
330
1F
100
AcDbEntity
  8
0
  6
Continuous
 62
     7
370
    15
100
AcDbLine
 10
331.269836818371
 20
172.525004309418
 30
0.0
 11
331.9360947437026
 21
172.7397160723827
 31
0.0
  0
LINE
  5
176
330
1F
100
AcDbEntity
  8
0
  6
Continuous
 62
     7
370
    15
100
AcDbLine
 10
331.9360947437026
 20
172.7397160723827
 30
0.0
 11
331.7520560897329
 21
173.3107939947418
 31
0.0
  0
LINE
  5
177
330
1F
100
AcDbEntity
  8
0
  6
Continuous
 62
     7
370
    15
100
AcDbLine
 10
331.7520560897329
 20
173.3107939947418
 30
0.0
 11
331.0857981644013
 21
173.096082231777
 31
0.0
  0
LINE
  5
178
330
1F
100
AcDbEntity
  8
0
  6
Continuous
 62
     7
370
    15
100
AcDbLine
 10
331.0857981644013
 20
173.096082231777
 30
0.0
 11
330.8710864014365
 21
173.7623394586168
 31
0.0
  0
LINE
  5
179
330
1F
100
AcDbEntity
  8
0
  6
Continuous
 62
     7
370
    15
100
AcDbLine
 10
330.8710864014365
 20
173.7623394586168
 30
0.0
 11
330.3000087119081
 21
173.578300804647
 31
0.0
  0
LINE
  5
17A
330
1F
100
AcDbEntity
  8
0
  6
Continuous
 62
     7
370
    15
100
AcDbLine
 10
330.3000087119081
 20
173.578300804647
 30
0.0
 11
330.5147204748728
 21
172.9120435778073
 31
0.0
  0
LINE
  5
17B
330
1F
100
AcDbEntity
  8
0
  6
Continuous
 62
     7
370
    15
100
AcDbLine
 10
331.2258886373975
 20
172.5475306741915
 30
0.0
 11
331.269836818371
 21
172.525004309418
 31
0.0
  0
LINE
  5
17C
330
1F
100
AcDbEntity
  8
0
  6
Continuous
 62
     7
370
    15
100
AcDbLine
 10
331.2258886373975
 20
172.5475306741915
 30
0.0
 11
331.8921456314065
 21
172.7622424371562
 31
0.0
  0
LINE
  5
17D
330
1F
100
AcDbEntity
  8
0
  6
Continuous
 62
     7
370
    15
100
AcDbLine
 10
331.8921456314065
 20
172.7622424371562
 30
0.0
 11
331.9360947437026
 21
172.7397160723827
 31
0.0
  0
LINE
  5
17E
330
1F
100
AcDbEntity
  8
0
  6
Continuous
 62
     7
370
    15
100
AcDbLine
 10
331.8921456314065
 20
172.7622424371562
 30
0.0
 11
331.7295301906206
 21
173.266845348107
 31
0.0
  0
LINE
  5
17F
330
1F
100
AcDbEntity
  8
0
  6
Continuous
 62
     7
370
    15
100
AcDbLine
 10
331.7295301906206
 20
173.266845348107
 30
0.0
 11
331.7520560897329
 21
173.3107939947418
 31
0.0
  0
LINE
  5
180
330
1F
100
AcDbEntity
  8
0
  6
Continuous
 62
     7
370
    15
100
AcDbLine
 10
331.7295301906206
 20
173.266845348107
 30
0.0
 11
331.063272265289
 21
173.0521335851423
 31
0.0
  0
LINE
  5
181
330
1F
100
AcDbEntity
  8
0
  6
Continuous
 62
     7
370
    15
100
AcDbLine
 10
331.063272265289
 20
173.0521335851423
 30
0.0
 11
331.0857981644013
 21
173.096082231777
 31
0.0
  0
LINE
  5
182
330
1F
100
AcDbEntity
  8
0
  6
Continuous
 62
     7
370
    15
100
AcDbLine
 10
331.4406004003622
 20
171.8812732145211
 30
0.0
 11
331.4845485813358
 21
171.858747315409
 31
0.0
  0
LINE
  5
183
330
1F
100
AcDbEntity
  8
0
  6
Continuous
 62
     7
370
    15
100
AcDbLine
 10
331.4406004003622
 20
171.8812732145211
 30
0.0
 11
331.2258886373975
 21
172.5475306741915
 31
0.0
  0
LINE
  5
184
330
1F
100
AcDbEntity
  8
0
  6
Continuous
 62
     7
370
    15
100
AcDbLine
 10
330.9359977222421
 20
171.718657308074
 30
0.0
 11
330.9134708918073
 21
171.6747086614392
 31
0.0
  0
LINE
  5
185
330
1F
100
AcDbEntity
  8
0
  6
Continuous
 62
     7
370
    15
100
AcDbLine
 10
330.9359977222421
 20
171.718657308074
 30
0.0
 11
331.4406004003622
 21
171.8812732145211
 31
0.0
  0
LINE
  5
186
330
1F
100
AcDbEntity
  8
0
  6
Continuous
 62
     7
370
    15
100
AcDbLine
 10
331.063272265289
 20
173.0521335851423
 30
0.0
 11
330.8485605023243
 21
173.7183908119819
 31
0.0
  0
LINE
  5
187
330
1F
100
AcDbEntity
  8
0
  6
Continuous
 62
     7
370
    15
100
AcDbLine
 10
330.8485605023243
 20
173.7183908119819
 30
0.0
 11
330.8710864014365
 21
173.7623394586168
 31
0.0
  0
LINE
  5
188
330
1F
100
AcDbEntity
  8
0
  6
Continuous
 62
     7
370
    15
100
AcDbLine
 10
330.7212859592774
 20
172.3849147677443
 30
0.0
 11
330.6987591288426
 21
172.3409656554482
 31
0.0
  0
LINE
  5
189
330
1F
100
AcDbEntity
  8
0
  6
Continuous
 62
     7
370
    15
100
AcDbLine
 10
330.7212859592774
 20
172.3849147677443
 30
0.0
 11
330.9359977222421
 21
171.718657308074
 31
0.0
  0
LINE
  5
18A
330
1F
100
AcDbEntity
  8
0
  6
Continuous
 62
     7
370
    15
100
AcDbLine
 10
330.8485605023243
 20
173.7183908119819
 30
0.0
 11
330.3439578242042
 21
173.5557746727041
 31
0.0
  0
LINE
  5
18B
330
1F
100
AcDbEntity
  8
0
  6
Continuous
 62
     7
370
    15
100
AcDbLine
 10
330.3439578242042
 20
173.5557746727041
 30
0.0
 11
330.3000087119081
 21
173.578300804647
 31
0.0
  0
LINE
  5
18C
330
1F
100
AcDbEntity
  8
0
  6
Continuous
 62
     7
370
    15
100
AcDbLine
 10
330.0550280339458
 20
172.1702030047796
 30
0.0
 11
330.0325021348335
 21
172.1262538924835
 31
0.0
  0
LINE
  5
18D
330
1F
100
AcDbEntity
  8
0
  6
Continuous
 62
     7
370
    15
100
AcDbLine
 10
330.0550280339458
 20
172.1702030047796
 30
0.0
 11
330.7212859592774
 21
172.3849147677443
 31
0.0
  0
LINE
  5
18E
330
1F
100
AcDbEntity
  8
0
  6
Continuous
 62
     7
370
    15
100
AcDbLine
 10
330.5586695871689
 20
172.8895174458645
 30
0.0
 11
330.5147204748728
 21
172.9120435778073
 31
0.0
  0
LINE
  5
18F
330
1F
100
AcDbEntity
  8
0
  6
Continuous
 62
     7
370
    15
100
AcDbLine
 10
330.5586695871689
 20
172.8895174458645
 30
0.0
 11
329.8924125931599
 21
172.6748056828997
 31
0.0
  0
LINE
  5
190
330
1F
100
AcDbEntity
  8
0
  6
Continuous
 62
     7
370
    15
100
AcDbLine
 10
329.8924125931599
 20
172.6748056828997
 30
0.0
 11
329.8484634808638
 21
172.697331582012
 31
0.0
  0
LINE
  5
191
330
1F
100
AcDbEntity
  8
0
  6
Continuous
 62
     7
370
    15
100
AcDbLine
 10
330.3439578242042
 20
173.5557746727041
 30
0.0
 11
330.5586695871689
 21
172.8895174458645
 31
0.0
  0
LINE
  5
192
330
1F
100
AcDbEntity
  8
0
  6
Continuous
 62
     7
370
    15
100
AcDbLine
 10
329.8924125931599
 20
172.6748056828997
 30
0.0
 11
330.0550280339458
 21
172.1702030047796
 31
0.0
  0
ARC
  5
193
330
1F
100
AcDbEntity
  8
0
  6
Continuous
 62
     7
370
    15
100
AcDbCircle
 10
300.8922790638544
 20
191.7185240171872
 30
0.0
 40
2.0
100
AcDbArc
 50
90.0
 51
180.0
  0
LINE
  5
194
330
1F
100
AcDbEntity
  8
0
  6
Continuous
 62
     7
370
    15
100
AcDbLine
 10
300.8922793171742
 20
193.7185249410591
 30
0.0
 11
331.8922788105347
 21
193.7185249410591
 31
0.0
  0
ARC
  5
195
330
1F
100
AcDbEntity
  8
0
  6
Continuous
 62
     7
370
    15
100
AcDbCircle
 10
331.8922790638545
 20
191.7185240171872
 30
0.0
 40
2.0
100
AcDbArc
 50
0.0
 51
90.0
  0
ARC
  5
196
330
1F
100
AcDbEntity
  8
0
  6
Continuous
 62
     7
370
    15
100
AcDbCircle
 10
331.8922790638545
 20
171.7185240171872
 30
0.0
 40
2.0
100
AcDbArc
 50
270.0000000000008
 51
0.0
  0
LINE
  5
197
330
1F
100
AcDbEntity
  8
0
  6
Continuous
 62
     7
370
    15
100
AcDbLine
 10
300.8922793171742
 20
169.7185238011203
 30
0.0
 11
331.8922788105347
 21
169.7185238011203
 31
0.0
  0
ARC
  5
198
330
1F
100
AcDbEntity
  8
0
  6
Continuous
 62
     7
370
    15
100
AcDbCircle
 10
300.8922790638544
 20
171.7185240171872
 30
0.0
 40
2.0
100
AcDbArc
 50
180.0
 51
270.0000000000008
  0
LINE
  5
199
330
1F
100
AcDbEntity
  8
0
  6
Continuous
 62
     7
370
    15
100
AcDbLine
 10
298.8922789893487
 20
171.7185241289459
 30
0.0
 11
298.8922789893487
 21
191.718523681911
 31
0.0
  0
CIRCLE
  5
19A
330
1F
100
AcDbEntity
  8
0
  6
Continuous
 62
     7
370
    15
100
AcDbCircle
 10
322.8922790638543
 20
181.8060240171872
 30
0.0
 40
3.75
  0
CIRCLE
  5
19B
330
1F
100
AcDbEntity
  8
0
  6
Continuous
 62
     7
370
    15
100
AcDbCircle
 10
301.8922790638543
 20
172.7185240171872
 30
0.0
 40
2.5
  0
CIRCLE
  5
19C
330
1F
100
AcDbEntity
  8
0
  6
Continuous
 62
     7
370
    15
100
AcDbCircle
 10
330.8922790638545
 20
172.7185240171872
 30
0.0
 40
2.500000000000055
  0
CIRCLE
  5
19D
330
1F
100
AcDbEntity
  8
0
  6
Continuous
 62
     7
370
    15
100
AcDbCircle
 10
307.6222790638543
 20
181.3540240171872
 30
0.0
 40
1.900000000000034
  0
LINE
  5
19E
330
1F
100
AcDbEntity
  8
0
  6
Continuous
 62
     7
370
    15
100
AcDbLine
 10
333.8922791383601
 20
171.7185241289459
 30
0.0
 11
333.8922791383601
 21
191.718523681911
 31
0.0
  0
ARC
  5
19F
330
1F
100
AcDbEntity
  8
0
  6
Continuous
 62
     7
370
    15
100
AcDbCircle
 10
307.6222790638543
 20
181.3540240171871
 30
0.0
 40
1.498600000000124
100
AcDbArc
 50
270.0000000000008
 51
90.00000000000218
  0
ARC
  5
1A0
330
1F
100
AcDbEntity
  8
0
  6
Continuous
 62
     7
370
    15
100
AcDbCircle
 10
307.6222790638543
 20
181.3540240171871
 30
0.0
 40
1.498600000000124
100
AcDbArc
 50
90.00000000000218
 51
270.0000000000008
  0
CIRCLE
  5
1A1
330
1F
100
AcDbEntity
  8
0
  6
Continuous
 62
     7
370
    15
100
AcDbCircle
 10
307.6222790638543
 20
181.3540240171871
 30
0.0
 40
1.80340000000001
  0
CIRCLE
  5
1A2
330
1F
100
AcDbEntity
  8
0
  6
Continuous
 62
     7
370
    15
100
AcDbCircle
 10
307.6222790638543
 20
181.3540240171871
 30
0.0
 40
1.714500000027868
  0
CIRCLE
  5
1A3
330
1F
100
AcDbEntity
  8
0
  6
Continuous
 62
     7
370
    15
100
AcDbCircle
 10
322.8922790638543
 20
181.8060240171872
 30
0.0
 40
3.100000000000078
  0
CIRCLE
  5
1A4
330
1F
100
AcDbEntity
  8
0
  6
Continuous
 62
     7
370
    15
100
AcDbCircle
 10
322.8922790638543
 20
181.8060240171872
 30
0.0
 40
3.400000000000034
  0
CIRCLE
  5
1A5
330
1F
100
AcDbEntity
  8
0
  6
Continuous
 62
     7
370
    15
100
AcDbCircle
 10
322.8922790638543
 20
181.8060240171872
 30
0.0
 40
2.55000000000001
  0
CIRCLE
  5
1A6
330
1F
100
AcDbEntity
  8
0
  6
Continuous
 62
     7
370
    15
100
AcDbCircle
 10
322.8922790638543
 20
181.8060240171872
 30
0.0
 40
1.100000000000079
  0
CIRCLE
  5
1A7
330
1F
100
AcDbEntity
  8
0
  6
Continuous
 62
     7
370
    15
100
AcDbCircle
 10
322.8922790638543
 20
181.8060240171872
 30
0.0
 40
0.5
  0
LINE
  5
1A8
330
1F
100
AcDbEntity
  8
0
  6
Continuous
 62
     7
370
    15
100
AcDbLine
 10
326.392278840337
 20
183.1523150324843
 30
0.0
 11
326.392278840337
 21
180.459732713925
 31
0.0
  0
LINE
  5
1A9
330
1F
100
AcDbEntity
  8
0
  6
Continuous
 62
     7
370
    15
100
AcDbLine
 10
319.3922790899315
 20
183.1523150324843
 30
0.0
 11
319.3922790899315
 21
180.459732713925
 31
0.0
  0
LINE
  5
1AA
330
1F
100
AcDbEntity
  8
0
  6
Continuous
 62
     7
370
    15
100
AcDbLine
 10
321.5459876894393
 20
185.3060240976534
 30
0.0
 11
324.2385702408292
 21
185.3060240976534
 31
0.0
  0
LINE
  5
1AB
330
1F
100
AcDbEntity
  8
0
  6
Continuous
 62
     7
370
    15
100
AcDbLine
 10
321.5459876894393
 20
178.3060239980019
 30
0.0
 11
324.2385702408292
 21
178.3060239980019
 31
0.0
  0
DIMENSION
  5
1AC
330
1F
100
AcDbEntity
  8
0
  6
Continuous
 62
     7
370
     0
100
AcDbDimension
  2
*D9
 10
322.8922790638543
 20
153.4367340526421
 30
0.0
 11
351.3922790638545
 21
153.4367340526421
 31
0.0
 70
   160
 71
     2
 42
11.00000000000017
  3
STANDARD
100
AcDbAlignedDimension
 13
333.8922790638545
 23
171.7185240171872
 33
0.0
 14
322.8922790638543
 24
179.2660240171872
 34
0.0
100
AcDbRotatedDimension
1001
ACAD
1000
DSTYLE
1002
{
1070
    44
1040
0.625
1070
   141
1040
0.0
1070
   179
1070
     1
1070
   271
1070
     1
1070
   272
1070
     1
1002
}
  0
DIMENSION
  5
1B7
330
1F
100
AcDbEntity
  8
0
  6
Continuous
 62
     7
370
     0
100
AcDbDimension
  2
*D10
 10
307.6222790638543
 20
145.2557610381449
 30
0.0
 11
321.8982499088517
 21
145.2557610381449
 31
0.0
 70
   160
 71
     2
 42
26.27000000000004
  3
STANDARD
100
AcDbAlignedDimension
 13
333.8922790638545
 23
171.7185240171872
 33
0.0
 14
307.6222790638543
 24
178.8140240171872
 34
0.0
100
AcDbRotatedDimension
1001
ACAD
1000
DSTYLE
1002
{
1070
    44
1040
0.625
1070
   141
1040
0.0
1070
   179
1070
     1
1070
   271
1070
     1
1070
   272
1070
     1
1002
}
  0
DIMENSION
  5
1C3
330
1F
100
AcDbEntity
  8
0
  6
Continuous
 62
     7
370
     0
100
AcDbDimension
  2
*D11
 10
349.9086058085191
 20
181.8060240171872
 30
0.0
 11
349.9086058085191
 21
175.7622740171872
 31
0.0
 70
   160
 71
     2
 42
12.0875
  3
STANDARD
100
AcDbAlignedDimension
 13
331.8922790638545
 23
169.7185240171872
 33
0.0
 14
325.4322790638544
 24
181.8060240171872
 34
0.0
 50
90.00000000000019
100
AcDbRotatedDimension
1001
ACAD
1000
DSTYLE
1002
{
1070
    44
1040
0.625
1070
   141
1040
0.0
1070
   179
1070
     1
1070
   271
1070
     1
1070
   272
1070
     1
1002
}
  0
DIMENSION
  5
1CE
330
1F
100
AcDbEntity
  8
0
  6
Continuous
 62
     7
370
     0
100
AcDbDimension
  2
*D12
 10
282.8922790638543
 20
169.7185240171872
 30
0.0
 11
282.8922790638543
 21
175.5362740171872
 31
0.0
 70
   160
 71
     2
 42
11.63550000000003
  3
STANDARD
100
AcDbAlignedDimension
 13
305.0822790638544
 23
181.3540240171872
 33
0.0
 14
301.8672790638545
 24
169.7185240171872
 34
0.0
 50
90.00000000000019
100
AcDbRotatedDimension
1001
ACAD
1000
DSTYLE
1002
{
1070
    44
1040
0.625
1070
   141
1040
0.0
1070
   179
1070
     1
1070
   271
1070
     1
1070
   272
1070
     1
1002
}
  0
DIMENSION
  5
1D9
330
1F
100
AcDbEntity
  8
0
  6
Continuous
 62
     7
370
     0
100
AcDbDimension
  2
*D13
 10
300.8922790638543
 20
171.7185240171871
 30
0.0
 11
268.3280984061282
 21
150.741430917876
 31
0.0
 70
   164
  1
4X <>
 71
     5
 42
2.000000000000055
  3
STANDARD
100
AcDbRadialDimension
 15
299.9014376425445
 25
169.9812176890409
 35
0.0
 40
0.0
1001
ACAD
1000
DSTYLE
1002
{
1070
    44
1040
0.625
1070
   141
1040
0.0
1070
   179
1070
     1
1070
   271
1070
     1
1070
   272
1070
     1
1002
}
  0
INSERT
  5
1F3
330
1F
100
AcDbEntity
  8
0
  6
Continuous
 62
     7
370
     0
100
AcDbBlockReference
  2
SW_CENTERMARKSYMBOL_2
 10
322.8922790638543
 20
181.8060240171872
 30
0.0
  0
INSERT
  5
1FB
330
1F
100
AcDbEntity
  8
0
  6
Continuous
 62
     7
370
     0
100
AcDbBlockReference
  2
SW_CENTERMARKSYMBOL_3
 10
307.6222790638543
 20
181.3540240171872
 30
0.0
  0
LINE
  5
1FC
330
1F
100
AcDbEntity
  8
0
  6
Continuous
 62
     7
370
    15
100
AcDbLine
 10
191.9739132452695
 20
91.81226773353468
 30
0.0
 11
183.1239124465674
 21
91.81226773353468
 31
0.0
  0
LINE
  5
1FD
330
1F
100
AcDbEntity
  8
0
  6
Continuous
 62
     7
370
    15
100
AcDbLine
 10
183.1239124465674
 20
82.81226806275721
 30
0.0
 11
191.9739132452695
 21
82.81226806275721
 31
0.0
  0
LINE
  5
1FE
330
1F
100
AcDbEntity
  8
0
  6
Continuous
 62
     7
370
    15
100
AcDbLine
 10
183.1239124465674
 20
91.81226773353468
 30
0.0
 11
182.6239114332884
 21
91.3122676515783
 31
0.0
  0
LINE
  5
1FF
330
1F
100
AcDbEntity
  8
0
  6
Continuous
 62
     7
370
    15
100
AcDbLine
 10
182.6239114332884
 20
83.31226808650594
 30
0.0
 11
183.1239124465674
 21
82.81226806275721
 31
0.0
  0
LINE
  5
200
330
1F
100
AcDbEntity
  8
0
  6
Continuous
 62
     7
370
    15
100
AcDbLine
 10
186.5239103961676
 20
79.21226794997405
 30
0.0
 11
186.2239127684325
 21
78.91226799393249
 31
0.0
  0
LINE
  5
201
330
1F
100
AcDbEntity
  8
0
  6
Continuous
 62
     7
370
    15
100
AcDbLine
 10
186.2239127684325
 20
72.71226758303296
 30
0.0
 11
186.5239103961676
 21
72.41226809265267
 31
0.0
  0
LINE
  5
202
330
1F
100
AcDbEntity
  8
0
  6
Continuous
 62
     7
370
    15
100
AcDbLine
 10
191.9739132452695
 20
79.21226794997405
 30
0.0
 11
186.5239103961676
 21
79.21226794997405
 31
0.0
  0
LINE
  5
203
330
1F
100
AcDbEntity
  8
0
  6
Continuous
 62
     7
370
    15
100
AcDbLine
 10
186.5239103961676
 20
72.41226809265267
 30
0.0
 11
191.9739132452695
 21
72.41226809265267
 31
0.0
  0
LINE
  5
204
330
1F
100
AcDbEntity
  8
0
  6
Continuous
 62
     7
370
    15
100
AcDbLine
 10
246.9239121008605
 20
72.41226809265267
 30
0.0
 11
247.2239125225633
 21
72.71226758303296
 31
0.0
  0
LINE
  5
205
330
1F
100
AcDbEntity
  8
0
  6
Continuous
 62
     7
370
    15
100
AcDbLine
 10
247.2239125225633
 20
78.91226799393249
 30
0.0
 11
246.9239121008605
 21
79.21226794997405
 31
0.0
  0
LINE
  5
206
330
1F
100
AcDbEntity
  8
0
  6
Continuous
 62
     7
370
    15
100
AcDbLine
 10
241.9739121276826
 20
72.41226809265267
 30
0.0
 11
246.9239121008605
 21
72.41226809265267
 31
0.0
  0
LINE
  5
207
330
1F
100
AcDbEntity
  8
0
  6
Continuous
 62
     7
370
    15
100
AcDbLine
 10
246.9239121008605
 20
79.21226794997405
 30
0.0
 11
241.9739121276826
 21
79.21226794997405
 31
0.0
  0
LINE
  5
208
330
1F
100
AcDbEntity
  8
0
  6
Continuous
 62
     7
370
    15
100
AcDbLine
 10
241.9739121276826
 20
64.81226796450268
 30
0.0
 11
239.4739121544581
 21
64.81226796450268
 31
0.0
  0
LINE
  5
209
330
1F
100
AcDbEntity
  8
0
  6
Continuous
 62
     7
370
    15
100
AcDbLine
 10
239.4739121544581
 20
64.81226796450268
 30
0.0
 11
239.4739121544581
 21
66.81226829232823
 31
0.0
  0
LINE
  5
20A
330
1F
100
AcDbEntity
  8
0
  6
Continuous
 62
     7
370
    15
100
AcDbLine
 10
241.9739121276826
 20
66.81226829232823
 30
0.0
 11
241.9739121276826
 21
64.81226796450268
 31
0.0
  0
LINE
  5
20B
330
1F
100
AcDbEntity
  8
0
  6
Continuous
 62
     7
370
    15
100
AcDbLine
 10
239.4739121544581
 20
66.81226829232823
 30
0.0
 11
239.4739121544581
 21
97.81226778568877
 31
0.0
  0
LINE
  5
20C
330
1F
100
AcDbEntity
  8
0
  6
Continuous
 62
     7
370
    15
100
AcDbLine
 10
241.9739121276826
 20
97.81226778568877
 30
0.0
 11
241.9739121276826
 21
66.81226829232823
 31
0.0
  0
LINE
  5
20D
330
1F
100
AcDbEntity
  8
0
  6
Continuous
 62
     7
370
    15
100
AcDbLine
 10
239.4739121544581
 20
99.81226811351429
 30
0.0
 11
241.9739121276826
 21
99.81226811351429
 31
0.0
  0
LINE
  5
20E
330
1F
100
AcDbEntity
  8
0
  6
Continuous
 62
     7
370
    15
100
AcDbLine
 10
239.4739121544581
 20
97.81226778568877
 30
0.0
 11
239.4739121544581
 21
99.81226811351429
 31
0.0
  0
LINE
  5
20F
330
1F
100
AcDbEntity
  8
0
  6
Continuous
 62
     7
370
    15
100
AcDbLine
 10
241.9739121276826
 20
99.81226811351429
 30
0.0
 11
241.9739121276826
 21
97.81226778568877
 31
0.0
  0
LINE
  5
210
330
1F
100
AcDbEntity
  8
0
  6
Continuous
 62
     7
370
    15
100
AcDbLine
 10
239.4739121544581
 20
64.81226796450268
 30
0.0
 11
191.9739132452695
 21
64.81226796450268
 31
0.0
  0
LINE
  5
211
330
1F
100
AcDbEntity
  8
0
  6
Continuous
 62
     7
370
    15
100
AcDbLine
 10
191.9739132452695
 20
64.81226796450268
 30
0.0
 11
191.9739132452695
 21
66.81226829232823
 31
0.0
  0
CIRCLE
  5
212
330
1F
100
AcDbEntity
  8
0
  6
Continuous
 62
     7
370
    15
100
AcDbCircle
 10
204.9739121425837
 20
68.81226803900847
 30
0.0
 40
1.025000000000005
  0
CIRCLE
  5
213
330
1F
100
AcDbEntity
  8
0
  6
Continuous
 62
     7
370
    15
100
AcDbCircle
 10
228.9739121425837
 20
68.81226803900847
 30
0.0
 40
1.025000000000005
  0
CIRCLE
  5
214
330
1F
100
AcDbEntity
  8
0
  6
Continuous
 62
     7
370
    15
100
AcDbCircle
 10
204.9739121425837
 20
95.81226803900849
 30
0.0
 40
1.025000000000005
  0
CIRCLE
  5
215
330
1F
100
AcDbEntity
  8
0
  6
Continuous
 62
     7
370
    15
100
AcDbCircle
 10
228.9739121425837
 20
95.81226803900849
 30
0.0
 40
1.025000000000005
  0
LINE
  5
216
330
1F
100
AcDbEntity
  8
0
  6
Continuous
 62
     7
370
    15
100
AcDbLine
 10
191.9739132452695
 20
97.81226778568877
 30
0.0
 11
191.9739132452695
 21
66.81226829232823
 31
0.0
  0
LINE
  5
217
330
1F
100
AcDbEntity
  8
0
  6
Continuous
 62
     7
370
    15
100
AcDbLine
 10
191.9739132452695
 20
99.81226811351429
 30
0.0
 11
239.4739121544581
 21
99.81226811351429
 31
0.0
  0
LINE
  5
218
330
1F
100
AcDbEntity
  8
0
  6
Continuous
 62
     7
370
    15
100
AcDbLine
 10
191.9739132452695
 20
97.81226778568877
 30
0.0
 11
191.9739132452695
 21
99.81226811351429
 31
0.0
  0
LINE
  5
219
330
1F
100
AcDbEntity
  8
0
  6
Continuous
 62
     7
370
    15
100
AcDbLine
 10
183.1239124465674
 20
91.81226773353468
 30
0.0
 11
183.1239124465674
 21
82.81226806275721
 31
0.0
  0
LINE
  5
21A
330
1F
100
AcDbEntity
  8
0
  6
Continuous
 62
     7
370
    15
100
AcDbLine
 10
182.6239114332884
 20
83.31226808650594
 30
0.0
 11
182.6239114332884
 21
91.3122676515783
 31
0.0
  0
LINE
  5
21B
330
1F
100
AcDbEntity
  8
0
  6
Continuous
 62
     7
370
    15
100
AcDbLine
 10
186.2239127684325
 20
72.71226758303296
 30
0.0
 11
186.2239127684325
 21
78.91226799393249
 31
0.0
  0
LINE
  5
21C
330
1F
100
AcDbEntity
  8
0
  6
Continuous
 62
     7
370
    15
100
AcDbLine
 10
186.5239103961676
 20
79.21226794997405
 30
0.0
 11
186.5239103961676
 21
72.41226809265267
 31
0.0
  0
LINE
  5
21D
330
1F
100
AcDbEntity
  8
0
  6
Continuous
 62
     7
370
    15
100
AcDbLine
 10
247.2239125225633
 20
78.91226799393249
 30
0.0
 11
247.2239125225633
 21
72.71226758303296
 31
0.0
  0
LINE
  5
21E
330
1F
100
AcDbEntity
  8
0
  6
Continuous
 62
     7
370
    15
100
AcDbLine
 10
246.9239121008605
 20
72.41226809265267
 30
0.0
 11
246.9239121008605
 21
79.21226794997405
 31
0.0
  0
LINE
  5
21F
330
1F
100
AcDbEntity
  8
0
  6
CENTERX2
 62
     7
370
     0
100
AcDbLine
 10
204.9739121425838
 20
68.81226803900836
 30
0.0
 11
228.9739121425837
 21
68.81226803900843
 31
0.0
  0
LINE
  5
220
330
1F
100
AcDbEntity
  8
0
  6
CENTERX2
 62
     7
370
     0
100
AcDbLine
 10
228.9739121425837
 20
68.81226803900843
 30
0.0
 11
228.9739121425836
 21
95.81226803900845
 31
0.0
  0
LINE
  5
221
330
1F
100
AcDbEntity
  8
0
  6
CENTERX2
 62
     7
370
     0
100
AcDbLine
 10
228.9739121425836
 20
95.81226803900845
 30
0.0
 11
204.9739121425837
 21
95.81226803900838
 31
0.0
  0
LINE
  5
222
330
1F
100
AcDbEntity
  8
0
  6
CENTERX2
 62
     7
370
     0
100
AcDbLine
 10
204.9739121425837
 20
95.81226803900838
 30
0.0
 11
204.9739121425838
 21
68.81226803900836
 31
0.0
  0
DIMENSION
  5
223
330
1F
100
AcDbEntity
  8
0
  6
Continuous
 62
     7
370
     0
100
AcDbDimension
  2
*D16
 10
191.9739121425837
 20
54.81226803900822
 30
0.0
 11
177.531551978873
 21
54.81226803900822
 31
0.0
 70
   160
 71
     2
 42
13.0
  3
STANDARD
100
AcDbAlignedDimension
 13
204.9739121425838
 23
66.27226803900838
 33
0.0
 14
191.9739121425837
 24
64.81226803900831
 34
0.0
 50
0.0000000000002036
100
AcDbRotatedDimension
1001
ACAD
1000
DSTYLE
1002
{
1070
    44
1040
0.625
1070
   141
1040
0.0
1070
   179
1070
     1
1070
   271
1070
     1
1070
   272
1070
     1
1002
}
  0
DIMENSION
  5
22E
330
1F
100
AcDbEntity
  8
0
  6
Continuous
 62
     7
370
     0
100
AcDbDimension
  2
*D17
 10
228.9739121425837
 20
54.8122680390082
 30
0.0
 11
217.5900388709345
 21
54.8122680390082
 31
0.0
 70
   160
 71
     2
 42
23.99999999999997
  3
STANDARD
100
AcDbAlignedDimension
 13
204.9739121425838
 23
66.27226803900838
 33
0.0
 14
228.9739121425837
 24
66.27226803900846
 34
0.0
100
AcDbRotatedDimension
1001
ACAD
1000
DSTYLE
1002
{
1070
    44
1040
0.625
1070
   141
1040
0.0
1070
   179
1070
     1
1070
   271
1070
     1
1070
   272
1070
     1
1002
}
  0
DIMENSION
  5
239
330
1F
100
AcDbEntity
  8
0
  6
Continuous
 62
     7
370
     0
100
AcDbDimension
  2
*D18
 10
263.2239121425838
 20
95.81226803900849
 30
0.0
 11
263.2239121425838
 21
82.3122680390087
 31
0.0
 70
   160
 71
     2
 42
27.0
  3
STANDARD
100
AcDbAlignedDimension
 13
231.5139121425837
 23
68.81226803900846
 33
0.0
 14
231.5139121425836
 24
95.81226803900849
 34
0.0
 50
90.00000000000019
100
AcDbRotatedDimension
1001
ACAD
1000
DSTYLE
1002
{
1070
    44
1040
0.625
1070
   141
1040
0.0
1070
   179
1070
     1
1070
   271
1070
     1
1070
   272
1070
     1
1002
}
  0
DIMENSION
  5
244
330
1F
100
AcDbEntity
  8
0
  6
Continuous
 62
     7
370
     0
100
AcDbDimension
  2
*D19
 10
263.2003403933148
 20
68.81226803900846
 30
0.0
 11
253.2354699976804
 21
54.81226803900852
 31
0.0
 70
   160
 71
     2
 42
3.999999999999984
  3
STANDARD
100
AcDbAlignedDimension
 13
241.9739121425838
 23
64.81226803900849
 33
0.0
 14
231.5139121425837
 24
68.81226803900846
 34
0.0
 50
90.00000000000019
100
AcDbRotatedDimension
1001
ACAD
1000
DSTYLE
1002
{
1070
    44
1040
0.625
1070
   141
1040
0.0
1070
   179
1070
     1
1070
   271
1070
     1
1070
   272
1070
     1
1002
}
  0
DIMENSION
  5
250
330
1F
100
AcDbEntity
  8
0
  6
Continuous
 62
     7
370
     0
100
AcDbDimension
  2
*D20
 10
205.6986965932999
 20
95.08748358829221
 30
0.0
 11
155.2566814998612
 21
114.6746960865934
 31
0.0
 70
   163
  1
4X\PTAPPED HOLE\PM2.5X0.45 {\fGDT|b0|i0|c0|p0;x} 5
 71
     6
 42
2.05000000000001
  3
STANDARD
100
AcDbDiametricDimension
 15
204.2491276918674
 25
96.5370524897246
 35
0.0
 40
0.0
1001
ACAD
1000
DSTYLE
1002
{
1070
    44
1040
0.625
1070
   141
1040
0.0
1070
   179
1070
     1
1070
   271
1070
     1
1070
   272
1070
     1
1002
}
  0
DIMENSION
  5
264
330
1F
100
AcDbEntity
  8
0
  6
Continuous
 62
     7
370
     0
100
AcDbDimension
  2
*D21
 10
278.3443959793935
 20
99.81226803900852
 30
0.0
 11
278.3443959793935
 21
82.65029619163234
 31
0.0
 70
   160
 71
     2
 42
35.00000000000003
  3
STANDARD
100
AcDbAlignedDimension
 13
241.9739121425838
 23
64.81226803900849
 33
0.0
 14
241.9739121425837
 24
99.81226803900852
 34
0.0
 50
90.00000000000019
100
AcDbRotatedDimension
1001
ACAD
1000
DSTYLE
1002
{
1070
    44
1040
0.625
1070
   141
1040
0.0
1070
   179
1070
     1
1070
   271
1070
     1
1070
   272
1070
     1
1002
}
  0
INSERT
  5
276
330
1F
100
AcDbEntity
  8
0
  6
Continuous
 62
     7
370
     0
100
AcDbBlockReference
  2
SW_CENTERMARKSYMBOL_4
 10
204.9739121425838
 20
68.81226803900839
 30
0.0
  0
INSERT
  5
27E
330
1F
100
AcDbEntity
  8
0
  6
Continuous
 62
     7
370
     0
100
AcDbBlockReference
  2
SW_CENTERMARKSYMBOL_5
 10
228.9739121425837
 20
68.81226803900846
 30
0.0
  0
INSERT
  5
286
330
1F
100
AcDbEntity
  8
0
  6
Continuous
 62
     7
370
     0
100
AcDbBlockReference
  2
SW_CENTERMARKSYMBOL_6
 10
228.9739121425836
 20
95.81226803900849
 30
0.0
  0
INSERT
  5
28E
330
1F
100
AcDbEntity
  8
0
  6
Continuous
 62
     7
370
     0
100
AcDbBlockReference
  2
SW_CENTERMARKSYMBOL_7
 10
204.9739121425837
 20
95.8122680390084
 30
0.0
  0
LINE
  5
28F
330
1F
100
AcDbEntity
  8
0
  6
CENTERX2
 62
     7
370
     0
100
AcDbLine
 10
180.1739121425837
 20
75.81226803900825
 30
0.0
 11
203.0739121425837
 21
75.81226803900832
 31
0.0
  0
LINE
  5
290
330
1F
100
AcDbEntity
  8
0
  6
CENTERX2
 62
     7
370
     0
100
AcDbLine
 10
203.4739121425837
 20
87.31226803900835
 30
0.0
 11
176.7739121425837
 21
87.31226803900828
 31
0.0
  0
LINE
  5
291
330
1F
100
AcDbEntity
  8
0
  6
CENTERX2
 62
     7
370
     0
100
AcDbLine
 10
253.5739121425837
 20
75.81226803900856
 30
0.0
 11
230.3739121425838
 21
75.81226803900846
 31
0.0
  0
LEADER
  5
87F
330
1F
100
AcDbEntity
  8
0
100
AcDbLeader
  3
STANDARD
 73
     0
 40
10.87676216462028
 41
59.68894952251023
 76
     3
 10
91.11574744585405
 20
185.3060240976534
 30
0.0
 10
76.18646998169173
 20
211.750327990484
 30
0.0
 10
70.3870920524821
 20
211.750327990484
 30
0.0
340
880
213
0.0
223
2.0
233
0.0
1001
ACAD
1000
DSTYLE
1002
{
1070
    44
1040
0.625
1070
   141
1040
0.0
1070
   179
1070
     1
1070
   271
1070
     1
1070
   272
1070
     1
1002
}
  0
MTEXT
  5
880
102
{ACAD_REACTORS
330
87F
102
}
330
1F
100
AcDbEntity
  8
0
100
AcDbMText
 10
69.1370920524821
 20
209.750327990484
 30
0.0
 40
4.0
 41
0.0
 71
     6
 72
     1
  1
SIGNAL OUT\PLEMO EPL-00-250-NTN
  7
Arial
 73
     1
 44
1.0
1001
ACAD
1000
MTEXTBEGIN
1070
    73
1070
     1
1070
    44
1040
1.0
1070
    74
1070
     0
1000
MTEXTEND
  0
LEADER
  5
884
330
1F
100
AcDbEntity
  8
0
100
AcDbLeader
  3
STANDARD
 73
     0
 40
10.87949067758072
 41
61.24147339699863
 76
     3
 10
105.923317174317
 20
189.696389975934
 30
0.0
 10
119.6016579197378
 20
211.750327990484
 30
0.0
 10
125.5716039694196
 20
211.750327990484
 30
0.0
340
885
213
0.0
223
-2.0
233
0.0
1001
ACAD
1000
DSTYLE
1002
{
1070
    44
1040
0.625
1070
   141
1040
0.0
1070
   179
1070
     1
1070
   271
1070
     1
1070
   272
1070
     1
1002
}
  0
MTEXT
  5
885
102
{ACAD_REACTORS
330
884
102
}
330
1F
100
AcDbEntity
  8
0
100
AcDbMText
 10
126.8216039694196
 20
213.750327990484
 30
0.0
 40
4.0
 41
0.0
 71
     1
 72
     1
  1
POWER\PLEMO EPG-0B-304-HLN
  7
Arial
 73
     1
 44
1.0
1001
ACAD
1000
MTEXTBEGIN
1070
    73
1070
     1
1070
    44
1040
1.0
1070
    74
1070
     0
1000
MTEXTEND
  0
LEADER
  5
88F
330
1F
100
AcDbEntity
  8
0
100
AcDbLeader
  3
STANDARD
 73
     0
 40
10.87403365165984
 41
59.68894952251023
 76
     3
 10
324.7319074077631
 20
185.0737858745274
 30
0.0
 10
338.3076132026888
 20
211.7045658901846
 30
0.0
 10
343.8764112396955
 20
211.7045658901846
 30
0.0
340
890
213
0.0
223
-2.0
233
0.0
1001
ACAD
1000
DSTYLE
1002
{
1070
    44
1040
0.625
1070
   141
1040
0.0
1070
   179
1070
     1
1070
   271
1070
     1
1070
   272
1070
     1
1002
}
  0
MTEXT
  5
890
102
{ACAD_REACTORS
330
88F
102
}
330
1F
100
AcDbEntity
  8
0
100
AcDbMText
 10
345.1264112396955
 20
213.7045658901846
 30
0.0
 40
4.0
 41
0.0
 71
     1
 72
     1
  1
SIGNAL IN\PLEMO EPL-00-250-NTN
  7
Arial
 73
     1
 44
1.0
1001
ACAD
1000
MTEXTBEGIN
1070
    73
1070
     1
1070
    44
1040
1.0
1070
    74
1070
     0
1000
MTEXTEND
  0
LEADER
  5
89E
330
1F
100
AcDbEntity
  8
0
100
AcDbLeader
  3
STANDARD
 73
     0
 40
4.139154160982264
 41
47.18963165075034
 76
     3
 10
306.3743275908459
 20
182.7867197703099
 30
0.0
 10
292.7442901510999
 20
211.6364555228379
 30
0.0
 10
287.4062333101956
 20
211.6364555228379
 30
0.0
340
89F
213
0.0
223
2.0
233
0.0
1001
ACAD
1000
DSTYLE
1002
{
1070
    44
1040
0.625
1070
   141
1040
0.0
1070
   179
1070
     1
1070
   271
1070
     1
1070
   272
1070
     1
1002
}
  0
MTEXT
  5
89F
102
{ACAD_REACTORS
330
89E
102
}
330
1F
100
AcDbEntity
  8
0
100
AcDbMText
 10
286.1562333101956
 20
209.6364555228379
 30
0.0
 40
4.0
 41
0.0
 71
     9
 72
     1
  1
"POWER-ON" LED
  7
Arial
 73
     1
 44
1.0
1001
ACAD
1000
MTEXTBEGIN
1070
    73
1070
     1
1070
    44
1040
1.0
1070
    74
1070
     0
1000
MTEXTEND
  0
DIMENSION
  5
AAB
330
1F
100
AcDbEntity
  8
0
100
AcDbDimension
  2
*D26
 10
247.2239125225633
 20
142.1551318671603
 30
0.0
 11
214.9239119779259
 21
142.1551318671603
 31
0.0
 70
    32
 71
     5
 42
64.60000108927488
  3
STANDARD
100
AcDbAlignedDimension
 13
182.6239114332884
 23
181.2060240775369
 33
0.0
 14
247.2239125225633
 24
178.7060241334162
 34
0.0
100
AcDbRotatedDimension
1001
ACAD
1000
DSTYLE
1002
{
1070
    44
1040
0.625
1070
   141
1040
0.0
1070
   179
1070
     1
1070
   271
1070
     1
1070
   272
1070
     1
1002
}
  0
DIMENSION
  5
AB9
330
1F
100
AcDbEntity
  8
0
100
AcDbDimension
  2
*D27
 10
182.6239114332884
 20
155.2566801482875
 30
0.0
 11
167.7408964264671
 21
155.2566801482875
 31
0.0
 70
    32
 71
     5
 42
9.350001811981199
  3
STANDARD
100
AcDbAlignedDimension
 13
191.9739132452695
 23
169.7185238011203
 33
0.0
 14
182.6239114332884
 24
181.2060240775369
 34
0.0
100
AcDbRotatedDimension
1001
ACAD
1000
DSTYLE
1002
{
1070
    44
1040
0.625
1070
   141
1040
0.0
1070
   179
1070
     1
1070
   271
1070
     1
1070
   272
1070
     1
1002
}
  0
ENDSEC
  0
SECTION
  2
OBJECTS
  0
DICTIONARY
  5
C
330
0
100
AcDbDictionary
281
     1
  3
ACAD_COLOR
350
2B6
  3
ACAD_GROUP
350
D
  3
ACAD_LAYOUT
350
1A
  3
ACAD_MATERIAL
350
2B5
  3
ACAD_MLINESTYLE
350
17
  3
ACAD_PLOTSETTINGS
350
19
  3
ACAD_PLOTSTYLENAME
350
E
  3
ACAD_SCALELIST
350
292
  3
ACAD_TABLESTYLE
350
2B7
  3
AcadDim
350
89D
  3
ACDBHEADERROUNDTRIPXREC
350
B10
  3
AcDbVariableDictionary
350
882
  0
DICTIONARY
  5
87C
330
1F
100
AcDbDictionary
280
     1
281
     1
  3
ACAD_SORTENTS
360
87D
  0
DICTIONARY
  5
2B6
102
{ACAD_REACTORS
330
C
102
}
330
C
100
AcDbDictionary
281
     1
  0
DICTIONARY
  5
D
102
{ACAD_REACTORS
330
C
102
}
330
C
100
AcDbDictionary
281
     1
  0
DICTIONARY
  5
1A
102
{ACAD_REACTORS
330
C
102
}
330
C
100
AcDbDictionary
281
     1
  3
Layout1
350
1E
  3
Layout2
350
26
  3
Model
350
22
  0
DICTIONARY
  5
2B5
102
{ACAD_REACTORS
330
C
102
}
330
C
100
AcDbDictionary
281
     1
  0
DICTIONARY
  5
17
102
{ACAD_REACTORS
330
C
102
}
330
C
100
AcDbDictionary
281
     1
  3
Standard
350
18
  0
DICTIONARY
  5
19
102
{ACAD_REACTORS
330
C
102
}
330
C
100
AcDbDictionary
281
     1
  0
ACDBDICTIONARYWDFLT
  5
E
102
{ACAD_REACTORS
330
C
102
}
330
C
100
AcDbDictionary
281
     1
  3
Normal
350
F
100
AcDbDictionaryWithDefault
340
F
  0
DICTIONARY
  5
292
102
{ACAD_REACTORS
330
C
102
}
330
C
100
AcDbDictionary
281
     1
  3
A0
350
293
  3
A1
350
294
  3
A2
350
295
  3
A3
350
296
  3
A4
350
297
  3
A5
350
298
  3
A6
350
299
  3
A7
350
29A
  3
A8
350
29B
  3
A9
350
29C
  3
B0
350
29D
  3
B1
350
29E
  3
B2
350
29F
  3
B3
350
2A0
  3
B4
350
2A1
  3
B5
350
2A2
  3
B6
350
2A3
  3
B7
350
2A4
  3
B8
350
2A5
  3
B9
350
2A6
  3
C0
350
2A7
  3
C1
350
2A8
  3
C2
350
2A9
  3
C3
350
2AA
  3
C4
350
2AB
  3
C5
350
2AC
  3
C6
350
2AD
  3
C7
350
2AE
  3
C8
350
2AF
  3
C9
350
2B0
  3
D0
350
2B1
  3
D1
350
2B2
  3
D2
350
2B3
  0
DICTIONARY
  5
2B7
102
{ACAD_REACTORS
330
C
102
}
330
C
100
AcDbDictionary
281
     1
  3
Standard
350
2B8
  0
XRECORD
  5
89D
102
{ACAD_REACTORS
330
C
102
}
330
C
100
AcDbXrecord
280
     1
 90
   990106
  3

 60
     0
 61
     0
 62
     1
 63
     3
 64
     0
 65
     0
 66
     0
 67
     3
 68
     1
 69
     0
 70
     0
 71
     0
 72
     0
 40
0.0
170
     0
340
89F
  0
DICTIONARY
  5
B10
102
{ACAD_REACTORS
330
C
102
}
330
C
100
AcDbDictionary
281
     1
  0
DICTIONARY
  5
882
102
{ACAD_REACTORS
330
C
102
}
330
C
100
AcDbDictionary
281
     1
  3
CTABLESTYLE
350
883
  3
DIMASSOC
350
AFE
  3
PROJECTNAME
350
AFF
  0
SORTENTSTABLE
  5
87D
102
{ACAD_REACTORS
330
87C
102
}
330
87C
100
AcDbSortentsTable
330
1F
331
FE
  5
FE
331
44
  5
44
331
AC
  5
AC
331
1CE
  5
1CE
331
1A1
  5
1A1
331
11B
  5
11B
331
16A
  5
16A
331
4D
  5
4D
331
8C
  5
8C
331
201
  5
201
331
94
  5
94
331
123
  5
123
331
55
  5
55
331
172
  5
172
331
17A
  5
17A
331
209
  5
209
331
5D
  5
5D
331
9C
  5
9C
331
12B
  5
12B
331
182
  5
182
331
65
  5
65
331
A4
  5
A4
331
211
  5
211
331
1FE
  5
1FE
331
276
  5
276
331
884
  5
884
331
14B
  5
14B
331
18A
  5
18A
331
6D
  5
6D
331
104
  5
104
331
219
  5
219
331
291
  5
291
331
10C
  5
10C
331
153
  5
153
331
75
  5
75
331
192
  5
192
331
19A
  5
19A
331
7D
  5
7D
331
114
  5
114
331
15B
  5
15B
331
85
  5
85
331
163
  5
163
331
27E
  5
27E
331
FF
  5
FF
331
286
  5
286
331
28E
  5
28E
331
45
  5
45
331
264
  5
264
331
AD
  5
AD
331
16B
  5
16B
331
1A2
  5
1A2
331
4E
  5
4E
331
8D
  5
8D
331
11C
  5
11C
331
124
  5
124
331
173
  5
173
331
56
  5
56
331
95
  5
95
331
202
  5
202
331
20A
  5
20A
331
12C
  5
12C
331
17B
  5
17B
331
5E
  5
5E
331
9D
  5
9D
331
212
  5
212
331
A5
  5
A5
331
66
  5
66
331
183
  5
183
331
1FF
  5
1FF
331
1B7
  5
1B7
331
885
  5
885
331
18B
  5
18B
331
21A
  5
21A
331
6E
  5
6E
331
105
  5
105
331
14C
  5
14C
331
154
  5
154
331
193
  5
193
331
76
  5
76
331
10D
  5
10D
331
15C
  5
15C
331
19B
  5
19B
331
7E
  5
7E
331
115
  5
115
331
164
  5
164
331
86
  5
86
331
220
  5
220
331
28F
  5
28F
331
46
  5
46
331
C7
  5
C7
331
AE
  5
AE
331
1A3
  5
1A3
331
8E
  5
8E
331
11D
  5
11D
331
4F
  5
4F
331
16C
  5
16C
331
203
  5
203
331
96
  5
96
331
125
  5
125
331
57
  5
57
331
174
  5
174
331
17C
  5
17C
331
20B
  5
20B
331
5F
  5
5F
331
9E
  5
9E
331
12D
  5
12D
331
184
  5
184
331
67
  5
67
331
A6
  5
A6
331
213
  5
213
331
1A8
  5
1A8
331
239
  5
239
331
130
  5
130
331
21B
  5
21B
331
14D
  5
14D
331
18C
  5
18C
331
6F
  5
6F
331
106
  5
106
331
10E
  5
10E
331
155
  5
155
331
77
  5
77
331
194
  5
194
331
19C
  5
19C
331
7F
  5
7F
331
116
  5
116
331
15D
  5
15D
331
165
  5
165
331
87
  5
87
331
221
  5
221
331
47
  5
47
331
1D9
  5
1D9
331
48
  5
48
331
16D
  5
16D
331
1A4
  5
1A4
331
50
  5
50
331
8F
  5
8F
331
11E
  5
11E
331
126
  5
126
331
175
  5
175
331
58
  5
58
331
97
  5
97
331
204
  5
204
331
20C
  5
20C
331
9F
  5
9F
331
12E
  5
12E
331
60
  5
60
331
17D
  5
17D
331
214
  5
214
331
A7
  5
A7
331
185
  5
185
331
1A9
  5
1A9
331
68
  5
68
331
18D
  5
18D
331
21C
  5
21C
331
70
  5
70
331
107
  5
107
331
14E
  5
14E
331
156
  5
156
331
195
  5
195
331
78
  5
78
331
10F
  5
10F
331
15E
  5
15E
331
19D
  5
19D
331
80
  5
80
331
117
  5
117
331
166
  5
166
331
222
  5
222
331
87F
  5
87F
331
A8
  5
A8
331
49
  5
49
331
88
  5
88
331
1A5
  5
1A5
331
90
  5
90
331
11F
  5
11F
331
51
  5
51
331
16E
  5
16E
331
176
  5
176
331
205
  5
205
331
98
  5
98
331
127
  5
127
331
59
  5
59
331
17E
  5
17E
331
20D
  5
20D
331
61
  5
61
331
A0
  5
A0
331
12F
  5
12F
331
147
  5
147
331
186
  5
186
331
215
  5
215
331
F3
  5
F3
331
1AA
  5
1AA
331
880
  5
880
331
69
  5
69
331
100
  5
100
331
21D
  5
21D
331
108
  5
108
331
14F
  5
14F
331
71
  5
71
331
18E
  5
18E
331
110
  5
110
331
157
  5
157
331
79
  5
79
331
196
  5
196
331
19E
  5
19E
331
81
  5
81
331
15F
  5
15F
331
167
  5
167
331
FB
  5
FB
331
223
  5
223
331
D2
  5
D2
331
1F3
  5
1F3
331
A9
  5
A9
331
250
  5
250
331
1C3
  5
1C3
331
4A
  5
4A
331
89
  5
89
331
118
  5
118
331
16F
  5
16F
331
1A6
  5
1A6
331
52
  5
52
331
91
  5
91
331
120
  5
120
331
128
  5
128
331
177
  5
177
331
5A
  5
5A
331
99
  5
99
331
206
  5
206
331
20E
  5
20E
331
A1
  5
A1
331
62
  5
62
331
17F
  5
17F
331
187
  5
187
331
216
  5
216
331
1FB
  5
1FB
331
244
  5
244
331
1AB
  5
1AB
331
101
  5
101
331
148
  5
148
331
6A
  5
6A
331
18F
  5
18F
331
21E
  5
21E
331
72
  5
72
331
109
  5
109
331
150
  5
150
331
158
  5
158
331
197
  5
197
331
7A
  5
7A
331
111
  5
111
331
160
  5
160
331
82
  5
82
331
19F
  5
19F
331
FC
  5
FC
331
BB
  5
BB
331
AA
  5
AA
331
119
  5
119
331
168
  5
168
331
4B
  5
4B
331
8A
  5
8A
331
1A7
  5
1A7
331
92
  5
92
331
121
  5
121
331
53
  5
53
331
170
  5
170
331
178
  5
178
331
207
  5
207
331
5B
  5
5B
331
9A
  5
9A
331
129
  5
129
331
180
  5
180
331
63
  5
63
331
A2
  5
A2
331
20F
  5
20F
331
217
  5
217
331
1FC
  5
1FC
331
1AC
  5
1AC
331
13C
  5
13C
331
149
  5
149
331
188
  5
188
331
6B
  5
6B
331
102
  5
102
331
21F
  5
21F
331
10A
  5
10A
331
151
  5
151
331
73
  5
73
331
190
  5
190
331
198
  5
198
331
112
  5
112
331
159
  5
159
331
7B
  5
7B
331
83
  5
83
331
161
  5
161
331
FD
  5
FD
331
AB
  5
AB
331
169
  5
169
331
1A0
  5
1A0
331
4C
  5
4C
331
8B
  5
8B
331
11A
  5
11A
331
122
  5
122
331
171
  5
171
331
54
  5
54
331
93
  5
93
331
200
  5
200
331
12A
  5
12A
331
179
  5
179
331
5C
  5
5C
331
9B
  5
9B
331
208
  5
208
331
210
  5
210
331
A3
  5
A3
331
64
  5
64
331
181
  5
181
331
1FD
  5
1FD
331
22E
  5
22E
331
189
  5
189
331
218
  5
218
331
6C
  5
6C
331
103
  5
103
331
14A
  5
14A
331
191
  5
191
331
290
  5
290
331
74
  5
74
331
10B
  5
10B
331
152
  5
152
331
15A
  5
15A
331
199
  5
199
331
7C
  5
7C
331
113
  5
113
331
162
  5
162
331
84
  5
84
  0
LAYOUT
  5
1E
102
{ACAD_XDICTIONARY
360
B11
102
}
102
{ACAD_REACTORS
330
1A
102
}
330
1A
100
AcDbPlotSettings
  1

  2
none_device
  4

  6

 40
0.0
 41
0.0
 42
0.0
 43
0.0
 44
0.0
 45
0.0
 46
0.0
 47
0.0
 48
0.0
 49
0.0
140
0.0
141
0.0
142
1.0
143
1.0
 70
   688
 72
     0
 73
     0
 74
     5
  7

 75
    16
147
1.0
148
0.0
149
0.0
100
AcDbLayout
  1
Layout1
 70
     1
 71
     1
 10
0.0
 20
0.0
 11
420.0
 21
297.0
 12
0.0
 22
0.0
 32
0.0
 14
1.000000000000000E+20
 24
1.000000000000000E+20
 34
1.000000000000000E+20
 15
-1.000000000000000E+20
 25
-1.000000000000000E+20
 35
-1.000000000000000E+20
146
0.0
 13
0.0
 23
0.0
 33
0.0
 16
1.0
 26
0.0
 36
0.0
 17
0.0
 27
1.0
 37
0.0
 76
     0
330
1B
  0
LAYOUT
  5
26
102
{ACAD_XDICTIONARY
360
B15
102
}
102
{ACAD_REACTORS
330
1A
102
}
330
1A
100
AcDbPlotSettings
  1

  2
none_device
  4

  6

 40
0.0
 41
0.0
 42
0.0
 43
0.0
 44
0.0
 45
0.0
 46
0.0
 47
0.0
 48
0.0
 49
0.0
140
0.0
141
0.0
142
1.0
143
1.0
 70
   688
 72
     0
 73
     0
 74
     5
  7

 75
    16
147
1.0
148
0.0
149
0.0
100
AcDbLayout
  1
Layout2
 70
     1
 71
     2
 10
0.0
 20
0.0
 11
0.0
 21
0.0
 12
0.0
 22
0.0
 32
0.0
 14
0.0
 24
0.0
 34
0.0
 15
0.0
 25
0.0
 35
0.0
146
0.0
 13
0.0
 23
0.0
 33
0.0
 16
1.0
 26
0.0
 36
0.0
 17
0.0
 27
1.0
 37
0.0
 76
     0
330
23
  0
LAYOUT
  5
22
102
{ACAD_XDICTIONARY
360
B13
102
}
102
{ACAD_REACTORS
330
1A
102
}
330
1A
100
AcDbPlotSettings
  1

  2
none_device
  4

  6

 40
0.0
 41
0.0
 42
0.0
 43
0.0
 44
0.0
 45
0.0
 46
0.0
 47
0.0
 48
0.0
 49
0.0
140
0.0
141
0.0
142
1.0
143
1.0
 70
  1712
 72
     0
 73
     0
 74
     0
  7

 75
     0
147
1.0
148
0.0
149
0.0
100
AcDbLayout
  1
Model
 70
     1
 71
     0
 10
0.0
 20
0.0
 11
431.7999999999998
 21
279.4
 12
0.0
 22
0.0
 32
0.0
 14
0.0
 24
0.0
 34
0.0
 15
431.7999999999998
 25
279.4
 35
0.0
146
0.0
 13
0.0
 23
0.0
 33
0.0
 16
1.0
 26
0.0
 36
0.0
 17
0.0
 27
1.0
 37
0.0
 76
     0
330
1F
  0
MLINESTYLE
  5
18
102
{ACAD_REACTORS
330
17
102
}
330
17
100
AcDbMlineStyle
  2
STANDARD
 70
     0
  3

 62
   256
 51
90.0
 52
90.0
 71
     2
 49
0.5
 62
   256
  6
BYLAYER
 49
-0.5
 62
   256
  6
BYLAYER
  0
ACDBPLACEHOLDER
  5
F
102
{ACAD_REACTORS
330
E
102
}
330
E
  0
ACAD_PROXY_OBJECT
  5
293
102
{ACAD_REACTORS
330
292
102
}
330
292
100
AcDbProxyObject
 90
      499
 91
      505
 95
   393239
 70
     0
 93
       41
310
903313A31580
 94
        0
1001
ACAD
1000
AcRTDxfName
1000
SCALE
1000
AcRTDxfName
1000
SCALE
  0
ACAD_PROXY_OBJECT
  5
294
102
{ACAD_REACTORS
330
292
102
}
330
292
100
AcDbProxyObject
 90
      499
 91
      505
 95
   393239
 70
     0
 93
      105
310
903313A324000000000000004048
 94
        0
1001
ACAD
1000
AcRTDxfName
1000
SCALE
1000
AcRTDxfName
1000
SCALE
  0
ACAD_PROXY_OBJECT
  5
295
102
{ACAD_REACTORS
330
292
102
}
330
292
100
AcDbProxyObject
 90
      499
 91
      505
 95
   393239
 70
     0
 93
      105
310
903313A344000000000000104048
 94
        0
1001
ACAD
1000
AcRTDxfName
1000
SCALE
1000
AcRTDxfName
1000
SCALE
  0
ACAD_PROXY_OBJECT
  5
296
102
{ACAD_REACTORS
330
292
102
}
330
292
100
AcDbProxyObject
 90
      499
 91
      505
 95
   393239
 70
     0
 93
      105
310
903313A354000000000000144048
 94
        0
1001
ACAD
1000
AcRTDxfName
1000
SCALE
1000
AcRTDxfName
1000
SCALE
  0
ACAD_PROXY_OBJECT
  5
297
102
{ACAD_REACTORS
330
292
102
}
330
292
100
AcDbProxyObject
 90
      499
 91
      505
 95
   393239
 70
     0
 93
      105
310
903313A384000000000000204048
 94
        0
1001
ACAD
1000
AcRTDxfName
1000
SCALE
1000
AcRTDxfName
1000
SCALE
  0
ACAD_PROXY_OBJECT
  5
298
102
{ACAD_REACTORS
330
292
102
}
330
292
100
AcDbProxyObject
 90
      499
 91
      505
 95
   393239
 70
     0
 93
      113
310
904313A31304000000000000244000
 94
        0
1001
ACAD
1000
AcRTDxfName
1000
SCALE
1000
AcRTDxfName
1000
SCALE
  0
ACAD_PROXY_OBJECT
  5
299
102
{ACAD_REACTORS
330
292
102
}
330
292
100
AcDbProxyObject
 90
      499
 91
      505
 95
   393239
 70
     0
 93
      113
310
904313A31364000000000000304000
 94
        0
1001
ACAD
1000
AcRTDxfName
1000
SCALE
1000
AcRTDxfName
1000
SCALE
  0
ACAD_PROXY_OBJECT
  5
29A
102
{ACAD_REACTORS
330
292
102
}
330
292
100
AcDbProxyObject
 90
      499
 91
      505
 95
   393239
 70
     0
 93
      113
310
904313A32304000000000000344000
 94
        0
1001
ACAD
1000
AcRTDxfName
1000
SCALE
1000
AcRTDxfName
1000
SCALE
  0
ACAD_PROXY_OBJECT
  5
29B
102
{ACAD_REACTORS
330
292
102
}
330
292
100
AcDbProxyObject
 90
      499
 91
      505
 95
   393239
 70
     0
 93
      113
310
904313A333040000000000003E4000
 94
        0
1001
ACAD
1000
AcRTDxfName
1000
SCALE
1000
AcRTDxfName
1000
SCALE
  0
ACAD_PROXY_OBJECT
  5
29C
102
{ACAD_REACTORS
330
292
102
}
330
292
100
AcDbProxyObject
 90
      499
 91
      505
 95
   393239
 70
     0
 93
      113
310
904313A34304000000000000444000
 94
        0
1001
ACAD
1000
AcRTDxfName
1000
SCALE
1000
AcRTDxfName
1000
SCALE
  0
ACAD_PROXY_OBJECT
  5
29D
102
{ACAD_REACTORS
330
292
102
}
330
292
100
AcDbProxyObject
 90
      499
 91
      505
 95
   393239
 70
     0
 93
      113
310
904313A35304000000000000494000
 94
        0
1001
ACAD
1000
AcRTDxfName
1000
SCALE
1000
AcRTDxfName
1000
SCALE
  0
ACAD_PROXY_OBJECT
  5
29E
102
{ACAD_REACTORS
330
292
102
}
330
292
100
AcDbProxyObject
 90
      499
 91
      505
 95
   393239
 70
     0
 93
      121
310
905313A313030400000000000059402C
 94
        0
1001
ACAD
1000
AcRTDxfName
1000
SCALE
1000
AcRTDxfName
1000
SCALE
  0
ACAD_PROXY_OBJECT
  5
29F
102
{ACAD_REACTORS
330
292
102
}
330
292
100
AcDbProxyObject
 90
      499
 91
      505
 95
   393239
 70
     0
 93
      105
310
903323A310000000000000010148
 94
        0
1001
ACAD
1000
AcRTDxfName
1000
SCALE
1000
AcRTDxfName
1000
SCALE
  0
ACAD_PROXY_OBJECT
  5
2A0
102
{ACAD_REACTORS
330
292
102
}
330
292
100
AcDbProxyObject
 90
      499
 91
      505
 95
   393239
 70
     0
 93
      105
310
903343A310000000000000410148
 94
        0
1001
ACAD
1000
AcRTDxfName
1000
SCALE
1000
AcRTDxfName
1000
SCALE
  0
ACAD_PROXY_OBJECT
  5
2A1
102
{ACAD_REACTORS
330
292
102
}
330
292
100
AcDbProxyObject
 90
      499
 91
      505
 95
   393239
 70
     0
 93
      105
310
903383A310000000000000810148
 94
        0
1001
ACAD
1000
AcRTDxfName
1000
SCALE
1000
AcRTDxfName
1000
SCALE
  0
ACAD_PROXY_OBJECT
  5
2A2
102
{ACAD_REACTORS
330
292
102
}
330
292
100
AcDbProxyObject
 90
      499
 91
      505
 95
   393239
 70
     0
 93
      113
310
90431303A310000000000000910100
 94
        0
1001
ACAD
1000
AcRTDxfName
1000
SCALE
1000
AcRTDxfName
1000
SCALE
  0
ACAD_PROXY_OBJECT
  5
2A3
102
{ACAD_REACTORS
330
292
102
}
330
292
100
AcDbProxyObject
 90
      499
 91
      505
 95
   393239
 70
     0
 93
      121
310
9053130303A31000000000000165012C
 94
        0
1001
ACAD
1000
AcRTDxfName
1000
SCALE
1000
AcRTDxfName
1000
SCALE
  0
ACAD_PROXY_OBJECT
  5
2A4
102
{ACAD_REACTORS
330
292
102
}
330
292
100
AcDbProxyObject
 90
      499
 91
      505
 95
   393239
 70
     0
 93
      257
310
90E312F31323822203D2031272D3022000000000000200FC000000000000284079
 94
        0
1001
ACAD
1000
AcRTDxfName
1000
SCALE
1000
AcRTDxfName
1000
SCALE
  0
ACAD_PROXY_OBJECT
  5
2A5
102
{ACAD_REACTORS
330
292
102
}
330
292
100
AcDbProxyObject
 90
      499
 91
      505
 95
   393239
 70
     0
 93
      249
310
90D312F363422203D2031272D3022000000000000240FC000000000000284000
 94
        0
1001
ACAD
1000
AcRTDxfName
1000
SCALE
1000
AcRTDxfName
1000
SCALE
  0
ACAD_PROXY_OBJECT
  5
2A6
102
{ACAD_REACTORS
330
292
102
}
330
292
100
AcDbProxyObject
 90
      499
 91
      505
 95
   393239
 70
     0
 93
      249
310
90D312F333222203D2031272D3022000000000000280FC000000000000284000
 94
        0
1001
ACAD
1000
AcRTDxfName
1000
SCALE
1000
AcRTDxfName
1000
SCALE
  0
ACAD_PROXY_OBJECT
  5
2A7
102
{ACAD_REACTORS
330
292
102
}
330
292
100
AcDbProxyObject
 90
      499
 91
      505
 95
   393239
 70
     0
 93
      249
310
90D312F313622203D2031272D30220000000000002C0FC000000000000284000
 94
        0
1001
ACAD
1000
AcRTDxfName
1000
SCALE
1000
AcRTDxfName
1000
SCALE
  0
ACAD_PROXY_OBJECT
  5
2A8
102
{ACAD_REACTORS
330
292
102
}
330
292
100
AcDbProxyObject
 90
      499
 91
      505
 95
   393239
 70
     0
 93
      249
310
90D332F333222203D2031272D30220000000000002E0FC000000000000284000
 94
        0
1001
ACAD
1000
AcRTDxfName
1000
SCALE
1000
AcRTDxfName
1000
SCALE
  0
ACAD_PROXY_OBJECT
  5
2A9
102
{ACAD_REACTORS
330
292
102
}
330
292
100
AcDbProxyObject
 90
      499
 91
      505
 95
   393239
 70
     0
 93
      241
310
90C312F3822203D2031272D3022000000000000300FC000000000000284014
 94
        0
1001
ACAD
1000
AcRTDxfName
1000
SCALE
1000
AcRTDxfName
1000
SCALE
  0
ACAD_PROXY_OBJECT
  5
2AA
102
{ACAD_REACTORS
330
292
102
}
330
292
100
AcDbProxyObject
 90
      499
 91
      505
 95
   393239
 70
     0
 93
      249
310
90D332F313622203D2031272D3022000000000000320FC000000000000284000
 94
        0
1001
ACAD
1000
AcRTDxfName
1000
SCALE
1000
AcRTDxfName
1000
SCALE
  0
ACAD_PROXY_OBJECT
  5
2AB
102
{ACAD_REACTORS
330
292
102
}
330
292
100
AcDbProxyObject
 90
      499
 91
      505
 95
   393239
 70
     0
 93
      241
310
90C312F3422203D2031272D3022000000000000340FC000000000000284014
 94
        0
1001
ACAD
1000
AcRTDxfName
1000
SCALE
1000
AcRTDxfName
1000
SCALE
  0
ACAD_PROXY_OBJECT
  5
2AC
102
{ACAD_REACTORS
330
292
102
}
330
292
100
AcDbProxyObject
 90
      499
 91
      505
 95
   393239
 70
     0
 93
      241
310
90C332F3822203D2031272D3022000000000000360FC000000000000284014
 94
        0
1001
ACAD
1000
AcRTDxfName
1000
SCALE
1000
AcRTDxfName
1000
SCALE
  0
ACAD_PROXY_OBJECT
  5
2AD
102
{ACAD_REACTORS
330
292
102
}
330
292
100
AcDbProxyObject
 90
      499
 91
      505
 95
   393239
 70
     0
 93
      241
310
90C312F3222203D2031272D3022000000000000380FC000000000000284014
 94
        0
1001
ACAD
1000
AcRTDxfName
1000
SCALE
1000
AcRTDxfName
1000
SCALE
  0
ACAD_PROXY_OBJECT
  5
2AE
102
{ACAD_REACTORS
330
292
102
}
330
292
100
AcDbProxyObject
 90
      499
 91
      505
 95
   393239
 70
     0
 93
      241
310
90C332F3422203D2031272D30220000000000003A0FC000000000000284014
 94
        0
1001
ACAD
1000
AcRTDxfName
1000
SCALE
1000
AcRTDxfName
1000
SCALE
  0
ACAD_PROXY_OBJECT
  5
2AF
102
{ACAD_REACTORS
330
292
102
}
330
292
100
AcDbProxyObject
 90
      499
 91
      505
 95
   393239
 70
     0
 93
      161
310
90A3122203D2031272D30224000000000000284049
 94
        0
1001
ACAD
1000
AcRTDxfName
1000
SCALE
1000
AcRTDxfName
1000
SCALE
  0
ACAD_PROXY_OBJECT
  5
2B0
102
{ACAD_REACTORS
330
292
102
}
330
292
100
AcDbProxyObject
 90
      499
 91
      505
 95
   393239
 70
     0
 93
      257
310
90E312D312F3222203D2031272D30220000000000003E0FC000000000000284079
 94
        0
1001
ACAD
1000
AcRTDxfName
1000
SCALE
1000
AcRTDxfName
1000
SCALE
  0
ACAD_PROXY_OBJECT
  5
2B1
102
{ACAD_REACTORS
330
292
102
}
330
292
100
AcDbProxyObject
 90
      499
 91
      505
 95
   393239
 70
     0
 93
      225
310
90A3322203D2031272D302200000000000002100000000000000284014
 94
        0
1001
ACAD
1000
AcRTDxfName
1000
SCALE
1000
AcRTDxfName
1000
SCALE
  0
ACAD_PROXY_OBJECT
  5
2B2
102
{ACAD_REACTORS
330
292
102
}
330
292
100
AcDbProxyObject
 90
      499
 91
      505
 95
   393239
 70
     0
 93
      225
310
90A3622203D2031272D302200000000000006100000000000000284014
 94
        0
1001
ACAD
1000
AcRTDxfName
1000
SCALE
1000
AcRTDxfName
1000
SCALE
  0
ACAD_PROXY_OBJECT
  5
2B3
102
{ACAD_REACTORS
330
292
102
}
330
292
100
AcDbProxyObject
 90
      499
 91
      505
 95
   393239
 70
     0
 93
      249
310
90D31272D3022203D2031272D30220000000000000A100000000000000284000
 94
        0
1001
ACAD
1000
AcRTDxfName
1000
SCALE
1000
AcRTDxfName
1000
SCALE
  0
TABLESTYLE
  5
2B8
102
{ACAD_REACTORS
330
2B7
102
}
330
2B7
100
AcDbTableStyle
  3
Standard
 70
     0
 71
     0
 40
1.5
 41
1.5
280
     0
281
     0
  7
Standard
140
4.5
170
     2
 62
     0
 63
     7
283
     0
274
    -2
284
     1
 64
     0
275
    -2
285
     1
 65
     0
276
    -2
286
     1
 66
     0
277
    -2
287
     1
 67
     0
278
    -2
288
     1
 68
     0
279
    -2
289
     1
 69
     0
  7
Standard
140
6.0
170
     5
 62
     0
 63
     7
283
     0
274
    -2
284
     1
 64
     0
275
    -2
285
     1
 65
     0
276
    -2
286
     1
 66
     0
277
    -2
287
     1
 67
     0
278
    -2
288
     1
 68
     0
279
    -2
289
     1
 69
     0
  7
Standard
140
4.5
170
     5
 62
     0
 63
     7
283
     0
274
    -2
284
     1
 64
     0
275
    -2
285
     1
 65
     0
276
    -2
286
     1
 66
     0
277
    -2
287
     1
 67
     0
278
    -2
288
     1
 68
     0
279
    -2
289
     1
 69
     0
  0
DICTIONARYVAR
  5
883
102
{ACAD_REACTORS
330
882
102
}
330
882
100
DictionaryVariables
280
     0
  1
STANDARD
  0
DICTIONARYVAR
  5
AFE
102
{ACAD_REACTORS
330
882
102
}
330
882
100
DictionaryVariables
280
     0
  1
1
  0
DICTIONARYVAR
  5
AFF
102
{ACAD_REACTORS
330
882
102
}
330
882
100
DictionaryVariables
280
     0
  1

  0
DICTIONARY
  5
B11
330
1E
100
AcDbDictionary
280
     1
281
     1
  3
ACAD_XREC_ROUNDTRIP
360
B12
  0
DICTIONARY
  5
B15
330
26
100
AcDbDictionary
280
     1
281
     1
  3
ACAD_XREC_ROUNDTRIP
360
B16
  0
DICTIONARY
  5
B13
330
22
100
AcDbDictionary
280
     1
281
     1
  3
ACAD_XREC_ROUNDTRIP
360
B14
  0
XRECORD
  5
B12
102
{ACAD_REACTORS
330
B11
102
}
330
B11
100
AcDbXrecord
280
     1
102
SHADEPLOT
 70
     0
102
SHADEPLOTRESLEVEL
 70
     2
102
SHADEPLOTCUSTOMDPI
 70
   300
  0
XRECORD
  5
B16
102
{ACAD_REACTORS
330
B15
102
}
330
B15
100
AcDbXrecord
280
     1
102
SHADEPLOT
 70
     0
102
SHADEPLOTRESLEVEL
 70
     2
102
SHADEPLOTCUSTOMDPI
 70
   300
  0
XRECORD
  5
B14
102
{ACAD_REACTORS
330
B13
102
}
330
B13
100
AcDbXrecord
280
     1
102
SHADEPLOT
 70
     0
102
SHADEPLOTRESLEVEL
 70
     2
102
SHADEPLOTCUSTOMDPI
 70
   300
  0
ENDSEC
  0
EOF
