  0
SECTION
  2
HEADER
  9
$ACADVER
  1
AC1015
  9
$ACADMAINTVER
 70
    20
  9
$DWGCODEPAGE
  3
ANSI_1252
  9
$INSBASE
 10
0.0
 20
0.0
 30
0.0
  9
$EXTMIN
 10
15.27200237034809
 20
14.89197551417706
 30
0.0
  9
$EXTMAX
 10
345.25852206768
 20
156.8620437983397
 30
0.0
  9
$LIMMIN
 10
1.017515325642079
 20
5.609117802193964
  9
$LIMMAX
 10
357.2877443858092
 20
190.0680274618028
  9
$ORTHOMODE
 70
     0
  9
$REGENMODE
 70
     1
  9
$FILLMODE
 70
     1
  9
$QTEXTMODE
 70
     0
  9
$MIRRTEXT
 70
     1
  9
$LTSCALE
 40
0.5
  9
$ATTMODE
 70
     1
  9
$TEXTSIZE
 40
3.962399999999999
  9
$TRACEWID
 40
1.0
  9
$TEXTSTYLE
  7
Standard
  9
$CLAYER
  8
0
  9
$CELTYPE
  6
DASHED2
  9
$CECOLOR
 62
   256
  9
$CELTSCALE
 40
1.0
  9
$DISPSILH
 70
     0
  9
$DIMSCALE
 40
1.0
  9
$DIMASZ
 40
3.301999999999999
  9
$DIMEXO
 40
1.27
  9
$DIMDLI
 40
3.75
  9
$DIMRND
 40
0.0
  9
$DIMDLE
 40
0.0
  9
$DIMEXE
 40
3.174999999999999
  9
$DIMTP
 40
0.0
  9
$DIMTM
 40
0.0
  9
$DIMTXT
 40
3.5
  9
$DIMCEN
 40
2.5
  9
$DIMTSZ
 40
0.0
  9
$DIMTOL
 70
     0
  9
$DIMLIM
 70
     0
  9
$DIMTIH
 70
     1
  9
$DIMTOH
 70
     1
  9
$DIMSE1
 70
     0
  9
$DIMSE2
 70
     0
  9
$DIMTAD
 70
     0
  9
$DIMZIN
 70
     1
  9
$DIMBLK
  1

  9
$DIMASO
 70
     1
  9
$DIMSHO
 70
     1
  9
$DIMPOST
  1

  9
$DIMAPOST
  1

  9
$DIMALT
 70
     0
  9
$DIMALTD
 70
     3
  9
$DIMALTF
 40
0.0393700787401575
  9
$DIMLFAC
 40
1.0
  9
$DIMTOFL
 70
     0
  9
$DIMTVP
 40
0.0
  9
$DIMTIX
 70
     0
  9
$DIMSOXD
 70
     0
  9
$DIMSAH
 70
     0
  9
$DIMBLK1
  1

  9
$DIMBLK2
  1

  9
$DIMSTYLE
  2
DATASHEET
  9
$DIMCLRD
 70
     0
  9
$DIMCLRE
 70
     0
  9
$DIMCLRT
 70
     0
  9
$DIMTFAC
 40
1.0
  9
$DIMGAP
 40
1.524
  9
$DIMJUST
 70
     0
  9
$DIMSD1
 70
     0
  9
$DIMSD2
 70
     0
  9
$DIMTOLJ
 70
     0
  9
$DIMTZIN
 70
     1
  9
$DIMALTZ
 70
     0
  9
$DIMALTTZ
 70
     0
  9
$DIMUPT
 70
     0
  9
$DIMDEC
 70
     1
  9
$DIMTDEC
 70
     1
  9
$DIMALTU
 70
     2
  9
$DIMALTTD
 70
     3
  9
$DIMTXSTY
  7
Standard
  9
$DIMAUNIT
 70
     0
  9
$DIMADEC
 70
     2
  9
$DIMALTRND
 40
0.0
  9
$DIMAZIN
 70
     0
  9
$DIMDSEP
 70
    46
  9
$DIMATFIT
 70
     3
  9
$DIMFRAC
 70
     0
  9
$DIMLDRBLK
  1

  9
$DIMLUNIT
 70
     2
  9
$DIMLWD
 70
    -2
  9
$DIMLWE
 70
    -2
  9
$DIMTMOVE
 70
     0
  9
$LUNITS
 70
     2
  9
$LUPREC
 70
     2
  9
$SKETCHINC
 40
1.0
  9
$FILLETRAD
 40
10.0
  9
$AUNITS
 70
     0
  9
$AUPREC
 70
     2
  9
$MENU
  1
.
  9
$ELEVATION
 40
0.0
  9
$PELEVATION
 40
0.0
  9
$THICKNESS
 40
0.0
  9
$LIMCHECK
 70
     0
  9
$CHAMFERA
 40
0.0
  9
$CHAMFERB
 40
0.0
  9
$CHAMFERC
 40
0.0
  9
$CHAMFERD
 40
0.0
  9
$SKPOLY
 70
     0
  9
$TDCREATE
 40
2459074.554508634
  9
$TDUCREATE
 40
2459074.721175301
  9
$TDUPDATE
 40
2459075.374695995
  9
$TDUUPDATE
 40
2459075.541362662
  9
$TDINDWG
 40
0.0293151620
  9
$TDUSRTIMER
 40
0.0293151620
  9
$USRTIMER
 70
     1
  9
$ANGBASE
 50
0.0
  9
$ANGDIR
 70
     0
  9
$PDMODE
 70
     0
  9
$PDSIZE
 40
-1.0
  9
$PLINEWID
 40
0.0
  9
$SPLFRAME
 70
     0
  9
$SPLINETYPE
 70
     6
  9
$SPLINESEGS
 70
     8
  9
$HANDSEED
  5
502
  9
$SURFTAB1
 70
     6
  9
$SURFTAB2
 70
     6
  9
$SURFTYPE
 70
     6
  9
$SURFU
 70
     6
  9
$SURFV
 70
     6
  9
$UCSBASE
  2

  9
$UCSNAME
  2

  9
$UCSORG
 10
0.0
 20
0.0
 30
0.0
  9
$UCSXDIR
 10
1.0
 20
0.0
 30
0.0
  9
$UCSYDIR
 10
0.0
 20
1.0
 30
0.0
  9
$UCSORTHOREF
  2

  9
$UCSORTHOVIEW
 70
     0
  9
$UCSORGTOP
 10
0.0
 20
0.0
 30
0.0
  9
$UCSORGBOTTOM
 10
0.0
 20
0.0
 30
0.0
  9
$UCSORGLEFT
 10
0.0
 20
0.0
 30
0.0
  9
$UCSORGRIGHT
 10
0.0
 20
0.0
 30
0.0
  9
$UCSORGFRONT
 10
0.0
 20
0.0
 30
0.0
  9
$UCSORGBACK
 10
0.0
 20
0.0
 30
0.0
  9
$PUCSBASE
  2

  9
$PUCSNAME
  2

  9
$PUCSORG
 10
0.0
 20
0.0
 30
0.0
  9
$PUCSXDIR
 10
1.0
 20
0.0
 30
0.0
  9
$PUCSYDIR
 10
0.0
 20
1.0
 30
0.0
  9
$PUCSORTHOREF
  2

  9
$PUCSORTHOVIEW
 70
     0
  9
$PUCSORGTOP
 10
0.0
 20
0.0
 30
0.0
  9
$PUCSORGBOTTOM
 10
0.0
 20
0.0
 30
0.0
  9
$PUCSORGLEFT
 10
0.0
 20
0.0
 30
0.0
  9
$PUCSORGRIGHT
 10
0.0
 20
0.0
 30
0.0
  9
$PUCSORGFRONT
 10
0.0
 20
0.0
 30
0.0
  9
$PUCSORGBACK
 10
0.0
 20
0.0
 30
0.0
  9
$USERI1
 70
     0
  9
$USERI2
 70
     0
  9
$USERI3
 70
     0
  9
$USERI4
 70
     0
  9
$USERI5
 70
     0
  9
$USERR1
 40
0.0
  9
$USERR2
 40
0.0
  9
$USERR3
 40
0.0
  9
$USERR4
 40
0.0
  9
$USERR5
 40
0.0
  9
$WORLDVIEW
 70
     1
  9
$SHADEDGE
 70
     3
  9
$SHADEDIF
 70
    70
  9
$TILEMODE
 70
     1
  9
$MAXACTVP
 70
    64
  9
$PINSBASE
 10
0.0
 20
0.0
 30
0.0
  9
$PLIMCHECK
 70
     0
  9
$PEXTMIN
 10
1.000000000000000E+20
 20
1.000000000000000E+20
 30
1.000000000000000E+20
  9
$PEXTMAX
 10
-1.000000000000000E+20
 20
-1.000000000000000E+20
 30
-1.000000000000000E+20
  9
$PLIMMIN
 10
0.0
 20
0.0
  9
$PLIMMAX
 10
420.0
 20
297.0
  9
$UNITMODE
 70
     0
  9
$VISRETAIN
 70
     1
  9
$PLINEGEN
 70
     0
  9
$PSLTSCALE
 70
     1
  9
$TREEDEPTH
 70
  3020
  9
$CMLSTYLE
  2
Standard
  9
$CMLJUST
 70
     0
  9
$CMLSCALE
 40
20.0
  9
$PROXYGRAPHICS
 70
     1
  9
$MEASUREMENT
 70
     1
  9
$CELWEIGHT
370
    -1
  9
$ENDCAPS
280
     0
  9
$JOINSTYLE
280
     0
  9
$LWDISPLAY
290
     1
  9
$INSUNITS
 70
     4
  9
$HYPERLINKBASE
  1

  9
$STYLESHEET
  1

  9
$XEDIT
290
     1
  9
$CEPSNTYPE
380
     0
  9
$PSTYLEMODE
290
     1
  9
$FINGERPRINTGUID
  2
{BD1AD6C9-9F82-41F1-8AFD-6EF809E825F6}
  9
$VERSIONGUID
  2
{6B81D9AF-508F-483E-A6B8-3B1CC03D8A67}
  9
$EXTNAMES
290
     1
  9
$PSVPSCALE
 40
0.0
  9
$OLESTARTUP
290
     0
  0
ENDSEC
  0
SECTION
  2
CLASSES
  0
CLASS
  1
ACDBDICTIONARYWDFLT
  2
AcDbDictionaryWithDefault
  3
ObjectDBX Classes
 90
        0
280
     0
281
     0
  0
CLASS
  1
VISUALSTYLE
  2
AcDbVisualStyle
  3
ObjectDBX Classes
 90
    36863
280
     0
281
     0
  0
CLASS
  1
MATERIAL
  2
AcDbMaterial
  3
ObjectDBX Classes
 90
    32768
280
     0
281
     0
  0
CLASS
  1
SCALE
  2
AcDbScale
  3
ObjectDBX Classes
 90
     1153
280
     0
281
     0
  0
CLASS
  1
TABLESTYLE
  2
AcDbTableStyle
  3
ObjectDBX Classes
 90
     2047
280
     0
281
     0
  0
CLASS
  1
MLEADERSTYLE
  2
AcDbMLeaderStyle
  3
ACDB_MLEADERSTYLE_CLASS
 90
    36863
280
     0
281
     0
  0
CLASS
  1
SUN
  2
AcDbSun
  3
SCENEOE
 90
    33921
280
     0
281
     0
  0
CLASS
  1
ACDBPLACEHOLDER
  2
AcDbPlaceHolder
  3
ObjectDBX Classes
 90
        0
280
     0
281
     0
  0
CLASS
  1
LAYOUT
  2
AcDbLayout
  3
ObjectDBX Classes
 90
        0
280
     0
281
     0
  0
CLASS
  1
DICTIONARYVAR
  2
AcDbDictionaryVar
  3
ObjectDBX Classes
 90
        0
280
     0
281
     0
  0
CLASS
  1
SORTENTSTABLE
  2
AcDbSortentsTable
  3
ObjectDBX Classes
 90
        0
280
     0
281
     0
  0
ENDSEC
  0
SECTION
  2
TABLES
  0
TABLE
  2
VPORT
  5
8
330
0
100
AcDbSymbolTable
 70
     2
  0
VPORT
  5
4FA
330
8
100
AcDbSymbolTableRecord
100
AcDbViewportTableRecord
  2
*Active
 70
     0
 10
0.0
 20
0.0
 11
1.0
 21
1.0
 12
183.6347055462324
 22
97.83857263199838
 13
0.0
 23
0.0
 14
10.0
 24
10.0
 15
10.0
 25
10.0
 16
0.0
 26
0.0
 36
1.0
 17
0.0
 27
0.0
 37
0.0
 40
186.2156611801765
 41
2.513957307060755
 42
50.0
 43
0.0
 44
0.0
 50
0.0
 51
0.0
 71
     0
 72
  2000
 73
     1
 74
     3
 75
     0
 76
     0
 77
     0
 78
     0
281
     0
 65
     1
110
0.0
120
0.0
130
0.0
111
1.0
121
0.0
131
0.0
112
0.0
122
1.0
132
0.0
 79
     0
146
0.0
  0
ENDTAB
  0
TABLE
  2
LTYPE
  5
5
330
0
100
AcDbSymbolTable
 70
     4
  0
LTYPE
  5
14
330
5
100
AcDbSymbolTableRecord
100
AcDbLinetypeTableRecord
  2
ByBlock
 70
     0
  3

 72
    65
 73
     0
 40
0.0
  0
LTYPE
  5
15
330
5
100
AcDbSymbolTableRecord
100
AcDbLinetypeTableRecord
  2
ByLayer
 70
     0
  3

 72
    65
 73
     0
 40
0.0
  0
LTYPE
  5
16
330
5
100
AcDbSymbolTableRecord
100
AcDbLinetypeTableRecord
  2
Continuous
 70
     0
  3
Solid line
 72
    65
 73
     0
 40
0.0
  0
LTYPE
  5
71
330
5
100
AcDbSymbolTableRecord
100
AcDbLinetypeTableRecord
  2
CENTERX2
 70
     0
  3
Center (2x) ________  __  ________  __  _____
 72
    65
 73
     4
 40
20.32
 49
12.7
 74
     0
 49
-2.54
 74
     0
 49
2.54
 74
     0
 49
-2.54
 74
     0
  0
LTYPE
  5
4EB
330
5
100
AcDbSymbolTableRecord
100
AcDbLinetypeTableRecord
  2
DASHED
 70
     0
  3
Dashed __ __ __ __ __ __ __ __ __ __ __ __ __ _
 72
    65
 73
     2
 40
19.05
 49
12.7
 74
     0
 49
-6.349999999999999
 74
     0
  0
LTYPE
  5
4EC
330
5
100
AcDbSymbolTableRecord
100
AcDbLinetypeTableRecord
  2
DASHED2
 70
     0
  3
Dashed (.5x) _ _ _ _ _ _ _ _ _ _ _ _ _ _ _ _ _
 72
    65
 73
     2
 40
9.524999999999998
 49
6.349999999999999
 74
     0
 49
-3.174999999999999
 74
     0
  0
ENDTAB
  0
TABLE
  2
LAYER
  5
2
102
{ACAD_XDICTIONARY
360
2D4
102
}
330
0
100
AcDbSymbolTable
 70
     3
  0
LAYER
  5
10
330
2
100
AcDbSymbolTableRecord
100
AcDbLayerTableRecord
  2
0
 70
     0
 62
     7
  6
Continuous
370
    -3
390
F
  0
LAYER
  5
74
330
2
100
AcDbSymbolTableRecord
100
AcDbLayerTableRecord
  2
SLD-0
 70
     0
 62
     7
  6
Continuous
370
    -3
390
F
  0
LAYER
  5
35E
330
2
100
AcDbSymbolTableRecord
100
AcDbLayerTableRecord
  2
Defpoints
 70
     0
 62
     7
  6
Continuous
290
     0
370
    -3
390
F
  0
ENDTAB
  0
TABLE
  2
STYLE
  5
3
330
0
100
AcDbSymbolTable
 70
     2
  0
STYLE
  5
11
330
3
100
AcDbSymbolTableRecord
100
AcDbTextStyleTableRecord
  2
Standard
 70
     0
 40
0.0
 41
1.0
 50
0.0
 71
     0
 42
3.962399999999999
  3
ARIAL.TTF
  4

1001
ACAD
1000
Arial
1071
       34
  0
STYLE
  5
4EA
330
3
100
AcDbSymbolTableRecord
100
AcDbTextStyleTableRecord
  2

 70
     1
 40
0.0
 41
1.0
 50
0.0
 71
     0
 42
3.962399999999999
  3
ltypeshp.shx
  4

  0
ENDTAB
  0
TABLE
  2
VIEW
  5
6
330
0
100
AcDbSymbolTable
 70
     0
  0
ENDTAB
  0
TABLE
  2
UCS
  5
7
330
0
100
AcDbSymbolTable
 70
     0
  0
ENDTAB
  0
TABLE
  2
APPID
  5
9
330
0
100
AcDbSymbolTable
 70
     2
  0
APPID
  5
12
330
9
100
AcDbSymbolTableRecord
100
AcDbRegAppTableRecord
  2
ACAD
 70
     0
  0
APPID
  5
2DA
330
9
100
AcDbSymbolTableRecord
100
AcDbRegAppTableRecord
  2
ACAD_DSTYLE_DIMTEXT_FILL
 70
     0
  0
ENDTAB
  0
TABLE
  2
DIMSTYLE
  5
A
330
0
100
AcDbSymbolTable
 70
     1
100
AcDbDimStyleTable
 71
     1
340
33C
  0
DIMSTYLE
105
33C
102
{ACAD_REACTORS
330
296
330
28B
330
280
330
273
330
268
330
25D
330
188
330
17C
330
170
330
164
330
F1
330
F8
330
1E7
330
1E9
102
}
330
A
100
AcDbSymbolTableRecord
100
AcDbDimStyleTableRecord
  2
DATASHEET
 70
     0
 41
3.301999999999999
 42
1.27
 43
3.75
 44
3.174999999999999
 78
     1
140
3.5
141
2.5
143
0.0393700787401575
147
1.524
171
     3
179
     2
271
     1
272
     1
274
     3
283
     0
284
     1
340
11
  0
ENDTAB
  0
TABLE
  2
BLOCK_RECORD
  5
1
330
0
100
AcDbSymbolTable
 70
    19
  0
BLOCK_RECORD
  5
1F
102
{ACAD_XDICTIONARY
360
468
102
}
330
1
100
AcDbSymbolTableRecord
100
AcDbBlockTableRecord
  2
*Model_Space
340
22
  0
BLOCK_RECORD
  5
1B
330
1
100
AcDbSymbolTableRecord
100
AcDbBlockTableRecord
  2
*Paper_Space
340
1E
  0
BLOCK_RECORD
  5
23
330
1
100
AcDbSymbolTableRecord
100
AcDbBlockTableRecord
  2
*Paper_Space0
340
26
  0
BLOCK_RECORD
  5
F9
330
1
100
AcDbSymbolTableRecord
100
AcDbBlockTableRecord
  2
SW_CENTERMARKSYMBOL_0
340
0
102
{BLKREFS
331
100
102
}
  0
BLOCK_RECORD
  5
101
330
1
100
AcDbSymbolTableRecord
100
AcDbBlockTableRecord
  2
SW_CENTERMARKSYMBOL_1
340
0
102
{BLKREFS
331
108
102
}
  0
BLOCK_RECORD
  5
166
330
1
100
AcDbSymbolTableRecord
100
AcDbBlockTableRecord
  2
_D
340
0
  0
BLOCK_RECORD
  5
172
330
1
100
AcDbSymbolTableRecord
100
AcDbBlockTableRecord
  2
_D_1
340
0
  0
BLOCK_RECORD
  5
17E
330
1
100
AcDbSymbolTableRecord
100
AcDbBlockTableRecord
  2
_D_2
340
0
  0
BLOCK_RECORD
  5
189
330
1
100
AcDbSymbolTableRecord
100
AcDbBlockTableRecord
  2
_D_3
340
0
  0
BLOCK_RECORD
  5
1EA
330
1
100
AcDbSymbolTableRecord
100
AcDbBlockTableRecord
  2
SW_CENTERMARKSYMBOL_2
340
0
102
{BLKREFS
331
1F1
102
}
  0
BLOCK_RECORD
  5
1F2
330
1
100
AcDbSymbolTableRecord
100
AcDbBlockTableRecord
  2
SW_CENTERMARKSYMBOL_3
340
0
102
{BLKREFS
331
1F9
102
}
  0
BLOCK_RECORD
  5
25E
330
1
100
AcDbSymbolTableRecord
100
AcDbBlockTableRecord
  2
_D_4
340
0
  0
BLOCK_RECORD
  5
269
330
1
100
AcDbSymbolTableRecord
100
AcDbBlockTableRecord
  2
_D_5
340
0
  0
BLOCK_RECORD
  5
275
330
1
100
AcDbSymbolTableRecord
100
AcDbBlockTableRecord
  2
_D_6
340
0
  0
BLOCK_RECORD
  5
281
330
1
100
AcDbSymbolTableRecord
100
AcDbBlockTableRecord
  2
_D_7
340
0
  0
BLOCK_RECORD
  5
28C
330
1
100
AcDbSymbolTableRecord
100
AcDbBlockTableRecord
  2
_D_8
340
0
  0
BLOCK_RECORD
  5
298
330
1
100
AcDbSymbolTableRecord
100
AcDbBlockTableRecord
  2
_D_9
340
0
  0
BLOCK_RECORD
  5
2AA
330
1
100
AcDbSymbolTableRecord
100
AcDbBlockTableRecord
  2
SW_CENTERMARKSYMBOL_4
340
0
102
{BLKREFS
331
2B1
102
}
  0
BLOCK_RECORD
  5
2B2
330
1
100
AcDbSymbolTableRecord
100
AcDbBlockTableRecord
  2
SW_CENTERMARKSYMBOL_5
340
0
102
{BLKREFS
331
2B9
102
}
  0
BLOCK_RECORD
  5
2BA
330
1
100
AcDbSymbolTableRecord
100
AcDbBlockTableRecord
  2
SW_CENTERMARKSYMBOL_6
340
0
102
{BLKREFS
331
2C1
102
}
  0
BLOCK_RECORD
  5
2C2
330
1
100
AcDbSymbolTableRecord
100
AcDbBlockTableRecord
  2
SW_CENTERMARKSYMBOL_7
340
0
102
{BLKREFS
331
2C9
102
}
  0
ENDTAB
  0
ENDSEC
  0
SECTION
  2
BLOCKS
  0
BLOCK
  5
20
330
1F
100
AcDbEntity
  8
0
100
AcDbBlockBegin
  2
*Model_Space
 70
     0
 10
0.0
 20
0.0
 30
0.0
  3
*Model_Space
  1

  0
ENDBLK
  5
21
330
1F
100
AcDbEntity
  8
0
100
AcDbBlockEnd
  0
BLOCK
  5
1C
330
1B
100
AcDbEntity
 67
     1
  8
0
100
AcDbBlockBegin
  2
*Paper_Space
 70
     0
 10
0.0
 20
0.0
 30
0.0
  3
*Paper_Space
  1

  0
ENDBLK
  5
1D
330
1B
100
AcDbEntity
 67
     1
  8
0
100
AcDbBlockEnd
  0
BLOCK
  5
24
330
23
100
AcDbEntity
  8
0
100
AcDbBlockBegin
  2
*Paper_Space0
 70
     0
 10
0.0
 20
0.0
 30
0.0
  3
*Paper_Space0
  1

  0
ENDBLK
  5
25
330
23
100
AcDbEntity
  8
0
100
AcDbBlockEnd
  0
BLOCK
  5
FA
330
F9
100
AcDbEntity
  8
0
100
AcDbBlockBegin
  2
SW_CENTERMARKSYMBOL_0
 70
     0
 10
0.0
 20
0.0
 30
0.0
  3
SW_CENTERMARKSYMBOL_0
  1

  0
LINE
  5
FC
330
F9
100
AcDbEntity
  8
0
  6
Continuous
 62
     0
370
    18
100
AcDbLine
 10
0.0
 20
0.0
 30
0.0
 11
0.0
 21
2.540000000000014
 31
0.0
  0
LINE
  5
FD
330
F9
100
AcDbEntity
  8
0
  6
Continuous
 62
     0
370
    18
100
AcDbLine
 10
0.0
 20
0.0
 30
0.0
 11
-2.54
 21
0.0
 31
0.0
  0
LINE
  5
FE
330
F9
100
AcDbEntity
  8
0
  6
Continuous
 62
     0
370
    18
100
AcDbLine
 10
0.0
 20
0.0
 30
0.0
 11
0.0
 21
-2.539999999999986
 31
0.0
  0
LINE
  5
FF
330
F9
100
AcDbEntity
  8
0
  6
Continuous
 62
     0
370
    18
100
AcDbLine
 10
0.0
 20
0.0
 30
0.0
 11
2.54
 21
0.0
 31
0.0
  0
ENDBLK
  5
FB
330
F9
100
AcDbEntity
  8
0
100
AcDbBlockEnd
  0
BLOCK
  5
102
330
101
100
AcDbEntity
  8
0
100
AcDbBlockBegin
  2
SW_CENTERMARKSYMBOL_1
 70
     0
 10
0.0
 20
0.0
 30
0.0
  3
SW_CENTERMARKSYMBOL_1
  1

  0
LINE
  5
104
330
101
100
AcDbEntity
  8
0
  6
Continuous
 62
     0
370
    18
100
AcDbLine
 10
0.0
 20
0.0
 30
0.0
 11
0.0
 21
2.540000000000014
 31
0.0
  0
LINE
  5
105
330
101
100
AcDbEntity
  8
0
  6
Continuous
 62
     0
370
    18
100
AcDbLine
 10
0.0
 20
0.0
 30
0.0
 11
-2.54
 21
0.0
 31
0.0
  0
LINE
  5
106
330
101
100
AcDbEntity
  8
0
  6
Continuous
 62
     0
370
    18
100
AcDbLine
 10
0.0
 20
0.0
 30
0.0
 11
0.0
 21
-2.539999999999986
 31
0.0
  0
LINE
  5
107
330
101
100
AcDbEntity
  8
0
  6
Continuous
 62
     0
370
    18
100
AcDbLine
 10
0.0
 20
0.0
 30
0.0
 11
2.539999999999986
 21
0.0
 31
0.0
  0
ENDBLK
  5
103
330
101
100
AcDbEntity
  8
0
100
AcDbBlockEnd
  0
BLOCK
  5
167
330
166
100
AcDbEntity
  8
0
100
AcDbBlockBegin
  2
_D
 70
     0
 10
0.0
 20
0.0
 30
0.0
  3
_D
  1

  0
LINE
  5
483
330
166
100
AcDbEntity
  8
SLD-0
 62
     0
370
    -2
100
AcDbLine
 10
143.0687707356128
 20
124.1827364535251
 30
0.0
 11
143.0687707356128
 21
91.22669314935063
 31
0.0
  0
LINE
  5
484
330
166
100
AcDbEntity
  8
SLD-0
 62
     0
370
    -2
100
AcDbLine
 10
221.5587707356128
 20
121.6827364535251
 30
0.0
 11
221.5587707356128
 21
91.22669314935063
 31
0.0
  0
LINE
  5
485
330
166
100
AcDbEntity
  8
SLD-0
 62
     0
370
    -2
100
AcDbLine
 10
146.3707707356128
 20
94.40169314935062
 30
0.0
 11
175.9472715719321
 21
94.40169314935062
 31
0.0
  0
LINE
  5
486
330
166
100
AcDbEntity
  8
SLD-0
 62
     0
370
    -2
100
AcDbLine
 10
218.2567707356128
 20
94.40169314935062
 30
0.0
 11
188.0842893072664
 21
94.40169314935062
 31
0.0
  0
SOLID
  5
487
330
166
100
AcDbEntity
  8
SLD-0
 62
     0
100
AcDbTrace
 10
146.3707707356128
 20
94.95202648268394
 30
0.0
 11
146.3707707356128
 21
93.85135981601729
 31
0.0
 12
143.0687707356128
 22
94.40169314935062
 32
0.0
 13
143.0687707356128
 23
94.40169314935062
 33
0.0
  0
SOLID
  5
488
330
166
100
AcDbEntity
  8
SLD-0
 62
     0
100
AcDbTrace
 10
218.2567707356128
 20
94.95202648268394
 30
0.0
 11
218.2567707356128
 21
93.85135981601729
 31
0.0
 12
221.5587707356128
 22
94.40169314935062
 32
0.0
 13
221.5587707356128
 23
94.40169314935062
 33
0.0
  0
MTEXT
  5
489
330
166
100
AcDbEntity
  8
SLD-0
 62
     0
100
AcDbMText
 10
182.0157804395993
 20
96.18869860637655
 30
0.0
 40
3.5
 41
0.0
 71
     2
 72
     1
  1
78.5
 73
     1
 44
1.0
1001
ACAD
1000
MTEXTBEGIN
1070
    73
1070
     1
1070
    44
1040
1.0
1070
    74
1070
     0
1000
MTEXTEND
  0
POINT
  5
48A
330
166
100
AcDbEntity
  8
Defpoints
 62
     0
100
AcDbPoint
 10
143.0687707356128
 20
125.4527364535251
 30
0.0
  0
POINT
  5
48B
330
166
100
AcDbEntity
  8
Defpoints
 62
     0
100
AcDbPoint
 10
221.5587707356128
 20
122.9527364535251
 30
0.0
  0
POINT
  5
48C
330
166
100
AcDbEntity
  8
Defpoints
 62
     0
100
AcDbPoint
 10
221.5587707356128
 20
94.40169314935062
 30
0.0
  0
ENDBLK
  5
168
330
166
100
AcDbEntity
  8
0
100
AcDbBlockEnd
  0
BLOCK
  5
173
330
172
100
AcDbEntity
  8
0
100
AcDbBlockBegin
  2
_D_1
 70
     0
 10
0.0
 20
0.0
 30
0.0
  3
_D_1
  1

  0
LINE
  5
48D
330
172
100
AcDbEntity
  8
SLD-0
 62
     0
370
    -2
100
AcDbLine
 10
149.8087707356128
 20
112.6952364535251
 30
0.0
 11
149.8087707356128
 21
100.7902364535251
 31
0.0
  0
LINE
  5
48E
330
172
100
AcDbEntity
  8
SLD-0
 62
     0
370
    -2
100
AcDbLine
 10
143.0687707356128
 20
124.6827364535251
 30
0.0
 11
143.0687707356128
 21
100.7902364535251
 31
0.0
  0
LINE
  5
48F
330
172
100
AcDbEntity
  8
SLD-0
 62
     0
370
    -2
100
AcDbLine
 10
153.1107707356128
 20
103.9652364535251
 30
0.0
 11
156.4127707356128
 21
103.9652364535251
 31
0.0
  0
LINE
  5
490
330
172
100
AcDbEntity
  8
SLD-0
 62
     0
370
    -2
100
AcDbLine
 10
139.7667707356128
 20
103.9652364535251
 30
0.0
 11
132.2464905819527
 21
103.9652364535251
 31
0.0
  0
SOLID
  5
491
330
172
100
AcDbEntity
  8
SLD-0
 62
     0
100
AcDbTrace
 10
153.1107707356128
 20
104.5155697868584
 30
0.0
 11
153.1107707356128
 21
103.4149031201918
 31
0.0
 12
149.8087707356128
 22
103.9652364535251
 32
0.0
 13
149.8087707356128
 23
103.9652364535251
 33
0.0
  0
SOLID
  5
492
330
172
100
AcDbEntity
  8
SLD-0
 62
     0
100
AcDbTrace
 10
139.7667707356128
 20
104.5155697868584
 30
0.0
 11
139.7667707356128
 21
103.4149031201918
 31
0.0
 12
143.0687707356128
 22
103.9652364535251
 32
0.0
 13
143.0687707356128
 23
103.9652364535251
 33
0.0
  0
MTEXT
  5
493
330
172
100
AcDbEntity
  8
SLD-0
 62
     0
100
AcDbMText
 10
127.5268903091014
 20
105.752241910551
 30
0.0
 40
3.5
 41
0.0
 71
     2
 72
     1
  1
6.7
 73
     1
 44
1.0
1001
ACAD
1000
MTEXTBEGIN
1070
    73
1070
     1
1070
    44
1040
1.0
1070
    74
1070
     0
1000
MTEXTEND
  0
POINT
  5
494
330
172
100
AcDbEntity
  8
Defpoints
 62
     0
100
AcDbPoint
 10
149.8087707356128
 20
113.9652364535251
 30
0.0
  0
POINT
  5
495
330
172
100
AcDbEntity
  8
Defpoints
 62
     0
100
AcDbPoint
 10
143.0687707356128
 20
125.9527364535251
 30
0.0
  0
POINT
  5
496
330
172
100
AcDbEntity
  8
Defpoints
 62
     0
100
AcDbPoint
 10
143.0687707356128
 20
103.9652364535251
 30
0.0
  0
ENDBLK
  5
174
330
172
100
AcDbEntity
  8
0
100
AcDbBlockEnd
  0
BLOCK
  5
17F
330
17E
100
AcDbEntity
  8
0
100
AcDbBlockBegin
  2
_D_2
 70
     0
 10
0.0
 20
0.0
 30
0.0
  3
_D_2
  1

  0
LINE
  5
497
330
17E
100
AcDbEntity
  8
SLD-0
 62
     0
370
    -2
100
AcDbLine
 10
148.5387707356128
 20
137.9652364535251
 30
0.0
 11
124.3518903091014
 21
137.9652364535251
 31
0.0
  0
LINE
  5
498
330
17E
100
AcDbEntity
  8
SLD-0
 62
     0
370
    -2
100
AcDbLine
 10
148.5387707356128
 20
113.9652364535251
 30
0.0
 11
124.3518903091014
 21
113.9652364535251
 31
0.0
  0
LINE
  5
499
330
17E
100
AcDbEntity
  8
SLD-0
 62
     0
370
    -2
100
AcDbLine
 10
127.5268903091014
 20
134.6632364535251
 30
0.0
 11
127.5268903091014
 21
129.1900126225789
 31
0.0
  0
LINE
  5
49A
330
17E
100
AcDbEntity
  8
SLD-0
 62
     0
370
    -2
100
AcDbLine
 10
127.5268903091014
 20
117.2672364535251
 30
0.0
 11
127.5268903091014
 21
122.5680017085271
 31
0.0
  0
SOLID
  5
49B
330
17E
100
AcDbEntity
  8
SLD-0
 62
     0
100
AcDbTrace
 10
126.9765569757681
 20
134.6632364535251
 30
0.0
 11
128.0772236424347
 21
134.6632364535251
 31
0.0
 12
127.5268903091014
 22
137.9652364535251
 32
0.0
 13
127.5268903091014
 23
137.9652364535251
 33
0.0
  0
SOLID
  5
49C
330
17E
100
AcDbEntity
  8
SLD-0
 62
     0
100
AcDbTrace
 10
126.9765569757681
 20
117.2672364535251
 30
0.0
 11
128.0772236424347
 21
117.2672364535251
 31
0.0
 12
127.5268903091014
 22
113.9652364535251
 32
0.0
 13
127.5268903091014
 23
113.9652364535251
 33
0.0
  0
MTEXT
  5
49D
330
17E
100
AcDbEntity
  8
SLD-0
 62
     0
100
AcDbMText
 10
127.5268903091014
 20
127.6660126225789
 30
0.0
 40
3.5
 41
0.0
 71
     2
 72
     1
  1
24.0
 73
     1
 44
1.0
1001
ACAD
1000
MTEXTBEGIN
1070
    73
1070
     1
1070
    44
1040
1.0
1070
    74
1070
     0
1000
MTEXTEND
  0
POINT
  5
49E
330
17E
100
AcDbEntity
  8
Defpoints
 62
     0
100
AcDbPoint
 10
149.8087707356128
 20
137.9652364535251
 30
0.0
  0
POINT
  5
49F
330
17E
100
AcDbEntity
  8
Defpoints
 62
     0
100
AcDbPoint
 10
149.8087707356128
 20
113.9652364535251
 30
0.0
  0
POINT
  5
4A0
330
17E
100
AcDbEntity
  8
Defpoints
 62
     0
100
AcDbPoint
 10
127.5268903091014
 20
113.9652364535251
 30
0.0
  0
ENDBLK
  5
180
330
17E
100
AcDbEntity
  8
0
100
AcDbBlockEnd
  0
BLOCK
  5
18A
330
189
100
AcDbEntity
  8
0
100
AcDbBlockBegin
  2
_D_3
 70
     0
 10
0.0
 20
0.0
 30
0.0
  3
_D_3
  1

  0
LINE
  5
4A1
330
189
100
AcDbEntity
  8
SLD-0
 62
     0
370
    -2
100
AcDbLine
 10
213.8087707356128
 20
112.6952364535251
 30
0.0
 11
213.8087707356128
 21
100.7902364535251
 31
0.0
  0
LINE
  5
4A2
330
189
100
AcDbEntity
  8
SLD-0
 62
     0
370
    -2
100
AcDbLine
 10
149.8087707356128
 20
112.6952364535251
 30
0.0
 11
149.8087707356128
 21
100.7902364535251
 31
0.0
  0
LINE
  5
4A3
330
189
100
AcDbEntity
  8
SLD-0
 62
     0
370
    -2
100
AcDbLine
 10
210.5067707356128
 20
103.9652364535251
 30
0.0
 11
188.0890642049472
 21
103.9652364535251
 31
0.0
  0
LINE
  5
4A4
330
189
100
AcDbEntity
  8
SLD-0
 62
     0
370
    -2
100
AcDbLine
 10
153.1107707356128
 20
103.9652364535251
 30
0.0
 11
175.9424966742514
 21
103.9652364535251
 31
0.0
  0
SOLID
  5
4A5
330
189
100
AcDbEntity
  8
SLD-0
 62
     0
100
AcDbTrace
 10
210.5067707356128
 20
104.5155697868585
 30
0.0
 11
210.5067707356128
 21
103.4149031201918
 31
0.0
 12
213.8087707356128
 22
103.9652364535251
 32
0.0
 13
213.8087707356128
 23
103.9652364535251
 33
0.0
  0
SOLID
  5
4A6
330
189
100
AcDbEntity
  8
SLD-0
 62
     0
100
AcDbTrace
 10
153.1107707356128
 20
104.5155697868585
 30
0.0
 11
153.1107707356128
 21
103.4149031201918
 31
0.0
 12
149.8087707356128
 22
103.9652364535251
 32
0.0
 13
149.8087707356128
 23
103.9652364535251
 33
0.0
  0
MTEXT
  5
4A7
330
189
100
AcDbEntity
  8
SLD-0
 62
     0
100
AcDbMText
 10
182.0157804395993
 20
105.7522419105511
 30
0.0
 40
3.5
 41
0.0
 71
     2
 72
     1
  1
64.0
 73
     1
 44
1.0
1001
ACAD
1000
MTEXTBEGIN
1070
    73
1070
     1
1070
    44
1040
1.0
1070
    74
1070
     0
1000
MTEXTEND
  0
POINT
  5
4A8
330
189
100
AcDbEntity
  8
Defpoints
 62
     0
100
AcDbPoint
 10
213.8087707356128
 20
113.9652364535251
 30
0.0
  0
POINT
  5
4A9
330
189
100
AcDbEntity
  8
Defpoints
 62
     0
100
AcDbPoint
 10
149.8087707356128
 20
113.9652364535251
 30
0.0
  0
POINT
  5
4AA
330
189
100
AcDbEntity
  8
Defpoints
 62
     0
100
AcDbPoint
 10
149.8087707356128
 20
103.9652364535251
 30
0.0
  0
ENDBLK
  5
18B
330
189
100
AcDbEntity
  8
0
100
AcDbBlockEnd
  0
BLOCK
  5
1EB
330
1EA
100
AcDbEntity
  8
0
100
AcDbBlockBegin
  2
SW_CENTERMARKSYMBOL_2
 70
     0
 10
0.0
 20
0.0
 30
0.0
  3
SW_CENTERMARKSYMBOL_2
  1

  0
LINE
  5
1ED
330
1EA
100
AcDbEntity
  8
0
  6
Continuous
 62
     0
370
    18
100
AcDbLine
 10
0.0
 20
0.0
 30
0.0
 11
0.0
 21
2.540000000000014
 31
0.0
  0
LINE
  5
1EE
330
1EA
100
AcDbEntity
  8
0
  6
Continuous
 62
     0
370
    18
100
AcDbLine
 10
0.0
 20
0.0
 30
0.0
 11
-2.540000000000042
 21
0.0
 31
0.0
  0
LINE
  5
1EF
330
1EA
100
AcDbEntity
  8
0
  6
Continuous
 62
     0
370
    18
100
AcDbLine
 10
0.0
 20
0.0
 30
0.0
 11
0.0
 21
-2.539999999999986
 31
0.0
  0
LINE
  5
1F0
330
1EA
100
AcDbEntity
  8
0
  6
Continuous
 62
     0
370
    18
100
AcDbLine
 10
0.0
 20
0.0
 30
0.0
 11
2.539999999999986
 21
0.0
 31
0.0
  0
ENDBLK
  5
1EC
330
1EA
100
AcDbEntity
  8
0
100
AcDbBlockEnd
  0
BLOCK
  5
1F3
330
1F2
100
AcDbEntity
  8
0
100
AcDbBlockBegin
  2
SW_CENTERMARKSYMBOL_3
 70
     0
 10
0.0
 20
0.0
 30
0.0
  3
SW_CENTERMARKSYMBOL_3
  1

  0
LINE
  5
1F5
330
1F2
100
AcDbEntity
  8
0
  6
Continuous
 62
     0
370
    18
100
AcDbLine
 10
0.0
 20
0.0
 30
0.0
 11
0.0
 21
2.539999999999986
 31
0.0
  0
LINE
  5
1F6
330
1F2
100
AcDbEntity
  8
0
  6
Continuous
 62
     0
370
    18
100
AcDbLine
 10
0.0
 20
0.0
 30
0.0
 11
-2.539999999999986
 21
0.0
 31
0.0
  0
LINE
  5
1F7
330
1F2
100
AcDbEntity
  8
0
  6
Continuous
 62
     0
370
    18
100
AcDbLine
 10
0.0
 20
0.0
 30
0.0
 11
0.0
 21
-2.540000000000014
 31
0.0
  0
LINE
  5
1F8
330
1F2
100
AcDbEntity
  8
0
  6
Continuous
 62
     0
370
    18
100
AcDbLine
 10
0.0
 20
0.0
 30
0.0
 11
2.539999999999986
 21
0.0
 31
0.0
  0
ENDBLK
  5
1F4
330
1F2
100
AcDbEntity
  8
0
100
AcDbBlockEnd
  0
BLOCK
  5
25F
330
25E
100
AcDbEntity
  8
0
100
AcDbBlockBegin
  2
_D_4
 70
     0
 10
0.0
 20
0.0
 30
0.0
  3
_D_4
  1

  0
LINE
  5
4AB
330
25E
100
AcDbEntity
  8
SLD-0
 62
     0
370
    -2
100
AcDbLine
 10
168.3087707356129
 20
28.25697551417724
 30
0.0
 11
168.3087707356129
 21
14.89197551417706
 31
0.0
  0
LINE
  5
4AC
330
25E
100
AcDbEntity
  8
SLD-0
 62
     0
370
    -2
100
AcDbLine
 10
198.3087707356129
 20
28.25697551417735
 30
0.0
 11
198.3087707356129
 21
14.89197551417706
 31
0.0
  0
LINE
  5
4AD
330
25E
100
AcDbEntity
  8
SLD-0
 62
     0
370
    -2
100
AcDbLine
 10
171.6107707356129
 20
18.06697551417706
 30
0.0
 11
177.7703520711535
 21
18.06697551417706
 31
0.0
  0
LINE
  5
4AE
330
25E
100
AcDbEntity
  8
SLD-0
 62
     0
370
    -2
100
AcDbLine
 10
195.0067707356129
 20
18.06697551417706
 30
0.0
 11
189.8954325622859
 21
18.06697551417706
 31
0.0
  0
SOLID
  5
4AF
330
25E
100
AcDbEntity
  8
SLD-0
 62
     0
100
AcDbTrace
 10
171.6107707356129
 20
18.61730884751039
 30
0.0
 11
171.6107707356129
 21
17.51664218084372
 31
0.0
 12
168.3087707356129
 22
18.06697551417706
 32
0.0
 13
168.3087707356129
 23
18.06697551417706
 33
0.0
  0
SOLID
  5
4B0
330
25E
100
AcDbEntity
  8
SLD-0
 62
     0
100
AcDbTrace
 10
195.0067707356129
 20
18.61730884751039
 30
0.0
 11
195.0067707356129
 21
17.51664218084372
 31
0.0
 12
198.3087707356129
 22
18.06697551417706
 32
0.0
 13
198.3087707356129
 23
18.06697551417706
 33
0.0
  0
MTEXT
  5
4B1
330
25E
100
AcDbEntity
  8
SLD-0
 62
     0
100
AcDbMText
 10
183.8328923167197
 20
19.85517469562317
 30
0.0
 40
3.5
 41
0.0
 71
     2
 72
     1
  1
30.0
 73
     1
 44
1.0
1001
ACAD
1000
MTEXTBEGIN
1070
    73
1070
     1
1070
    44
1040
1.0
1070
    74
1070
     0
1000
MTEXTEND
  0
POINT
  5
4B2
330
25E
100
AcDbEntity
  8
Defpoints
 62
     0
100
AcDbPoint
 10
168.3087707356129
 20
29.52697551417724
 30
0.0
  0
POINT
  5
4B3
330
25E
100
AcDbEntity
  8
Defpoints
 62
     0
100
AcDbPoint
 10
198.3087707356129
 20
29.52697551417735
 30
0.0
  0
POINT
  5
4B4
330
25E
100
AcDbEntity
  8
Defpoints
 62
     0
100
AcDbPoint
 10
198.3087707356129
 20
18.06697551417706
 30
0.0
  0
ENDBLK
  5
260
330
25E
100
AcDbEntity
  8
0
100
AcDbBlockEnd
  0
BLOCK
  5
26A
330
269
100
AcDbEntity
  8
0
100
AcDbBlockBegin
  2
_D_5
 70
     0
 10
0.0
 20
0.0
 30
0.0
  3
_D_5
  1

  0
LINE
  5
4B5
330
269
100
AcDbEntity
  8
SLD-0
 62
     0
370
    -2
100
AcDbLine
 10
168.3087707356129
 20
28.25697551417724
 30
0.0
 11
168.3087707356129
 21
14.89197551417711
 31
0.0
  0
LINE
  5
4B6
330
269
100
AcDbEntity
  8
SLD-0
 62
     0
370
    -2
100
AcDbLine
 10
149.8087707356129
 20
26.79697551417718
 30
0.0
 11
149.8087707356129
 21
14.89197551417711
 31
0.0
  0
LINE
  5
4B7
330
269
100
AcDbEntity
  8
SLD-0
 62
     0
370
    -2
100
AcDbLine
 10
171.6107707356129
 20
18.06697551417711
 30
0.0
 11
174.9127707356129
 21
18.06697551417711
 31
0.0
  0
LINE
  5
4B8
330
269
100
AcDbEntity
  8
SLD-0
 62
     0
370
    -2
100
AcDbLine
 10
146.5067707356129
 20
18.06697551417711
 30
0.0
 11
143.2047707356129
 21
18.06697551417711
 31
0.0
  0
SOLID
  5
4B9
330
269
100
AcDbEntity
  8
SLD-0
 62
     0
100
AcDbTrace
 10
171.6107707356129
 20
18.61730884751045
 30
0.0
 11
171.6107707356129
 21
17.51664218084378
 31
0.0
 12
168.3087707356129
 22
18.06697551417711
 32
0.0
 13
168.3087707356129
 23
18.06697551417711
 33
0.0
  0
SOLID
  5
4BA
330
269
100
AcDbEntity
  8
SLD-0
 62
     0
100
AcDbTrace
 10
146.5067707356129
 20
18.61730884751045
 30
0.0
 11
146.5067707356129
 21
17.51664218084378
 31
0.0
 12
149.8087707356129
 22
18.06697551417711
 32
0.0
 13
149.8087707356129
 23
18.06697551417711
 33
0.0
  0
MTEXT
  5
4BB
330
269
100
AcDbEntity
  8
SLD-0
 62
     0
100
AcDbMText
 10
158.1201622530684
 20
19.85398097120303
 30
0.0
 40
3.5
 41
0.0
 71
     2
 72
     1
  1
18.5
 73
     1
 44
1.0
1001
ACAD
1000
MTEXTBEGIN
1070
    73
1070
     1
1070
    44
1040
1.0
1070
    74
1070
     0
1000
MTEXTEND
  0
POINT
  5
4BC
330
269
100
AcDbEntity
  8
Defpoints
 62
     0
100
AcDbPoint
 10
168.3087707356129
 20
29.52697551417724
 30
0.0
  0
POINT
  5
4BD
330
269
100
AcDbEntity
  8
Defpoints
 62
     0
100
AcDbPoint
 10
149.8087707356129
 20
28.06697551417718
 30
0.0
  0
POINT
  5
4BE
330
269
100
AcDbEntity
  8
Defpoints
 62
     0
100
AcDbPoint
 10
149.8087707356129
 20
18.06697551417711
 30
0.0
  0
ENDBLK
  5
26B
330
269
100
AcDbEntity
  8
0
100
AcDbBlockEnd
  0
BLOCK
  5
276
330
275
100
AcDbEntity
  8
0
100
AcDbBlockBegin
  2
_D_6
 70
     0
 10
0.0
 20
0.0
 30
0.0
  3
_D_6
  1

  0
LINE
  5
4BF
330
275
100
AcDbEntity
  8
SLD-0
 62
     0
370
    -2
100
AcDbLine
 10
202.1187707356129
 20
32.06697551417736
 30
0.0
 11
235.128177776983
 21
32.06697551417735
 31
0.0
  0
LINE
  5
4C0
330
275
100
AcDbEntity
  8
SLD-0
 62
     0
370
    -2
100
AcDbLine
 10
217.5787707356129
 20
28.0669755141774
 30
0.0
 11
235.128177776983
 21
28.0669755141774
 31
0.0
  0
LINE
  5
4C1
330
275
100
AcDbEntity
  8
SLD-0
 62
     0
370
    -2
100
AcDbLine
 10
231.9531777769829
 20
35.36897551417735
 30
0.0
 11
231.9531777769829
 21
38.67097551417735
 31
0.0
  0
LINE
  5
4C2
330
275
100
AcDbEntity
  8
SLD-0
 62
     0
370
    -2
100
AcDbLine
 10
231.9531777769829
 20
24.7649755141774
 30
0.0
 11
231.9531777769829
 21
21.4629755141774
 31
0.0
  0
LINE
  5
4C3
330
275
100
AcDbEntity
  8
SLD-0
 62
     0
370
    -2
100
AcDbLine
 10
231.9531777769829
 20
21.4629755141774
 30
0.0
 11
228.651177776983
 21
21.4629755141774
 31
0.0
  0
SOLID
  5
4C4
330
275
100
AcDbEntity
  8
SLD-0
 62
     0
100
AcDbTrace
 10
231.4028444436496
 20
35.36897551417735
 30
0.0
 11
232.5035111103163
 21
35.36897551417735
 31
0.0
 12
231.9531777769829
 22
32.06697551417735
 32
0.0
 13
231.9531777769829
 23
32.06697551417735
 33
0.0
  0
SOLID
  5
4C5
330
275
100
AcDbEntity
  8
SLD-0
 62
     0
100
AcDbTrace
 10
231.4028444436496
 20
24.7649755141774
 30
0.0
 11
232.5035111103163
 21
24.7649755141774
 31
0.0
 12
231.9531777769829
 22
28.0669755141774
 32
0.0
 13
231.9531777769829
 23
28.0669755141774
 33
0.0
  0
MTEXT
  5
4C6
330
275
100
AcDbEntity
  8
SLD-0
 62
     0
100
AcDbMText
 10
223.8766661808029
 20
23.24998097120336
 30
0.0
 40
3.5
 41
0.0
 71
     2
 72
     1
  1
4.0
 73
     1
 44
1.0
1001
ACAD
1000
MTEXTBEGIN
1070
    73
1070
     1
1070
    44
1040
1.0
1070
    74
1070
     0
1000
MTEXTEND
  0
POINT
  5
4C7
330
275
100
AcDbEntity
  8
Defpoints
 62
     0
100
AcDbPoint
 10
200.8487707356129
 20
32.06697551417736
 30
0.0
  0
POINT
  5
4C8
330
275
100
AcDbEntity
  8
Defpoints
 62
     0
100
AcDbPoint
 10
216.308770735613
 20
28.0669755141774
 30
0.0
  0
POINT
  5
4C9
330
275
100
AcDbEntity
  8
Defpoints
 62
     0
100
AcDbPoint
 10
231.9531777769829
 20
28.0669755141774
 30
0.0
  0
ENDBLK
  5
277
330
275
100
AcDbEntity
  8
0
100
AcDbBlockEnd
  0
BLOCK
  5
282
330
281
100
AcDbEntity
  8
0
100
AcDbBlockBegin
  2
_D_7
 70
     0
 10
0.0
 20
0.0
 30
0.0
  3
_D_7
  1

  0
LINE
  5
4CA
330
281
100
AcDbEntity
  8
SLD-0
 62
     0
370
    -2
100
AcDbLine
 10
202.1187707356129
 20
32.06697551417736
 30
0.0
 11
235.1307999587826
 21
32.06697551417735
 31
0.0
  0
LINE
  5
4CB
330
281
100
AcDbEntity
  8
SLD-0
 62
     0
370
    -2
100
AcDbLine
 10
202.1187707356128
 20
59.06697551417741
 30
0.0
 11
235.1307999587826
 21
59.06697551417741
 31
0.0
  0
LINE
  5
4CC
330
281
100
AcDbEntity
  8
SLD-0
 62
     0
370
    -2
100
AcDbLine
 10
231.9557999587826
 20
35.36897551417735
 30
0.0
 11
231.9557999587826
 21
42.77224599578189
 31
0.0
  0
LINE
  5
4CD
330
281
100
AcDbEntity
  8
SLD-0
 62
     0
370
    -2
100
AcDbLine
 10
231.9557999587826
 20
55.76497551417741
 30
0.0
 11
231.9557999587826
 21
49.39425690983373
 31
0.0
  0
SOLID
  5
4CE
330
281
100
AcDbEntity
  8
SLD-0
 62
     0
100
AcDbTrace
 10
231.4054666254493
 20
35.36897551417735
 30
0.0
 11
232.5061332921159
 21
35.36897551417735
 31
0.0
 12
231.9557999587826
 22
32.06697551417735
 32
0.0
 13
231.9557999587826
 23
32.06697551417735
 33
0.0
  0
SOLID
  5
4CF
330
281
100
AcDbEntity
  8
SLD-0
 62
     0
100
AcDbTrace
 10
231.4054666254493
 20
55.76497551417741
 30
0.0
 11
232.5061332921159
 21
55.76497551417741
 31
0.0
 12
231.9557999587826
 22
59.06697551417741
 32
0.0
 13
231.9557999587826
 23
59.06697551417741
 33
0.0
  0
MTEXT
  5
4D0
330
281
100
AcDbEntity
  8
SLD-0
 62
     0
100
AcDbMText
 10
231.9557999587826
 20
47.87025690983376
 30
0.0
 40
3.5
 41
0.0
 71
     2
 72
     1
  1
27.0
 73
     1
 44
1.0
1001
ACAD
1000
MTEXTBEGIN
1070
    73
1070
     1
1070
    44
1040
1.0
1070
    74
1070
     0
1000
MTEXTEND
  0
POINT
  5
4D1
330
281
100
AcDbEntity
  8
Defpoints
 62
     0
100
AcDbPoint
 10
200.8487707356129
 20
32.06697551417736
 30
0.0
  0
POINT
  5
4D2
330
281
100
AcDbEntity
  8
Defpoints
 62
     0
100
AcDbPoint
 10
200.8487707356128
 20
59.06697551417741
 30
0.0
  0
POINT
  5
4D3
330
281
100
AcDbEntity
  8
Defpoints
 62
     0
100
AcDbPoint
 10
231.9557999587826
 20
59.06697551417741
 30
0.0
  0
ENDBLK
  5
283
330
281
100
AcDbEntity
  8
0
100
AcDbBlockEnd
  0
BLOCK
  5
28D
330
28C
100
AcDbEntity
  8
0
100
AcDbBlockBegin
  2
_D_8
 70
     0
 10
0.0
 20
0.0
 30
0.0
  3
_D_8
  1

  0
LINE
  5
4D4
330
28C
100
AcDbEntity
  8
SLD-0
 62
     0
370
    -2
100
AcDbLine
 10
217.5787707356128
 20
63.06697551417748
 30
0.0
 11
247.9396030252238
 21
63.06697551417748
 31
0.0
  0
LINE
  5
4D5
330
28C
100
AcDbEntity
  8
SLD-0
 62
     0
370
    -2
100
AcDbLine
 10
217.5787707356129
 20
28.0669755141774
 30
0.0
 11
247.9396030252238
 21
28.0669755141774
 31
0.0
  0
LINE
  5
4D6
330
28C
100
AcDbEntity
  8
SLD-0
 62
     0
370
    -2
100
AcDbLine
 10
244.7646030252238
 20
59.76497551417748
 30
0.0
 11
244.7646030252238
 21
49.16222365515999
 31
0.0
  0
LINE
  5
4D7
330
28C
100
AcDbEntity
  8
SLD-0
 62
     0
370
    -2
100
AcDbLine
 10
244.7646030252238
 20
31.3689755141774
 30
0.0
 11
244.7646030252238
 21
42.53782529226776
 31
0.0
  0
SOLID
  5
4D8
330
28C
100
AcDbEntity
  8
SLD-0
 62
     0
100
AcDbTrace
 10
244.2142696918904
 20
59.76497551417748
 30
0.0
 11
245.3149363585571
 21
59.76497551417748
 31
0.0
 12
244.7646030252238
 22
63.06697551417748
 32
0.0
 13
244.7646030252238
 23
63.06697551417748
 33
0.0
  0
SOLID
  5
4D9
330
28C
100
AcDbEntity
  8
SLD-0
 62
     0
100
AcDbTrace
 10
244.2142696918904
 20
31.3689755141774
 30
0.0
 11
245.3149363585571
 21
31.3689755141774
 31
0.0
 12
244.7646030252238
 22
28.0669755141774
 32
0.0
 13
244.7646030252238
 23
28.0669755141774
 33
0.0
  0
MTEXT
  5
4DA
330
28C
100
AcDbEntity
  8
SLD-0
 62
     0
100
AcDbMText
 10
244.7646030252238
 20
47.63822365516002
 30
0.0
 40
3.5
 41
0.0
 71
     2
 72
     1
  1
35.0
 73
     1
 44
1.0
1001
ACAD
1000
MTEXTBEGIN
1070
    73
1070
     1
1070
    44
1040
1.0
1070
    74
1070
     0
1000
MTEXTEND
  0
POINT
  5
4DB
330
28C
100
AcDbEntity
  8
Defpoints
 62
     0
100
AcDbPoint
 10
216.3087707356128
 20
63.06697551417748
 30
0.0
  0
POINT
  5
4DC
330
28C
100
AcDbEntity
  8
Defpoints
 62
     0
100
AcDbPoint
 10
216.308770735613
 20
28.0669755141774
 30
0.0
  0
POINT
  5
4DD
330
28C
100
AcDbEntity
  8
Defpoints
 62
     0
100
AcDbPoint
 10
244.7646030252238
 20
28.0669755141774
 30
0.0
  0
ENDBLK
  5
28E
330
28C
100
AcDbEntity
  8
0
100
AcDbBlockEnd
  0
BLOCK
  5
299
330
298
100
AcDbEntity
  8
0
100
AcDbBlockBegin
  2
_D_9
 70
     0
 10
0.0
 20
0.0
 30
0.0
  3
_D_9
  1

  0
LINE
  5
4DE
330
298
100
AcDbEntity
  8
SLD-0
 62
     0
370
    -2
100
AcDbLine
 10
226.2036574815626
 20
79.35957151742901
 30
0.0
 11
217.4885846582014
 21
79.35957151742903
 31
0.0
  0
LINE
  5
4DF
330
298
100
AcDbEntity
  8
SLD-0
 62
     0
370
    -2
100
AcDbLine
 10
217.4885846582014
 20
79.35957151742903
 30
0.0
 11
201.2809851079951
 21
62.21163300341292
 31
0.0
  0
MTEXT
  5
4E0
330
298
100
AcDbEntity
  8
SLD-0
 62
     0
100
AcDbMText
 10
227.7276574815626
 20
87.01789772471832
 30
0.0
 40
3.5
 41
0.0
 71
     1
 72
     1
  1
4X \PTAPPED HOLE\PM2.5X0.45 {\fGDT;x} 5
 73
     1
 44
1.0
1001
ACAD
1000
MTEXTBEGIN
1070
    73
1070
     1
1070
    44
1040
1.0
1070
    74
1070
     0
1000
MTEXTEND
  0
SOLID
  5
4E1
330
298
100
AcDbEntity
  8
SLD-0
 62
     0
100
AcDbTrace
 10
200.8810290557089
 20
62.58965672491379
 30
0.0
 11
201.6809411602813
 21
61.83360928191203
 31
0.0
 12
199.0128427789897
 22
59.81189668969546
 32
0.0
 13
199.0128427789897
 23
59.81189668969546
 33
0.0
  0
LINE
  5
4E2
330
298
100
AcDbEntity
  8
SLD-0
 62
     0
370
    -2
100
AcDbLine
 10
195.8087707356128
 20
59.06697551417742
 30
0.0
 11
200.8087707356128
 21
59.06697551417744
 31
0.0
  0
LINE
  5
4E3
330
298
100
AcDbEntity
  8
SLD-0
 62
     0
370
    -2
100
AcDbLine
 10
198.3087707356128
 20
56.56697551417741
 30
0.0
 11
198.3087707356128
 21
61.56697551417742
 31
0.0
  0
POINT
  5
4E4
330
298
100
AcDbEntity
  8
Defpoints
 62
     0
100
AcDbPoint
 10
199.0128427789897
 20
59.81189668969546
 30
0.0
  0
POINT
  5
4E5
330
298
100
AcDbEntity
  8
Defpoints
 62
     0
100
AcDbPoint
 10
197.6046986922359
 20
58.32205433865944
 30
0.0
  0
ENDBLK
  5
29A
330
298
100
AcDbEntity
  8
0
100
AcDbBlockEnd
  0
BLOCK
  5
2AB
330
2AA
100
AcDbEntity
  8
0
100
AcDbBlockBegin
  2
SW_CENTERMARKSYMBOL_4
 70
     0
 10
0.0
 20
0.0
 30
0.0
  3
SW_CENTERMARKSYMBOL_4
  1

  0
LINE
  5
2AD
330
2AA
100
AcDbEntity
  8
0
  6
Continuous
 62
     0
370
    18
100
AcDbLine
 10
0.0
 20
0.0
 30
0.0
 11
0.0
 21
2.54
 31
0.0
  0
LINE
  5
2AE
330
2AA
100
AcDbEntity
  8
0
  6
Continuous
 62
     0
370
    18
100
AcDbLine
 10
0.0
 20
0.0
 30
0.0
 11
-2.540000000000014
 21
0.0
 31
0.0
  0
LINE
  5
2AF
330
2AA
100
AcDbEntity
  8
0
  6
Continuous
 62
     0
370
    18
100
AcDbLine
 10
0.0
 20
0.0
 30
0.0
 11
0.0
 21
-2.54
 31
0.0
  0
LINE
  5
2B0
330
2AA
100
AcDbEntity
  8
0
  6
Continuous
 62
     0
370
    18
100
AcDbLine
 10
0.0
 20
0.0
 30
0.0
 11
2.540000000000014
 21
0.0
 31
0.0
  0
ENDBLK
  5
2AC
330
2AA
100
AcDbEntity
  8
0
100
AcDbBlockEnd
  0
BLOCK
  5
2B3
330
2B2
100
AcDbEntity
  8
0
100
AcDbBlockBegin
  2
SW_CENTERMARKSYMBOL_5
 70
     0
 10
0.0
 20
0.0
 30
0.0
  3
SW_CENTERMARKSYMBOL_5
  1

  0
LINE
  5
2B5
330
2B2
100
AcDbEntity
  8
0
  6
Continuous
 62
     0
370
    18
100
AcDbLine
 10
0.0
 20
0.0
 30
0.0
 11
0.0
 21
2.54
 31
0.0
  0
LINE
  5
2B6
330
2B2
100
AcDbEntity
  8
0
  6
Continuous
 62
     0
370
    18
100
AcDbLine
 10
0.0
 20
0.0
 30
0.0
 11
-2.539999999999986
 21
0.0
 31
0.0
  0
LINE
  5
2B7
330
2B2
100
AcDbEntity
  8
0
  6
Continuous
 62
     0
370
    18
100
AcDbLine
 10
0.0
 20
0.0
 30
0.0
 11
0.0
 21
-2.54
 31
0.0
  0
LINE
  5
2B8
330
2B2
100
AcDbEntity
  8
0
  6
Continuous
 62
     0
370
    18
100
AcDbLine
 10
0.0
 20
0.0
 30
0.0
 11
2.539999999999986
 21
0.0
 31
0.0
  0
ENDBLK
  5
2B4
330
2B2
100
AcDbEntity
  8
0
100
AcDbBlockEnd
  0
BLOCK
  5
2BB
330
2BA
100
AcDbEntity
  8
0
100
AcDbBlockBegin
  2
SW_CENTERMARKSYMBOL_6
 70
     0
 10
0.0
 20
0.0
 30
0.0
  3
SW_CENTERMARKSYMBOL_6
  1

  0
LINE
  5
2BD
330
2BA
100
AcDbEntity
  8
0
  6
Continuous
 62
     0
370
    18
100
AcDbLine
 10
0.0
 20
0.0
 30
0.0
 11
0.0
 21
2.54
 31
0.0
  0
LINE
  5
2BE
330
2BA
100
AcDbEntity
  8
0
  6
Continuous
 62
     0
370
    18
100
AcDbLine
 10
0.0
 20
0.0
 30
0.0
 11
-2.539999999999986
 21
0.0
 31
0.0
  0
LINE
  5
2BF
330
2BA
100
AcDbEntity
  8
0
  6
Continuous
 62
     0
370
    18
100
AcDbLine
 10
0.0
 20
0.0
 30
0.0
 11
0.0
 21
-2.54
 31
0.0
  0
LINE
  5
2C0
330
2BA
100
AcDbEntity
  8
0
  6
Continuous
 62
     0
370
    18
100
AcDbLine
 10
0.0
 20
0.0
 30
0.0
 11
2.540000000000014
 21
0.0
 31
0.0
  0
ENDBLK
  5
2BC
330
2BA
100
AcDbEntity
  8
0
100
AcDbBlockEnd
  0
BLOCK
  5
2C3
330
2C2
100
AcDbEntity
  8
0
100
AcDbBlockBegin
  2
SW_CENTERMARKSYMBOL_7
 70
     0
 10
0.0
 20
0.0
 30
0.0
  3
SW_CENTERMARKSYMBOL_7
  1

  0
LINE
  5
2C5
330
2C2
100
AcDbEntity
  8
0
  6
Continuous
 62
     0
370
    18
100
AcDbLine
 10
0.0
 20
0.0
 30
0.0
 11
0.0
 21
2.54
 31
0.0
  0
LINE
  5
2C6
330
2C2
100
AcDbEntity
  8
0
  6
Continuous
 62
     0
370
    18
100
AcDbLine
 10
0.0
 20
0.0
 30
0.0
 11
-2.540000000000014
 21
0.0
 31
0.0
  0
LINE
  5
2C7
330
2C2
100
AcDbEntity
  8
0
  6
Continuous
 62
     0
370
    18
100
AcDbLine
 10
0.0
 20
0.0
 30
0.0
 11
0.0
 21
-2.54
 31
0.0
  0
LINE
  5
2C8
330
2C2
100
AcDbEntity
  8
0
  6
Continuous
 62
     0
370
    18
100
AcDbLine
 10
0.0
 20
0.0
 30
0.0
 11
2.539999999999986
 21
0.0
 31
0.0
  0
ENDBLK
  5
2C4
330
2C2
100
AcDbEntity
  8
0
100
AcDbBlockEnd
  0
ENDSEC
  0
SECTION
  2
ENTITIES
  0
LINE
  5
7A
330
1F
100
AcDbEntity
  8
0
  6
Continuous
 62
     7
370
    25
100
AcDbLine
 10
106.6556444860497
 20
138.2192369831719
 30
0.0
 11
106.6556444860497
 21
137.9652373773971
 31
0.0
  0
LINE
  5
7B
330
1F
100
AcDbEntity
  8
0
  6
Continuous
 62
     7
370
    25
100
AcDbLine
 10
76.65564515660199
 20
138.2192369831719
 30
0.0
 11
106.6556444860497
 21
138.2192369831719
 31
0.0
  0
LINE
  5
7C
330
1F
100
AcDbEntity
  8
0
  6
Continuous
 62
     7
370
    25
100
AcDbLine
 10
76.65564515660199
 20
138.2192369831719
 30
0.0
 11
76.65564515660199
 21
137.9652373773971
 31
0.0
  0
LWPOLYLINE
  5
7D
330
1F
100
AcDbEntity
  8
0
  6
Continuous
 62
     7
370
    25
100
AcDbPolyline
 90
        9
 70
   128
 43
0.0
 10
105.8112627364197
 20
134.7174445448437
 10
105.789635563592
 20
134.5848549438634
 10
105.7680968664089
 20
134.452806441299
 10
105.746673653225
 20
134.3214657438912
 10
105.725392932395
 20
134.1909995583811
 10
105.7042817122737
 20
134.0615699348965
 10
105.6833660698929
 20
133.9333435801783
 10
105.6626739449301
 20
133.8064797503867
 10
105.6422286204496
 20
133.6811395643273
  0
LWPOLYLINE
  5
7E
330
1F
100
AcDbEntity
  8
0
  6
Continuous
 62
     7
370
    25
100
AcDbPolyline
 90
        9
 70
   128
 43
0.0
 10
105.6422286204496
 20
133.6811395643273
 10
105.7161355860034
 20
133.6690845249214
 10
105.79014127175
 20
133.6570136530318
 10
105.8642121500769
 20
133.6449316052713
 10
105.9383165560165
 20
133.632844900898
 10
106.0124200306335
 20
133.6207572652021
 10
106.0864909089604
 20
133.6086752174416
 10
106.1604965947071
 20
133.596604345552
 10
106.2344035602608
 20
133.5845493061462
  0
LWPOLYLINE
  5
7F
330
1F
100
AcDbEntity
  8
0
  6
Continuous
 62
     7
370
    25
100
AcDbPolyline
 90
        9
 70
   128
 43
0.0
 10
106.2344035602608
 20
133.5845493061462
 10
106.2548479534188
 20
133.7098894922056
 10
106.2755410097042
 20
133.8367523906746
 10
106.2964557207623
 20
133.9649796767154
 10
106.3175669408837
 20
134.0944083688774
 10
106.3388476617137
 20
134.2248754857102
 10
106.3602708748975
 20
134.3562161831179
 10
106.3818095720807
 20
134.4882646856823
 10
106.4034367449084
 20
134.6208542866626
  0
LWPOLYLINE
  5
80
330
1F
100
AcDbEntity
  8
0
  6
Continuous
 62
     7
370
    25
100
AcDbPolyline
 90
        9
 70
   128
 43
0.0
 10
106.4034367449084
 20
134.6208542866626
 10
106.5360263458887
 20
134.5992271138349
 10
106.6680748484531
 20
134.5776884166517
 10
106.7994155458608
 20
134.5562652034679
 10
106.929881731371
 20
134.5349844826379
 10
107.059310423533
 20
134.5138732625165
 10
107.1875377095738
 20
134.4929576201358
 10
107.3144015393654
 20
134.472265495173
 10
107.4397407941023
 20
134.451821102015
  0
LWPOLYLINE
  5
81
330
1F
100
AcDbEntity
  8
0
  6
Continuous
 62
     7
370
    25
100
AcDbPolyline
 90
        9
 70
   128
 43
0.0
 10
107.4397407941023
 20
134.451821102015
 10
107.4517958335081
 20
134.5257271362462
 10
107.4638676367202
 20
134.5997328219929
 10
107.4759487531582
 20
134.6738037003198
 10
107.4880373201767
 20
134.7479081062594
 10
107.50012402455
 20
134.8220115808764
 10
107.5122051409879
 20
134.8960824592033
 10
107.5242769442001
 20
134.9700881449499
 10
107.5363319836059
 20
135.0439951105037
  0
LWPOLYLINE
  5
82
330
1F
100
AcDbEntity
  8
0
  6
Continuous
 62
     7
370
    25
100
AcDbPolyline
 90
        9
 70
   128
 43
0.0
 10
107.5363319836059
 20
135.0439951105037
 10
107.410992728869
 20
135.0644395036616
 10
107.2841279677549
 20
135.085132559947
 10
107.1559016130367
 20
135.1060472710052
 10
107.0264729208747
 20
135.1271584911265
 10
106.8960058040419
 20
135.1484392119565
 10
106.7646651066342
 20
135.1698624251404
 10
106.6326166040698
 20
135.1914011223235
 10
106.5000270030895
 20
135.2130282951512
  0
LWPOLYLINE
  5
83
330
1F
100
AcDbEntity
  8
0
  6
Continuous
 62
     7
370
    25
100
AcDbPolyline
 90
        9
 70
   128
 43
0.0
 10
106.5000270030895
 20
135.2130282951512
 10
106.5216541759172
 20
135.3456178961315
 10
106.5431928731003
 20
135.477666398696
 10
106.5646160862842
 20
135.6090070961037
 10
106.5858968071142
 20
135.7394742129364
 10
106.6070080272356
 20
135.8689029050984
 10
106.6279236696163
 20
135.9971292598167
 10
106.6486157945791
 20
136.1239930896082
 10
106.669060187737
 20
136.2493332756677
  0
LWPOLYLINE
  5
84
330
1F
100
AcDbEntity
  8
0
  6
Continuous
 62
     7
370
    25
100
AcDbPolyline
 90
        9
 70
   128
 43
0.0
 10
106.669060187737
 20
136.2493332756677
 10
106.5951541535059
 20
136.2613883150735
 10
106.5211484677592
 20
136.2734591869631
 10
106.4470775894323
 20
136.2855412347236
 10
106.3729731834927
 20
136.2976279390969
 10
106.2988697088757
 20
136.3097155747929
 10
106.2247988305488
 20
136.3217976225534
 10
106.1507931448022
 20
136.333868494443
 10
106.0768861792484
 20
136.3459235338488
  0
LWPOLYLINE
  5
85
330
1F
100
AcDbEntity
  8
0
  6
Continuous
 62
     7
370
    25
100
AcDbPolyline
 90
        9
 70
   128
 43
0.0
 10
106.0768861792484
 20
136.3459235338488
 10
106.0564417860904
 20
136.2205833477893
 10
106.0357487298051
 20
136.0937204493203
 10
106.0148340187469
 20
135.9654931632795
 10
105.9937227986255
 20
135.8360644711175
 10
105.9724420777956
 20
135.7055973542848
 10
105.9510188646117
 20
135.5742566568771
 10
105.9294801674286
 20
135.4422081543126
 10
105.9078529946008
 20
135.3096185533323
  0
LWPOLYLINE
  5
86
330
1F
100
AcDbEntity
  8
0
  6
Continuous
 62
     7
370
    25
100
AcDbPolyline
 90
        9
 70
   128
 43
0.0
 10
105.9078529946008
 20
135.3096185533323
 10
105.7752633936205
 20
135.3312457261601
 10
105.6432148910561
 20
135.3527844233432
 10
105.5118741936484
 20
135.3742076365271
 10
105.3814070768157
 20
135.395488357357
 10
105.2519783846536
 20
135.4165995774784
 10
105.1237520299354
 20
135.4375152198591
 10
104.9968882001439
 20
135.4582073448219
 10
104.8715480140844
 20
135.4786517379799
  0
LWPOLYLINE
  5
87
330
1F
100
AcDbEntity
  8
0
  6
Continuous
 62
     7
370
    25
100
AcDbPolyline
 90
        9
 70
   128
 43
0.0
 10
104.8715480140844
 20
135.4786517379799
 10
104.8594929746786
 20
135.4047457037487
 10
104.847422102789
 20
135.330740018002
 10
104.8353400550285
 20
135.2566691396752
 10
104.8232533506551
 20
135.1825647337356
 10
104.8111657149592
 20
135.1084612591186
 10
104.7990836671987
 20
135.0343903807917
 10
104.7870127953091
 20
134.960384695045
 10
104.7749577559033
 20
134.8864777294912
  0
LWPOLYLINE
  5
88
330
1F
100
AcDbEntity
  8
0
  6
Continuous
 62
     7
370
    25
100
AcDbPolyline
 90
        9
 70
   128
 43
0.0
 10
104.7749577559033
 20
134.8864777294912
 10
104.9002979419628
 20
134.8660333363333
 10
105.0271608404317
 20
134.8453402800479
 10
105.1553881264725
 20
134.8244255689898
 10
105.2848168186346
 20
134.8033143488684
 10
105.4152839354673
 20
134.7820336280384
 10
105.546624632875
 20
134.7606104148545
 10
105.6786731354395
 20
134.7390717176714
 10
105.8112627364197
 20
134.7174445448437
  0
CIRCLE
  5
89
330
1F
100
AcDbEntity
  8
0
  6
Continuous
 62
     7
370
    25
100
AcDbCircle
 10
106.1556448213258
 20
134.9652364535251
 30
0.0
 40
2.349999999999956
  0
LWPOLYLINE
  5
8A
330
1F
100
AcDbEntity
  8
0
  6
Continuous
 62
     7
370
    25
100
AcDbPolyline
 90
        9
 70
   128
 43
0.0
 10
76.81126263956222
 20
134.7174445448437
 10
76.7896354667345
 20
134.5848549438634
 10
76.76809676955136
 20
134.452806441299
 10
76.74667355636748
 20
134.3214657438912
 10
76.72539283553752
 20
134.1909995583811
 10
76.70428161541614
 20
134.0615699348965
 10
76.68336597303542
 20
133.9333435801783
 10
76.66267384807261
 20
133.8064797503867
 10
76.64222945491466
 20
133.6811395643273
  0
LWPOLYLINE
  5
8B
330
1F
100
AcDbEntity
  8
0
  6
Continuous
 62
     7
370
    25
100
AcDbPolyline
 90
        9
 70
   128
 43
0.0
 10
76.64222945491466
 20
133.6811395643273
 10
76.71613548914584
 20
133.6690845249214
 10
76.79014117489251
 20
133.6570136530318
 10
76.8642120532194
 20
133.6449316052713
 10
76.93831645915898
 20
133.632844900898
 10
77.01241993377599
 20
133.6207572652021
 10
77.08649081210288
 20
133.6086752174416
 10
77.16049649784955
 20
133.596604345552
 10
77.23440346340331
 20
133.5845493061462
  0
LWPOLYLINE
  5
8C
330
1F
100
AcDbEntity
  8
0
  6
Continuous
 62
     7
370
    25
100
AcDbPolyline
 90
        9
 70
   128
 43
0.0
 10
78.4397416285673
 20
134.451821102015
 10
78.45179666797313
 20
134.5257271362462
 10
78.46386753986272
 20
134.5997328219929
 10
78.47594958762321
 20
134.6738037003198
 10
78.48803629199657
 20
134.7479081062594
 10
78.5001239276925
 20
134.8220115808764
 10
78.51220597545299
 20
134.8960824592033
 10
78.52427684734258
 20
134.9700881449499
 10
78.5363318867484
 20
135.0439951105037
  0
LWPOLYLINE
  5
8D
330
1F
100
AcDbEntity
  8
0
  6
Continuous
 62
     7
370
    25
100
AcDbPolyline
 90
        9
 70
   128
 43
0.0
 10
78.5363318867484
 20
135.0439951105037
 10
78.41099170068893
 20
135.0644395036616
 10
78.28412880221995
 20
135.085132559947
 10
78.15590151617917
 20
135.1060472710052
 10
78.02647282401713
 20
135.1271584911265
 10
77.8960057071844
 20
135.1484392119565
 10
77.76466500977668
 20
135.1698624251404
 10
77.63261650721225
 20
135.1914011223235
 10
77.50002690623197
 20
135.2130282951512
  0
LWPOLYLINE
  5
8E
330
1F
100
AcDbEntity
  8
0
  6
Continuous
 62
     7
370
    25
100
AcDbPolyline
 90
        9
 70
   128
 43
0.0
 10
77.6690610222021
 20
136.2493332756677
 10
77.59515405664834
 20
136.2613883150735
 10
77.52114837090167
 20
136.2734591869631
 10
77.44707749257478
 20
136.2855412347236
 10
77.3729730866352
 20
136.2976279390969
 10
77.29886961201819
 20
136.3097155747929
 10
77.2247987336913
 20
136.3217976225534
 10
77.15079304794463
 20
136.333868494443
 10
77.07688608239087
 20
136.3459235338488
  0
LWPOLYLINE
  5
8F
330
1F
100
AcDbEntity
  8
0
  6
Continuous
 62
     7
370
    25
100
AcDbPolyline
 90
        9
 70
   128
 43
0.0
 10
76.90785289774331
 20
135.3096185533323
 10
76.77526329676303
 20
135.3312457261601
 10
76.6432147941986
 20
135.3527844233432
 10
76.51187409679088
 20
135.3742076365271
 10
76.38140791128072
 20
135.395488357357
 10
76.25197921911868
 20
135.4165995774784
 10
76.1237519330779
 20
135.4375152198591
 10
75.99688810328635
 20
135.4582073448219
 10
75.87154884854945
 20
135.4786517379799
  0
LWPOLYLINE
  5
90
330
1F
100
AcDbEntity
  8
0
  6
Continuous
 62
     7
370
    25
100
AcDbPolyline
 90
        9
 70
   128
 43
0.0
 10
75.87154884854945
 20
135.4786517379799
 10
75.85949380914363
 20
135.4047457037487
 10
75.84742200593146
 20
135.330740018002
 10
75.83534088949355
 20
135.2566691396752
 10
75.82325232247504
 20
135.1825647337356
 10
75.81116561810168
 20
135.1084612591186
 10
75.79908450166377
 20
135.0343903807917
 10
75.78701269845161
 20
134.960384695045
 10
75.77495765904578
 20
134.8864777294912
  0
CIRCLE
  5
91
330
1F
100
AcDbEntity
  8
0
  6
Continuous
 62
     7
370
    25
100
AcDbCircle
 10
77.15564482132585
 20
134.9652364535251
 30
0.0
 40
2.349999999999958
  0
LWPOLYLINE
  5
92
330
1F
100
AcDbEntity
  8
0
  6
Continuous
 62
     7
370
    25
100
AcDbPolyline
 90
        9
 70
   128
 43
0.0
 10
77.40343664805087
 20
134.6208542866626
 10
77.53602624903115
 20
134.5992271138349
 10
77.66807475159558
 20
134.5776884166517
 10
77.79941544900331
 20
134.5562652034679
 10
77.92988256583604
 20
134.5349844826379
 10
78.05931125799808
 20
134.5138732625165
 10
78.18753761271628
 20
134.4929576201358
 10
78.31440144250783
 20
134.472265495173
 10
78.4397416285673
 20
134.451821102015
  0
LWPOLYLINE
  5
93
330
1F
100
AcDbEntity
  8
0
  6
Continuous
 62
     7
370
    25
100
AcDbPolyline
 90
        9
 70
   128
 43
0.0
 10
77.23440346340331
 20
133.5845493061462
 10
77.25484785656127
 20
133.7098894922056
 10
77.27554091284665
 20
133.8367523906746
 10
77.29645562390479
 20
133.9649796767154
 10
77.31756684402617
 20
134.0944083688774
 10
77.33884756485614
 20
134.2248754857102
 10
77.36027077804002
 20
134.3562161831179
 10
77.38180947522315
 20
134.4882646856823
 10
77.40343664805087
 20
134.6208542866626
  0
LWPOLYLINE
  5
94
330
1F
100
AcDbEntity
  8
0
  6
Continuous
 62
     7
370
    25
100
AcDbPolyline
 90
        9
 70
   128
 43
0.0
 10
75.77495765904578
 20
134.8864777294912
 10
75.90029691378268
 20
134.8660333363333
 10
76.0271616748968
 20
134.8453402800479
 10
76.15538802961501
 20
134.8244255689898
 10
76.28481672177705
 20
134.8033143488684
 10
76.41528383860978
 20
134.7820336280384
 10
76.5466245360175
 20
134.7606104148545
 10
76.67867303858193
 20
134.7390717176714
 10
76.81126263956222
 20
134.7174445448437
  0
LWPOLYLINE
  5
95
330
1F
100
AcDbEntity
  8
0
  6
Continuous
 62
     7
370
    25
100
AcDbPolyline
 90
        9
 70
   128
 43
0.0
 10
77.07688608239087
 20
136.3459235338488
 10
77.05644168923291
 20
136.2205833477893
 10
77.03574863294753
 20
136.0937204493203
 10
77.01483392188939
 20
135.9654931632795
 10
76.99372270176801
 20
135.8360644711175
 10
76.97244198093804
 20
135.7055973542848
 10
76.95101876775416
 20
135.5742566568771
 10
76.92948007057103
 20
135.4422081543126
 10
76.90785289774331
 20
135.3096185533323
  0
LWPOLYLINE
  5
96
330
1F
100
AcDbEntity
  8
0
  6
Continuous
 62
     7
370
    25
100
AcDbPolyline
 90
        9
 70
   128
 43
0.0
 10
77.50002690623197
 20
135.2130282951512
 10
77.52165407905969
 20
135.3456178961315
 10
77.54319277624282
 20
135.477666398696
 10
77.5646159894267
 20
135.6090070961037
 10
77.58589671025666
 20
135.7394742129364
 10
77.60700793037805
 20
135.8689029050984
 10
77.62792357275876
 20
135.9971292598167
 10
77.64861569772157
 20
136.1239930896082
 10
77.6690610222021
 20
136.2493332756677
  0
ARC
  5
97
330
1F
100
AcDbEntity
  8
0
  6
Continuous
 62
     7
370
    25
100
AcDbCircle
 10
84.65564482132588
 20
126.0527364535251
 30
0.0
 40
3.75
100
AcDbArc
 50
68.96053021868272
 51
86.17744627077568
  0
CIRCLE
  5
98
330
1F
100
AcDbEntity
  8
0
  6
Continuous
 62
     7
370
    25
100
AcDbCircle
 10
106.1556448213258
 20
134.9652364535251
 30
0.0
 40
2.500000000000028
  0
LINE
  5
99
330
1F
100
AcDbEntity
  8
0
  6
Continuous
 62
     7
370
    25
100
AcDbLine
 10
107.1556445680061
 20
137.9652373773971
 30
0.0
 11
76.15564507464561
 21
137.9652373773971
 31
0.0
  0
ARC
  5
9A
330
1F
100
AcDbEntity
  8
0
  6
Continuous
 62
     7
370
    25
100
AcDbCircle
 10
107.1556448213258
 20
135.9652364535251
 30
0.0
 40
2.000000000000028
100
AcDbArc
 50
0.0
 51
90.0
  0
ARC
  5
9B
330
1F
100
AcDbEntity
  8
0
  6
Continuous
 62
     7
370
    25
100
AcDbCircle
 10
107.1556448213258
 20
115.9652364535251
 30
0.0
 40
2.000000000000028
100
AcDbArc
 50
270.0000000000008
 51
0.0
  0
LINE
  5
9C
330
1F
100
AcDbEntity
  8
0
  6
Continuous
 62
     7
370
    25
100
AcDbLine
 10
107.1556445680061
 20
113.9652362374582
 30
0.0
 11
76.15564507464561
 21
113.9652362374582
 31
0.0
  0
ARC
  5
9D
330
1F
100
AcDbEntity
  8
0
  6
Continuous
 62
     7
370
    25
100
AcDbCircle
 10
76.15564482132587
 20
115.9652364535251
 30
0.0
 40
2.0
100
AcDbArc
 50
180.0
 51
270.0000000000008
  0
LINE
  5
9E
330
1F
100
AcDbEntity
  8
0
  6
Continuous
 62
     7
370
    25
100
AcDbLine
 10
74.15564474682006
 20
135.9652361182489
 30
0.0
 11
74.15564474682006
 21
115.9652365652838
 31
0.0
  0
CIRCLE
  5
9F
330
1F
100
AcDbEntity
  8
0
  6
Continuous
 62
     7
370
    25
100
AcDbCircle
 10
85.15564482132587
 20
126.0527364535251
 30
0.0
 40
3.749999999999985
  0
CIRCLE
  5
A0
330
1F
100
AcDbEntity
  8
0
  6
Continuous
 62
     7
370
    25
100
AcDbCircle
 10
96.65564482132591
 20
129.4527364535251
 30
0.0
 40
4.900000000000005
  0
CIRCLE
  5
A1
330
1F
100
AcDbEntity
  8
0
  6
Continuous
 62
     7
370
    25
100
AcDbCircle
 10
77.15564482132585
 20
134.9652364535251
 30
0.0
 40
2.5
  0
LINE
  5
A2
330
1F
100
AcDbEntity
  8
0
  6
Continuous
 62
     7
370
    25
100
AcDbLine
 10
109.1556448958316
 20
135.9652361182489
 30
0.0
 11
109.1556448958316
 21
115.9652365652838
 31
0.0
  0
ARC
  5
A3
330
1F
100
AcDbEntity
  8
0
  6
Continuous
 62
     7
370
    25
100
AcDbCircle
 10
76.15564482132587
 20
135.9652364535251
 30
0.0
 40
2.0
100
AcDbArc
 50
90.0
 51
180.0
  0
CIRCLE
  5
A4
330
1F
100
AcDbEntity
  8
0
  6
Continuous
 62
     7
370
    25
100
AcDbCircle
 10
96.65564482132589
 20
129.4527364535251
 30
0.0
 40
4.0
  0
LINE
  5
A5
330
1F
100
AcDbEntity
  8
0
  6
Continuous
 62
     7
370
    25
100
AcDbLine
 10
97.15564479152355
 20
133.2527367679396
 30
0.0
 11
96.15564462761078
 21
133.2527367679396
 31
0.0
  0
LINE
  5
A6
330
1F
100
AcDbEntity
  8
0
  6
Continuous
 62
     7
370
    25
100
AcDbLine
 10
96.15564462761078
 20
133.2527367679396
 30
0.0
 11
96.15564462761078
 21
132.9168385175982
 31
0.0
  0
ARC
  5
A7
330
1F
100
AcDbEntity
  8
0
  6
Continuous
 62
     7
370
    25
100
AcDbCircle
 10
96.65564482132589
 20
129.4527364535251
 30
0.0
 40
3.500000000000009
100
AcDbArc
 50
98.21321070173816
 51
81.78678929826183
  0
LINE
  5
A8
330
1F
100
AcDbEntity
  8
0
  6
Continuous
 62
     7
370
    25
100
AcDbLine
 10
97.15564479152355
 20
132.9168385175982
 30
0.0
 11
97.15564479152355
 21
133.2527367679396
 31
0.0
  0
CIRCLE
  5
A9
330
1F
100
AcDbEntity
  8
0
  6
Continuous
 62
     7
370
    25
100
AcDbCircle
 10
96.65564482132589
 20
129.4527364535251
 30
0.0
 40
4.500000000000014
  0
LINE
  5
AA
330
1F
100
AcDbEntity
  8
0
  6
Continuous
 62
     7
370
    25
100
AcDbLine
 10
98.71559240887556
 20
128.8628258092322
 30
0.0
 11
98.71559240887556
 21
128.944877190701
 31
0.0
  0
SPLINE
  5
AB
330
1F
100
AcDbEntity
  8
0
  6
Continuous
 62
     7
370
    25
100
AcDbSpline
210
0.0
220
0.0
230
1.0
 70
     8
 71
     3
 72
    11
 73
     7
 74
     0
 42
0.0000000001
 43
0.0000000001
 40
0.0
 40
0.0
 40
0.0
 40
0.0
 40
0.1255859792949676
 40
0.2511907854155874
 40
0.5006056672625526
 40
0.9999999999999998
 40
0.9999999999999998
 40
0.9999999999999998
 40
0.9999999999999998
 10
98.96174608762059
 20
128.6935951841989
 30
0.0
 10
98.96058258571516
 20
128.7075448480435
 30
0.0
 10
98.95825540748161
 20
128.7354462669527
 30
0.0
 10
98.93332327807787
 20
128.7858948408299
 30
0.0
 10
98.85890436996668
 20
128.8548214212547
 30
0.0
 10
98.77293015746307
 20
128.8596233299558
 30
0.0
 10
98.71559240887556
 20
128.8628258092322
 30
0.0
  0
LINE
  5
AC
330
1F
100
AcDbEntity
  8
0
  6
Continuous
 62
     7
370
    25
100
AcDbLine
 10
98.48995110983643
 20
128.6782106665888
 30
0.0
 11
98.56174583579097
 21
128.6782106665888
 31
0.0
  0
SPLINE
  5
AD
330
1F
100
AcDbEntity
  8
0
  6
Continuous
 62
     7
370
    25
100
AcDbSpline
210
0.0
220
0.0
230
1.0
 70
     8
 71
     3
 72
    11
 73
     7
 74
     0
 42
0.0000000001
 43
0.0000000001
 40
0.0
 40
0.0
 40
0.0
 40
0.0
 40
0.2800846490200197
 40
0.5598680699125341
 40
0.7800973062214192
 40
1.0
 40
1.0
 40
1.0
 40
1.0
 10
98.7588616556922
 20
129.2833384407678
 30
0.0
 10
98.7912521004727
 20
129.2798608139059
 30
0.0
 10
98.85599815444717
 20
129.2729093003337
 30
0.0
 10
98.93348106740184
 20
129.2215104672471
 30
0.0
 10
98.98268608739734
 20
129.1517405231932
 30
0.0
 10
98.98924039861704
 20
129.1008915114807
 30
0.0
 10
98.99251512284074
 20
129.0754858685651
 30
0.0
  0
LINE
  5
AE
330
1F
100
AcDbEntity
  8
0
  6
Continuous
 62
     7
370
    25
100
AcDbLine
 10
98.5925153366724
 20
129.0782109184184
 30
0.0
 11
98.52072061071787
 21
129.0782109184184
 31
0.0
  0
SPLINE
  5
AF
330
1F
100
AcDbEntity
  8
0
  6
Continuous
 62
     7
370
    25
100
AcDbSpline
210
0.0
220
0.0
230
1.0
 70
     8
 71
     3
 72
    10
 73
     6
 74
     0
 42
0.0000000001
 43
0.0000000001
 40
0.0
 40
0.0
 40
0.0
 40
0.0
 40
0.2806348628505029
 40
0.5603663495995224
 40
1.0
 40
1.0
 40
1.0
 40
1.0
 10
98.7598227805892
 20
129.201287059299
 30
0.0
 10
98.73901892014574
 20
129.1996337009908
 30
0.0
 10
98.69747816781062
 20
129.1963323066084
 30
0.0
 10
98.63134452620357
 20
129.1563261590653
 30
0.0
 10
98.60724409956588
 20
129.1078417418208
 30
0.0
 10
98.5925153366724
 20
129.0782109184184
 30
0.0
  0
LINE
  5
B0
330
1F
100
AcDbEntity
  8
0
  6
Continuous
 62
     7
370
    25
100
AcDbLine
 10
98.86943851629887
 20
130.0961595309892
 30
0.0
 11
98.86943851629887
 21
130.2807746736326
 31
0.0
  0
LINE
  5
B1
330
1F
100
AcDbEntity
  8
0
  6
Continuous
 62
     7
370
    25
100
AcDbLine
 10
98.9412332422534
 20
130.0961595309892
 30
0.0
 11
98.86943851629887
 21
130.0961595309892
 31
0.0
  0
LINE
  5
B2
330
1F
100
AcDbEntity
  8
0
  6
Continuous
 62
     7
370
    25
100
AcDbLine
 10
98.48995110983643
 20
130.2807746736326
 30
0.0
 11
98.92665012771878
 21
130.9166724143543
 31
0.0
  0
CIRCLE
  5
B3
330
1F
100
AcDbEntity
  8
0
  6
Continuous
 62
     7
370
    25
100
AcDbCircle
 10
97.9556448213259
 20
130.7527364535251
 30
0.0
 40
0.5
  0
CIRCLE
  5
B4
330
1F
100
AcDbEntity
  8
0
  6
Continuous
 62
     7
370
    25
100
AcDbCircle
 10
95.35564482132588
 20
128.1527364535251
 30
0.0
 40
0.5
  0
CIRCLE
  5
B5
330
1F
100
AcDbEntity
  8
0
  6
Continuous
 62
     7
370
    25
100
AcDbCircle
 10
96.65564482132589
 20
129.4527364535251
 30
0.0
 40
3.099999999999994
  0
CIRCLE
  5
B6
330
1F
100
AcDbEntity
  8
0
  6
Continuous
 62
     7
370
    25
100
AcDbCircle
 10
95.35564482132588
 20
130.7527364535251
 30
0.0
 40
0.5
  0
CIRCLE
  5
B7
330
1F
100
AcDbEntity
  8
0
  6
Continuous
 62
     7
370
    25
100
AcDbCircle
 10
97.9556448213259
 20
128.1527364535251
 30
0.0
 40
0.5
  0
LINE
  5
B8
330
1F
100
AcDbEntity
  8
0
  6
Continuous
 62
     7
370
    25
100
AcDbLine
 10
94.42841261657568
 20
130.0961595309892
 30
0.0
 11
94.42841261657568
 21
130.8141077218571
 31
0.0
  0
LINE
  5
B9
330
1F
100
AcDbEntity
  8
0
  6
Continuous
 62
     7
370
    25
100
AcDbLine
 10
94.50020757536085
 20
130.0961595309892
 30
0.0
 11
94.42841261657568
 21
130.0961595309892
 31
0.0
  0
LINE
  5
BA
330
1F
100
AcDbEntity
  8
0
  6
Continuous
 62
     7
370
    25
100
AcDbLine
 10
94.50020757536085
 20
130.8961591033259
 30
0.0
 11
94.50020757536085
 21
130.0961595309892
 31
0.0
  0
LINE
  5
BB
330
1F
100
AcDbEntity
  8
0
  6
Continuous
 62
     7
370
    25
100
AcDbLine
 10
94.35229096593948
 20
130.8961591033259
 30
0.0
 11
94.50020757536085
 21
130.8961591033259
 31
0.0
  0
LINE
  5
BC
330
1F
100
AcDbEntity
  8
0
  6
Continuous
 62
     7
370
    25
100
AcDbLine
 10
94.30533577720316
 20
130.8141077218571
 30
0.0
 11
94.35229096593948
 21
130.8961591033259
 31
0.0
  0
LINE
  5
BD
330
1F
100
AcDbEntity
  8
0
  6
Continuous
 62
     7
370
    25
100
AcDbLine
 10
94.42841261657568
 20
130.8141077218571
 30
0.0
 11
94.30533577720316
 21
130.8141077218571
 31
0.0
  0
SPLINE
  5
BE
330
1F
100
AcDbEntity
  8
0
  6
Continuous
 62
     7
370
    25
100
AcDbSpline
210
0.0
220
0.0
230
1.0
 70
     8
 71
     3
 72
    10
 73
     6
 74
     0
 42
0.0000000001
 43
0.0000000001
 40
0.0
 40
0.0
 40
0.0
 40
0.0
 40
0.5607180774939828
 40
0.7805319041365449
 40
1.0
 40
1.0
 40
1.0
 40
1.0
 10
94.49251531655582
 20
128.7939153892913
 30
0.0
 10
94.53089827317976
 20
128.8334257869353
 30
0.0
 10
94.58432819353111
 20
128.8884251299993
 30
0.0
 10
94.63734159676382
 20
128.9737744202453
 30
0.0
 10
94.64164650169367
 20
129.0173412212838
 30
0.0
 10
94.64379726010056
 20
129.039107477478
 30
0.0
  0
LINE
  5
BF
330
1F
100
AcDbEntity
  8
0
  6
Continuous
 62
     7
370
    25
100
AcDbLine
 10
94.18225893783064
 20
128.4628260230639
 30
0.0
 11
94.49251531655582
 21
128.7939153892913
 31
0.0
  0
LINE
  5
C0
330
1F
100
AcDbEntity
  8
0
  6
Continuous
 62
     7
370
    25
100
AcDbLine
 10
94.72584864156933
 20
128.4628260230639
 30
0.0
 11
94.18225893783064
 21
128.4628260230639
 31
0.0
  0
LINE
  5
C1
330
1F
100
AcDbEntity
  8
0
  6
Continuous
 62
     7
370
    25
100
AcDbLine
 10
94.72584864156933
 20
128.5448769388714
 30
0.0
 11
94.72584864156933
 21
128.4628260230639
 31
0.0
  0
LINE
  5
C2
330
1F
100
AcDbEntity
  8
0
  6
Continuous
 62
     7
370
    25
100
AcDbLine
 10
94.35357293146344
 20
128.5448769388714
 30
0.0
 11
94.72584864156933
 21
128.5448769388714
 31
0.0
  0
LINE
  5
C3
330
1F
100
AcDbEntity
  8
0
  6
Continuous
 62
     7
370
    25
100
AcDbLine
 10
94.55373324486108
 20
128.7584990544238
 30
0.0
 11
94.35357293146344
 21
128.5448769388714
 31
0.0
  0
SPLINE
  5
C4
330
1F
100
AcDbEntity
  8
0
  6
Continuous
 62
     7
370
    25
100
AcDbSpline
210
0.0
220
0.0
230
1.0
 70
     8
 71
     3
 72
    10
 73
     6
 74
     0
 42
0.0000000001
 43
0.0000000001
 40
0.0
 40
0.0
 40
0.0
 40
0.0
 40
0.279287551910338
 40
0.5591532368179856
 40
1.0
 40
1.0
 40
1.0
 40
1.0
 10
94.71559221888574
 20
129.0455177707591
 30
0.0
 10
94.71234251195632
 20
129.0137886639614
 30
0.0
 10
94.70583637111376
 20
128.9502647702328
 30
0.0
 10
94.64186470975922
 20
128.8543333546889
 30
0.0
 10
94.58718179458443
 20
128.7948710625519
 30
0.0
 10
94.55373324486108
 20
128.7584990544238
 30
0.0
  0
SPLINE
  5
C5
330
1F
100
AcDbEntity
  8
0
  6
Continuous
 62
     7
370
    25
100
AcDbSpline
210
0.0
220
0.0
230
1.0
 70
     8
 71
     3
 72
    11
 73
     7
 74
     0
 42
0.0000000001
 43
0.0000000001
 40
0.0
 40
0.0
 40
0.0
 40
0.0
 40
0.2798898151361836
 40
0.5592233253248608
 40
0.7795825544917431
 40
1.0
 40
1.0
 40
1.0
 40
1.0
 10
94.4739256523052
 20
129.2833384407678
 30
0.0
 10
94.50959681906518
 20
129.2800088261883
 30
0.0
 10
94.58086825309008
 20
129.2733562149231
 30
0.0
 10
94.66006560470516
 20
129.2082075422323
 30
0.0
 10
94.70803480034634
 20
129.1291613532276
 30
0.0
 10
94.71307285756923
 20
129.0734014197785
 30
0.0
 10
94.71559221888574
 20
129.0455177707591
 30
0.0
  0
SPLINE
  5
C6
330
1F
100
AcDbEntity
  8
0
  6
Continuous
 62
     7
370
    25
100
AcDbSpline
210
0.0
220
0.0
230
1.0
 70
     8
 71
     3
 72
    11
 73
     7
 74
     0
 42
0.0000000001
 43
0.0000000001
 40
0.0
 40
0.0
 40
0.0
 40
0.0
 40
0.2800285103496072
 40
0.5595140044854928
 40
0.7796674539407205
 40
1.0
 40
1.0
 40
1.0
 40
1.0
 10
94.21302820588143
 20
129.0166719166555
 30
0.0
 10
94.21768970830033
 20
129.0555621336533
 30
0.0
 10
94.22700367380354
 20
129.1332671538332
 30
0.0
 10
94.29526141369395
 20
129.2221328419927
 30
0.0
 10
94.38210687970039
 20
129.2754914452806
 30
0.0
 10
94.44331109978996
 20
129.2807220667016
 30
0.0
 10
94.4739256523052
 20
129.2833384407678
 30
0.0
  0
LINE
  5
C7
330
1F
100
AcDbEntity
  8
0
  6
Continuous
 62
     7
370
    25
100
AcDbLine
 10
94.28482293183597
 20
129.0166719166555
 30
0.0
 11
94.21302820588143
 21
129.0166719166555
 31
0.0
  0
SPLINE
  5
C8
330
1F
100
AcDbEntity
  8
0
  6
Continuous
 62
     7
370
    25
100
AcDbSpline
210
0.0
220
0.0
230
1.0
 70
     8
 71
     3
 72
    11
 73
     7
 74
     0
 42
0.0000000001
 43
0.0000000001
 40
0.0
 40
0.0
 40
0.0
 40
0.0
 40
0.2796986963546184
 40
0.5588475279755614
 40
0.7791771254740857
 40
1.0
 40
1.0
 40
1.0
 40
1.0
 10
94.47023971038552
 20
129.201287059299
 30
0.0
 10
94.44291255854659
 20
129.19849687883
 30
0.0
 10
94.38831197781153
 20
129.1929220031581
 30
0.0
 10
94.3265771425098
 20
129.1430349152919
 30
0.0
 10
94.29332735323779
 20
129.0804202977907
 30
0.0
 10
94.28765985135255
 20
129.0379372112651
 30
0.0
 10
94.28482293183597
 20
129.0166719166555
 30
0.0
  0
SPLINE
  5
C9
330
1F
100
AcDbEntity
  8
0
  6
Continuous
 62
     7
370
    25
100
AcDbSpline
210
0.0
220
0.0
230
1.0
 70
     8
 71
     3
 72
    11
 73
     7
 74
     0
 42
0.0000000001
 43
0.0000000001
 40
0.0
 40
0.0
 40
0.0
 40
0.0
 40
0.2791276641083014
 40
0.5589801742451104
 40
0.7793510751162437
 40
1.0
 40
1.0
 40
1.0
 40
1.0
 10
94.64379726010056
 20
129.039107477478
 30
0.0
 10
94.64043412057938
 20
129.0638398060062
 30
0.0
 10
94.63369910804823
 20
129.1133686886211
 30
0.0
 10
94.58486612123037
 20
129.165731761289
 30
0.0
 10
94.5286198818345
 20
129.1968420933102
 30
0.0
 10
94.48970794438073
 20
129.1998047813984
 30
0.0
 10
94.47023971038552
 20
129.201287059299
 30
0.0
  0
SPLINE
  5
CA
330
1F
100
AcDbEntity
  8
0
  6
Continuous
 62
     7
370
    25
100
AcDbSpline
210
0.0
220
0.0
230
1.0
 70
     8
 71
     3
 72
    11
 73
     7
 74
     0
 42
0.0000000001
 43
0.0000000001
 40
0.0
 40
0.0
 40
0.0
 40
0.0
 40
0.499419240912443
 40
0.7490158207317326
 40
0.8745450639931878
 40
1.0
 40
1.0
 40
1.0
 40
1.0
 10
98.71559240887556
 20
128.944877190701
 30
0.0
 10
98.76078552662511
 20
128.9490567929478
 30
0.0
 10
98.8285649740504
 20
128.9553252502894
 30
0.0
 10
98.89482662672154
 20
129.0022622333649
 30
0.0
 10
98.9174992918755
 20
129.042074018335
 30
0.0
 10
98.91964690715946
 20
129.0645643879914
 30
0.0
 10
98.92072039688621
 20
129.0758062435308
 30
0.0
  0
SPLINE
  5
CB
330
1F
100
AcDbEntity
  8
0
  6
Continuous
 62
     7
370
    25
100
AcDbSpline
210
0.0
220
0.0
230
1.0
 70
     8
 71
     3
 72
    10
 73
     6
 74
     0
 42
0.0000000001
 43
0.0000000001
 40
0.0
 40
0.0
 40
0.0
 40
0.0
 40
0.278861739015218
 40
0.5600738393535624
 40
1.0
 40
1.0
 40
1.0
 40
1.0
 10
98.92072039688621
 20
129.0758062435308
 30
0.0
 10
98.91666691024985
 20
129.0967460669891
 30
0.0
 10
98.90852577252617
 20
129.1388022033424
 30
0.0
 10
98.8472828317092
 20
129.1906111644393
 30
0.0
 10
98.79296130742917
 20
129.1972419732989
 30
0.0
 10
98.7598227805892
 20
129.201287059299
 30
0.0
  0
SPLINE
  5
CC
330
1F
100
AcDbEntity
  8
0
  6
Continuous
 62
     7
370
    25
100
AcDbSpline
210
0.0
220
0.0
230
1.0
 70
     8
 71
     3
 72
    11
 73
     7
 74
     0
 42
0.0000000001
 43
0.0000000001
 40
0.0
 40
0.0
 40
0.0
 40
0.0
 40
0.279304126944792
 40
0.5588379083061975
 40
0.7792773429745923
 40
0.9999999999999998
 40
0.9999999999999998
 40
0.9999999999999998
 40
0.9999999999999998
 10
99.03354081357512
 20
128.7004860399284
 30
0.0
 10
99.02780156395422
 20
128.6612243743461
 30
0.0
 10
99.01631834568439
 20
128.582668760755
 30
0.0
 10
98.94122310698769
 20
128.4963745051971
 30
0.0
 10
98.84971973978785
 20
128.4494947722615
 30
0.0
 10
98.78777202796134
 20
128.4447080668932
 30
0.0
 10
98.75677828709278
 20
128.4423131776967
 30
0.0
  0
LINE
  5
CD
330
1F
100
AcDbEntity
  8
0
  6
Continuous
 62
     7
370
    25
100
AcDbLine
 10
98.9412332422534
 20
130.2807746736326
 30
0.0
 11
98.9412332422534
 21
130.0961595309892
 31
0.0
  0
LINE
  5
CE
330
1F
100
AcDbEntity
  8
0
  6
Continuous
 62
     7
370
    25
100
AcDbLine
 10
99.03354081357512
 20
130.2807746736326
 30
0.0
 11
98.9412332422534
 21
130.2807746736326
 31
0.0
  0
LINE
  5
CF
330
1F
100
AcDbEntity
  8
0
  6
Continuous
 62
     7
370
    25
100
AcDbLine
 10
99.03354081357512
 20
130.3628260551014
 30
0.0
 11
99.03354081357512
 21
130.2807746736326
 31
0.0
  0
LINE
  5
D0
330
1F
100
AcDbEntity
  8
0
  6
Continuous
 62
     7
370
    25
100
AcDbLine
 10
98.9412332422534
 20
130.3628260551014
 30
0.0
 11
99.03354081357512
 21
130.3628260551014
 31
0.0
  0
SPLINE
  5
D1
330
1F
100
AcDbEntity
  8
0
  6
Continuous
 62
     7
370
    25
100
AcDbSpline
210
0.0
220
0.0
230
1.0
 70
     8
 71
     3
 72
     9
 73
     5
 74
     0
 42
0.0000000001
 43
0.0000000001
 40
0.0
 40
0.0
 40
0.0
 40
0.0
 40
0.560693606147151
 40
1.0
 40
1.0
 40
1.0
 40
1.0
 10
98.56174583579097
 20
128.6782106665888
 30
0.0
 10
98.56906963101085
 20
128.6549519113404
 30
0.0
 10
98.58213165836341
 20
128.6134697988402
 30
0.0
 10
98.61150309154178
 20
128.581623585473
 30
0.0
 10
98.62440614993367
 20
128.5676333403208
 30
0.0
  0
LINE
  5
D2
330
1F
100
AcDbEntity
  8
0
  6
Continuous
 62
     7
370
    25
100
AcDbLine
 10
98.92665012771878
 20
130.9166724143543
 30
0.0
 11
98.9412332422534
 21
130.9166724143543
 31
0.0
  0
SPLINE
  5
D3
330
1F
100
AcDbEntity
  8
0
  6
Continuous
 62
     7
370
    25
100
AcDbSpline
210
0.0
220
0.0
230
1.0
 70
     8
 71
     3
 72
    11
 73
     7
 74
     0
 42
0.0000000001
 43
0.0000000001
 40
0.0
 40
0.0
 40
0.0
 40
0.0
 40
0.2798862772092316
 40
0.5589784561269614
 40
0.7792622405564163
 40
0.9999999999999998
 40
0.9999999999999998
 40
0.9999999999999998
 40
0.9999999999999998
 10
98.75677828709278
 20
128.4423131776967
 30
0.0
 10
98.72007035317359
 20
128.4455267448647
 30
0.0
 10
98.64675863373404
 20
128.451944761611
 30
0.0
 10
98.56015943125806
 20
128.5133665109804
 30
0.0
 10
98.50986626684488
 20
128.5941867946356
 30
0.0
 10
98.49659404952006
 20
128.6501834954682
 30
0.0
 10
98.48995110983643
 20
128.6782106665888
 30
0.0
  0
SPLINE
  5
D4
330
1F
100
AcDbEntity
  8
0
  6
Continuous
 62
     7
370
    25
100
AcDbSpline
210
0.0
220
0.0
230
1.0
 70
     8
 71
     3
 72
    11
 73
     7
 74
     0
 42
0.0000000001
 43
0.0000000001
 40
0.0
 40
0.0
 40
0.0
 40
0.0
 40
0.2802870955312293
 40
0.5596781129702472
 40
0.7797451672910717
 40
1.0
 40
1.0
 40
1.0
 40
1.0
 10
98.52072061071787
 20
129.0782109184184
 30
0.0
 10
98.52993834517288
 20
129.108977316564
 30
0.0
 10
98.54834434497773
 20
129.1704117526531
 30
0.0
 10
98.60947839893668
 20
129.2384150260817
 30
0.0
 10
98.68344220617817
 20
129.2774651855725
 30
0.0
 10
98.73371469283483
 20
129.2813801325171
 30
0.0
 10
98.7588616556922
 20
129.2833384407678
 30
0.0
  0
SPLINE
  5
D5
330
1F
100
AcDbEntity
  8
0
  6
Continuous
 62
     7
370
    25
100
AcDbSpline
210
0.0
220
0.0
230
1.0
 70
     8
 71
     3
 72
     9
 73
     5
 74
     0
 42
0.0000000001
 43
0.0000000001
 40
0.0
 40
0.0
 40
0.0
 40
0.0
 40
0.5594202816492762
 40
1.0
 40
1.0
 40
1.0
 40
1.0
 10
98.98578445459399
 20
128.842633804492
 30
0.0
 10
99.00112575756057
 20
128.8181476615756
 30
0.0
 10
99.0285493306233
 20
128.7743770945805
 30
0.0
 10
99.0320142433166
 20
128.7230845116635
 30
0.0
 10
99.03354081357512
 20
128.7004860399284
 30
0.0
  0
SPLINE
  5
D6
330
1F
100
AcDbEntity
  8
0
  6
Continuous
 62
     7
370
    25
100
AcDbSpline
210
0.0
220
0.0
230
1.0
 70
     8
 71
     3
 72
     9
 73
     5
 74
     0
 42
0.0000000001
 43
0.0000000001
 40
0.0
 40
0.0
 40
0.0
 40
0.0
 40
0.5597946715791863
 40
1.0
 40
1.0
 40
1.0
 40
1.0
 10
98.89908577347789
 20
128.910902543179
 30
0.0
 10
98.91771544257565
 20
128.9011790213674
 30
0.0
 10
98.95099491100149
 20
128.8838092207865
 30
0.0
 10
98.97515087189537
 20
128.8552192583124
 30
0.0
 10
98.98578445459399
 20
128.842633804492
 30
0.0
  0
SPLINE
  5
D7
330
1F
100
AcDbEntity
  8
0
  6
Continuous
 62
     7
370
    25
100
AcDbSpline
210
0.0
220
0.0
230
1.0
 70
     8
 71
     3
 72
    10
 73
     6
 74
     0
 42
0.0000000001
 43
0.0000000001
 40
0.0
 40
0.0
 40
0.0
 40
0.0
 40
0.2805071133924602
 40
0.5607924082267726
 40
1.0
 40
1.0
 40
1.0
 40
1.0
 10
98.99251512284074
 20
129.0754858685651
 30
0.0
 10
98.99121429936265
 20
129.0570019731882
 30
0.0
 10
98.98861368106768
 20
129.0200487990727
 30
0.0
 10
98.95979030792432
 20
128.9586531948734
 30
0.0
 10
98.92209594123166
 20
128.9290025173549
 30
0.0
 10
98.89908577347789
 20
128.910902543179
 30
0.0
  0
SPLINE
  5
D8
330
1F
100
AcDbEntity
  8
0
  6
Continuous
 62
     7
370
    25
100
AcDbSpline
210
0.0
220
0.0
230
1.0
 70
     8
 71
     3
 72
    11
 73
     7
 74
     0
 42
0.0000000001
 43
0.0000000001
 40
0.0
 40
0.0
 40
0.0
 40
0.0
 40
0.2805992488315109
 40
0.5601502868260864
 40
0.7803015489090419
 40
1.0
 40
1.0
 40
1.0
 40
1.0
 10
98.75806025261674
 20
128.5243640935042
 30
0.0
 10
98.78580168961029
 20
128.5262184487778
 30
0.0
 10
98.84118093226193
 20
128.5299202321672
 30
0.0
 10
98.90821321493932
 20
128.571431106676
 30
0.0
 10
98.95369957118994
 20
128.6284244514633
 30
0.0
 10
98.95906575691501
 20
128.6718865208833
 30
0.0
 10
98.96174608762059
 20
128.6935951841989
 30
0.0
  0
SPLINE
  5
D9
330
1F
100
AcDbEntity
  8
0
  6
Continuous
 62
     7
370
    25
100
AcDbSpline
210
0.0
220
0.0
230
1.0
 70
     8
 71
     3
 72
     9
 73
     5
 74
     0
 42
0.0000000001
 43
0.0000000001
 40
0.0
 40
0.0
 40
0.0
 40
0.0
 40
0.5587488389302564
 40
1.0
 40
1.0
 40
1.0
 40
1.0
 10
98.62440614993367
 20
128.5676333403208
 30
0.0
 10
98.64739589667102
 20
128.5532547668699
 30
0.0
 10
98.68854094277331
 20
128.5275212486071
 30
0.0
 10
98.73677633138651
 20
128.5253306830844
 30
0.0
 10
98.75806025261674
 20
128.5243640935042
 30
0.0
  0
LINE
  5
DA
330
1F
100
AcDbEntity
  8
0
  6
Continuous
 62
     7
370
    25
100
AcDbLine
 10
98.86943851629887
 20
130.2807746736326
 30
0.0
 11
98.48995110983643
 21
130.2807746736326
 31
0.0
  0
LINE
  5
DB
330
1F
100
AcDbEntity
  8
0
  6
Continuous
 62
     7
370
    25
100
AcDbLine
 10
98.9412332422534
 20
130.9166724143543
 30
0.0
 11
98.9412332422534
 21
130.3628260551014
 31
0.0
  0
LINE
  5
DC
330
1F
100
AcDbEntity
  8
0
  6
Continuous
 62
     7
370
    25
100
AcDbLine
 10
98.86943851629887
 20
130.7102615294972
 30
0.0
 11
98.63097663069758
 21
130.3628260551014
 31
0.0
  0
LINE
  5
DD
330
1F
100
AcDbEntity
  8
0
  6
Continuous
 62
     7
370
    25
100
AcDbLine
 10
98.63097663069758
 20
130.3628260551014
 30
0.0
 11
98.86943851629887
 21
130.3628260551014
 31
0.0
  0
LINE
  5
DE
330
1F
100
AcDbEntity
  8
0
  6
Continuous
 62
     7
370
    25
100
AcDbLine
 10
98.86943851629887
 20
130.3628260551014
 30
0.0
 11
98.86943851629887
 21
130.7102615294972
 31
0.0
  0
CIRCLE
  5
DF
330
1F
100
AcDbEntity
  8
0
  6
Continuous
 62
     7
370
    25
100
AcDbCircle
 10
85.15564482132583
 20
126.0527364535251
 30
0.0
 40
3.100000000000022
  0
CIRCLE
  5
E0
330
1F
100
AcDbEntity
  8
0
  6
Continuous
 62
     7
370
    25
100
AcDbCircle
 10
85.15564482132583
 20
126.0527364535251
 30
0.0
 40
3.400000000000005
  0
CIRCLE
  5
E1
330
1F
100
AcDbEntity
  8
0
  6
Continuous
 62
     7
370
    25
100
AcDbCircle
 10
85.15564482132583
 20
126.0527364535251
 30
0.0
 40
2.549999999999997
  0
CIRCLE
  5
E2
330
1F
100
AcDbEntity
  8
0
  6
Continuous
 62
     7
370
    25
100
AcDbCircle
 10
85.15564482132583
 20
126.0527364535251
 30
0.0
 40
1.099999999999994
  0
CIRCLE
  5
E3
330
1F
100
AcDbEntity
  8
0
  6
Continuous
 62
     7
370
    25
100
AcDbCircle
 10
85.15564482132583
 20
126.0527364535251
 30
0.0
 40
0.5
  0
LINE
  5
E4
330
1F
100
AcDbEntity
  8
0
  6
Continuous
 62
     7
370
    25
100
AcDbLine
 10
88.65564479524882
 20
127.3990274688223
 30
0.0
 11
88.65564479524882
 21
124.706445150263
 31
0.0
  0
LINE
  5
E5
330
1F
100
AcDbEntity
  8
0
  6
Continuous
 62
     7
370
    25
100
AcDbLine
 10
83.80935364435108
 20
129.5527365339913
 30
0.0
 11
86.50193619574102
 21
129.5527365339913
 31
0.0
  0
LINE
  5
E6
330
1F
100
AcDbEntity
  8
0
  6
Continuous
 62
     7
370
    25
100
AcDbLine
 10
81.65564504484327
 20
127.3990274688223
 30
0.0
 11
81.65564504484327
 21
124.706445150263
 31
0.0
  0
LINE
  5
E7
330
1F
100
AcDbEntity
  8
0
  6
Continuous
 62
     7
370
    25
100
AcDbLine
 10
81.45564445326717
 20
126.6630642397323
 30
0.0
 11
81.45564445326717
 21
125.4424086121836
 31
0.0
  0
LINE
  5
E8
330
1F
100
AcDbEntity
  8
0
  6
Continuous
 62
     7
370
    25
100
AcDbLine
 10
83.80935364435108
 20
122.5527364343398
 30
0.0
 11
86.50193619574102
 21
122.5527364343398
 31
0.0
  0
LEADER
  5
F1
330
1F
100
AcDbEntity
  8
0
  6
Continuous
 62
     7
370
     0
100
AcDbLeader
  3
DATASHEET
 76
     3
 10
83.66452926965232
 20
128.7705617627673
 30
0.0
 10
74.99131020593233
 20
152.8918737266607
 30
0.0
 10
68.64131020593234
 20
152.8918737266607
 30
0.0
  0
LEADER
  5
F8
330
1F
100
AcDbEntity
  8
0
  6
Continuous
 62
     7
370
     0
100
AcDbLeader
  3
DATASHEET
 76
     3
 10
98.92047097569186
 20
133.3412532003708
 30
0.0
 10
105.8074392381903
 20
154.0531640492413
 30
0.0
 10
112.1574392381903
 20
154.0531640492413
 30
0.0
  0
INSERT
  5
100
330
1F
100
AcDbEntity
  8
0
  6
Continuous
 62
     7
370
    18
100
AcDbBlockReference
  2
SW_CENTERMARKSYMBOL_0
 10
85.15564482132583
 20
126.0527364535251
 30
0.0
  0
INSERT
  5
108
330
1F
100
AcDbEntity
  8
0
  6
Continuous
 62
     7
370
    18
100
AcDbBlockReference
  2
SW_CENTERMARKSYMBOL_1
 10
96.65564482132589
 20
129.4527364535251
 30
0.0
  0
LINE
  5
109
330
1F
100
AcDbEntity
  8
0
  6
Continuous
 62
     7
370
    25
100
AcDbLine
 10
208.5587708473715
 20
122.5527364343398
 30
0.0
 11
208.5587708473715
 21
122.5652364131057
 31
0.0
  0
LINE
  5
10A
330
1F
100
AcDbEntity
  8
0
  6
Continuous
 62
     7
370
    25
100
AcDbLine
 10
204.558771123043
 20
122.5652364131057
 30
0.0
 11
204.558771123043
 21
122.5527364343398
 31
0.0
  0
LINE
  5
10B
330
1F
100
AcDbEntity
  8
0
  6
Continuous
 62
     7
370
    25
100
AcDbLine
 10
161.5587696627292
 20
122.5527364343398
 30
0.0
 11
161.5587696627292
 21
122.5652364131057
 31
0.0
  0
LINE
  5
10C
330
1F
100
AcDbEntity
  8
0
  6
Continuous
 62
     7
370
    25
100
AcDbLine
 10
157.5587690070781
 20
122.5652364131057
 30
0.0
 11
157.5587690070781
 21
122.5527364343398
 31
0.0
  0
ARC
  5
10D
330
1F
100
AcDbEntity
  8
0
  6
Continuous
 62
     7
370
    25
100
AcDbCircle
 10
213.1587707356128
 20
116.9652364535251
 30
0.0
 40
3.810839802458266
100
AcDbArc
 50
14.871428551916
 51
34.25002982058754
  0
ARC
  5
10E
330
1F
100
AcDbEntity
  8
0
  6
Continuous
 62
     7
370
    25
100
AcDbCircle
 10
213.1587707356128
 20
116.9652364535251
 30
0.0
 40
3.810839802458275
100
AcDbArc
 50
325.7499701794135
 51
345.1285714480834
  0
ARC
  5
10F
330
1F
100
AcDbEntity
  8
0
  6
Continuous
 62
     7
370
    25
100
AcDbCircle
 10
152.9587707356129
 20
134.9652364535251
 30
0.0
 40
3.810839802458247
100
AcDbArc
 50
201.03475650284
 51
214.2500298205874
  0
ARC
  5
110
330
1F
100
AcDbEntity
  8
0
  6
Continuous
 62
     7
370
    25
100
AcDbCircle
 10
152.9587707356129
 20
134.9652364535251
 30
0.0
 40
3.810839802458274
100
AcDbArc
 50
145.7499701794124
 51
158.9652434971609
  0
LINE
  5
111
330
1F
100
AcDbEntity
  8
0
  6
Continuous
 62
     7
370
    25
100
AcDbLine
 10
143.8658461168918
 20
133.9527365101495
 30
0.0
 11
143.5687691167507
 21
133.9527365101495
 31
0.0
  0
LINE
  5
112
330
1F
100
AcDbEntity
  8
0
  6
Continuous
 62
     7
370
    25
100
AcDbLine
 10
149.2875218585643
 20
133.9527365101495
 30
0.0
 11
147.2516954139385
 21
133.9527365101495
 31
0.0
  0
LINE
  5
113
330
1F
100
AcDbEntity
  8
0
  6
Continuous
 62
     7
370
    25
100
AcDbLine
 10
143.5687691167507
 20
124.9527364319184
 30
0.0
 11
149.8087719277057
 21
124.9527364319184
 31
0.0
  0
LINE
  5
114
330
1F
100
AcDbEntity
  8
0
  6
Continuous
 62
     7
370
    25
100
AcDbLine
 10
143.5687691167507
 20
133.9527365101495
 30
0.0
 11
143.0687681034717
 21
133.4527364281931
 31
0.0
  0
LINE
  5
115
330
1F
100
AcDbEntity
  8
0
  6
Continuous
 62
     7
370
    25
100
AcDbLine
 10
143.0687681034717
 20
125.4527365138748
 30
0.0
 11
143.5687691167507
 21
124.9527364319184
 31
0.0
  0
LINE
  5
116
330
1F
100
AcDbEntity
  8
0
  6
Continuous
 62
     7
370
    25
100
AcDbLine
 10
144.3587690786037
 20
122.6527364972972
 30
0.0
 11
149.8087719277057
 21
122.6527364972972
 31
0.0
  0
LINE
  5
117
330
1F
100
AcDbEntity
  8
0
  6
Continuous
 62
     7
370
    25
100
AcDbLine
 10
144.0587714508686
 20
122.9527365697541
 30
0.0
 11
144.3587690786037
 21
122.6527364972972
 31
0.0
  0
LINE
  5
118
330
1F
100
AcDbEntity
  8
0
  6
Continuous
 62
     7
370
    25
100
AcDbLine
 10
221.2587706938896
 20
122.6527364972972
 30
0.0
 11
221.5587711155925
 21
122.9527365697541
 31
0.0
  0
LINE
  5
119
330
1F
100
AcDbEntity
  8
0
  6
Continuous
 62
     7
370
    25
100
AcDbLine
 10
221.5587711155925
 20
129.1527362821617
 30
0.0
 11
221.2587706938896
 21
129.4527367038646
 31
0.0
  0
LINE
  5
11A
330
1F
100
AcDbEntity
  8
0
  6
Continuous
 62
     7
370
    25
100
AcDbLine
 10
216.3087707207117
 20
122.6527364972972
 30
0.0
 11
221.2587706938896
 21
122.6527364972972
 31
0.0
  0
LINE
  5
11B
330
1F
100
AcDbEntity
  8
0
  6
Continuous
 62
     7
370
    25
100
AcDbLine
 10
221.2587706938896
 20
129.4527367038646
 30
0.0
 11
216.3087707207117
 21
129.4527367038646
 31
0.0
  0
LINE
  5
11C
330
1F
100
AcDbEntity
  8
0
  6
Continuous
 62
     7
370
    25
100
AcDbLine
 10
153.5587720767173
 20
138.2192369831719
 30
0.0
 11
153.5587720767173
 21
137.9652373773971
 31
0.0
  0
LINE
  5
11D
330
1F
100
AcDbEntity
  8
0
  6
Continuous
 62
     7
370
    25
100
AcDbLine
 10
153.5587720767173
 20
138.2192369831719
 30
0.0
 11
215.0587707486514
 21
138.2192369831719
 31
0.0
  0
LINE
  5
11E
330
1F
100
AcDbEntity
  8
0
  6
Continuous
 62
     7
370
    25
100
AcDbLine
 10
215.0587707486514
 20
138.2192369831719
 30
0.0
 11
215.0587707486514
 21
137.9652373773971
 31
0.0
  0
ARC
  5
11F
330
1F
100
AcDbEntity
  8
0
  6
Continuous
 62
     7
370
    25
100
AcDbCircle
 10
216.3354505345725
 20
117.3586949418598
 30
0.0
 40
0.6423774101976278
100
AcDbArc
 50
305.6475866942707
 51
341.8655202785898
  0
ARC
  5
120
330
1F
100
AcDbEntity
  8
0
  6
Continuous
 62
     7
370
    25
100
AcDbCircle
 10
213.4933956539209
 20
116.5511492921033
 30
0.0
 40
3.229080694587581
100
AcDbArc
 50
354.9268634963025
 51
5.073136503698338
  0
ARC
  5
121
330
1F
100
AcDbEntity
  8
0
  6
Continuous
 62
     7
370
    25
100
AcDbCircle
 10
216.3354498680278
 20
116.7876178854861
 30
0.0
 40
0.6423783131709099
100
AcDbArc
 50
305.6476020929514
 51
341.8654653793017
  0
ARC
  5
122
330
1F
100
AcDbEntity
  8
0
  6
Continuous
 62
     7
370
    25
100
AcDbCircle
 10
213.5007192669035
 20
116.8748575223756
 30
0.0
 40
3.457149289815903
100
AcDbArc
 50
345.1217833950125
 51
355.2350476708943
  0
LWPOLYLINE
  5
123
330
1F
100
AcDbEntity
  8
0
  6
Continuous
 62
     7
370
    25
100
AcDbPolyline
 90
        3
 70
   128
 43
0.0
 10
216.9256124374035
 20
116.5876780917862
 10
216.9328730281952
 20
116.6438508128741
 10
216.9459201589737
 20
116.7717167457559
  0
ARC
  5
124
330
1F
100
AcDbEntity
  8
0
  6
Continuous
 62
     7
370
    25
100
AcDbCircle
 10
216.4514072309207
 20
116.6307512930306
 30
0.0
 40
0.5142123052529747
100
AcDbArc
 50
15.91068823769539
 51
40.57782363062719
  0
ARC
  5
125
330
1F
100
AcDbEntity
  8
0
  6
Continuous
 62
     7
370
    25
100
AcDbCircle
 10
213.4886784119282
 20
117.0536416727709
 30
0.0
 40
3.469312605146847
100
AcDbArc
 50
4.780914607840386
 51
21.80262964375601
  0
ARC
  5
126
330
1F
100
AcDbEntity
  8
0
  6
Continuous
 62
     7
370
    25
100
AcDbCircle
 10
216.3805070319078
 20
118.250161297805
 30
0.0
 40
0.3419343583070393
100
AcDbArc
 50
344.3884477895082
 51
15.61155221049258
  0
ARC
  5
127
330
1F
100
AcDbEntity
  8
0
  6
Continuous
 62
     7
370
    25
100
AcDbCircle
 10
213.4886784119282
 20
116.8696030188012
 30
0.0
 40
3.469312605146847
100
AcDbArc
 50
4.780914607840386
 51
21.80262964375601
  0
LINE
  5
128
330
1F
100
AcDbEntity
  8
0
  6
Continuous
 62
     7
370
    25
100
AcDbLine
 10
216.9459201589737
 20
116.5876780917862
 30
0.0
 11
216.7222700275991
 21
116.5876780917862
 31
0.0
  0
LINE
  5
129
330
1F
100
AcDbEntity
  8
0
  6
Continuous
 62
     7
370
    25
100
AcDbLine
 10
216.9459201589737
 20
117.342794668115
 30
0.0
 11
216.9256124374035
 21
117.342794668115
 31
0.0
  0
LINE
  5
12A
330
1F
100
AcDbEntity
  8
0
  6
Continuous
 62
     7
370
    25
100
AcDbLine
 10
216.9459201589737
 20
116.7717167457559
 30
0.0
 11
216.7149339996788
 21
116.7717167457559
 31
0.0
  0
LINE
  5
12B
330
1F
100
AcDbEntity
  8
0
  6
Continuous
 62
     7
370
    25
100
AcDbLine
 10
149.1716206267986
 20
134.7174445448437
 30
0.0
 11
149.180650730482
 21
134.6208542866626
 31
0.0
  0
ARC
  5
12C
330
1F
100
AcDbEntity
  8
0
  6
Continuous
 62
     7
370
    25
100
AcDbCircle
 10
149.5054962418808
 20
133.6368946141053
 30
0.0
 40
0.1109111171762719
100
AcDbArc
 50
193.5313517022737
 51
208.1614222814889
  0
ARC
  5
12D
330
1F
100
AcDbEntity
  8
0
  6
Continuous
 62
     7
370
    25
100
AcDbCircle
 10
152.8679417990779
 20
134.917914567971
 30
0.0
 40
3.70823880290511
100
AcDbArc
 50
184.5947842573972
 51
201.0736885312273
  0
ARC
  5
12E
330
1F
100
AcDbEntity
  8
0
  6
Continuous
 62
     7
370
    25
100
AcDbCircle
 10
149.5430487933575
 20
134.8902431892011
 30
0.0
 40
0.4588346801672452
100
AcDbArc
 50
215.9525736711816
 51
252.8453458587929
  0
ARC
  5
12F
330
1F
100
AcDbEntity
  8
0
  6
Continuous
 62
     7
370
    25
100
AcDbCircle
 10
152.8668064871856
 20
134.7479081062594
 30
0.0
 40
3.471740777596079
100
AcDbArc
 50
175.1075930794643
 51
184.8924069205365
  0
ARC
  5
130
330
1F
100
AcDbEntity
  8
0
  6
Continuous
 62
     7
370
    25
100
AcDbCircle
 10
149.5430538125694
 20
135.4824242081819
 30
0.0
 40
0.4588428592116296
100
AcDbArc
 50
215.9529143368992
 51
252.8450051930701
  0
ARC
  5
131
330
1F
100
AcDbEntity
  8
0
  6
Continuous
 62
     7
370
    25
100
AcDbCircle
 10
152.8679532071167
 20
134.9159654148305
 30
0.0
 40
3.708250382483079
100
AcDbArc
 50
158.9263373765578
 51
175.4051898348189
  0
ARC
  5
132
330
1F
100
AcDbEntity
  8
0
  6
Continuous
 62
     7
370
    25
100
AcDbCircle
 10
149.4934241698418
 20
136.2973871751093
 30
0.0
 40
0.0982614032604428
100
AcDbArc
 50
158.7024285745412
 51
209.2775985268198
  0
ARC
  5
133
330
1F
100
AcDbEntity
  8
0
  6
Continuous
 62
     7
370
    25
100
AcDbCircle
 10
152.8679417990779
 20
135.012558272024
 30
0.0
 40
3.70823880290511
100
AcDbArc
 50
158.9263114687735
 51
175.4052157426035
  0
LWPOLYLINE
  5
134
330
1F
100
AcDbEntity
  8
0
  6
Continuous
 62
     7
370
    25
100
AcDbPolyline
 90
        3
 70
   128
 43
0.0
 10
149.3976637915286
 20
135.0483006147661
 10
149.398230035654
 20
135.0343903807917
 10
149.4018733695659
 20
134.9652368856588
  0
ARC
  5
135
330
1F
100
AcDbEntity
  8
0
  6
Continuous
 62
     7
370
    25
100
AcDbCircle
 10
149.5430538125694
 20
134.448048631813
 30
0.0
 40
0.4588428592116296
100
AcDbArc
 50
107.1549948069306
 51
144.0470856631016
  0
LINE
  5
136
330
1F
100
AcDbEntity
  8
0
  6
Continuous
 62
     7
370
    25
100
AcDbLine
 10
149.1716206267986
 20
134.6208542866626
 30
0.0
 11
149.3973881200466
 21
134.6208542866626
 31
0.0
  0
LINE
  5
137
330
1F
100
AcDbEntity
  8
0
  6
Continuous
 62
     7
370
    25
100
AcDbLine
 10
149.1716206267986
 20
135.3096185533323
 30
0.0
 11
149.180650730482
 21
135.3096185533323
 31
0.0
  0
LINE
  5
138
330
1F
100
AcDbEntity
  8
0
  6
Continuous
 62
     7
370
    25
100
AcDbLine
 10
149.1716206267986
 20
134.7174445448437
 30
0.0
 11
149.3951976493511
 21
134.7174445448437
 31
0.0
  0
LINE
  5
139
330
1F
100
AcDbEntity
  8
0
  6
Continuous
 62
     7
370
    25
100
AcDbLine
 10
216.3087707207117
 20
115.9652365652838
 30
0.0
 11
216.3087707207117
 21
113.9652362374582
 31
0.0
  0
LINE
  5
13A
330
1F
100
AcDbEntity
  8
0
  6
Continuous
 62
     7
370
    25
100
AcDbLine
 10
216.3087707207117
 20
113.9652362374582
 30
0.0
 11
213.8087707474872
 21
113.9652362374582
 31
0.0
  0
LINE
  5
13B
330
1F
100
AcDbEntity
  8
0
  6
Continuous
 62
     7
370
    25
100
AcDbLine
 10
213.8087707474872
 20
113.9652362374582
 30
0.0
 11
213.8087707474872
 21
115.9652365652838
 31
0.0
  0
LINE
  5
13C
330
1F
100
AcDbEntity
  8
0
  6
Continuous
 62
     7
370
    25
100
AcDbLine
 10
152.3087695435199
 20
135.9652361182489
 30
0.0
 11
152.3087695435199
 21
137.9652373773971
 31
0.0
  0
LINE
  5
13D
330
1F
100
AcDbEntity
  8
0
  6
Continuous
 62
     7
370
    25
100
AcDbLine
 10
152.3087695435199
 20
137.9652373773971
 30
0.0
 11
216.3087707207117
 21
137.9652373773971
 31
0.0
  0
LINE
  5
13E
330
1F
100
AcDbEntity
  8
0
  6
Continuous
 62
     7
370
    25
100
AcDbLine
 10
216.3087707207117
 20
137.9652373773971
 30
0.0
 11
216.3087707207117
 21
135.9652361182489
 31
0.0
  0
LINE
  5
13F
330
1F
100
AcDbEntity
  8
0
  6
Continuous
 62
     7
370
    25
100
AcDbLine
 10
213.8087707474872
 20
122.5652364131057
 30
0.0
 11
152.3087695435199
 21
122.5652364131057
 31
0.0
  0
LINE
  5
140
330
1F
100
AcDbEntity
  8
0
  6
Continuous
 62
     7
370
    25
100
AcDbLine
 10
152.3087695435199
 20
135.9652361182489
 30
0.0
 11
152.3087695435199
 21
122.5652364131057
 31
0.0
  0
LINE
  5
141
330
1F
100
AcDbEntity
  8
0
  6
Continuous
 62
     7
370
    25
100
AcDbLine
 10
213.8087707474872
 20
122.5652364131057
 30
0.0
 11
213.8087707474872
 21
115.9652365652838
 31
0.0
  0
LINE
  5
142
330
1F
100
AcDbEntity
  8
0
  6
Continuous
 62
     7
370
    25
100
AcDbLine
 10
216.3087707207117
 20
115.9652365652838
 30
0.0
 11
216.3087707207117
 21
135.9652361182489
 31
0.0
  0
LINE
  5
143
330
1F
100
AcDbEntity
  8
0
  6
Continuous
 62
     7
370
    25
100
AcDbLine
 10
152.3087695435199
 20
120.9652364535251
 30
0.0
 11
152.3087695435199
 21
135.9652361182489
 31
0.0
  0
LINE
  5
144
330
1F
100
AcDbEntity
  8
0
  6
Continuous
 62
     7
370
    25
100
AcDbLine
 10
213.8087707474872
 20
120.9652364535251
 30
0.0
 11
152.3087695435199
 21
120.9652364535251
 31
0.0
  0
LINE
  5
145
330
1F
100
AcDbEntity
  8
0
  6
Continuous
 62
     7
370
    25
100
AcDbLine
 10
213.8087707474872
 20
115.9652365652838
 30
0.0
 11
213.8087707474872
 21
120.9652364535251
 31
0.0
  0
LINE
  5
146
330
1F
100
AcDbEntity
  8
0
  6
Continuous
 62
     7
370
    25
100
AcDbLine
 10
149.8087719277057
 20
135.9652361182489
 30
0.0
 11
149.8087719277057
 21
115.9652365652838
 31
0.0
  0
LINE
  5
147
330
1F
100
AcDbEntity
  8
0
  6
Continuous
 62
     7
370
    25
100
AcDbLine
 10
213.8087707474872
 20
113.9652362374582
 30
0.0
 11
149.8087719277057
 21
113.9652362374582
 31
0.0
  0
LINE
  5
148
330
1F
100
AcDbEntity
  8
0
  6
Continuous
 62
     7
370
    25
100
AcDbLine
 10
149.8087719277057
 20
113.9652362374582
 30
0.0
 11
149.8087719277057
 21
115.9652365652838
 31
0.0
  0
LINE
  5
149
330
1F
100
AcDbEntity
  8
0
  6
Continuous
 62
     7
370
    25
100
AcDbLine
 10
149.8087719277057
 20
135.9652361182489
 30
0.0
 11
149.8087719277057
 21
137.9652373773971
 31
0.0
  0
LINE
  5
14A
330
1F
100
AcDbEntity
  8
0
  6
Continuous
 62
     7
370
    25
100
AcDbLine
 10
149.8087719277057
 20
137.9652373773971
 30
0.0
 11
152.3087695435199
 21
137.9652373773971
 31
0.0
  0
LINE
  5
14B
330
1F
100
AcDbEntity
  8
0
  6
Continuous
 62
     7
370
    25
100
AcDbLine
 10
203.336270545474
 20
122.5652364131057
 30
0.0
 11
203.336270545474
 21
122.5527364343398
 31
0.0
  0
LINE
  5
14C
330
1F
100
AcDbEntity
  8
0
  6
Continuous
 62
     7
370
    25
100
AcDbLine
 10
203.8435787156734
 20
122.5527364343398
 30
0.0
 11
203.8435787156734
 21
122.5652364131057
 31
0.0
  0
LINE
  5
14D
330
1F
100
AcDbEntity
  8
0
  6
Continuous
 62
     7
370
    25
100
AcDbLine
 10
213.1227707335304
 20
122.5527364343398
 30
0.0
 11
213.1227707335304
 21
122.5652364131057
 31
0.0
  0
LINE
  5
14E
330
1F
100
AcDbEntity
  8
0
  6
Continuous
 62
     7
370
    25
100
AcDbLine
 10
167.5687693253669
 20
122.5527364343398
 30
0.0
 11
167.5687693253669
 21
122.5652364131057
 31
0.0
  0
LINE
  5
14F
330
1F
100
AcDbEntity
  8
0
  6
Continuous
 62
     7
370
    25
100
AcDbLine
 10
155.3687714234504
 20
122.5652364131057
 30
0.0
 11
155.3687714234504
 21
122.5527364343398
 31
0.0
  0
LINE
  5
150
330
1F
100
AcDbEntity
  8
0
  6
Continuous
 62
     7
370
    25
100
AcDbLine
 10
168.0687703386459
 20
122.5652364131057
 30
0.0
 11
168.0687703386459
 21
122.5527364343398
 31
0.0
  0
LINE
  5
151
330
1F
100
AcDbEntity
  8
0
  6
Continuous
 62
     7
370
    25
100
AcDbLine
 10
154.8687704101715
 20
122.5527364343398
 30
0.0
 11
154.8687704101715
 21
122.5652364131057
 31
0.0
  0
LINE
  5
152
330
1F
100
AcDbEntity
  8
0
  6
Continuous
 62
     7
370
    25
100
AcDbLine
 10
143.5687691167507
 20
129.4527367038646
 30
0.0
 11
143.5687691167507
 21
124.9527364319184
 31
0.0
  0
LINE
  5
153
330
1F
100
AcDbEntity
  8
0
  6
Continuous
 62
     7
370
    25
100
AcDbLine
 10
143.5687691167507
 20
133.9527365101495
 30
0.0
 11
143.5687691167507
 21
129.4527367038646
 31
0.0
  0
SPLINE
  5
154
330
1F
100
AcDbEntity
  8
0
  6
Continuous
 62
     7
370
    25
100
AcDbSpline
210
0.0
220
0.0
230
1.0
 70
     8
 71
     3
 72
    12
 73
     8
 74
     0
 42
0.0000000001
 43
0.0000000001
 40
0.0
 40
0.0
 40
0.0
 40
0.0
 40
0.0616983888035484
 40
0.323376551439166
 40
0.585801900343849
 40
0.8510243011876218
 40
1.0
 40
1.0
 40
1.0
 40
1.0
 10
147.2516954139385
 20
133.9516496567049
 30
0.0
 10
147.2538616611412
 20
133.9519824632301
 30
0.0
 10
147.2652154997676
 20
133.9537267847351
 30
0.0
 10
147.2082014034049
 20
133.9447882798427
 30
0.0
 10
147.0832569580664
 20
133.9279961126573
 30
0.0
 10
146.9213435144801
 20
133.9113319100012
 30
0.0
 10
146.8063034047723
 20
133.9050103035745
 30
0.0
 10
146.7649266317996
 20
133.9027365950861
 30
0.0
  0
SPLINE
  5
155
330
1F
100
AcDbEntity
  8
0
  6
Continuous
 62
     7
370
    25
100
AcDbSpline
210
0.0
220
0.0
230
1.0
 70
     8
 71
     3
 72
    11
 73
     7
 74
     0
 42
0.0000000001
 43
0.0000000001
 40
0.0
 40
0.0
 40
0.0
 40
0.0
 40
0.2654410162982446
 40
0.5308254693697555
 40
0.7972614368321679
 40
1.0
 40
1.0
 40
1.0
 40
1.0
 10
144.3526148990306
 20
133.9027365950861
 30
0.0
 10
144.2795182825802
 20
133.9072728366635
 30
0.0
 10
144.1333406259478
 20
133.9163443531838
 30
0.0
 10
143.9706975818924
 20
133.9361769331485
 30
0.0
 10
143.8715242322841
 20
133.9506827873621
 30
0.0
 10
143.867559393455
 20
133.9513579200159
 30
0.0
 10
143.8658461168918
 20
133.9516496567049
 30
0.0
  0
LINE
  5
156
330
1F
100
AcDbEntity
  8
0
  6
Continuous
 62
     7
370
    25
100
AcDbLine
 10
144.3526148990306
 20
133.9027365950861
 30
0.0
 11
146.7649266317996
 21
133.9027365950861
 31
0.0
  0
LINE
  5
157
330
1F
100
AcDbEntity
  8
0
  6
Continuous
 62
     7
370
    25
100
AcDbLine
 10
143.0687681034717
 20
129.4527367038646
 30
0.0
 11
143.0687681034717
 21
133.4527364281931
 31
0.0
  0
LINE
  5
158
330
1F
100
AcDbEntity
  8
0
  6
Continuous
 62
     7
370
    25
100
AcDbLine
 10
143.0687681034717
 20
125.4527365138748
 30
0.0
 11
143.0687681034717
 21
129.4527367038646
 31
0.0
  0
LINE
  5
159
330
1F
100
AcDbEntity
  8
0
  6
Continuous
 62
     7
370
    25
100
AcDbLine
 10
154.5587703779849
 20
122.5652364131057
 30
0.0
 11
154.5587703779849
 21
122.5527364343398
 31
0.0
  0
LINE
  5
15A
330
1F
100
AcDbEntity
  8
0
  6
Continuous
 62
     7
370
    25
100
AcDbLine
 10
144.3587690786037
 20
124.9527364319184
 30
0.0
 11
144.3587690786037
 21
122.6527364972972
 31
0.0
  0
LINE
  5
15B
330
1F
100
AcDbEntity
  8
0
  6
Continuous
 62
     7
370
    25
100
AcDbLine
 10
144.0587714508686
 20
122.9527365697541
 30
0.0
 11
144.0587714508686
 21
124.9527364319184
 31
0.0
  0
LINE
  5
15C
330
1F
100
AcDbEntity
  8
0
  6
Continuous
 62
     7
370
    25
100
AcDbLine
 10
204.3587705314669
 20
122.5652364131057
 30
0.0
 11
204.3587705314669
 21
122.5527364343398
 31
0.0
  0
LINE
  5
15D
330
1F
100
AcDbEntity
  8
0
  6
Continuous
 62
     7
370
    25
100
AcDbLine
 10
204.0587710410866
 20
122.5652364131057
 30
0.0
 11
204.0587710410866
 21
122.5527364343398
 31
0.0
  0
LINE
  5
15E
330
1F
100
AcDbEntity
  8
0
  6
Continuous
 62
     7
370
    25
100
AcDbLine
 10
221.5587711155925
 20
129.1527362821617
 30
0.0
 11
221.5587711155925
 21
122.9527365697541
 31
0.0
  0
LINE
  5
15F
330
1F
100
AcDbEntity
  8
0
  6
Continuous
 62
     7
370
    25
100
AcDbLine
 10
221.2587706938896
 20
122.6527364972972
 30
0.0
 11
221.2587706938896
 21
129.4527367038646
 31
0.0
  0
LINE
  5
160
330
1F
100
AcDbEntity
  8
0
  6
Continuous
 62
     7
370
    25
100
AcDbLine
 10
152.5587700501594
 20
122.5527364343398
 30
0.0
 11
152.5587700501594
 21
120.9652364535251
 31
0.0
  0
LINE
  5
161
330
1F
100
AcDbEntity
  8
0
  6
Continuous
 62
     7
370
    25
100
AcDbLine
 10
213.5587707356129
 20
122.5527364343398
 30
0.0
 11
213.5587707356129
 21
120.9652364535251
 31
0.0
  0
LINE
  5
162
330
1F
100
AcDbEntity
  8
0
  6
Continuous
 62
     7
370
    25
100
AcDbLine
 10
152.5587700501594
 20
120.9652364535251
 30
0.0
 11
213.5587707356129
 21
120.9652364535251
 31
0.0
  0
LINE
  5
163
330
1F
100
AcDbEntity
  8
0
  6
Continuous
 62
     7
370
    25
100
AcDbLine
 10
152.5587700501594
 20
122.5527364343398
 30
0.0
 11
213.5587707356129
 21
122.5527364343398
 31
0.0
  0
DIMENSION
  5
164
330
1F
100
AcDbEntity
  8
SLD-0
 62
     7
100
AcDbDimension
  2
_D
 10
221.5587707356128
 20
94.40169314935062
 30
0.0
 11
182.0157804395993
 21
94.40169314935062
 31
0.0
 70
   160
  1
<>
 71
     2
 42
78.49000000000001
  3
DATASHEET
100
AcDbAlignedDimension
 13
143.0687707356128
 23
125.4527364535251
 33
0.0
 14
221.5587707356128
 24
122.9527364535251
 34
0.0
100
AcDbRotatedDimension
  0
DIMENSION
  5
170
330
1F
100
AcDbEntity
  8
SLD-0
 62
     7
100
AcDbDimension
  2
_D_1
 10
143.0687707356128
 20
103.9652364535251
 30
0.0
 11
127.5268903091014
 21
103.9652364535251
 31
0.0
 70
   160
  1
<>
 71
     2
 42
6.73999999999998
  3
DATASHEET
100
AcDbAlignedDimension
 13
149.8087707356128
 23
113.9652364535251
 33
0.0
 14
143.0687707356128
 24
125.9527364535251
 34
0.0
100
AcDbRotatedDimension
  0
DIMENSION
  5
17C
330
1F
100
AcDbEntity
  8
SLD-0
 62
     7
100
AcDbDimension
  2
_D_2
 10
127.5268903091014
 20
113.9652364535251
 30
0.0
 11
127.5268903091014
 21
125.879007165553
 31
0.0
 70
   160
  1
<>
 71
     2
 42
24.00000000000003
  3
DATASHEET
100
AcDbAlignedDimension
 13
149.8087707356128
 23
137.9652364535251
 33
0.0
 14
149.8087707356128
 24
113.9652364535251
 34
0.0
 50
90.00000000000019
100
AcDbRotatedDimension
  0
DIMENSION
  5
188
330
1F
100
AcDbEntity
  8
SLD-0
 62
     7
100
AcDbDimension
  2
_D_3
 10
149.8087707356128
 20
103.9652364535251
 30
0.0
 11
182.0157804395993
 21
103.9652364535251
 31
0.0
 70
   160
  1
<>
 71
     2
 42
64.0
  3
DATASHEET
100
AcDbAlignedDimension
 13
213.8087707356128
 23
113.9652364535251
 33
0.0
 14
149.8087707356128
 24
113.9652364535251
 34
0.0
100
AcDbRotatedDimension
  0
LINE
  5
193
330
1F
100
AcDbEntity
  8
0
  6
Continuous
 62
     7
370
    25
100
AcDbLine
 10
254.6531568227131
 20
138.2192369831719
 30
0.0
 11
254.6531568227131
 21
137.9652373773971
 31
0.0
  0
LINE
  5
194
330
1F
100
AcDbEntity
  8
0
  6
Continuous
 62
     7
370
    25
100
AcDbLine
 10
254.6531568227131
 20
138.2192369831719
 30
0.0
 11
284.6531561521608
 21
138.2192369831719
 31
0.0
  0
LINE
  5
195
330
1F
100
AcDbEntity
  8
0
  6
Continuous
 62
     7
370
    25
100
AcDbLine
 10
284.6531561521608
 20
138.2192369831719
 30
0.0
 11
284.6531561521608
 21
137.9652373773971
 31
0.0
  0
LWPOLYLINE
  5
196
330
1F
100
AcDbEntity
  8
0
  6
Continuous
 62
     7
370
    25
100
AcDbPolyline
 90
        9
 70
   128
 43
0.0
 10
254.7755987329203
 20
117.1587560141453
 10
254.6477328000385
 20
117.1175491811701
 10
254.5203884077984
 20
117.0765106847503
 10
254.3937266750056
 20
117.0356917476275
 10
254.2679077891428
 20
116.9951447566965
 10
254.1430900750476
 20
116.9549204690375
 10
254.0194318575579
 20
116.9150691760697
 10
253.897087736221
 20
116.8756421005347
 10
253.7762113792616
 20
116.8366881368675
  0
LWPOLYLINE
  5
197
330
1F
100
AcDbEntity
  8
0
  6
Continuous
 62
     7
370
    25
100
AcDbPolyline
 90
        9
 70
   128
 43
0.0
 10
253.7762113792616
 20
116.8366881368675
 10
253.799181519242
 20
116.7654144858935
 10
253.8221814615447
 20
116.6940458400169
 10
253.845201892944
 20
116.6226133985438
 10
253.8682316375691
 20
116.5511492921033
 10
253.8912613821942
 20
116.479685651324
 10
253.9142818135935
 20
116.408253209851
 10
253.9372817558962
 20
116.3368840983131
 10
253.9602500332314
 20
116.2656104473391
  0
LWPOLYLINE
  5
198
330
1F
100
AcDbEntity
  8
0
  6
Continuous
 62
     7
370
    25
100
AcDbPolyline
 90
        9
 70
   128
 43
0.0
 10
253.9602500332314
 20
116.2656104473391
 10
254.0811254588682
 20
116.3045644110062
 10
254.2034695802051
 20
116.3439914865413
 10
254.3271287290174
 20
116.3838427795091
 10
254.4519464431125
 20
116.424067067168
 10
254.5777653289754
 20
116.464614058099
 10
254.7044270617682
 20
116.5054329952219
 10
254.8317714540083
 20
116.546471258811
 10
254.9596373868901
 20
116.5876780917862
  0
LWPOLYLINE
  5
199
330
1F
100
AcDbEntity
  8
0
  6
Continuous
 62
     7
370
    25
100
AcDbPolyline
 90
        9
 70
   128
 43
0.0
 10
254.9596373868901
 20
116.5876780917862
 10
255.0008437542039
 20
116.4598121589043
 10
255.0418824834544
 20
116.3324682323256
 10
255.0827014205772
 20
116.2058064995327
 10
255.1232484115082
 20
116.0799876136699
 10
255.1634722335059
 20
115.9551698995748
 10
255.2033235264737
 20
115.8315107507625
 10
255.24275106767
 20
115.7091670950868
 10
255.2817045656759
 20
115.5882921351113
  0
LWPOLYLINE
  5
19A
330
1F
100
AcDbEntity
  8
0
  6
Continuous
 62
     7
370
    25
100
AcDbPolyline
 90
        9
 70
   128
 43
0.0
 10
255.2817045656759
 20
115.5882921351113
 10
255.3529786823112
 20
115.6112613437691
 10
255.4243468625266
 20
115.6342608204105
 10
255.4957793039996
 20
115.6572812518098
 10
255.5672434104401
 20
115.6803114620962
 10
255.6387075168807
 20
115.7033421380439
 10
255.7101399583537
 20
115.7263621037819
 10
255.7815090698916
 20
115.7493620460847
 10
255.8527822552044
 20
115.7723307890811
  0
LWPOLYLINE
  5
19B
330
1F
100
AcDbEntity
  8
0
  6
Continuous
 62
     7
370
    25
100
AcDbPolyline
 90
        9
 70
   128
 43
0.0
 10
255.8527822552044
 20
115.7723307890811
 10
255.8138287571985
 20
115.8932057490566
 10
255.7744012160021
 20
116.0155494047322
 10
255.7345499230343
 20
116.1392085535445
 10
255.6943261010367
 20
116.2640262676396
 10
255.6537791101057
 20
116.3898451535025
 10
255.6129601729828
 20
116.5165068862953
 10
255.5719214437324
 20
116.6438508128741
 10
255.5307150764186
 20
116.7717167457559
  0
LWPOLYLINE
  5
19C
330
1F
100
AcDbEntity
  8
0
  6
Continuous
 62
     7
370
    25
100
AcDbPolyline
 90
        9
 70
   128
 43
0.0
 10
255.5307150764186
 20
116.7717167457559
 10
255.6585810093004
 20
116.8129235787311
 10
255.7859244702179
 20
116.8539623079815
 10
255.9125862030107
 20
116.894780779443
 10
256.0384050888735
 20
116.9353282360354
 10
256.1632228029687
 20
116.9755525236943
 10
256.2868819517809
 20
117.0154038166621
 10
256.4092260731179
 20
117.0548308921971
 10
256.5301005674321
 20
117.0937846230337
  0
LWPOLYLINE
  5
19D
330
1F
100
AcDbEntity
  8
0
  6
Continuous
 62
     7
370
    25
100
AcDbPolyline
 90
        9
 70
   128
 43
0.0
 10
256.5301005674321
 20
117.0937846230337
 10
256.5071313587743
 20
117.1650582740077
 10
256.4841323477942
 20
117.236427152715
 10
256.4611119163949
 20
117.3078593613573
 10
256.4380812404472
 20
117.3793234677979
 10
256.4150505644995
 20
117.4507875742384
 10
256.3920310644228
 20
117.5222197828808
 10
256.3690311221201
 20
117.5935886615881
 10
256.3460619134623
 20
117.6648623125621
  0
LWPOLYLINE
  5
19E
330
1F
100
AcDbEntity
  8
0
  6
Continuous
 62
     7
370
    25
100
AcDbPolyline
 90
        9
 70
   128
 43
0.0
 10
256.3460619134623
 20
117.6648623125621
 10
256.2251874191481
 20
117.6259085817256
 10
256.1028432978112
 20
117.5864812733599
 10
255.9791841489989
 20
117.5466302132228
 10
255.8543664349038
 20
117.5064059255638
 10
255.7285475490409
 20
117.4658587018021
 10
255.6018858162481
 20
117.42503999751
 10
255.4745423553306
 20
117.3840015010902
 10
255.3466764224488
 20
117.342794668115
  0
LWPOLYLINE
  5
19F
330
1F
100
AcDbEntity
  8
0
  6
Continuous
 62
     7
370
    25
100
AcDbPolyline
 90
        9
 70
   128
 43
0.0
 10
255.3466764224488
 20
117.342794668115
 10
255.3054691238124
 20
117.4706606009969
 10
255.2644303945619
 20
117.5980047604063
 10
255.2236123887617
 20
117.7246662603685
 10
255.1830644665081
 20
117.8504853790619
 10
255.1428406445104
 20
117.9753030931571
 10
255.1029893515426
 20
118.0989620091387
 10
255.0635618103463
 20
118.2213061304756
 10
255.0246083123404
 20
118.3421806247898
  0
LWPOLYLINE
  5
1A0
330
1F
100
AcDbEntity
  8
0
  6
Continuous
 62
     7
370
    25
100
AcDbPolyline
 90
        9
 70
   128
 43
0.0
 10
255.0246083123404
 20
118.3421806247898
 10
254.9533341957051
 20
118.3192116489627
 10
254.8819660154897
 20
118.2962119394907
 10
254.8105335740167
 20
118.273191740922
 10
254.7390694675762
 20
118.250161297805
 10
254.6676053611356
 20
118.2271308546879
 10
254.5961729196626
 20
118.2041108889499
 10
254.5248047394473
 20
118.1811111794778
 10
254.4535306228119
 20
118.1581419708201
  0
LWPOLYLINE
  5
1A1
330
1F
100
AcDbEntity
  8
0
  6
Continuous
 62
     7
370
    25
100
AcDbPolyline
 90
        9
 70
   128
 43
0.0
 10
254.4535306228119
 20
118.1581419708201
 10
254.4924841208178
 20
118.0372672436752
 10
254.5319116620142
 20
117.9149233551689
 10
254.571762954982
 20
117.7912644391873
 10
254.6119867769796
 20
117.6664467250922
 10
254.6525346992332
 20
117.5406276063987
 10
254.6933527050335
 20
117.4139661064365
 10
254.7343914342839
 20
117.2866219470271
 10
254.7755987329203
 20
117.1587560141453
  0
CIRCLE
  5
1A2
330
1F
100
AcDbEntity
  8
0
  6
Continuous
 62
     7
370
    25
100
AcDbCircle
 10
255.153156487437
 20
116.9652364535251
 30
0.0
 40
2.35000000000004
  0
LWPOLYLINE
  5
1A3
330
1F
100
AcDbEntity
  8
0
  6
Continuous
 62
     7
370
    25
100
AcDbPolyline
 90
        9
 70
   128
 43
0.0
 10
283.7755978984553
 20
117.1587560141453
 10
283.6477319655735
 20
117.1175491811701
 10
283.520388504656
 20
117.0765106847503
 10
283.3937267718631
 20
117.0356917476275
 10
283.2679078860003
 20
116.9951447566965
 10
283.1430901719052
 20
116.9549204690375
 10
283.0194310230929
 20
116.9150691760697
 10
282.897086901756
 20
116.8756421005347
 10
282.7762124074418
 20
116.8366881368675
  0
LWPOLYLINE
  5
1A4
330
1F
100
AcDbEntity
  8
0
  6
Continuous
 62
     7
370
    25
100
AcDbPolyline
 90
        9
 70
   128
 43
0.0
 10
282.7762124074418
 20
116.8366881368675
 10
282.7991816160995
 20
116.7654144858935
 10
282.8221806270796
 20
116.6940458400169
 10
282.845201058479
 20
116.6226133985438
 10
282.8682317344267
 20
116.5511492921033
 10
282.8912624103743
 20
116.479685651324
 10
282.9142819104511
 20
116.408253209851
 10
282.9372818527538
 20
116.3368840983131
 10
282.9602510614115
 20
116.2656104473391
  0
LWPOLYLINE
  5
1A5
330
1F
100
AcDbEntity
  8
0
  6
Continuous
 62
     7
370
    25
100
AcDbPolyline
 90
        9
 70
   128
 43
0.0
 10
282.9602510614115
 20
116.2656104473391
 10
283.0811255557257
 20
116.3045644110062
 10
283.2034696770627
 20
116.3439914865413
 10
283.327128825875
 20
116.3838427795091
 10
283.4519465399701
 20
116.424067067168
 10
283.5777654258329
 20
116.464614058099
 10
283.7044271586258
 20
116.5054329952219
 10
283.8317706195432
 20
116.546471258811
 10
283.9596365524251
 20
116.5876780917862
  0
LWPOLYLINE
  5
1A6
330
1F
100
AcDbEntity
  8
0
  6
Continuous
 62
     7
370
    25
100
AcDbPolyline
 90
        9
 70
   128
 43
0.0
 10
283.9596365524251
 20
116.5876780917862
 10
284.0008438510615
 20
116.4598121589043
 10
284.0418825803119
 20
116.3324682323256
 10
284.0827005861122
 20
116.2058064995327
 10
284.1232485083658
 20
116.0799876136699
 10
284.1634723303634
 20
115.9551698995748
 10
284.2033236233312
 20
115.8315107507625
 10
284.2427511645276
 20
115.7091670950868
 10
284.2817046625334
 20
115.5882921351113
  0
LWPOLYLINE
  5
1A7
330
1F
100
AcDbEntity
  8
0
  6
Continuous
 62
     7
370
    25
100
AcDbPolyline
 90
        9
 70
   128
 43
0.0
 10
284.2817046625334
 20
115.5882921351113
 10
284.3529787791688
 20
115.6112613437691
 10
284.4243469593841
 20
115.6342608204105
 10
284.4957794008571
 20
115.6572812518098
 10
284.5672435072977
 20
115.6803114620962
 10
284.6387076137382
 20
115.7033421380439
 10
284.7101400552112
 20
115.7263621037819
 10
284.7815082354266
 20
115.7493620460847
 10
284.8527823520619
 20
115.7723307890811
  0
LWPOLYLINE
  5
1A8
330
1F
100
AcDbEntity
  8
0
  6
Continuous
 62
     7
370
    25
100
AcDbPolyline
 90
        9
 70
   128
 43
0.0
 10
284.8527823520619
 20
115.7723307890811
 10
284.813828854056
 20
115.8932057490566
 10
284.7744013128597
 20
116.0155494047322
 10
284.7345500198919
 20
116.1392085535445
 10
284.6943261978942
 20
116.2640262676396
 10
284.6537782756406
 20
116.3898451535025
 10
284.6129602698404
 20
116.5165068862953
 10
284.57192154059
 20
116.6438508128741
 10
284.5307142419535
 20
116.7717167457559
  0
LWPOLYLINE
  5
1A9
330
1F
100
AcDbEntity
  8
0
  6
Continuous
 62
     7
370
    25
100
AcDbPolyline
 90
        9
 70
   128
 43
0.0
 10
284.5307142419535
 20
116.7717167457559
 10
284.6585801748354
 20
116.8129235787311
 10
284.7859245670754
 20
116.8539623079815
 10
284.9125862998683
 20
116.894780779443
 10
285.0384051857311
 20
116.9353282360354
 10
285.1632228998262
 20
116.9755525236943
 10
285.2868811173159
 20
117.0154038166621
 10
285.4092252386529
 20
117.0548308921971
 10
285.5301015956122
 20
117.0937846230337
  0
LWPOLYLINE
  5
1AA
330
1F
100
AcDbEntity
  8
0
  6
Continuous
 62
     7
370
    25
100
AcDbPolyline
 90
        9
 70
   128
 43
0.0
 10
285.5301015956122
 20
117.0937846230337
 10
285.5071314556319
 20
117.1650582740077
 10
285.4841315133292
 20
117.236427152715
 10
285.4611110819298
 20
117.3078593613573
 10
285.4380813373047
 20
117.3793234677979
 10
285.4150515926797
 20
117.4507875742384
 10
285.3920311612803
 20
117.5222197828808
 10
285.3690312189776
 20
117.5935886615881
 10
285.3460629416424
 20
117.6648623125621
  0
LWPOLYLINE
  5
1AB
330
1F
100
AcDbEntity
  8
0
  6
Continuous
 62
     7
370
    25
100
AcDbPolyline
 90
        9
 70
   128
 43
0.0
 10
285.3460629416424
 20
117.6648623125621
 10
285.2251875160057
 20
117.6259085817256
 10
285.1028433946687
 20
117.5864812733599
 10
284.9791842458564
 20
117.5466302132228
 10
284.8543665317613
 20
117.5064059255638
 10
284.7285476458985
 20
117.4658587018021
 10
284.6018859131056
 20
117.42503999751
 10
284.4745415208656
 20
117.3840015010902
 10
284.3466755879838
 20
117.342794668115
  0
LWPOLYLINE
  5
1AC
330
1F
100
AcDbEntity
  8
0
  6
Continuous
 62
     7
370
    25
100
AcDbPolyline
 90
        9
 70
   128
 43
0.0
 10
284.3466755879838
 20
117.342794668115
 10
284.3054692206699
 20
117.4706606009969
 10
284.2644304914195
 20
117.5980047604063
 10
284.2236115542966
 20
117.7246662603685
 10
284.1830645633656
 20
117.8504853790619
 10
284.142840741368
 20
117.9753030931571
 10
284.1029894484002
 20
118.0989620091387
 10
284.0635619072038
 20
118.2213061304756
 10
284.024608409198
 20
118.3421806247898
  0
LWPOLYLINE
  5
1AD
330
1F
100
AcDbEntity
  8
0
  6
Continuous
 62
     7
370
    25
100
AcDbPolyline
 90
        9
 70
   128
 43
0.0
 10
284.024608409198
 20
118.3421806247898
 10
283.9533342925626
 20
118.3192116489627
 10
283.8819661123473
 20
118.2962119394907
 10
283.8105336708743
 20
118.273191740922
 10
283.7390695644337
 20
118.250161297805
 10
283.6676054579932
 20
118.2271308546879
 10
283.5961730165202
 20
118.2041108889499
 10
283.5248039049822
 20
118.1811111794778
 10
283.4535307196695
 20
118.1581419708201
  0
LWPOLYLINE
  5
1AE
330
1F
100
AcDbEntity
  8
0
  6
Continuous
 62
     7
370
    25
100
AcDbPolyline
 90
        9
 70
   128
 43
0.0
 10
283.4535307196695
 20
118.1581419708201
 10
283.4924842176754
 20
118.0372672436752
 10
283.5319117588717
 20
117.9149233551689
 10
283.5717630518395
 20
117.7912644391873
 10
283.6119868738371
 20
117.6664467250922
 10
283.6525338647682
 20
117.5406276063987
 10
283.693352801891
 20
117.4139661064365
 10
283.7343915311414
 20
117.2866219470271
 10
283.7755978984553
 20
117.1587560141453
  0
CIRCLE
  5
1AF
330
1F
100
AcDbEntity
  8
0
  6
Continuous
 62
     7
370
    25
100
AcDbCircle
 10
284.153156487437
 20
116.9652364535251
 30
0.0
 40
2.349999999999986
  0
ARC
  5
1B0
330
1F
100
AcDbEntity
  8
0
  6
Continuous
 62
     7
370
    25
100
AcDbCircle
 10
254.1531564874369
 20
135.9652364535251
 30
0.0
 40
2.0
100
AcDbArc
 50
90.0
 51
180.0
  0
LINE
  5
1B1
330
1F
100
AcDbEntity
  8
0
  6
Continuous
 62
     7
370
    25
100
AcDbLine
 10
254.1531567407567
 20
137.9652373773971
 30
0.0
 11
285.1531562341172
 21
137.9652373773971
 31
0.0
  0
ARC
  5
1B2
330
1F
100
AcDbEntity
  8
0
  6
Continuous
 62
     7
370
    25
100
AcDbCircle
 10
285.153156487437
 20
135.9652364535251
 30
0.0
 40
2.0
100
AcDbArc
 50
0.0
 51
90.0
  0
LINE
  5
1B3
330
1F
100
AcDbEntity
  8
0
  6
Continuous
 62
     7
370
    25
100
AcDbLine
 10
287.1531565619427
 20
115.9652365652838
 30
0.0
 11
287.1531565619427
 21
135.9652361182489
 31
0.0
  0
ARC
  5
1B4
330
1F
100
AcDbEntity
  8
0
  6
Continuous
 62
     7
370
    25
100
AcDbCircle
 10
285.153156487437
 20
115.9652364535251
 30
0.0
 40
2.000000000000028
100
AcDbArc
 50
270.0000000000008
 51
0.0
  0
LINE
  5
1B5
330
1F
100
AcDbEntity
  8
0
  6
Continuous
 62
     7
370
    25
100
AcDbLine
 10
254.1531567407567
 20
113.9652362374582
 30
0.0
 11
285.1531562341172
 21
113.9652362374582
 31
0.0
  0
ARC
  5
1B6
330
1F
100
AcDbEntity
  8
0
  6
Continuous
 62
     7
370
    25
100
AcDbCircle
 10
254.1531564874369
 20
115.9652364535251
 30
0.0
 40
2.000000000000028
100
AcDbArc
 50
180.0
 51
270.0000000000008
  0
LINE
  5
1B7
330
1F
100
AcDbEntity
  8
0
  6
Continuous
 62
     7
370
    25
100
AcDbLine
 10
252.1531564129311
 20
115.9652365652838
 30
0.0
 11
252.1531564129311
 21
135.9652361182489
 31
0.0
  0
CIRCLE
  5
1B8
330
1F
100
AcDbEntity
  8
0
  6
Continuous
 62
     7
370
    25
100
AcDbCircle
 10
276.653156487437
 20
126.0527364535251
 30
0.0
 40
3.750000000000056
  0
CIRCLE
  5
1B9
330
1F
100
AcDbEntity
  8
0
  6
Continuous
 62
     7
370
    25
100
AcDbCircle
 10
255.153156487437
 20
116.9652364535251
 30
0.0
 40
2.5
  0
CIRCLE
  5
1BA
330
1F
100
AcDbEntity
  8
0
  6
Continuous
 62
     7
370
    25
100
AcDbCircle
 10
284.153156487437
 20
116.9652364535251
 30
0.0
 40
2.5
  0
CIRCLE
  5
1BB
330
1F
100
AcDbEntity
  8
0
  6
Continuous
 62
     7
370
    25
100
AcDbCircle
 10
260.8531564874369
 20
125.6007364535251
 30
0.0
 40
1.89999999999992
  0
CIRCLE
  5
1BC
330
1F
100
AcDbEntity
  8
0
  6
Continuous
 62
     7
370
    25
100
AcDbCircle
 10
271.596156487437
 20
131.3157364535251
 30
0.0
 40
1.700000000000045
  0
CIRCLE
  5
1BD
330
1F
100
AcDbEntity
  8
0
  6
Continuous
 62
     7
370
    25
100
AcDbCircle
 10
266.596156487437
 20
131.3157364535251
 30
0.0
 40
1.700000000000045
  0
ARC
  5
1BE
330
1F
100
AcDbEntity
  8
0
  6
Continuous
 62
     7
370
    25
100
AcDbCircle
 10
276.153156487437
 20
126.0527364535251
 30
0.0
 40
3.750000000000021
100
AcDbArc
 50
68.96053021868192
 51
86.17744627074129
  0
LINE
  5
1BF
330
1F
100
AcDbEntity
  8
0
  6
Continuous
 62
     7
370
    25
100
AcDbLine
 10
270.5402983414735
 20
131.5951362533488
 30
0.0
 11
272.6520147120375
 21
131.5951362533488
 31
0.0
  0
ARC
  5
1C0
330
1F
100
AcDbEntity
  8
0
  6
Continuous
 62
     7
370
    25
100
AcDbCircle
 10
271.5961564874373
 20
131.3157364535251
 30
0.0
 40
1.092200000000276
100
AcDbArc
 50
14.82182106204525
 51
165.178178937954
  0
LINE
  5
1C1
330
1F
100
AcDbEntity
  8
0
  6
Continuous
 62
     7
370
    25
100
AcDbLine
 10
270.5402983414735
 20
131.0363361893215
 30
0.0
 11
272.6520147120375
 21
131.0363361893215
 31
0.0
  0
ARC
  5
1C2
330
1F
100
AcDbEntity
  8
0
  6
Continuous
 62
     7
370
    25
100
AcDbCircle
 10
271.596156487437
 20
131.3157364535251
 30
0.0
 40
1.092200000000558
100
AcDbArc
 50
194.8218210620513
 51
345.1781789379579
  0
ARC
  5
1C3
330
1F
100
AcDbEntity
  8
0
  6
Continuous
 62
     7
370
    25
100
AcDbCircle
 10
271.5961564874373
 20
131.3157364535251
 30
0.0
 40
1.092200000000284
100
AcDbArc
 50
345.1781789379541
 51
14.82182106204525
  0
ARC
  5
1C4
330
1F
100
AcDbEntity
  8
0
  6
Continuous
 62
     7
370
    25
100
AcDbCircle
 10
271.5961564874373
 20
131.3157364535251
 30
0.0
 40
1.092200000000229
100
AcDbArc
 50
165.178178937954
 51
194.8218210620483
  0
LINE
  5
1C5
330
1F
100
AcDbEntity
  8
0
  6
Continuous
 62
     7
370
    25
100
AcDbLine
 10
268.0401565452832
 20
131.774486629478
 30
0.0
 11
268.2330890970099
 21
131.774486629478
 31
0.0
  0
LINE
  5
1C6
330
1F
100
AcDbEntity
  8
0
  6
Continuous
 62
     7
370
    25
100
AcDbLine
 10
268.0401565452832
 20
131.774486629478
 30
0.0
 11
268.0401565452832
 21
132.212878791801
 31
0.0
  0
LINE
  5
1C7
330
1F
100
AcDbEntity
  8
0
  6
Continuous
 62
     7
370
    25
100
AcDbLine
 10
272.7262450793553
 20
132.585736578516
 30
0.0
 11
270.4660679741557
 21
132.585736578516
 31
0.0
  0
LINE
  5
1C8
330
1F
100
AcDbEntity
  8
0
  6
Continuous
 62
     7
370
    25
100
AcDbLine
 10
272.8661565055865
 20
130.1856475232163
 30
0.0
 11
272.8661565055865
 21
132.4458249194541
 31
0.0
  0
LINE
  5
1C9
330
1F
100
AcDbEntity
  8
0
  6
Continuous
 62
     7
370
    25
100
AcDbLine
 10
265.5402981621939
 20
131.0363361893215
 30
0.0
 11
267.6520145909655
 21
131.0363361893215
 31
0.0
  0
ARC
  5
1CA
330
1F
100
AcDbEntity
  8
0
  6
Continuous
 62
     7
370
    25
100
AcDbCircle
 10
266.596156487437
 20
131.3157364535251
 30
0.0
 40
1.092200000000614
100
AcDbArc
 50
194.8218210620513
 51
345.1781789379587
  0
LINE
  5
1CB
330
1F
100
AcDbEntity
  8
0
  6
Continuous
 62
     7
370
    25
100
AcDbLine
 10
265.5402981621939
 20
131.5951362533488
 30
0.0
 11
267.6520145909655
 21
131.5951362533488
 31
0.0
  0
ARC
  5
1CC
330
1F
100
AcDbEntity
  8
0
  6
Continuous
 62
     7
370
    25
100
AcDbCircle
 10
266.5961564874373
 20
131.3157364535251
 30
0.0
 40
1.092200000000332
100
AcDbArc
 50
14.82182106204448
 51
165.1781789379547
  0
ARC
  5
1CD
330
1F
100
AcDbEntity
  8
0
  6
Continuous
 62
     7
370
    25
100
AcDbCircle
 10
266.5961564874373
 20
131.3157364535251
 30
0.0
 40
1.092200000000332
100
AcDbArc
 50
345.1781789379541
 51
14.82182106204448
  0
ARC
  5
1CE
330
1F
100
AcDbEntity
  8
0
  6
Continuous
 62
     7
370
    25
100
AcDbCircle
 10
266.5961564874373
 20
131.3157364535251
 30
0.0
 40
1.092200000000284
100
AcDbArc
 50
165.1781789379547
 51
194.8218210620474
  0
LINE
  5
1CF
330
1F
100
AcDbEntity
  8
0
  6
Continuous
 62
     7
370
    25
100
AcDbLine
 10
267.7262449582833
 20
132.585736578516
 30
0.0
 11
265.4660680277068
 21
132.585736578516
 31
0.0
  0
LINE
  5
1D0
330
1F
100
AcDbEntity
  8
0
  6
Continuous
 62
     7
370
    25
100
AcDbLine
 10
267.8661565009299
 20
130.1856475232163
 30
0.0
 11
267.8661565009299
 21
132.4458249194541
 31
0.0
  0
LINE
  5
1D1
330
1F
100
AcDbEntity
  8
0
  6
Continuous
 62
     7
370
    25
100
AcDbLine
 10
260.8531565351206
 20
124.1021364742884
 30
0.0
 11
260.8531565351206
 21
125.6007362438359
 31
0.0
  0
LINE
  5
1D2
330
1F
100
AcDbEntity
  8
0
  6
Continuous
 62
     7
370
    25
100
AcDbLine
 10
260.8531565351206
 20
125.6007362438359
 30
0.0
 11
260.8531565351206
 21
127.0993362462142
 31
0.0
  0
ARC
  5
1D3
330
1F
100
AcDbEntity
  8
0
  6
Continuous
 62
     7
370
    25
100
AcDbCircle
 10
260.853156487437
 20
125.6007364535251
 30
0.0
 40
1.498600000000124
100
AcDbArc
 50
270.0000000000008
 51
90.00000000000218
  0
ARC
  5
1D4
330
1F
100
AcDbEntity
  8
0
  6
Continuous
 62
     7
370
    25
100
AcDbCircle
 10
260.853156487437
 20
125.6007364535251
 30
0.0
 40
1.498600000000124
100
AcDbArc
 50
90.00000000000218
 51
270.0000000000008
  0
CIRCLE
  5
1D5
330
1F
100
AcDbEntity
  8
0
  6
Continuous
 62
     7
370
    25
100
AcDbCircle
 10
260.8531564874369
 20
125.6007364535251
 30
0.0
 40
1.80340000000001
  0
CIRCLE
  5
1D6
330
1F
100
AcDbEntity
  8
0
  6
Continuous
 62
     7
370
    25
100
AcDbCircle
 10
260.8531564874369
 20
125.6007364535251
 30
0.0
 40
1.714500000027868
  0
LINE
  5
1D7
330
1F
100
AcDbEntity
  8
0
  6
Continuous
 62
     7
370
    25
100
AcDbLine
 10
272.9531564695555
 20
126.6630642397323
 30
0.0
 11
272.9531564695555
 21
125.4424086121836
 31
0.0
  0
CIRCLE
  5
1D8
330
1F
100
AcDbEntity
  8
0
  6
Continuous
 62
     7
370
    25
100
AcDbCircle
 10
276.653156487437
 20
126.0527364535251
 30
0.0
 40
3.100000000000022
  0
CIRCLE
  5
1D9
330
1F
100
AcDbEntity
  8
0
  6
Continuous
 62
     7
370
    25
100
AcDbCircle
 10
276.653156487437
 20
126.0527364535251
 30
0.0
 40
3.400000000000034
  0
CIRCLE
  5
1DA
330
1F
100
AcDbEntity
  8
0
  6
Continuous
 62
     7
370
    25
100
AcDbCircle
 10
276.653156487437
 20
126.0527364535251
 30
0.0
 40
2.550000000000011
  0
CIRCLE
  5
1DB
330
1F
100
AcDbEntity
  8
0
  6
Continuous
 62
     7
370
    25
100
AcDbCircle
 10
276.653156487437
 20
126.0527364535251
 30
0.0
 40
1.100000000000022
  0
CIRCLE
  5
1DC
330
1F
100
AcDbEntity
  8
0
  6
Continuous
 62
     7
370
    25
100
AcDbCircle
 10
276.653156487437
 20
126.0527364535251
 30
0.0
 40
0.5000000000000569
  0
LINE
  5
1DD
330
1F
100
AcDbEntity
  8
0
  6
Continuous
 62
     7
370
    25
100
AcDbLine
 10
273.1531565954703
 20
127.3990274688223
 30
0.0
 11
273.1531565954703
 21
124.706445150263
 31
0.0
  0
LINE
  5
1DE
330
1F
100
AcDbEntity
  8
0
  6
Continuous
 62
     7
370
    25
100
AcDbLine
 10
275.3068651949782
 20
129.5527365339913
 30
0.0
 11
277.9994477463681
 21
129.5527365339913
 31
0.0
  0
LINE
  5
1DF
330
1F
100
AcDbEntity
  8
0
  6
Continuous
 62
     7
370
    25
100
AcDbLine
 10
280.1531563458759
 20
127.3990274688223
 30
0.0
 11
280.1531563458759
 21
124.706445150263
 31
0.0
  0
LINE
  5
1E0
330
1F
100
AcDbEntity
  8
0
  6
Continuous
 62
     7
370
    25
100
AcDbLine
 10
275.3068651949782
 20
122.5527364343398
 30
0.0
 11
277.9994477463681
 21
122.5527364343398
 31
0.0
  0
LEADER
  5
1E7
330
1F
100
AcDbEntity
  8
0
  6
Continuous
 62
     7
370
     0
100
AcDbLeader
  3
DATASHEET
 76
     3
 10
278.076644453803
 20
128.8065850349854
 30
0.0
 10
285.6784069801257
 20
152.246712436338
 30
0.0
 10
292.0284069801257
 20
152.246712436338
 30
0.0
  0
MTEXT
  5
1E8
330
1F
100
AcDbEntity
  8
0
  6
Continuous
 62
     7
370
     0
100
AcDbMText
 10
197.5337529318873
 20
154.2128025704226
 30
0.0
 40
3.5
 41
0.0
 71
     1
 72
     1
  1
"POWER-ON" LED
 73
     1
 44
1.0
1001
ACAD
1000
MTEXTBEGIN
1070
    73
1070
     1
1070
    44
1040
1.0
1070
    74
1070
     0
1000
MTEXTEND
  0
LEADER
  5
1E9
330
1F
100
AcDbEntity
  8
0
  6
Continuous
 62
     7
370
     0
100
AcDbLeader
  3
DATASHEET
 76
     3
 10
260.0860375840745
 20
127.3389909193913
 30
0.0
 10
247.3784069801258
 20
152.1176801782734
 30
0.0
 10
241.0284069801258
 20
152.1176801782734
 30
0.0
  0
INSERT
  5
1F1
330
1F
100
AcDbEntity
  8
0
  6
Continuous
 62
     7
370
    18
100
AcDbBlockReference
  2
SW_CENTERMARKSYMBOL_2
 10
276.653156487437
 20
126.0527364535251
 30
0.0
  0
INSERT
  5
1F9
330
1F
100
AcDbEntity
  8
0
  6
Continuous
 62
     7
370
    18
100
AcDbBlockReference
  2
SW_CENTERMARKSYMBOL_3
 10
260.8531564874369
 20
125.6007364535251
 30
0.0
  0
ARC
  5
1FA
330
1F
100
AcDbEntity
  8
0
  6
Continuous
 62
     7
370
    25
100
AcDbCircle
 10
213.1587707356128
 20
60.06697551417741
 30
0.0
 40
3.810839802458287
100
AcDbArc
 50
14.87142855191724
 51
34.2500298205873
  0
ARC
  5
1FB
330
1F
100
AcDbEntity
  8
0
  6
Continuous
 62
     7
370
    25
100
AcDbCircle
 10
213.1587707356128
 20
60.06697551417741
 30
0.0
 40
3.81083980245828
100
AcDbArc
 50
325.7499701794135
 51
345.128571448084
  0
ARC
  5
1FC
330
1F
100
AcDbEntity
  8
0
  6
Continuous
 62
     7
370
    25
100
AcDbCircle
 10
213.1587707356128
 20
31.06697551417742
 30
0.0
 40
3.810839802458283
100
AcDbArc
 50
14.87142855191703
 51
34.2500298205873
  0
ARC
  5
1FD
330
1F
100
AcDbEntity
  8
0
  6
Continuous
 62
     7
370
    25
100
AcDbCircle
 10
213.1587707356128
 20
31.06697551417742
 30
0.0
 40
3.810839802458283
100
AcDbArc
 50
325.7499701794133
 51
345.1285714480838
  0
ARC
  5
1FE
330
1F
100
AcDbEntity
  8
0
  6
Continuous
 62
     7
370
    25
100
AcDbCircle
 10
152.9587707356129
 20
60.06697551417741
 30
0.0
 40
3.810839802458269
100
AcDbArc
 50
201.0347565028397
 51
214.2500298205882
  0
ARC
  5
1FF
330
1F
100
AcDbEntity
  8
0
  6
Continuous
 62
     7
370
    25
100
AcDbCircle
 10
152.9587707356129
 20
60.06697551417741
 30
0.0
 40
3.810839802458264
100
AcDbArc
 50
145.749970179413
 51
158.9652434971613
  0
ARC
  5
200
330
1F
100
AcDbEntity
  8
0
  6
Continuous
 62
     7
370
    25
100
AcDbCircle
 10
152.9587707356129
 20
31.06697551417742
 30
0.0
 40
3.810839802458274
100
AcDbArc
 50
201.0347565028399
 51
214.2500298205879
  0
ARC
  5
201
330
1F
100
AcDbEntity
  8
0
  6
Continuous
 62
     7
370
    25
100
AcDbCircle
 10
152.9587707356129
 20
31.06697551417742
 30
0.0
 40
3.810839802458264
100
AcDbArc
 50
145.7499701794128
 51
158.9652434971613
  0
LINE
  5
202
330
1F
100
AcDbEntity
  8
0
  6
Continuous
 62
     7
370
    25
100
AcDbLine
 10
149.8087719277057
 20
55.06697520870361
 30
0.0
 11
143.5687691167507
 21
55.06697520870361
 31
0.0
  0
LINE
  5
203
330
1F
100
AcDbEntity
  8
0
  6
Continuous
 62
     7
370
    25
100
AcDbLine
 10
143.5687691167507
 20
46.06697553792614
 30
0.0
 11
149.8087719277057
 21
46.06697553792614
 31
0.0
  0
LINE
  5
204
330
1F
100
AcDbEntity
  8
0
  6
Continuous
 62
     7
370
    25
100
AcDbLine
 10
143.5687691167507
 20
55.06697520870361
 30
0.0
 11
143.0687681034717
 21
54.56697512674722
 31
0.0
  0
LINE
  5
205
330
1F
100
AcDbEntity
  8
0
  6
Continuous
 62
     7
370
    25
100
AcDbLine
 10
143.0687681034717
 20
46.56697556167486
 30
0.0
 11
143.5687691167507
 21
46.06697553792614
 31
0.0
  0
LINE
  5
206
330
1F
100
AcDbEntity
  8
0
  6
Continuous
 62
     7
370
    25
100
AcDbLine
 10
149.8087719277057
 20
42.46697542514297
 30
0.0
 11
144.3587690786037
 21
42.46697542514297
 31
0.0
  0
LINE
  5
207
330
1F
100
AcDbEntity
  8
0
  6
Continuous
 62
     7
370
    25
100
AcDbLine
 10
144.3587690786037
 20
35.66697556782159
 30
0.0
 11
149.8087719277057
 21
35.66697556782159
 31
0.0
  0
LINE
  5
208
330
1F
100
AcDbEntity
  8
0
  6
Continuous
 62
     7
370
    25
100
AcDbLine
 10
144.3587690786037
 20
42.46697542514297
 30
0.0
 11
144.0587714508686
 21
42.1669754691014
 31
0.0
  0
LINE
  5
209
330
1F
100
AcDbEntity
  8
0
  6
Continuous
 62
     7
370
    25
100
AcDbLine
 10
144.0587714508686
 20
35.96697505820188
 30
0.0
 11
144.3587690786037
 21
35.66697556782159
 31
0.0
  0
LINE
  5
20A
330
1F
100
AcDbEntity
  8
0
  6
Continuous
 62
     7
370
    25
100
AcDbLine
 10
221.2587706938896
 20
35.16697548586521
 30
0.0
 11
221.5587711155925
 21
35.46697590756807
 31
0.0
  0
LINE
  5
20B
330
1F
100
AcDbEntity
  8
0
  6
Continuous
 62
     7
370
    25
100
AcDbLine
 10
221.5587711155925
 20
41.66697561997565
 30
0.0
 11
221.2587706938896
 21
41.96697557601723
 31
0.0
  0
LINE
  5
20C
330
1F
100
AcDbEntity
  8
0
  6
Continuous
 62
     7
370
    25
100
AcDbLine
 10
216.3087707207117
 20
35.16697548586521
 30
0.0
 11
221.2587706938896
 21
35.16697548586521
 31
0.0
  0
LINE
  5
20D
330
1F
100
AcDbEntity
  8
0
  6
Continuous
 62
     7
370
    25
100
AcDbLine
 10
221.2587706938896
 20
41.96697557601723
 30
0.0
 11
216.3087707207117
 21
41.96697557601723
 31
0.0
  0
ARC
  5
20E
330
1F
100
AcDbEntity
  8
0
  6
Continuous
 62
     7
370
    25
100
AcDbCircle
 10
213.4886474938995
 20
60.1553747705083
 30
0.0
 40
3.46934387424219
100
AcDbArc
 50
4.780962613350885
 51
21.8025457976322
  0
ARC
  5
20F
330
1F
100
AcDbEntity
  8
0
  6
Continuous
 62
     7
370
    25
100
AcDbCircle
 10
216.3805059016574
 20
61.35190129536781
 30
0.0
 40
0.3419354468607598
100
AcDbArc
 50
344.38849875656
 51
15.61150124344545
  0
ARC
  5
210
330
1F
100
AcDbEntity
  8
0
  6
Continuous
 62
     7
370
    25
100
AcDbCircle
 10
213.4886585333648
 20
59.97133872448005
 30
0.0
 40
3.469332655824536
100
AcDbArc
 50
4.780934888683596
 51
21.80257352230002
  0
ARC
  5
211
330
1F
100
AcDbEntity
  8
0
  6
Continuous
 62
     7
370
    25
100
AcDbCircle
 10
216.3354512608027
 20
60.46043414218707
 30
0.0
 40
0.6423769067114906
100
AcDbArc
 50
305.6475391899232
 51
341.8654492810121
  0
ARC
  5
212
330
1F
100
AcDbEntity
  8
0
  6
Continuous
 62
     7
370
    25
100
AcDbCircle
 10
213.493397992152
 20
59.65288859117421
 30
0.0
 40
3.229078365516224
100
AcDbArc
 50
354.9268598275556
 51
5.073140172445683
  0
ARC
  5
213
330
1F
100
AcDbEntity
  8
0
  6
Continuous
 62
     7
370
    25
100
AcDbCircle
 10
216.3354512608027
 20
59.8893564526586
 30
0.0
 40
0.6423769067114906
100
AcDbArc
 50
305.6475391899232
 51
341.8654492810121
  0
ARC
  5
214
330
1F
100
AcDbEntity
  8
0
  6
Continuous
 62
     7
370
    25
100
AcDbCircle
 10
213.5007202576833
 20
59.97659687262116
 30
0.0
 40
3.457148345393161
100
AcDbArc
 50
345.121778359152
 51
355.2350377708993
  0
LWPOLYLINE
  5
215
330
1F
100
AcDbEntity
  8
0
  6
Continuous
 62
     7
370
    25
100
AcDbPolyline
 90
        3
 70
   128
 43
0.0
 10
216.9256124374035
 20
59.68941692519578
 10
216.9328730281952
 20
59.74558964628371
 10
216.9459201589737
 20
59.87345557916555
  0
ARC
  5
216
330
1F
100
AcDbEntity
  8
0
  6
Continuous
 62
     7
370
    25
100
AcDbCircle
 10
216.4514169117584
 20
59.73249532689128
 30
0.0
 40
0.5142015696472681
100
AcDbArc
 50
15.91042668234024
 51
40.57808518597842
  0
LINE
  5
217
330
1F
100
AcDbEntity
  8
0
  6
Continuous
 62
     7
370
    25
100
AcDbLine
 10
216.9459201589737
 20
59.68941692519578
 30
0.0
 11
216.7222700275991
 21
59.68941692519578
 31
0.0
  0
LINE
  5
218
330
1F
100
AcDbEntity
  8
0
  6
Continuous
 62
     7
370
    25
100
AcDbLine
 10
216.9459201589737
 20
60.44453326869401
 30
0.0
 11
216.9256124374035
 21
60.44453326869401
 31
0.0
  0
LINE
  5
219
330
1F
100
AcDbEntity
  8
0
  6
Continuous
 62
     7
370
    25
100
AcDbLine
 10
216.9459201589737
 20
59.87345557916555
 30
0.0
 11
216.7149339996788
 21
59.87345557916555
 31
0.0
  0
ARC
  5
21A
330
1F
100
AcDbEntity
  8
0
  6
Continuous
 62
     7
370
    25
100
AcDbCircle
 10
213.4886733386868
 20
31.1553793089286
 30
0.0
 40
3.469317810666849
100
AcDbArc
 50
4.780937229979009
 51
21.80261896850996
  0
ARC
  5
21B
330
1F
100
AcDbEntity
  8
0
  6
Continuous
 62
     7
370
    25
100
AcDbCircle
 10
216.3805074086809
 20
32.35190026718769
 30
0.0
 40
0.3419339954338563
100
AcDbArc
 50
344.3884307993915
 51
15.61156920061391
  0
ARC
  5
21C
330
1F
100
AcDbEntity
  8
0
  6
Continuous
 62
     7
370
    25
100
AcDbCircle
 10
213.4886733386868
 20
30.97134065495884
 30
0.0
 40
3.469317810666849
100
AcDbArc
 50
4.780937229979009
 51
21.80261896850996
  0
ARC
  5
21D
330
1F
100
AcDbEntity
  8
0
  6
Continuous
 62
     7
370
    25
100
AcDbCircle
 10
216.3354539269317
 20
31.46043151275039
 30
0.0
 40
0.6423732948807097
100
AcDbArc
 50
305.647477595962
 51
341.8656688774689
  0
ARC
  5
21E
330
1F
100
AcDbEntity
  8
0
  6
Continuous
 62
     7
370
    25
100
AcDbCircle
 10
213.493397992152
 20
30.65288849431667
 30
0.0
 40
3.229078365516224
100
AcDbArc
 50
354.9268598275556
 51
5.073140172445683
  0
ARC
  5
21F
330
1F
100
AcDbEntity
  8
0
  6
Continuous
 62
     7
370
    25
100
AcDbCircle
 10
216.3354539269317
 20
30.88935382322195
 30
0.0
 40
0.6423732948807186
100
AcDbArc
 50
305.6474775959605
 51
341.8656688774665
  0
ARC
  5
220
330
1F
100
AcDbEntity
  8
0
  6
Continuous
 62
     7
370
    25
100
AcDbCircle
 10
213.5007182760986
 20
30.97659667341914
 30
0.0
 40
3.457150234264243
100
AcDbArc
 50
345.1217884309
 51
355.2350575708386
  0
LWPOLYLINE
  5
221
330
1F
100
AcDbEntity
  8
0
  6
Continuous
 62
     7
370
    25
100
AcDbPolyline
 90
        3
 70
   128
 43
0.0
 10
216.9256124374035
 20
30.68941775966081
 10
216.9328730281952
 20
30.74559048074875
 10
216.9459201589737
 20
30.87345641363058
  0
ARC
  5
222
330
1F
100
AcDbEntity
  8
0
  6
Continuous
 62
     7
370
    25
100
AcDbCircle
 10
216.45139754947
 20
30.73248576012487
 30
0.0
 40
0.5142230415492454
100
AcDbArc
 50
15.91094979869122
 51
40.57756206963424
  0
LINE
  5
223
330
1F
100
AcDbEntity
  8
0
  6
Continuous
 62
     7
370
    25
100
AcDbLine
 10
216.9459201589737
 20
30.68941775966081
 30
0.0
 11
216.7222700275991
 21
30.68941775966081
 31
0.0
  0
LINE
  5
224
330
1F
100
AcDbEntity
  8
0
  6
Continuous
 62
     7
370
    25
100
AcDbLine
 10
216.9459201589737
 20
31.44453410315904
 30
0.0
 11
216.9256124374035
 21
31.44453410315904
 31
0.0
  0
LINE
  5
225
330
1F
100
AcDbEntity
  8
0
  6
Continuous
 62
     7
370
    25
100
AcDbLine
 10
216.9459201589737
 20
30.87345641363058
 30
0.0
 11
216.7149339996788
 21
30.87345641363058
 31
0.0
  0
ARC
  5
226
330
1F
100
AcDbEntity
  8
0
  6
Continuous
 62
     7
370
    25
100
AcDbCircle
 10
149.543055644656
 20
59.99198948561799
 30
0.0
 40
0.458844426430015
100
AcDbArc
 50
215.9527945068159
 51
252.8448261792187
  0
ARC
  5
227
330
1F
100
AcDbEntity
  8
0
  6
Continuous
 62
     7
370
    25
100
AcDbCircle
 10
152.8668198112398
 20
59.84964678320679
 30
0.0
 40
3.471754092819431
100
AcDbArc
 50
175.1076041759555
 51
184.8923958240448
  0
ARC
  5
228
330
1F
100
AcDbEntity
  8
0
  6
Continuous
 62
     7
370
    25
100
AcDbCircle
 10
149.5430538125694
 20
60.58416335079066
 30
0.0
 40
0.4588428592116499
100
AcDbArc
 50
215.9529143369021
 51
252.8450051930712
  0
ARC
  5
229
330
1F
100
AcDbEntity
  8
0
  6
Continuous
 62
     7
370
    25
100
AcDbCircle
 10
152.8679401270079
 20
60.0177063390978
 30
0.0
 40
3.708237201685734
100
AcDbArc
 50
158.9263038224544
 51
175.4052010846993
  0
ARC
  5
22A
330
1F
100
AcDbEntity
  8
0
  6
Continuous
 62
     7
370
    25
100
AcDbCircle
 10
149.4934283677434
 20
61.39912607611295
 30
0.0
 40
0.098265402235557
100
AcDbArc
 50
158.7031863474751
 51
209.2767522946707
  0
ARC
  5
22B
330
1F
100
AcDbEntity
  8
0
  6
Continuous
 62
     7
370
    25
100
AcDbCircle
 10
152.8679532071168
 20
60.11429481562029
 30
0.0
 40
3.708250382483105
100
AcDbArc
 50
158.9263373765579
 51
175.4051898348189
  0
LWPOLYLINE
  5
22C
330
1F
100
AcDbEntity
  8
0
  6
Continuous
 62
     7
370
    25
100
AcDbPolyline
 90
        3
 70
   128
 43
0.0
 10
149.3976637915286
 20
60.15003975737485
 10
149.398230035654
 20
60.13612952340039
 10
149.4018733695659
 20
60.0669750969449
  0
ARC
  5
22D
330
1F
100
AcDbEntity
  8
0
  6
Continuous
 62
     7
370
    25
100
AcDbCircle
 10
149.5430538125694
 20
59.54978777442175
 30
0.0
 40
0.4588428592116499
100
AcDbArc
 50
107.1549948069296
 51
144.0470856630987
  0
LINE
  5
22E
330
1F
100
AcDbEntity
  8
0
  6
Continuous
 62
     7
370
    25
100
AcDbLine
 10
149.1716206267986
 20
59.8191836874524
 30
0.0
 11
149.180650730482
 21
59.72259342927131
 31
0.0
  0
ARC
  5
22F
330
1F
100
AcDbEntity
  8
0
  6
Continuous
 62
     7
370
    25
100
AcDbCircle
 10
149.5054962418808
 20
58.73863375671398
 30
0.0
 40
0.1109111171762624
100
AcDbArc
 50
193.5313517022594
 51
208.161422281476
  0
ARC
  5
230
330
1F
100
AcDbEntity
  8
0
  6
Continuous
 62
     7
370
    25
100
AcDbCircle
 10
152.8679417990779
 20
60.01965371057967
 30
0.0
 40
3.708238802905105
100
AcDbArc
 50
184.5947842573968
 51
201.0736885312269
  0
LINE
  5
231
330
1F
100
AcDbEntity
  8
0
  6
Continuous
 62
     7
370
    25
100
AcDbLine
 10
149.1716206267986
 20
59.72259342927131
 30
0.0
 11
149.3973881200466
 21
59.72259342927131
 31
0.0
  0
LINE
  5
232
330
1F
100
AcDbEntity
  8
0
  6
Continuous
 62
     7
370
    25
100
AcDbLine
 10
149.1716206267986
 20
60.41135769594106
 30
0.0
 11
149.180650730482
 21
60.41135769594106
 31
0.0
  0
LINE
  5
233
330
1F
100
AcDbEntity
  8
0
  6
Continuous
 62
     7
370
    25
100
AcDbLine
 10
149.1716206267986
 20
59.8191836874524
 30
0.0
 11
149.3951976493511
 21
59.8191836874524
 31
0.0
  0
ARC
  5
234
330
1F
100
AcDbEntity
  8
0
  6
Continuous
 62
     7
370
    25
100
AcDbCircle
 10
149.5430487933575
 20
30.99198223495224
 30
0.0
 40
0.4588346801672215
100
AcDbArc
 50
215.9525736711787
 51
252.8453458587919
  0
ARC
  5
235
330
1F
100
AcDbEntity
  8
0
  6
Continuous
 62
     7
370
    25
100
AcDbCircle
 10
152.8668064871856
 20
30.84964715201053
 30
0.0
 40
3.47174077759608
100
AcDbArc
 50
175.107593079464
 51
184.8924069205363
  0
ARC
  5
236
330
1F
100
AcDbEntity
  8
0
  6
Continuous
 62
     7
370
    25
100
AcDbCircle
 10
149.5430538125694
 20
31.58416325393311
 30
0.0
 40
0.4588428592116499
100
AcDbArc
 50
215.9529143369021
 51
252.8450051930712
  0
ARC
  5
237
330
1F
100
AcDbEntity
  8
0
  6
Continuous
 62
     7
370
    25
100
AcDbCircle
 10
152.8679532071167
 20
31.01770446058164
 30
0.0
 40
3.708250382483079
100
AcDbArc
 50
158.9263373765578
 51
175.4051898348189
  0
ARC
  5
238
330
1F
100
AcDbEntity
  8
0
  6
Continuous
 62
     7
370
    25
100
AcDbCircle
 10
149.4934241698418
 20
32.39912622086045
 30
0.0
 40
0.0982614032604428
100
AcDbArc
 50
158.7024285745412
 51
209.2775985268198
  0
ARC
  5
239
330
1F
100
AcDbEntity
  8
0
  6
Continuous
 62
     7
370
    25
100
AcDbCircle
 10
152.8679417990779
 20
31.11429731777514
 30
0.0
 40
3.708238802905115
100
AcDbArc
 50
158.9263114687733
 51
175.4052157426033
  0
LWPOLYLINE
  5
23A
330
1F
100
AcDbEntity
  8
0
  6
Continuous
 62
     7
370
    25
100
AcDbPolyline
 90
        3
 70
   128
 43
0.0
 10
149.3976637915286
 20
31.15003966051731
 10
149.398230035654
 20
31.13612942654285
 10
149.4018733695659
 20
31.06697593140993
  0
ARC
  5
23B
330
1F
100
AcDbEntity
  8
0
  6
Continuous
 62
     7
370
    25
100
AcDbCircle
 10
149.5430538125694
 20
30.5497876775642
 30
0.0
 40
0.4588428592116499
100
AcDbArc
 50
107.1549948069296
 51
144.0470856630987
  0
LINE
  5
23C
330
1F
100
AcDbEntity
  8
0
  6
Continuous
 62
     7
370
    25
100
AcDbLine
 10
149.1716206267986
 20
30.81918359059486
 30
0.0
 11
149.180650730482
 21
30.72259333241377
 31
0.0
  0
ARC
  5
23D
330
1F
100
AcDbEntity
  8
0
  6
Continuous
 62
     7
370
    25
100
AcDbCircle
 10
149.5054971918148
 20
29.73863310595968
 30
0.0
 40
0.1109116932467507
100
AcDbArc
 50
193.5304909325887
 51
208.1609384153972
  0
ARC
  5
23E
330
1F
100
AcDbEntity
  8
0
  6
Continuous
 62
     7
370
    25
100
AcDbCircle
 10
152.8679532071168
 20
31.01965621273455
 30
0.0
 40
3.708250382483099
100
AcDbArc
 50
184.5948101651813
 51
201.0736626234424
  0
LINE
  5
23F
330
1F
100
AcDbEntity
  8
0
  6
Continuous
 62
     7
370
    25
100
AcDbLine
 10
149.1716206267986
 20
30.72259333241377
 30
0.0
 11
149.3973881200466
 21
30.72259333241377
 31
0.0
  0
LINE
  5
240
330
1F
100
AcDbEntity
  8
0
  6
Continuous
 62
     7
370
    25
100
AcDbLine
 10
149.1716206267986
 20
31.41135759908352
 30
0.0
 11
149.180650730482
 21
31.41135759908352
 31
0.0
  0
LINE
  5
241
330
1F
100
AcDbEntity
  8
0
  6
Continuous
 62
     7
370
    25
100
AcDbLine
 10
149.1716206267986
 20
30.81918359059486
 30
0.0
 11
149.3951976493511
 21
30.81918359059486
 31
0.0
  0
LINE
  5
242
330
1F
100
AcDbEntity
  8
0
  6
Continuous
 62
     7
370
    25
100
AcDbLine
 10
216.3087707207117
 20
30.06697576749715
 30
0.0
 11
216.3087707207117
 21
28.06697543967161
 31
0.0
  0
LINE
  5
243
330
1F
100
AcDbEntity
  8
0
  6
Continuous
 62
     7
370
    25
100
AcDbLine
 10
216.3087707207117
 20
28.06697543967161
 30
0.0
 11
213.8087707474872
 21
28.06697543967161
 31
0.0
  0
LINE
  5
244
330
1F
100
AcDbEntity
  8
0
  6
Continuous
 62
     7
370
    25
100
AcDbLine
 10
213.8087707474872
 20
28.06697543967161
 30
0.0
 11
213.8087707474872
 21
30.06697576749715
 31
0.0
  0
LINE
  5
245
330
1F
100
AcDbEntity
  8
0
  6
Continuous
 62
     7
370
    25
100
AcDbLine
 10
216.3087707207117
 20
61.06697526085767
 30
0.0
 11
216.3087707207117
 21
30.06697576749715
 31
0.0
  0
LINE
  5
246
330
1F
100
AcDbEntity
  8
0
  6
Continuous
 62
     7
370
    25
100
AcDbLine
 10
213.8087707474872
 20
30.06697576749715
 30
0.0
 11
213.8087707474872
 21
61.06697526085767
 31
0.0
  0
LINE
  5
247
330
1F
100
AcDbEntity
  8
0
  6
Continuous
 62
     7
370
    25
100
AcDbLine
 10
213.8087707474872
 20
63.06697558868322
 30
0.0
 11
216.3087707207117
 21
63.06697558868322
 31
0.0
  0
LINE
  5
248
330
1F
100
AcDbEntity
  8
0
  6
Continuous
 62
     7
370
    25
100
AcDbLine
 10
216.3087707207117
 20
63.06697558868322
 30
0.0
 11
216.3087707207117
 21
61.06697526085767
 31
0.0
  0
LINE
  5
249
330
1F
100
AcDbEntity
  8
0
  6
Continuous
 62
     7
370
    25
100
AcDbLine
 10
213.8087707474872
 20
61.06697526085767
 30
0.0
 11
213.8087707474872
 21
63.06697558868322
 31
0.0
  0
LINE
  5
24A
330
1F
100
AcDbEntity
  8
0
  6
Continuous
 62
     7
370
    25
100
AcDbLine
 10
213.8087707474872
 20
28.06697543967161
 30
0.0
 11
149.8087719277057
 21
28.06697543967161
 31
0.0
  0
LINE
  5
24B
330
1F
100
AcDbEntity
  8
0
  6
Continuous
 62
     7
370
    25
100
AcDbLine
 10
149.8087719277057
 20
28.06697543967161
 30
0.0
 11
149.8087719277057
 21
30.06697576749715
 31
0.0
  0
CIRCLE
  5
24C
330
1F
100
AcDbEntity
  8
0
  6
Continuous
 62
     7
370
    25
100
AcDbCircle
 10
168.3087707356128
 20
32.06697551417739
 30
0.0
 40
1.025000000000005
  0
CIRCLE
  5
24D
330
1F
100
AcDbEntity
  8
0
  6
Continuous
 62
     7
370
    25
100
AcDbCircle
 10
198.3087707356128
 20
32.06697551417739
 30
0.0
 40
1.025000000000005
  0
CIRCLE
  5
24E
330
1F
100
AcDbEntity
  8
0
  6
Continuous
 62
     7
370
    25
100
AcDbCircle
 10
168.3087707356128
 20
59.06697551417744
 30
0.0
 40
1.025000000000005
  0
CIRCLE
  5
24F
330
1F
100
AcDbEntity
  8
0
  6
Continuous
 62
     7
370
    25
100
AcDbCircle
 10
198.3087707356128
 20
59.06697551417744
 30
0.0
 40
1.025000000000005
  0
LINE
  5
250
330
1F
100
AcDbEntity
  8
0
  6
Continuous
 62
     7
370
    25
100
AcDbLine
 10
149.8087719277057
 20
61.06697526085767
 30
0.0
 11
149.8087719277057
 21
30.06697576749715
 31
0.0
  0
LINE
  5
251
330
1F
100
AcDbEntity
  8
0
  6
Continuous
 62
     7
370
    25
100
AcDbLine
 10
149.8087719277057
 20
63.06697558868322
 30
0.0
 11
213.8087707474872
 21
63.06697558868322
 31
0.0
  0
LINE
  5
252
330
1F
100
AcDbEntity
  8
0
  6
Continuous
 62
     7
370
    25
100
AcDbLine
 10
149.8087719277057
 20
61.06697526085767
 30
0.0
 11
149.8087719277057
 21
63.06697558868322
 31
0.0
  0
LINE
  5
253
330
1F
100
AcDbEntity
  8
0
  6
Continuous
 62
     7
370
    25
100
AcDbLine
 10
143.5687691167507
 20
55.06697520870361
 30
0.0
 11
143.5687691167507
 21
46.06697553792614
 31
0.0
  0
LINE
  5
254
330
1F
100
AcDbEntity
  8
0
  6
Continuous
 62
     7
370
    25
100
AcDbLine
 10
143.0687681034717
 20
46.56697556167486
 30
0.0
 11
143.0687681034717
 21
54.56697512674722
 31
0.0
  0
LINE
  5
255
330
1F
100
AcDbEntity
  8
0
  6
Continuous
 62
     7
370
    25
100
AcDbLine
 10
144.3587690786037
 20
42.46697542514297
 30
0.0
 11
144.3587690786037
 21
35.66697556782159
 31
0.0
  0
LINE
  5
256
330
1F
100
AcDbEntity
  8
0
  6
Continuous
 62
     7
370
    25
100
AcDbLine
 10
144.0587714508686
 20
35.96697505820188
 30
0.0
 11
144.0587714508686
 21
42.1669754691014
 31
0.0
  0
LINE
  5
257
330
1F
100
AcDbEntity
  8
0
  6
Continuous
 62
     7
370
    25
100
AcDbLine
 10
221.5587711155925
 20
41.66697561997565
 30
0.0
 11
221.5587711155925
 21
35.46697590756807
 31
0.0
  0
LINE
  5
258
330
1F
100
AcDbEntity
  8
0
  6
Continuous
 62
     7
370
    25
100
AcDbLine
 10
221.2587706938896
 20
35.16697548586521
 30
0.0
 11
221.2587706938896
 21
41.96697557601723
 31
0.0
  0
LINE
  5
259
330
1F
100
AcDbEntity
  8
0
  6
CENTERX2
 62
     7
370
    18
100
AcDbLine
 10
168.3087707356129
 20
32.06697551417726
 30
0.0
 11
198.3087707356129
 21
32.06697551417737
 31
0.0
  0
LINE
  5
25A
330
1F
100
AcDbEntity
  8
0
  6
CENTERX2
 62
     7
370
    18
100
AcDbLine
 10
198.3087707356129
 20
32.06697551417737
 30
0.0
 11
198.3087707356128
 21
59.06697551417735
 31
0.0
  0
LINE
  5
25B
330
1F
100
AcDbEntity
  8
0
  6
CENTERX2
 62
     7
370
    18
100
AcDbLine
 10
198.3087707356128
 20
59.06697551417735
 30
0.0
 11
168.3087707356128
 21
59.06697551417727
 31
0.0
  0
LINE
  5
25C
330
1F
100
AcDbEntity
  8
0
  6
CENTERX2
 62
     7
370
    18
100
AcDbLine
 10
168.3087707356128
 20
59.06697551417727
 30
0.0
 11
168.3087707356129
 21
32.06697551417726
 31
0.0
  0
DIMENSION
  5
25D
330
1F
100
AcDbEntity
  8
SLD-0
 62
     7
100
AcDbDimension
  2
_D_4
 10
198.3087707356129
 20
18.06697551417706
 30
0.0
 11
183.8328923167197
 21
18.06697551417706
 31
0.0
 70
   160
  1
<>
 71
     2
 42
30.0
  3
DATASHEET
100
AcDbAlignedDimension
 13
168.3087707356129
 23
29.52697551417724
 33
0.0
 14
198.3087707356129
 24
29.52697551417735
 34
0.0
100
AcDbRotatedDimension
  0
DIMENSION
  5
268
330
1F
100
AcDbEntity
  8
SLD-0
 62
     7
100
AcDbDimension
  2
_D_5
 10
149.8087707356129
 20
18.06697551417711
 30
0.0
 11
158.1201622530684
 21
18.06697551417711
 31
0.0
 70
   160
  1
<>
 71
     2
 42
18.49999999999997
  3
DATASHEET
100
AcDbAlignedDimension
 13
168.3087707356129
 23
29.52697551417724
 33
0.0
 14
149.8087707356129
 24
28.06697551417718
 34
0.0
 50
0.0000000000004071
100
AcDbRotatedDimension
  0
DIMENSION
  5
273
330
1F
100
AcDbEntity
  8
SLD-0
 62
     7
100
AcDbDimension
  2
_D_6
 10
231.9531777769829
 20
28.0669755141774
 30
0.0
 11
223.8766661808029
 21
21.46297551417744
 31
0.0
 70
   160
  1
<>
 71
     2
 42
3.99999999999995
  3
DATASHEET
100
AcDbAlignedDimension
 13
200.8487707356129
 23
32.06697551417736
 33
0.0
 14
216.308770735613
 24
28.0669755141774
 34
0.0
 50
90.00000000000019
100
AcDbRotatedDimension
  0
DIMENSION
  5
280
330
1F
100
AcDbEntity
  8
SLD-0
 62
     7
100
AcDbDimension
  2
_D_7
 10
231.9557999587826
 20
59.06697551417741
 30
0.0
 11
231.9557999587826
 21
46.08325145280784
 31
0.0
 70
   160
  1
<>
 71
     2
 42
27.00000000000006
  3
DATASHEET
100
AcDbAlignedDimension
 13
200.8487707356129
 23
32.06697551417736
 33
0.0
 14
200.8487707356128
 24
59.06697551417741
 34
0.0
 50
90.00000000000019
100
AcDbRotatedDimension
  0
DIMENSION
  5
28B
330
1F
100
AcDbEntity
  8
SLD-0
 62
     7
100
AcDbDimension
  2
_D_8
 10
244.7646030252238
 20
28.0669755141774
 30
0.0
 11
244.7646030252238
 21
45.85002447371391
 31
0.0
 70
   160
  1
<>
 71
     2
 42
35.00000000000009
  3
DATASHEET
100
AcDbAlignedDimension
 13
216.3087707356128
 23
63.06697551417748
 33
0.0
 14
216.308770735613
 24
28.0669755141774
 34
0.0
 50
90.00000000000019
100
AcDbRotatedDimension
  0
DIMENSION
  5
296
330
1F
100
AcDbEntity
  8
SLD-0
100
AcDbDimension
  2
_D_9
 10
197.6046986922359
 20
58.32205433865944
 30
0.0
 11
244.6570572087113
 21
79.35957151742901
 31
0.0
 70
   163
  1
4X \PTAPPED HOLE\PM2.5X0.45 {\fGDT;x} 5
 42
2.050000000000039
  3
DATASHEET
100
AcDbDiametricDimension
 15
199.0128427789897
 25
59.81189668969546
 35
0.0
 40
0.0
  0
INSERT
  5
2B1
330
1F
100
AcDbEntity
  8
0
  6
Continuous
 62
     7
370
    18
100
AcDbBlockReference
  2
SW_CENTERMARKSYMBOL_4
 10
168.3087707356129
 20
32.06697551417726
 30
0.0
  0
INSERT
  5
2B9
330
1F
100
AcDbEntity
  8
0
  6
Continuous
 62
     7
370
    18
100
AcDbBlockReference
  2
SW_CENTERMARKSYMBOL_5
 10
198.3087707356129
 20
32.06697551417736
 30
0.0
  0
INSERT
  5
2C1
330
1F
100
AcDbEntity
  8
0
  6
Continuous
 62
     7
370
    18
100
AcDbBlockReference
  2
SW_CENTERMARKSYMBOL_6
 10
198.3087707356128
 20
59.06697551417741
 30
0.0
  0
INSERT
  5
2C9
330
1F
100
AcDbEntity
  8
0
  6
Continuous
 62
     7
370
    18
100
AcDbBlockReference
  2
SW_CENTERMARKSYMBOL_7
 10
168.3087707356128
 20
59.06697551417733
 30
0.0
  0
LINE
  5
2CA
330
1F
100
AcDbEntity
  8
0
  6
CENTERX2
 62
     7
370
    18
100
AcDbLine
 10
138.0087707356128
 20
39.0669755141771
 30
0.0
 11
153.6177398306421
 21
39.06697551417717
 31
0.0
  0
LINE
  5
2CB
330
1F
100
AcDbEntity
  8
0
  6
CENTERX2
 62
     7
370
    18
100
AcDbLine
 10
153.6177398306421
 20
50.5669755141772
 30
0.0
 11
137.2187707356128
 21
50.56697551417714
 31
0.0
  0
LINE
  5
2CC
330
1F
100
AcDbEntity
  8
0
  6
CENTERX2
 62
     7
370
    18
100
AcDbLine
 10
227.9087707356129
 20
38.56697551417746
 30
0.0
 11
209.9490754058364
 21
38.5669755141774
 31
0.0
  0
MTEXT
  5
466
330
1F
100
AcDbEntity
  8
0
  6
Continuous
 62
     0
370
     0
100
AcDbMText
 10
292.6295998302994
 20
154.2128025704229
 30
0.0
 40
3.5
 41
0.0
 71
     1
 72
     1
  1
SIGNAL IN\PLEMO EPL-00-250-NTN
 73
     1
 44
1.0
1001
ACAD
1000
MTEXTBEGIN
1070
    73
1070
     1
1070
    44
1040
1.0
1070
    74
1070
     0
1000
MTEXTEND
  0
MTEXT
  5
46A
330
1F
100
AcDbEntity
  8
0
  6
Continuous
 62
     0
370
     0
100
AcDbMText
 10
67.85795052860184
 20
155.9977873181214
 30
0.0
 40
3.5
 41
0.0
 71
     3
 72
     1
  1
SIGNAL OUT\PLEMO EPL-00-250-NTN
 73
     1
 44
1.0
1001
ACAD
1000
MTEXTBEGIN
1070
    73
1070
     1
1070
    44
1040
1.0
1070
    74
1070
     0
1000
MTEXTEND
  0
MTEXT
  5
46C
330
1F
100
AcDbEntity
  8
0
  6
Continuous
 62
     0
370
     0
100
AcDbMText
 10
112.6653261668027
 20
155.9977877837824
 30
0.0
 40
3.962399999999999
 41
0.0
 71
     1
 72
     1
  1
{\H0.8833x;POWER\PLEMO EPG-0B-304-HLN}
 73
     1
 44
1.0
1001
ACAD
1000
MTEXTBEGIN
1070
    73
1070
     1
1070
    44
1040
1.0
1070
    74
1070
     0
1000
MTEXTEND
  0
CIRCLE
  5
4E8
330
1F
100
AcDbEntity
  8
0
  6
DASHED2
100
AcDbCircle
 10
168.3087707356128
 20
59.06697551417727
 30
0.0
 40
1.25
  0
CIRCLE
  5
4EE
330
1F
100
AcDbEntity
  8
0
  6
DASHED2
100
AcDbCircle
 10
198.3087707356128
 20
59.06697551417741
 30
0.0
 40
1.25
  0
CIRCLE
  5
4EF
330
1F
100
AcDbEntity
  8
0
  6
DASHED2
100
AcDbCircle
 10
198.3087707356128
 20
32.06697551417739
 30
0.0
 40
1.25
  0
CIRCLE
  5
4F0
330
1F
100
AcDbEntity
  8
0
  6
DASHED2
100
AcDbCircle
 10
168.3087707356129
 20
32.06697551417726
 30
0.0
 40
1.25
  0
ENDSEC
  0
SECTION
  2
OBJECTS
  0
DICTIONARY
  5
C
330
0
100
AcDbDictionary
281
     1
  3
ACAD_COLOR
350
2CF
  3
ACAD_GROUP
350
D
  3
ACAD_LAYOUT
350
1A
  3
ACAD_MATERIAL
350
2CE
  3
ACAD_MLINESTYLE
350
17
  3
ACAD_PLOTSETTINGS
350
19
  3
ACAD_PLOTSTYLENAME
350
E
  3
ACAD_SCALELIST
350
47
  3
ACAD_TABLESTYLE
350
2D0
  3
ACDBHEADERROUNDTRIPXREC
350
4FB
  3
AcDbVariableDictionary
350
2D8
  0
DICTIONARY
  5
2D4
330
2
100
AcDbDictionary
280
     1
281
     1
  3
ACAD_LAYERFILTERS
360
2D6
  3
ACLYDICTIONARY
360
2D5
  0
DICTIONARY
  5
468
330
1F
100
AcDbDictionary
280
     1
281
     1
  3
ACAD_SORTENTS
360
469
  0
DICTIONARY
  5
2CF
102
{ACAD_REACTORS
330
C
102
}
330
C
100
AcDbDictionary
281
     1
  0
DICTIONARY
  5
D
102
{ACAD_REACTORS
330
C
102
}
330
C
100
AcDbDictionary
281
     1
  0
DICTIONARY
  5
1A
102
{ACAD_REACTORS
330
C
102
}
330
C
100
AcDbDictionary
281
     1
  3
Layout1
350
1E
  3
Layout2
350
26
  3
Model
350
22
  0
DICTIONARY
  5
2CE
102
{ACAD_REACTORS
330
C
102
}
330
C
100
AcDbDictionary
281
     1
  0
DICTIONARY
  5
17
102
{ACAD_REACTORS
330
C
102
}
330
C
100
AcDbDictionary
281
     1
  3
Standard
350
18
  0
DICTIONARY
  5
19
102
{ACAD_REACTORS
330
C
102
}
330
C
100
AcDbDictionary
281
     1
  0
ACDBDICTIONARYWDFLT
  5
E
102
{ACAD_REACTORS
330
C
102
}
330
C
100
AcDbDictionary
281
     1
  3
Normal
350
F
100
AcDbDictionaryWithDefault
340
F
  0
DICTIONARY
  5
47
102
{ACAD_REACTORS
330
C
102
}
330
C
100
AcDbDictionary
281
     1
  3
A0
350
48
  3
A1
350
49
  3
A2
350
4A
  3
A3
350
4B
  3
A4
350
4C
  3
A5
350
4D
  3
A6
350
4E
  3
A7
350
4F
  3
A8
350
50
  3
A9
350
51
  3
B0
350
52
  3
B1
350
53
  3
B2
350
54
  3
B3
350
55
  3
B4
350
56
  3
B5
350
57
  3
B6
350
58
  3
B7
350
59
  3
B8
350
5A
  3
B9
350
5B
  3
C0
350
5C
  3
C1
350
5D
  3
C2
350
5E
  3
C3
350
5F
  3
C4
350
60
  3
C5
350
61
  3
C6
350
62
  3
C7
350
63
  3
C8
350
64
  3
C9
350
65
  3
D0
350
66
  3
D1
350
67
  3
D2
350
68
  0
DICTIONARY
  5
2D0
102
{ACAD_REACTORS
330
C
102
}
330
C
100
AcDbDictionary
281
     1
  3
Standard
350
2D1
  0
DICTIONARY
  5
4FB
102
{ACAD_REACTORS
330
C
102
}
330
C
100
AcDbDictionary
281
     1
  0
DICTIONARY
  5
2D8
102
{ACAD_REACTORS
330
C
102
}
330
C
100
AcDbDictionary
281
     1
  3
CTABLESTYLE
350
2D9
  3
DIMASSOC
350
4F8
  3
PROJECTNAME
350
4F9
  0
DICTIONARY
  5
2D6
102
{ACAD_REACTORS
330
2D4
102
}
330
2D4
100
AcDbDictionary
281
     1
  0
DICTIONARY
  5
2D5
102
{ACAD_REACTORS
330
2D4
102
}
330
2D4
100
AcDbDictionary
281
     1
1001
ACAD
1000
<All
  0
SORTENTSTABLE
  5
469
102
{ACAD_REACTORS
330
468
102
}
330
468
100
AcDbSortentsTable
330
1F
331
7B
  5
7B
331
128
  5
128
331
B2
  5
B2
331
83
  5
83
331
F1
  5
F1
331
25B
  5
25B
331
1A6
  5
1A6
331
130
  5
130
331
BA
  5
BA
331
8B
  5
8B
331
21C
  5
21C
331
224
  5
224
331
1AE
  5
1AE
331
C2
  5
C2
331
138
  5
138
331
22C
  5
22C
331
140
  5
140
331
CA
  5
CA
331
1B6
  5
1B6
331
234
  5
234
331
1BE
  5
1BE
331
148
  5
148
331
93
  5
93
331
D2
  5
D2
331
109
  5
109
331
273
  5
273
331
1C6
  5
1C6
331
111
  5
111
331
150
  5
150
331
1FD
  5
1FD
331
9B
  5
9B
331
DA
  5
DA
331
23C
  5
23C
331
244
  5
244
331
2CA
  5
2CA
331
1CE
  5
1CE
331
E2
  5
E2
331
119
  5
119
331
A3
  5
A3
331
158
  5
158
331
205
  5
205
331
28B
  5
28B
331
20D
  5
20D
331
24C
  5
24C
331
197
  5
197
331
1D6
  5
1D6
331
121
  5
121
331
AB
  5
AB
331
160
  5
160
331
215
  5
215
331
254
  5
254
331
19F
  5
19F
331
1DE
  5
1DE
331
7C
  5
7C
331
B3
  5
B3
331
84
  5
84
331
129
  5
129
331
21D
  5
21D
331
131
  5
131
331
BB
  5
BB
331
170
  5
170
331
8C
  5
8C
331
1A7
  5
1A7
331
25C
  5
25C
331
1AF
  5
1AF
331
139
  5
139
331
C3
  5
C3
331
225
  5
225
331
1B7
  5
1B7
331
141
  5
141
331
CB
  5
CB
331
22D
  5
22D
331
235
  5
235
331
1BF
  5
1BF
331
D3
  5
D3
331
10A
  5
10A
331
94
  5
94
331
149
  5
149
331
1FE
  5
1FE
331
23D
  5
23D
331
151
  5
151
331
188
  5
188
331
DB
  5
DB
331
112
  5
112
331
1C7
  5
1C7
331
46A
  5
46A
331
9C
  5
9C
331
206
  5
206
331
245
  5
245
331
159
  5
159
331
A4
  5
A4
331
E3
  5
E3
331
11A
  5
11A
331
1CF
  5
1CF
331
2CB
  5
2CB
331
1D7
  5
1D7
331
20E
  5
20E
331
122
  5
122
331
AC
  5
AC
331
161
  5
161
331
198
  5
198
331
24D
  5
24D
331
255
  5
255
331
1DF
  5
1DF
331
216
  5
216
331
7D
  5
7D
331
1A0
  5
1A0
331
12A
  5
12A
331
B4
  5
B4
331
85
  5
85
331
21E
  5
21E
331
25D
  5
25D
331
1A8
  5
1A8
331
132
  5
132
331
1E7
  5
1E7
331
8D
  5
8D
331
BC
  5
BC
331
226
  5
226
331
1B0
  5
1B0
331
C4
  5
C4
331
13A
  5
13A
331
22E
  5
22E
331
142
  5
142
331
CC
  5
CC
331
1B8
  5
1B8
331
236
  5
236
331
1C0
  5
1C0
331
14A
  5
14A
331
95
  5
95
331
D4
  5
D4
331
10B
  5
10B
331
1C8
  5
1C8
331
113
  5
113
331
152
  5
152
331
1FF
  5
1FF
331
9D
  5
9D
331
DC
  5
DC
331
23E
  5
23E
331
246
  5
246
331
2CC
  5
2CC
331
1D0
  5
1D0
331
E4
  5
E4
331
11B
  5
11B
331
A5
  5
A5
331
15A
  5
15A
331
207
  5
207
331
20F
  5
20F
331
24E
  5
24E
331
162
  5
162
331
199
  5
199
331
123
  5
123
331
1D8
  5
1D8
331
AD
  5
AD
331
217
  5
217
331
256
  5
256
331
7E
  5
7E
331
1A1
  5
1A1
331
B5
  5
B5
331
86
  5
86
331
12B
  5
12B
331
1E0
  5
1E0
331
1E8
  5
1E8
331
21F
  5
21F
331
133
  5
133
331
BD
  5
BD
331
8E
  5
8E
331
1A9
  5
1A9
331
1B1
  5
1B1
331
13B
  5
13B
331
C5
  5
C5
331
227
  5
227
331
22F
  5
22F
331
1B9
  5
1B9
331
143
  5
143
331
CD
  5
CD
331
237
  5
237
331
1C1
  5
1C1
331
D5
  5
D5
331
10C
  5
10C
331
96
  5
96
331
14B
  5
14B
331
200
  5
200
331
23F
  5
23F
331
153
  5
153
331
9E
  5
9E
331
DD
  5
DD
331
114
  5
114
331
1C9
  5
1C9
331
46C
  5
46C
331
1D1
  5
1D1
331
15B
  5
15B
331
208
  5
208
331
247
  5
247
331
A6
  5
A6
331
E5
  5
E5
331
11C
  5
11C
331
1D9
  5
1D9
331
210
  5
210
331
124
  5
124
331
AE
  5
AE
331
163
  5
163
331
19A
  5
19A
331
24F
  5
24F
331
257
  5
257
331
296
  5
296
331
7F
  5
7F
331
1A2
  5
1A2
331
12C
  5
12C
331
B6
  5
B6
331
218
  5
218
331
87
  5
87
331
220
  5
220
331
1AA
  5
1AA
331
134
  5
134
331
1E9
  5
1E9
331
8F
  5
8F
331
BE
  5
BE
331
1F1
  5
1F1
331
228
  5
228
331
1B2
  5
1B2
331
C6
  5
C6
331
13C
  5
13C
331
230
  5
230
331
144
  5
144
331
CE
  5
CE
331
1BA
  5
1BA
331
1C2
  5
1C2
331
10D
  5
10D
331
14C
  5
14C
331
1F9
  5
1F9
331
97
  5
97
331
D6
  5
D6
331
238
  5
238
331
240
  5
240
331
1CA
  5
1CA
331
115
  5
115
331
154
  5
154
331
201
  5
201
331
9F
  5
9F
331
DE
  5
DE
331
248
  5
248
331
193
  5
193
331
1D2
  5
1D2
331
E6
  5
E6
331
11D
  5
11D
331
A7
  5
A7
331
15C
  5
15C
331
209
  5
209
331
211
  5
211
331
250
  5
250
331
164
  5
164
331
19B
  5
19B
331
AF
  5
AF
331
125
  5
125
331
1DA
  5
1DA
331
80
  5
80
331
219
  5
219
331
1A3
  5
1A3
331
258
  5
258
331
B7
  5
B7
331
88
  5
88
331
12D
  5
12D
331
221
  5
221
331
135
  5
135
331
BF
  5
BF
331
1AB
  5
1AB
331
268
  5
268
331
17C
  5
17C
331
1B3
  5
1B3
331
13D
  5
13D
331
C7
  5
C7
331
229
  5
229
331
231
  5
231
331
1BB
  5
1BB
331
145
  5
145
331
466
  5
466
331
CF
  5
CF
331
90
  5
90
331
239
  5
239
331
1C3
  5
1C3
331
D7
  5
D7
331
10E
  5
10E
331
98
  5
98
331
14D
  5
14D
331
1FA
  5
1FA
331
280
  5
280
331
202
  5
202
331
241
  5
241
331
155
  5
155
331
A0
  5
A0
331
DF
  5
DF
331
116
  5
116
331
1CB
  5
1CB
331
1D3
  5
1D3
331
20A
  5
20A
331
11E
  5
11E
331
15D
  5
15D
331
A8
  5
A8
331
E7
  5
E7
331
194
  5
194
331
249
  5
249
331
251
  5
251
331
1DB
  5
1DB
331
212
  5
212
331
126
  5
126
331
19C
  5
19C
331
B0
  5
B0
331
81
  5
81
331
259
  5
259
331
1A4
  5
1A4
331
12E
  5
12E
331
B8
  5
B8
331
89
  5
89
331
21A
  5
21A
331
222
  5
222
331
1AC
  5
1AC
331
C0
  5
C0
331
136
  5
136
331
22A
  5
22A
331
1B4
  5
1B4
331
C8
  5
C8
331
13E
  5
13E
331
232
  5
232
331
146
  5
146
331
1BC
  5
1BC
331
91
  5
91
331
D0
  5
D0
331
1C4
  5
1C4
331
10F
  5
10F
331
14E
  5
14E
331
1FB
  5
1FB
331
99
  5
99
331
D8
  5
D8
331
23A
  5
23A
331
242
  5
242
331
1CC
  5
1CC
331
117
  5
117
331
156
  5
156
331
203
  5
203
331
A1
  5
A1
331
E0
  5
E0
331
24A
  5
24A
331
195
  5
195
331
1D4
  5
1D4
331
E8
  5
E8
331
11F
  5
11F
331
A9
  5
A9
331
15E
  5
15E
331
20B
  5
20B
331
213
  5
213
331
252
  5
252
331
19D
  5
19D
331
127
  5
127
331
1DC
  5
1DC
331
7A
  5
7A
331
B1
  5
B1
331
82
  5
82
331
21B
  5
21B
331
12F
  5
12F
331
B9
  5
B9
331
8A
  5
8A
331
F8
  5
F8
331
1A5
  5
1A5
331
25A
  5
25A
331
223
  5
223
331
100
  5
100
331
137
  5
137
331
C1
  5
C1
331
1AD
  5
1AD
331
2B1
  5
2B1
331
1B5
  5
1B5
331
13F
  5
13F
331
C9
  5
C9
331
22B
  5
22B
331
233
  5
233
331
2B9
  5
2B9
331
1BD
  5
1BD
331
147
  5
147
331
D1
  5
D1
331
108
  5
108
331
92
  5
92
331
1FC
  5
1FC
331
23B
  5
23B
331
2C1
  5
2C1
331
1C5
  5
1C5
331
D9
  5
D9
331
110
  5
110
331
9A
  5
9A
331
14F
  5
14F
331
204
  5
204
331
243
  5
243
331
157
  5
157
331
A2
  5
A2
331
E1
  5
E1
331
118
  5
118
331
1CD
  5
1CD
331
2C9
  5
2C9
331
1D5
  5
1D5
331
20C
  5
20C
331
120
  5
120
331
AA
  5
AA
331
15F
  5
15F
331
196
  5
196
331
24B
  5
24B
331
253
  5
253
331
19E
  5
19E
331
1DD
  5
1DD
331
214
  5
214
  0
LAYOUT
  5
1E
102
{ACAD_XDICTIONARY
360
4FC
102
}
102
{ACAD_REACTORS
330
1A
102
}
330
1A
100
AcDbPlotSettings
  1

  2
none_device
  4

  6

 40
0.0
 41
0.0
 42
0.0
 43
0.0
 44
0.0
 45
0.0
 46
0.0
 47
0.0
 48
0.0
 49
0.0
140
0.0
141
0.0
142
1.0
143
1.0
 70
   688
 72
     1
 73
     0
 74
     5
  7

 75
    16
147
1.0
148
0.0
149
0.0
100
AcDbLayout
  1
Layout1
 70
     1
 71
     1
 10
0.0
 20
0.0
 11
420.0
 21
297.0
 12
0.0
 22
0.0
 32
0.0
 14
1.000000000000000E+20
 24
1.000000000000000E+20
 34
1.000000000000000E+20
 15
-1.000000000000000E+20
 25
-1.000000000000000E+20
 35
-1.000000000000000E+20
146
0.0
 13
0.0
 23
0.0
 33
0.0
 16
1.0
 26
0.0
 36
0.0
 17
0.0
 27
1.0
 37
0.0
 76
     0
330
1B
  0
LAYOUT
  5
26
102
{ACAD_XDICTIONARY
360
500
102
}
102
{ACAD_REACTORS
330
1A
102
}
330
1A
100
AcDbPlotSettings
  1

  2
none_device
  4

  6

 40
0.0
 41
0.0
 42
0.0
 43
0.0
 44
0.0
 45
0.0
 46
0.0
 47
0.0
 48
0.0
 49
0.0
140
0.0
141
0.0
142
1.0
143
1.0
 70
   688
 72
     1
 73
     0
 74
     5
  7

 75
    16
147
1.0
148
0.0
149
0.0
100
AcDbLayout
  1
Layout2
 70
     1
 71
     2
 10
0.0
 20
0.0
 11
0.0
 21
0.0
 12
0.0
 22
0.0
 32
0.0
 14
0.0
 24
0.0
 34
0.0
 15
0.0
 25
0.0
 35
0.0
146
0.0
 13
0.0
 23
0.0
 33
0.0
 16
1.0
 26
0.0
 36
0.0
 17
0.0
 27
1.0
 37
0.0
 76
     0
330
23
  0
LAYOUT
  5
22
102
{ACAD_XDICTIONARY
360
4FE
102
}
102
{ACAD_REACTORS
330
1A
102
}
330
1A
100
AcDbPlotSettings
  1

  2
none_device
  4
Letter_(8.50_x_11.00_Inches)
  6

 40
6.349999999999999
 41
6.349999999999999
 42
6.350005079999999
 43
6.350005079999999
 44
215.9
 45
279.4
 46
0.0
 47
0.0
 48
0.0
 49
0.0
140
0.0
141
0.0
142
1.0
143
1.0
 70
  1712
 72
     1
 73
     0
 74
     0
  7

 75
     0
147
1.0
148
0.0
149
0.0
100
AcDbLayout
  1
Model
 70
     1
 71
     0
 10
0.0
 20
0.0
 11
431.7999999999999
 21
279.4
 12
0.0
 22
0.0
 32
0.0
 14
0.0
 24
0.0
 34
0.0
 15
431.7999999999999
 25
279.4
 35
0.0
146
0.0
 13
0.0
 23
0.0
 33
0.0
 16
1.0
 26
0.0
 36
0.0
 17
0.0
 27
1.0
 37
0.0
 76
     0
330
1F
  0
MLINESTYLE
  5
18
102
{ACAD_REACTORS
330
17
102
}
330
17
100
AcDbMlineStyle
  2
STANDARD
 70
     0
  3

 62
   256
 51
90.0
 52
90.0
 71
     2
 49
0.5
 62
   256
  6
BYLAYER
 49
-0.5
 62
   256
  6
BYLAYER
  0
ACDBPLACEHOLDER
  5
F
102
{ACAD_REACTORS
330
E
102
}
330
E
  0
ACAD_PROXY_OBJECT
  5
48
102
{ACAD_REACTORS
330
47
102
}
330
47
100
AcDbProxyObject
 90
      499
 91
      503
 95
   393239
 70
     0
 93
       41
310
903313A31580
 94
        0
1001
ACAD
1000
AcRTDxfName
1000
SCALE
  0
ACAD_PROXY_OBJECT
  5
49
102
{ACAD_REACTORS
330
47
102
}
330
47
100
AcDbProxyObject
 90
      499
 91
      503
 95
   393239
 70
     0
 93
      105
310
903313A324000000000000004000
 94
        0
1001
ACAD
1000
AcRTDxfName
1000
SCALE
  0
ACAD_PROXY_OBJECT
  5
4A
102
{ACAD_REACTORS
330
47
102
}
330
47
100
AcDbProxyObject
 90
      499
 91
      503
 95
   393239
 70
     0
 93
      105
310
903313A344000000000000104000
 94
        0
1001
ACAD
1000
AcRTDxfName
1000
SCALE
  0
ACAD_PROXY_OBJECT
  5
4B
102
{ACAD_REACTORS
330
47
102
}
330
47
100
AcDbProxyObject
 90
      499
 91
      503
 95
   393239
 70
     0
 93
      105
310
903313A354000000000000144000
 94
        0
1001
ACAD
1000
AcRTDxfName
1000
SCALE
  0
ACAD_PROXY_OBJECT
  5
4C
102
{ACAD_REACTORS
330
47
102
}
330
47
100
AcDbProxyObject
 90
      499
 91
      503
 95
   393239
 70
     0
 93
      105
310
903313A384000000000000204000
 94
        0
1001
ACAD
1000
AcRTDxfName
1000
SCALE
  0
ACAD_PROXY_OBJECT
  5
4D
102
{ACAD_REACTORS
330
47
102
}
330
47
100
AcDbProxyObject
 90
      499
 91
      503
 95
   393239
 70
     0
 93
      113
310
904313A31304000000000000244000
 94
        0
1001
ACAD
1000
AcRTDxfName
1000
SCALE
  0
ACAD_PROXY_OBJECT
  5
4E
102
{ACAD_REACTORS
330
47
102
}
330
47
100
AcDbProxyObject
 90
      499
 91
      503
 95
   393239
 70
     0
 93
      113
310
904313A31364000000000000304000
 94
        0
1001
ACAD
1000
AcRTDxfName
1000
SCALE
  0
ACAD_PROXY_OBJECT
  5
4F
102
{ACAD_REACTORS
330
47
102
}
330
47
100
AcDbProxyObject
 90
      499
 91
      503
 95
   393239
 70
     0
 93
      113
310
904313A32304000000000000344000
 94
        0
1001
ACAD
1000
AcRTDxfName
1000
SCALE
  0
ACAD_PROXY_OBJECT
  5
50
102
{ACAD_REACTORS
330
47
102
}
330
47
100
AcDbProxyObject
 90
      499
 91
      503
 95
   393239
 70
     0
 93
      113
310
904313A333040000000000003E4000
 94
        0
1001
ACAD
1000
AcRTDxfName
1000
SCALE
  0
ACAD_PROXY_OBJECT
  5
51
102
{ACAD_REACTORS
330
47
102
}
330
47
100
AcDbProxyObject
 90
      499
 91
      503
 95
   393239
 70
     0
 93
      113
310
904313A34304000000000000444000
 94
        0
1001
ACAD
1000
AcRTDxfName
1000
SCALE
  0
ACAD_PROXY_OBJECT
  5
52
102
{ACAD_REACTORS
330
47
102
}
330
47
100
AcDbProxyObject
 90
      499
 91
      503
 95
   393239
 70
     0
 93
      113
310
904313A35304000000000000494000
 94
        0
1001
ACAD
1000
AcRTDxfName
1000
SCALE
  0
ACAD_PROXY_OBJECT
  5
53
102
{ACAD_REACTORS
330
47
102
}
330
47
100
AcDbProxyObject
 90
      499
 91
      503
 95
   393239
 70
     0
 93
      121
310
905313A3130304000000000000594000
 94
        0
1001
ACAD
1000
AcRTDxfName
1000
SCALE
  0
ACAD_PROXY_OBJECT
  5
54
102
{ACAD_REACTORS
330
47
102
}
330
47
100
AcDbProxyObject
 90
      499
 91
      503
 95
   393239
 70
     0
 93
      105
310
903323A310000000000000010140
 94
        0
1001
ACAD
1000
AcRTDxfName
1000
SCALE
  0
ACAD_PROXY_OBJECT
  5
55
102
{ACAD_REACTORS
330
47
102
}
330
47
100
AcDbProxyObject
 90
      499
 91
      503
 95
   393239
 70
     0
 93
      105
310
903343A310000000000000410159
 94
        0
1001
ACAD
1000
AcRTDxfName
1000
SCALE
  0
ACAD_PROXY_OBJECT
  5
56
102
{ACAD_REACTORS
330
47
102
}
330
47
100
AcDbProxyObject
 90
      499
 91
      503
 95
   393239
 70
     0
 93
      105
310
903383A310000000000000810140
 94
        0
1001
ACAD
1000
AcRTDxfName
1000
SCALE
  0
ACAD_PROXY_OBJECT
  5
57
102
{ACAD_REACTORS
330
47
102
}
330
47
100
AcDbProxyObject
 90
      499
 91
      503
 95
   393239
 70
     0
 93
      113
310
90431303A310000000000000910140
 94
        0
1001
ACAD
1000
AcRTDxfName
1000
SCALE
  0
ACAD_PROXY_OBJECT
  5
58
102
{ACAD_REACTORS
330
47
102
}
330
47
100
AcDbProxyObject
 90
      499
 91
      503
 95
   393239
 70
     0
 93
      121
310
9053130303A310000000000001650100
 94
        0
1001
ACAD
1000
AcRTDxfName
1000
SCALE
  0
ACAD_PROXY_OBJECT
  5
59
102
{ACAD_REACTORS
330
47
102
}
330
47
100
AcDbProxyObject
 90
      499
 91
      503
 95
   393239
 70
     0
 93
      257
310
90E312F31323822203D2031272D3022000000000000200FC000000000000284000
 94
        0
1001
ACAD
1000
AcRTDxfName
1000
SCALE
  0
ACAD_PROXY_OBJECT
  5
5A
102
{ACAD_REACTORS
330
47
102
}
330
47
100
AcDbProxyObject
 90
      499
 91
      503
 95
   393239
 70
     0
 93
      249
310
90D312F363422203D2031272D3022000000000000240FC000000000000284000
 94
        0
1001
ACAD
1000
AcRTDxfName
1000
SCALE
  0
ACAD_PROXY_OBJECT
  5
5B
102
{ACAD_REACTORS
330
47
102
}
330
47
100
AcDbProxyObject
 90
      499
 91
      503
 95
   393239
 70
     0
 93
      249
310
90D312F333222203D2031272D3022000000000000280FC000000000000284040
 94
        0
1001
ACAD
1000
AcRTDxfName
1000
SCALE
  0
ACAD_PROXY_OBJECT
  5
5C
102
{ACAD_REACTORS
330
47
102
}
330
47
100
AcDbProxyObject
 90
      499
 91
      503
 95
   393239
 70
     0
 93
      249
310
90D312F313622203D2031272D30220000000000002C0FC000000000000284000
 94
        0
1001
ACAD
1000
AcRTDxfName
1000
SCALE
  0
ACAD_PROXY_OBJECT
  5
5D
102
{ACAD_REACTORS
330
47
102
}
330
47
100
AcDbProxyObject
 90
      499
 91
      503
 95
   393239
 70
     0
 93
      249
310
90D332F333222203D2031272D30220000000000002E0FC000000000000284040
 94
        0
1001
ACAD
1000
AcRTDxfName
1000
SCALE
  0
ACAD_PROXY_OBJECT
  5
5E
102
{ACAD_REACTORS
330
47
102
}
330
47
100
AcDbProxyObject
 90
      499
 91
      503
 95
   393239
 70
     0
 93
      241
310
90C312F3822203D2031272D3022000000000000300FC000000000000284040
 94
        0
1001
ACAD
1000
AcRTDxfName
1000
SCALE
  0
ACAD_PROXY_OBJECT
  5
5F
102
{ACAD_REACTORS
330
47
102
}
330
47
100
AcDbProxyObject
 90
      499
 91
      503
 95
   393239
 70
     0
 93
      249
310
90D332F313622203D2031272D3022000000000000320FC000000000000284040
 94
        0
1001
ACAD
1000
AcRTDxfName
1000
SCALE
  0
ACAD_PROXY_OBJECT
  5
60
102
{ACAD_REACTORS
330
47
102
}
330
47
100
AcDbProxyObject
 90
      499
 91
      503
 95
   393239
 70
     0
 93
      241
310
90C312F3422203D2031272D3022000000000000340FC000000000000284040
 94
        0
1001
ACAD
1000
AcRTDxfName
1000
SCALE
  0
ACAD_PROXY_OBJECT
  5
61
102
{ACAD_REACTORS
330
47
102
}
330
47
100
AcDbProxyObject
 90
      499
 91
      503
 95
   393239
 70
     0
 93
      241
310
90C332F3822203D2031272D3022000000000000360FC000000000000284040
 94
        0
1001
ACAD
1000
AcRTDxfName
1000
SCALE
  0
ACAD_PROXY_OBJECT
  5
62
102
{ACAD_REACTORS
330
47
102
}
330
47
100
AcDbProxyObject
 90
      499
 91
      503
 95
   393239
 70
     0
 93
      241
310
90C312F3222203D2031272D3022000000000000380FC000000000000284040
 94
        0
1001
ACAD
1000
AcRTDxfName
1000
SCALE
  0
ACAD_PROXY_OBJECT
  5
63
102
{ACAD_REACTORS
330
47
102
}
330
47
100
AcDbProxyObject
 90
      499
 91
      503
 95
   393239
 70
     0
 93
      241
310
90C332F3422203D2031272D30220000000000003A0FC000000000000284040
 94
        0
1001
ACAD
1000
AcRTDxfName
1000
SCALE
  0
ACAD_PROXY_OBJECT
  5
64
102
{ACAD_REACTORS
330
47
102
}
330
47
100
AcDbProxyObject
 90
      499
 91
      503
 95
   393239
 70
     0
 93
      161
310
90A3122203D2031272D30224000000000000284000
 94
        0
1001
ACAD
1000
AcRTDxfName
1000
SCALE
  0
ACAD_PROXY_OBJECT
  5
65
102
{ACAD_REACTORS
330
47
102
}
330
47
100
AcDbProxyObject
 90
      499
 91
      503
 95
   393239
 70
     0
 93
      257
310
90E312D312F3222203D2031272D30220000000000003E0FC000000000000284000
 94
        0
1001
ACAD
1000
AcRTDxfName
1000
SCALE
  0
ACAD_PROXY_OBJECT
  5
66
102
{ACAD_REACTORS
330
47
102
}
330
47
100
AcDbProxyObject
 90
      499
 91
      503
 95
   393239
 70
     0
 93
      225
310
90A3322203D2031272D302200000000000002100000000000000284028
 94
        0
1001
ACAD
1000
AcRTDxfName
1000
SCALE
  0
ACAD_PROXY_OBJECT
  5
67
102
{ACAD_REACTORS
330
47
102
}
330
47
100
AcDbProxyObject
 90
      499
 91
      503
 95
   393239
 70
     0
 93
      225
310
90A3622203D2031272D302200000000000006100000000000000284000
 94
        0
1001
ACAD
1000
AcRTDxfName
1000
SCALE
  0
ACAD_PROXY_OBJECT
  5
68
102
{ACAD_REACTORS
330
47
102
}
330
47
100
AcDbProxyObject
 90
      499
 91
      503
 95
   393239
 70
     0
 93
      249
310
90D31272D3022203D2031272D30220000000000000A100000000000000284000
 94
        0
1001
ACAD
1000
AcRTDxfName
1000
SCALE
  0
TABLESTYLE
  5
2D1
102
{ACAD_REACTORS
330
2D0
102
}
330
2D0
100
AcDbTableStyle
  3
Standard
 70
     0
 71
     0
 40
1.5
 41
1.5
280
     0
281
     0
  7
Standard
140
4.5
170
     2
 62
     0
 63
     7
283
     0
274
    -2
284
     1
 64
     0
275
    -2
285
     1
 65
     0
276
    -2
286
     1
 66
     0
277
    -2
287
     1
 67
     0
278
    -2
288
     1
 68
     0
279
    -2
289
     1
 69
     0
  7
Standard
140
6.0
170
     5
 62
     0
 63
     7
283
     0
274
    -2
284
     1
 64
     0
275
    -2
285
     1
 65
     0
276
    -2
286
     1
 66
     0
277
    -2
287
     1
 67
     0
278
    -2
288
     1
 68
     0
279
    -2
289
     1
 69
     0
  7
Standard
140
4.5
170
     5
 62
     0
 63
     7
283
     0
274
    -2
284
     1
 64
     0
275
    -2
285
     1
 65
     0
276
    -2
286
     1
 66
     0
277
    -2
287
     1
 67
     0
278
    -2
288
     1
 68
     0
279
    -2
289
     1
 69
     0
  0
DICTIONARYVAR
  5
2D9
102
{ACAD_REACTORS
330
2D8
102
}
330
2D8
100
DictionaryVariables
280
     0
  1
STANDARD
  0
DICTIONARYVAR
  5
4F8
102
{ACAD_REACTORS
330
2D8
102
}
330
2D8
100
DictionaryVariables
280
     0
  1
1
  0
DICTIONARYVAR
  5
4F9
102
{ACAD_REACTORS
330
2D8
102
}
330
2D8
100
DictionaryVariables
280
     0
  1

  0
DICTIONARY
  5
4FC
330
1E
100
AcDbDictionary
280
     1
281
     1
  3
ACAD_XREC_ROUNDTRIP
360
4FD
  0
DICTIONARY
  5
500
330
26
100
AcDbDictionary
280
     1
281
     1
  3
ACAD_XREC_ROUNDTRIP
360
501
  0
DICTIONARY
  5
4FE
330
22
100
AcDbDictionary
280
     1
281
     1
  3
ACAD_XREC_ROUNDTRIP
360
4FF
  0
XRECORD
  5
4FD
102
{ACAD_REACTORS
330
4FC
102
}
330
4FC
100
AcDbXrecord
280
     1
102
SHADEPLOT
 70
     0
102
SHADEPLOTRESLEVEL
 70
     2
102
SHADEPLOTCUSTOMDPI
 70
   300
  0
XRECORD
  5
501
102
{ACAD_REACTORS
330
500
102
}
330
500
100
AcDbXrecord
280
     1
102
SHADEPLOT
 70
     0
102
SHADEPLOTRESLEVEL
 70
     2
102
SHADEPLOTCUSTOMDPI
 70
   300
  0
XRECORD
  5
4FF
102
{ACAD_REACTORS
330
4FE
102
}
330
4FE
100
AcDbXrecord
280
     1
102
SHADEPLOT
 70
     0
102
SHADEPLOTRESLEVEL
 70
     2
102
SHADEPLOTCUSTOMDPI
 70
   300
  0
ENDSEC
  0
EOF
