  0
SECTION
  2
HEADER
  9
$ACADVER
  1
AC1015
  9
$ACADMAINTVER
 70
    20
  9
$DWGCODEPAGE
  3
ANSI_1252
  9
$INSBASE
 10
0.0
 20
0.0
 30
0.0
  9
$EXTMIN
 10
24.47104414945899
 20
24.42728804620871
 30
0.0
  9
$EXTMAX
 10
437.5244918814944
 20
214.3955818568433
 30
0.0
  9
$LIMMIN
 10
10.5358802909509
 20
14.88511196326863
  9
$LIMMAX
 10
457.81446056831
 20
234.0146030662717
  9
$ORTHOMODE
 70
     1
  9
$REGENMODE
 70
     1
  9
$FILLMODE
 70
     1
  9
$QTEXTMODE
 70
     0
  9
$MIRRTEXT
 70
     1
  9
$LTSCALE
 40
1.0
  9
$ATTMODE
 70
     1
  9
$TEXTSIZE
 40
3.174999999999999
  9
$TRACEWID
 40
1.0
  9
$TEXTSTYLE
  7
Standard
  9
$CLAYER
  8
0
  9
$CELTYPE
  6
ByLayer
  9
$CECOLOR
 62
   256
  9
$CELTSCALE
 40
1.0
  9
$DISPSILH
 70
     0
  9
$DIMSCALE
 40
1.0
  9
$DIMASZ
 40
3.301999999999999
  9
$DIMEXO
 40
1.27
  9
$DIMDLI
 40
3.75
  9
$DIMRND
 40
0.0
  9
$DIMDLE
 40
0.0
  9
$DIMEXE
 40
3.174999999999999
  9
$DIMTP
 40
0.0
  9
$DIMTM
 40
0.0
  9
$DIMTXT
 40
3.5
  9
$DIMCEN
 40
2.5
  9
$DIMTSZ
 40
0.0
  9
$DIMTOL
 70
     0
  9
$DIMLIM
 70
     0
  9
$DIMTIH
 70
     1
  9
$DIMTOH
 70
     1
  9
$DIMSE1
 70
     0
  9
$DIMSE2
 70
     0
  9
$DIMTAD
 70
     0
  9
$DIMZIN
 70
     1
  9
$DIMBLK
  1

  9
$DIMASO
 70
     1
  9
$DIMSHO
 70
     1
  9
$DIMPOST
  1

  9
$DIMAPOST
  1

  9
$DIMALT
 70
     0
  9
$DIMALTD
 70
     3
  9
$DIMALTF
 40
0.0393700787401575
  9
$DIMLFAC
 40
1.0
  9
$DIMTOFL
 70
     0
  9
$DIMTVP
 40
0.0
  9
$DIMTIX
 70
     0
  9
$DIMSOXD
 70
     0
  9
$DIMSAH
 70
     0
  9
$DIMBLK1
  1

  9
$DIMBLK2
  1

  9
$DIMSTYLE
  2
DATASHEET
  9
$DIMCLRD
 70
     0
  9
$DIMCLRE
 70
     0
  9
$DIMCLRT
 70
     0
  9
$DIMTFAC
 40
1.0
  9
$DIMGAP
 40
1.524
  9
$DIMJUST
 70
     0
  9
$DIMSD1
 70
     0
  9
$DIMSD2
 70
     0
  9
$DIMTOLJ
 70
     0
  9
$DIMTZIN
 70
     1
  9
$DIMALTZ
 70
     0
  9
$DIMALTTZ
 70
     0
  9
$DIMUPT
 70
     0
  9
$DIMDEC
 70
     1
  9
$DIMTDEC
 70
     1
  9
$DIMALTU
 70
     2
  9
$DIMALTTD
 70
     3
  9
$DIMTXSTY
  7
Standard
  9
$DIMAUNIT
 70
     0
  9
$DIMADEC
 70
     1
  9
$DIMALTRND
 40
0.0
  9
$DIMAZIN
 70
     0
  9
$DIMDSEP
 70
    46
  9
$DIMATFIT
 70
     3
  9
$DIMFRAC
 70
     0
  9
$DIMLDRBLK
  1

  9
$DIMLUNIT
 70
     2
  9
$DIMLWD
 70
    -2
  9
$DIMLWE
 70
    -2
  9
$DIMTMOVE
 70
     0
  9
$LUNITS
 70
     2
  9
$LUPREC
 70
     2
  9
$SKETCHINC
 40
1.0
  9
$FILLETRAD
 40
10.0
  9
$AUNITS
 70
     0
  9
$AUPREC
 70
     2
  9
$MENU
  1
.
  9
$ELEVATION
 40
0.0
  9
$PELEVATION
 40
0.0
  9
$THICKNESS
 40
0.0
  9
$LIMCHECK
 70
     0
  9
$CHAMFERA
 40
0.0
  9
$CHAMFERB
 40
0.0
  9
$CHAMFERC
 40
0.0
  9
$CHAMFERD
 40
0.0
  9
$SKPOLY
 70
     0
  9
$TDCREATE
 40
2459074.503608276
  9
$TDUCREATE
 40
2459074.670274942
  9
$TDUPDATE
 40
2459075.375312500
  9
$TDUUPDATE
 40
2459075.541979167
  9
$TDINDWG
 40
0.0276842940
  9
$TDUSRTIMER
 40
0.0276842940
  9
$USRTIMER
 70
     1
  9
$ANGBASE
 50
0.0
  9
$ANGDIR
 70
     0
  9
$PDMODE
 70
     0
  9
$PDSIZE
 40
-1.0
  9
$PLINEWID
 40
0.0
  9
$SPLFRAME
 70
     0
  9
$SPLINETYPE
 70
     6
  9
$SPLINESEGS
 70
     8
  9
$HANDSEED
  5
9D1
  9
$SURFTAB1
 70
     6
  9
$SURFTAB2
 70
     6
  9
$SURFTYPE
 70
     6
  9
$SURFU
 70
     6
  9
$SURFV
 70
     6
  9
$UCSBASE
  2

  9
$UCSNAME
  2

  9
$UCSORG
 10
0.0
 20
0.0
 30
0.0
  9
$UCSXDIR
 10
1.0
 20
0.0
 30
0.0
  9
$UCSYDIR
 10
0.0
 20
1.0
 30
0.0
  9
$UCSORTHOREF
  2

  9
$UCSORTHOVIEW
 70
     0
  9
$UCSORGTOP
 10
0.0
 20
0.0
 30
0.0
  9
$UCSORGBOTTOM
 10
0.0
 20
0.0
 30
0.0
  9
$UCSORGLEFT
 10
0.0
 20
0.0
 30
0.0
  9
$UCSORGRIGHT
 10
0.0
 20
0.0
 30
0.0
  9
$UCSORGFRONT
 10
0.0
 20
0.0
 30
0.0
  9
$UCSORGBACK
 10
0.0
 20
0.0
 30
0.0
  9
$PUCSBASE
  2

  9
$PUCSNAME
  2

  9
$PUCSORG
 10
0.0
 20
0.0
 30
0.0
  9
$PUCSXDIR
 10
1.0
 20
0.0
 30
0.0
  9
$PUCSYDIR
 10
0.0
 20
1.0
 30
0.0
  9
$PUCSORTHOREF
  2

  9
$PUCSORTHOVIEW
 70
     0
  9
$PUCSORGTOP
 10
0.0
 20
0.0
 30
0.0
  9
$PUCSORGBOTTOM
 10
0.0
 20
0.0
 30
0.0
  9
$PUCSORGLEFT
 10
0.0
 20
0.0
 30
0.0
  9
$PUCSORGRIGHT
 10
0.0
 20
0.0
 30
0.0
  9
$PUCSORGFRONT
 10
0.0
 20
0.0
 30
0.0
  9
$PUCSORGBACK
 10
0.0
 20
0.0
 30
0.0
  9
$USERI1
 70
     0
  9
$USERI2
 70
     0
  9
$USERI3
 70
     0
  9
$USERI4
 70
     0
  9
$USERI5
 70
     0
  9
$USERR1
 40
0.0
  9
$USERR2
 40
0.0
  9
$USERR3
 40
0.0
  9
$USERR4
 40
0.0
  9
$USERR5
 40
0.0
  9
$WORLDVIEW
 70
     1
  9
$SHADEDGE
 70
     3
  9
$SHADEDIF
 70
    70
  9
$TILEMODE
 70
     1
  9
$MAXACTVP
 70
    64
  9
$PINSBASE
 10
0.0
 20
0.0
 30
0.0
  9
$PLIMCHECK
 70
     0
  9
$PEXTMIN
 10
1.000000000000000E+20
 20
1.000000000000000E+20
 30
1.000000000000000E+20
  9
$PEXTMAX
 10
-1.000000000000000E+20
 20
-1.000000000000000E+20
 30
-1.000000000000000E+20
  9
$PLIMMIN
 10
0.0
 20
0.0
  9
$PLIMMAX
 10
420.0
 20
297.0
  9
$UNITMODE
 70
     0
  9
$VISRETAIN
 70
     1
  9
$PLINEGEN
 70
     0
  9
$PSLTSCALE
 70
     1
  9
$TREEDEPTH
 70
  3020
  9
$CMLSTYLE
  2
Standard
  9
$CMLJUST
 70
     0
  9
$CMLSCALE
 40
20.0
  9
$PROXYGRAPHICS
 70
     1
  9
$MEASUREMENT
 70
     1
  9
$CELWEIGHT
370
    -1
  9
$ENDCAPS
280
     0
  9
$JOINSTYLE
280
     0
  9
$LWDISPLAY
290
     1
  9
$INSUNITS
 70
     4
  9
$HYPERLINKBASE
  1

  9
$STYLESHEET
  1

  9
$XEDIT
290
     1
  9
$CEPSNTYPE
380
     0
  9
$PSTYLEMODE
290
     1
  9
$FINGERPRINTGUID
  2
{8E8B2823-822F-4FE8-A5AA-A672206EBC6A}
  9
$VERSIONGUID
  2
{F5A6F644-7F43-42CD-A31A-D01C873A33BF}
  9
$EXTNAMES
290
     1
  9
$PSVPSCALE
 40
0.0
  9
$OLESTARTUP
290
     0
  0
ENDSEC
  0
SECTION
  2
CLASSES
  0
CLASS
  1
ACDBDICTIONARYWDFLT
  2
AcDbDictionaryWithDefault
  3
ObjectDBX Classes
 90
        0
280
     0
281
     0
  0
CLASS
  1
VISUALSTYLE
  2
AcDbVisualStyle
  3
ObjectDBX Classes
 90
    36863
280
     0
281
     0
  0
CLASS
  1
MATERIAL
  2
AcDbMaterial
  3
ObjectDBX Classes
 90
    32768
280
     0
281
     0
  0
CLASS
  1
SCALE
  2
AcDbScale
  3
ObjectDBX Classes
 90
     1153
280
     0
281
     0
  0
CLASS
  1
TABLESTYLE
  2
AcDbTableStyle
  3
ObjectDBX Classes
 90
     2047
280
     0
281
     0
  0
CLASS
  1
MLEADERSTYLE
  2
AcDbMLeaderStyle
  3
ACDB_MLEADERSTYLE_CLASS
 90
    36863
280
     0
281
     0
  0
CLASS
  1
SUN
  2
AcDbSun
  3
SCENEOE
 90
    33921
280
     0
281
     0
  0
CLASS
  1
ACDBPLACEHOLDER
  2
AcDbPlaceHolder
  3
ObjectDBX Classes
 90
        0
280
     0
281
     0
  0
CLASS
  1
LAYOUT
  2
AcDbLayout
  3
ObjectDBX Classes
 90
        0
280
     0
281
     0
  0
CLASS
  1
DICTIONARYVAR
  2
AcDbDictionaryVar
  3
ObjectDBX Classes
 90
        0
280
     0
281
     0
  0
CLASS
  1
SORTENTSTABLE
  2
AcDbSortentsTable
  3
ObjectDBX Classes
 90
        0
280
     0
281
     0
  0
ENDSEC
  0
SECTION
  2
TABLES
  0
TABLE
  2
VPORT
  5
8
330
0
100
AcDbSymbolTable
 70
     3
  0
VPORT
  5
9C9
330
8
100
AcDbSymbolTableRecord
100
AcDbViewportTableRecord
  2
*Active
 70
     0
 10
0.0
 20
0.0
 11
1.0
 21
1.0
 12
203.1075304361358
 22
85.14442144906508
 13
0.0
 23
0.0
 14
10.0
 24
10.0
 15
10.0
 25
10.0
 16
0.0
 26
0.0
 36
1.0
 17
0.0
 27
0.0
 37
0.0
 40
376.0148289390059
 41
2.570698466780238
 42
50.0
 43
0.0
 44
0.0
 50
0.0
 51
0.0
 71
     0
 72
  2000
 73
     1
 74
     3
 75
     0
 76
     0
 77
     0
 78
     0
281
     0
 65
     1
110
0.0
120
0.0
130
0.0
111
1.0
121
0.0
131
0.0
112
0.0
122
1.0
132
0.0
 79
     0
146
0.0
  0
ENDTAB
  0
TABLE
  2
LTYPE
  5
5
330
0
100
AcDbSymbolTable
 70
     1
  0
LTYPE
  5
14
330
5
100
AcDbSymbolTableRecord
100
AcDbLinetypeTableRecord
  2
ByBlock
 70
     0
  3

 72
    65
 73
     0
 40
0.0
  0
LTYPE
  5
15
330
5
100
AcDbSymbolTableRecord
100
AcDbLinetypeTableRecord
  2
ByLayer
 70
     0
  3

 72
    65
 73
     0
 40
0.0
  0
LTYPE
  5
16
330
5
100
AcDbSymbolTableRecord
100
AcDbLinetypeTableRecord
  2
Continuous
 70
     0
  3
Solid line
 72
    65
 73
     0
 40
0.0
  0
ENDTAB
  0
TABLE
  2
LAYER
  5
2
102
{ACAD_XDICTIONARY
360
612
102
}
330
0
100
AcDbSymbolTable
 70
     3
  0
LAYER
  5
10
330
2
100
AcDbSymbolTableRecord
100
AcDbLayerTableRecord
  2
0
 70
     0
 62
     7
  6
Continuous
370
    -3
390
F
  0
LAYER
  5
74
330
2
100
AcDbSymbolTableRecord
100
AcDbLayerTableRecord
  2
SLD-0
 70
     0
 62
     7
  6
Continuous
370
    -3
390
F
  0
LAYER
  5
6B4
330
2
100
AcDbSymbolTableRecord
100
AcDbLayerTableRecord
  2
Defpoints
 70
     0
 62
     7
  6
Continuous
290
     0
370
    -3
390
F
  0
ENDTAB
  0
TABLE
  2
STYLE
  5
3
330
0
100
AcDbSymbolTable
 70
     2
  0
STYLE
  5
11
330
3
100
AcDbSymbolTableRecord
100
AcDbTextStyleTableRecord
  2
Standard
 70
     0
 40
0.0
 41
1.0
 50
0.0
 71
     0
 42
3.174999999999999
  3
ARIAL.TTF
  4

1001
ACAD
1000
Arial
1071
       34
  0
STYLE
  5
83
330
3
100
AcDbSymbolTableRecord
100
AcDbTextStyleTableRecord
  2
SLDTEXTSTYLE0
 70
     0
 40
0.0
 41
0.75
 50
0.0
 71
     0
 42
3.174999999999999
  3
TXT
  4

  0
ENDTAB
  0
TABLE
  2
VIEW
  5
6
330
0
100
AcDbSymbolTable
 70
     0
  0
ENDTAB
  0
TABLE
  2
UCS
  5
7
330
0
100
AcDbSymbolTable
 70
     0
  0
ENDTAB
  0
TABLE
  2
APPID
  5
9
330
0
100
AcDbSymbolTable
 70
     2
  0
APPID
  5
12
330
9
100
AcDbSymbolTableRecord
100
AcDbRegAppTableRecord
  2
ACAD
 70
     0
  0
APPID
  5
619
330
9
100
AcDbSymbolTableRecord
100
AcDbRegAppTableRecord
  2
ACAD_DSTYLE_DIMTEXT_FILL
 70
     0
  0
ENDTAB
  0
TABLE
  2
DIMSTYLE
  5
A
330
0
100
AcDbSymbolTable
 70
     3
100
AcDbDimStyleTable
 71
     1
340
693
  0
DIMSTYLE
105
289
330
A
100
AcDbSymbolTableRecord
100
AcDbDimStyleTableRecord
  2
SLDDIMSTYLE0
 70
     0
 41
3.301999999999999
 44
0.0
 45
0.000000001
 78
    12
 79
     3
140
3.174999999999999
147
0.79375
173
     1
271
     1
272
     1
276
     2
284
    12
340
83
  0
DIMSTYLE
105
383
330
A
100
AcDbSymbolTableRecord
100
AcDbDimStyleTableRecord
  2
SLDDIMSTYLE3
 70
     0
 41
3.301999999999999
 44
0.0
 45
0.000000001
146
3.301999999999999
147
0.0
173
     1
271
     0
272
     0
276
     2
340
11
  0
DIMSTYLE
105
693
102
{ACAD_REACTORS
330
5C1
330
5CC
330
5F2
330
5E7
330
5FD
330
5B5
330
2B7
330
2AC
330
294
330
377
330
29F
330
5D8
330
288
102
}
330
A
100
AcDbSymbolTableRecord
100
AcDbDimStyleTableRecord
  2
DATASHEET
 70
     0
 41
3.301999999999999
 42
1.27
 43
3.75
 44
3.174999999999999
 78
     1
140
3.5
141
2.5
143
0.0393700787401575
147
1.524
171
     3
179
     2
271
     1
272
     1
274
     3
283
     0
284
     1
340
11
  0
ENDTAB
  0
TABLE
  2
BLOCK_RECORD
  5
1
330
0
100
AcDbSymbolTable
 70
    14
  0
BLOCK_RECORD
  5
1F
102
{ACAD_XDICTIONARY
360
8DD
102
}
330
1
100
AcDbSymbolTableRecord
100
AcDbBlockTableRecord
  2
*Model_Space
340
22
  0
BLOCK_RECORD
  5
1B
330
1
100
AcDbSymbolTableRecord
100
AcDbBlockTableRecord
  2
*Paper_Space
340
1E
  0
BLOCK_RECORD
  5
23
330
1
100
AcDbSymbolTableRecord
100
AcDbBlockTableRecord
  2
*Paper_Space0
340
26
  0
BLOCK_RECORD
  5
28A
330
1
100
AcDbSymbolTableRecord
100
AcDbBlockTableRecord
  2
_D
340
0
  0
BLOCK_RECORD
  5
295
330
1
100
AcDbSymbolTableRecord
100
AcDbBlockTableRecord
  2
_D_1
340
0
  0
BLOCK_RECORD
  5
2A1
330
1
100
AcDbSymbolTableRecord
100
AcDbBlockTableRecord
  2
_D_2
340
0
  0
BLOCK_RECORD
  5
2AD
330
1
100
AcDbSymbolTableRecord
100
AcDbBlockTableRecord
  2
_D_3
340
0
  0
BLOCK_RECORD
  5
2B8
330
1
100
AcDbSymbolTableRecord
100
AcDbBlockTableRecord
  2
_D_4
340
0
  0
BLOCK_RECORD
  5
379
330
1
100
AcDbSymbolTableRecord
100
AcDbBlockTableRecord
  2
_D_5
340
0
  0
BLOCK_RECORD
  5
5B7
330
1
100
AcDbSymbolTableRecord
100
AcDbBlockTableRecord
  2
_D_6
340
0
  0
BLOCK_RECORD
  5
5C2
330
1
100
AcDbSymbolTableRecord
100
AcDbBlockTableRecord
  2
_D_7
340
0
  0
BLOCK_RECORD
  5
5CE
330
1
100
AcDbSymbolTableRecord
100
AcDbBlockTableRecord
  2
_D_8
340
0
  0
BLOCK_RECORD
  5
5DA
330
1
100
AcDbSymbolTableRecord
100
AcDbBlockTableRecord
  2
_D_9
340
0
  0
BLOCK_RECORD
  5
5E8
330
1
100
AcDbSymbolTableRecord
100
AcDbBlockTableRecord
  2
_D_10
340
0
  0
BLOCK_RECORD
  5
5F3
330
1
100
AcDbSymbolTableRecord
100
AcDbBlockTableRecord
  2
_D_11
340
0
  0
BLOCK_RECORD
  5
5FF
330
1
100
AcDbSymbolTableRecord
100
AcDbBlockTableRecord
  2
_D_12
340
0
  0
ENDTAB
  0
ENDSEC
  0
SECTION
  2
BLOCKS
  0
BLOCK
  5
20
330
1F
100
AcDbEntity
  8
0
100
AcDbBlockBegin
  2
*Model_Space
 70
     0
 10
0.0
 20
0.0
 30
0.0
  3
*Model_Space
  1

  0
ENDBLK
  5
21
330
1F
100
AcDbEntity
  8
0
100
AcDbBlockEnd
  0
BLOCK
  5
1C
330
1B
100
AcDbEntity
 67
     1
  8
0
100
AcDbBlockBegin
  2
*Paper_Space
 70
     0
 10
0.0
 20
0.0
 30
0.0
  3
*Paper_Space
  1

  0
ENDBLK
  5
1D
330
1B
100
AcDbEntity
 67
     1
  8
0
100
AcDbBlockEnd
  0
BLOCK
  5
24
330
23
100
AcDbEntity
  8
0
100
AcDbBlockBegin
  2
*Paper_Space0
 70
     0
 10
0.0
 20
0.0
 30
0.0
  3
*Paper_Space0
  1

  0
ENDBLK
  5
25
330
23
100
AcDbEntity
  8
0
100
AcDbBlockEnd
  0
BLOCK
  5
28B
330
28A
100
AcDbEntity
  8
0
100
AcDbBlockBegin
  2
_D
 70
     0
 10
0.0
 20
0.0
 30
0.0
  3
_D
  1

  0
LINE
  5
9B4
330
28A
100
AcDbEntity
  8
SLD-0
 62
     0
370
    -2
100
AcDbLine
 10
173.7593468958258
 20
75.08950225190798
 30
0.0
 11
138.7092269268093
 21
75.089502251908
 31
0.0
  0
LINE
  5
9B5
330
28A
100
AcDbEntity
  8
SLD-0
 62
     0
370
    -2
100
AcDbLine
 10
161.755948000551
 20
40.15882080356175
 30
0.0
 11
138.7092269268092
 21
40.15882080356176
 31
0.0
  0
LINE
  5
9B6
330
28A
100
AcDbEntity
  8
SLD-0
 62
     0
370
    -2
100
AcDbLine
 10
141.8842269268093
 20
71.787502251908
 30
0.0
 11
141.8842269268093
 21
60.94848654888204
 31
0.0
  0
LINE
  5
9B7
330
28A
100
AcDbEntity
  8
SLD-0
 62
     0
370
    -2
100
AcDbLine
 10
141.8842269268093
 20
43.46082080356175
 30
0.0
 11
141.8842269268093
 21
54.32408818598982
 31
0.0
  0
SOLID
  5
9B8
330
28A
100
AcDbEntity
  8
SLD-0
 62
     0
100
AcDbTrace
 10
141.333893593476
 20
71.787502251908
 30
0.0
 11
142.4345602601426
 21
71.787502251908
 31
0.0
 12
141.8842269268093
 22
75.089502251908
 32
0.0
 13
141.8842269268093
 23
75.089502251908
 33
0.0
  0
SOLID
  5
9B9
330
28A
100
AcDbEntity
  8
SLD-0
 62
     0
100
AcDbTrace
 10
141.3338935934759
 20
43.46082080356175
 30
0.0
 11
142.4345602601426
 21
43.46082080356175
 31
0.0
 12
141.8842269268093
 22
40.15882080356176
 32
0.0
 13
141.8842269268093
 23
40.15882080356176
 33
0.0
  0
MTEXT
  5
9BA
330
28A
100
AcDbEntity
  8
SLD-0
 62
     0
100
AcDbMText
 10
141.8842269268093
 20
59.42448654888206
 30
0.0
 40
3.5
 41
0.0
 71
     2
 72
     1
  1
34.9
 73
     1
 44
1.0
1001
ACAD
1000
MTEXTBEGIN
1070
    73
1070
     1
1070
    44
1040
1.0
1070
    74
1070
     0
1000
MTEXTEND
  0
POINT
  5
9BB
330
28A
100
AcDbEntity
  8
Defpoints
 62
     0
100
AcDbPoint
 10
175.0293468958258
 20
75.08950225190798
 30
0.0
  0
POINT
  5
9BC
330
28A
100
AcDbEntity
  8
Defpoints
 62
     0
100
AcDbPoint
 10
163.025948000551
 20
40.15882080356175
 30
0.0
  0
POINT
  5
9BD
330
28A
100
AcDbEntity
  8
Defpoints
 62
     0
100
AcDbPoint
 10
141.8842269268093
 20
40.15882080356176
 30
0.0
  0
ENDBLK
  5
28C
330
28A
100
AcDbEntity
  8
0
100
AcDbBlockEnd
  0
BLOCK
  5
296
330
295
100
AcDbEntity
  8
0
100
AcDbBlockBegin
  2
_D_1
 70
     0
 10
0.0
 20
0.0
 30
0.0
  3
_D_1
  1

  0
LINE
  5
8EB
330
295
100
AcDbEntity
  8
SLD-0
 62
     0
370
    -2
100
AcDbLine
 10
163.0259469269307
 20
38.88882080356175
 30
0.0
 11
163.0259469269307
 21
24.42728804620871
 31
0.0
  0
LINE
  5
8EC
330
295
100
AcDbEntity
  8
SLD-0
 62
     0
370
    -2
100
AcDbLine
 10
286.0958883751552
 20
38.88882080356175
 30
0.0
 11
286.0958883751552
 21
24.42728804620871
 31
0.0
  0
LINE
  5
8ED
330
295
100
AcDbEntity
  8
SLD-0
 62
     0
370
    -2
100
AcDbLine
 10
166.3279469269307
 20
27.60228804620871
 30
0.0
 11
214.1750945113252
 21
27.60228804620871
 31
0.0
  0
LINE
  5
8EE
330
295
100
AcDbEntity
  8
SLD-0
 62
     0
370
    -2
100
AcDbLine
 10
282.7938883751552
 20
27.60228804620871
 30
0.0
 11
228.0286879628941
 21
27.60228804620871
 31
0.0
  0
SOLID
  5
8EF
330
295
100
AcDbEntity
  8
SLD-0
 62
     0
100
AcDbTrace
 10
166.3279469269307
 20
28.15262137954205
 30
0.0
 11
166.3279469269307
 21
27.05195471287538
 31
0.0
 12
163.0259469269307
 22
27.60228804620871
 32
0.0
 13
163.0259469269307
 23
27.60228804620871
 33
0.0
  0
SOLID
  5
8F0
330
295
100
AcDbEntity
  8
SLD-0
 62
     0
100
AcDbTrace
 10
282.7938883751552
 20
28.15262137954205
 30
0.0
 11
282.7938883751552
 21
27.05195471287538
 31
0.0
 12
286.0958883751552
 22
27.60228804620871
 32
0.0
 13
286.0958883751552
 23
27.60228804620871
 33
0.0
  0
MTEXT
  5
8F1
330
295
100
AcDbEntity
  8
SLD-0
 62
     0
100
AcDbMText
 10
221.1018912371097
 20
29.39048722765483
 30
0.0
 40
3.5
 41
0.0
 71
     2
 72
     1
  1
123.1
 73
     1
 44
1.0
1001
ACAD
1000
MTEXTBEGIN
1070
    73
1070
     1
1070
    44
1040
1.0
1070
    74
1070
     0
1000
MTEXTEND
  0
POINT
  5
8F2
330
295
100
AcDbEntity
  8
Defpoints
 62
     0
100
AcDbPoint
 10
163.0259469269307
 20
40.15882080356175
 30
0.0
  0
POINT
  5
8F3
330
295
100
AcDbEntity
  8
Defpoints
 62
     0
100
AcDbPoint
 10
286.0958883751552
 20
40.15882080356175
 30
0.0
  0
POINT
  5
8F4
330
295
100
AcDbEntity
  8
Defpoints
 62
     0
100
AcDbPoint
 10
286.0958883751552
 20
27.60228804620871
 30
0.0
  0
ENDBLK
  5
297
330
295
100
AcDbEntity
  8
0
100
AcDbBlockEnd
  0
BLOCK
  5
2A2
330
2A1
100
AcDbEntity
  8
0
100
AcDbBlockBegin
  2
_D_2
 70
     0
 10
0.0
 20
0.0
 30
0.0
  3
_D_2
  1

  0
LINE
  5
976
330
2A1
100
AcDbEntity
  8
SLD-0
 62
     0
370
    -2
100
AcDbLine
 10
287.3658883751552
 20
41.06052080356173
 30
0.0
 11
298.5475496957901
 21
41.06052080356173
 31
0.0
  0
LINE
  5
977
330
2A1
100
AcDbEntity
  8
SLD-0
 62
     0
370
    -2
100
AcDbLine
 10
287.3658883751552
 20
40.15882080356175
 30
0.0
 11
298.5475496957901
 21
40.15882080356175
 31
0.0
  0
LINE
  5
978
330
2A1
100
AcDbEntity
  8
SLD-0
 62
     0
370
    -2
100
AcDbLine
 10
295.3725496957901
 20
36.85682080356175
 30
0.0
 11
295.3725496957901
 21
33.55482080356175
 31
0.0
  0
LINE
  5
979
330
2A1
100
AcDbEntity
  8
SLD-0
 62
     0
370
    -2
100
AcDbLine
 10
295.3725496957901
 20
44.36252080356172
 30
0.0
 11
295.3725496957901
 21
48.90264853791875
 31
0.0
  0
LINE
  5
97A
330
2A1
100
AcDbEntity
  8
SLD-0
 62
     0
370
    -2
100
AcDbLine
 10
295.3725496957901
 20
48.90264853791875
 30
0.0
 11
298.6745496957902
 21
48.90264853791875
 31
0.0
  0
SOLID
  5
97B
330
2A1
100
AcDbEntity
  8
SLD-0
 62
     0
100
AcDbTrace
 10
294.8222163624568
 20
36.85682080356175
 30
0.0
 11
295.9228830291235
 21
36.85682080356175
 31
0.0
 12
295.3725496957901
 22
40.15882080356175
 32
0.0
 13
295.3725496957901
 23
40.15882080356175
 33
0.0
  0
SOLID
  5
97C
330
2A1
100
AcDbEntity
  8
SLD-0
 62
     0
100
AcDbTrace
 10
294.8222163624568
 20
44.36252080356172
 30
0.0
 11
295.9228830291235
 21
44.36252080356172
 31
0.0
 12
295.3725496957901
 22
41.06052080356173
 32
0.0
 13
295.3725496957901
 23
41.06052080356173
 33
0.0
  0
MTEXT
  5
97D
330
2A1
100
AcDbEntity
  8
SLD-0
 62
     0
100
AcDbMText
 10
303.3881813465405
 20
50.68965399494471
 30
0.0
 40
3.5
 41
0.0
 71
     2
 72
     1
  1
0.9
 73
     1
 44
1.0
1001
ACAD
1000
MTEXTBEGIN
1070
    73
1070
     1
1070
    44
1040
1.0
1070
    74
1070
     0
1000
MTEXTEND
  0
POINT
  5
97E
330
2A1
100
AcDbEntity
  8
Defpoints
 62
     0
100
AcDbPoint
 10
286.0958883751552
 20
41.06052080356173
 30
0.0
  0
POINT
  5
97F
330
2A1
100
AcDbEntity
  8
Defpoints
 62
     0
100
AcDbPoint
 10
286.0958883751552
 20
40.15882080356175
 30
0.0
  0
POINT
  5
980
330
2A1
100
AcDbEntity
  8
Defpoints
 62
     0
100
AcDbPoint
 10
295.3725496957901
 20
40.15882080356175
 30
0.0
  0
ENDBLK
  5
2A3
330
2A1
100
AcDbEntity
  8
0
100
AcDbBlockEnd
  0
BLOCK
  5
2AE
330
2AD
100
AcDbEntity
  8
0
100
AcDbBlockBegin
  2
_D_3
 70
     0
 10
0.0
 20
0.0
 30
0.0
  3
_D_3
  1

  0
LINE
  5
900
330
2AD
100
AcDbEntity
  8
SLD-0
 62
     0
370
    -2
100
AcDbLine
 10
171.6619469269221
 20
73.6106208035625
 30
0.0
 11
171.6619469269221
 21
88.26450225190866
 31
0.0
  0
LINE
  5
901
330
2AD
100
AcDbEntity
  8
SLD-0
 62
     0
370
    -2
100
AcDbLine
 10
277.4999269268092
 20
74.41640225190799
 30
0.0
 11
277.4999269268092
 21
88.26450225190866
 31
0.0
  0
LINE
  5
902
330
2AD
100
AcDbEntity
  8
SLD-0
 62
     0
370
    -2
100
AcDbLine
 10
174.9639469269221
 20
85.08950225190867
 30
0.0
 11
217.6640018362195
 21
85.08950225190867
 31
0.0
  0
LINE
  5
903
330
2AD
100
AcDbEntity
  8
SLD-0
 62
     0
370
    -2
100
AcDbLine
 10
274.1979269268091
 20
85.08950225190867
 30
0.0
 11
232.2004056561376
 21
85.08950225190867
 31
0.0
  0
SOLID
  5
904
330
2AD
100
AcDbEntity
  8
SLD-0
 62
     0
100
AcDbTrace
 10
174.9639469269221
 20
85.63983558524199
 30
0.0
 11
174.9639469269221
 21
84.53916891857534
 31
0.0
 12
171.6619469269221
 22
85.08950225190867
 32
0.0
 13
171.6619469269221
 23
85.08950225190867
 33
0.0
  0
SOLID
  5
905
330
2AD
100
AcDbEntity
  8
SLD-0
 62
     0
100
AcDbTrace
 10
274.1979269268091
 20
85.63983558524199
 30
0.0
 11
274.1979269268091
 21
84.53916891857534
 31
0.0
 12
277.4999269268092
 22
85.08950225190867
 32
0.0
 13
277.4999269268092
 23
85.08950225190867
 33
0.0
  0
MTEXT
  5
906
330
2AD
100
AcDbEntity
  8
SLD-0
 62
     0
100
AcDbMText
 10
224.9322037461785
 20
86.8765077089346
 30
0.0
 40
3.5
 41
0.0
 71
     2
 72
     1
  1
105.8
 73
     1
 44
1.0
1001
ACAD
1000
MTEXTBEGIN
1070
    73
1070
     1
1070
    44
1040
1.0
1070
    74
1070
     0
1000
MTEXTEND
  0
POINT
  5
907
330
2AD
100
AcDbEntity
  8
Defpoints
 62
     0
100
AcDbPoint
 10
171.6619469269221
 20
72.3406208035625
 30
0.0
  0
POINT
  5
908
330
2AD
100
AcDbEntity
  8
Defpoints
 62
     0
100
AcDbPoint
 10
277.4999269268092
 20
73.146402251908
 30
0.0
  0
POINT
  5
909
330
2AD
100
AcDbEntity
  8
Defpoints
 62
     0
100
AcDbPoint
 10
277.4999269268092
 20
85.08950225190867
 30
0.0
  0
ENDBLK
  5
2AF
330
2AD
100
AcDbEntity
  8
0
100
AcDbBlockEnd
  0
BLOCK
  5
2B9
330
2B8
100
AcDbEntity
  8
0
100
AcDbBlockBegin
  2
_D_4
 70
     0
 10
0.0
 20
0.0
 30
0.0
  3
_D_4
  1

  0
LINE
  5
90A
330
2B8
100
AcDbEntity
  8
SLD-0
 62
     0
370
    -2
100
AcDbLine
 10
151.8842269268093
 20
65.35562080356179
 30
0.0
 11
151.8842269268093
 21
96.07382018709493
 31
0.0
  0
LINE
  5
90B
330
2B8
100
AcDbEntity
  8
SLD-0
 62
     0
370
    -2
100
AcDbLine
 10
286.0958883751552
 20
42.33052080356173
 30
0.0
 11
286.0958883751552
 21
96.07382018709493
 31
0.0
  0
LINE
  5
90C
330
2B8
100
AcDbEntity
  8
SLD-0
 62
     0
370
    -2
100
AcDbLine
 10
155.1862269268093
 20
92.89882018709494
 30
0.0
 11
207.849514716907
 21
92.89882018709494
 31
0.0
  0
LINE
  5
90D
330
2B8
100
AcDbEntity
  8
SLD-0
 62
     0
370
    -2
100
AcDbLine
 10
282.7938883751552
 20
92.89882018709494
 30
0.0
 11
222.3429444576983
 21
92.89882018709494
 31
0.0
  0
SOLID
  5
90E
330
2B8
100
AcDbEntity
  8
SLD-0
 62
     0
100
AcDbTrace
 10
155.1862269268093
 20
93.44915352042827
 30
0.0
 11
155.1862269268093
 21
92.34848685376162
 31
0.0
 12
151.8842269268093
 22
92.89882018709494
 32
0.0
 13
151.8842269268093
 23
92.89882018709494
 33
0.0
  0
SOLID
  5
90F
330
2B8
100
AcDbEntity
  8
SLD-0
 62
     0
100
AcDbTrace
 10
282.7938883751552
 20
93.44915352042827
 30
0.0
 11
282.7938883751552
 21
92.34848685376162
 31
0.0
 12
286.0958883751552
 22
92.89882018709494
 32
0.0
 13
286.0958883751552
 23
92.89882018709494
 33
0.0
  0
MTEXT
  5
910
330
2B8
100
AcDbEntity
  8
SLD-0
 62
     0
100
AcDbMText
 10
215.0962295873026
 20
94.68701936854106
 30
0.0
 40
3.5
 41
0.0
 71
     2
 72
     1
  1
134.2
 73
     1
 44
1.0
1001
ACAD
1000
MTEXTBEGIN
1070
    73
1070
     1
1070
    44
1040
1.0
1070
    74
1070
     0
1000
MTEXTEND
  0
POINT
  5
911
330
2B8
100
AcDbEntity
  8
Defpoints
 62
     0
100
AcDbPoint
 10
151.8842269268093
 20
64.0856208035618
 30
0.0
  0
POINT
  5
912
330
2B8
100
AcDbEntity
  8
Defpoints
 62
     0
100
AcDbPoint
 10
286.0958883751552
 20
41.06052080356173
 30
0.0
  0
POINT
  5
913
330
2B8
100
AcDbEntity
  8
Defpoints
 62
     0
100
AcDbPoint
 10
286.0958883751552
 20
92.89882018709494
 30
0.0
  0
ENDBLK
  5
2BA
330
2B8
100
AcDbEntity
  8
0
100
AcDbBlockEnd
  0
BLOCK
  5
37A
330
379
100
AcDbEntity
  8
0
100
AcDbBlockBegin
  2
_D_5
 70
     0
 10
0.0
 20
0.0
 30
0.0
  3
_D_5
  1

  0
LINE
  5
96C
330
379
100
AcDbEntity
  8
SLD-0
 62
     0
370
    -2
100
AcDbLine
 10
351.7455419775245
 20
86.02883824596785
 30
0.0
 11
358.9324328370057
 21
86.02883824596785
 31
0.0
  0
LINE
  5
96D
330
379
100
AcDbEntity
  8
SLD-0
 62
     0
370
    -2
100
AcDbLine
 10
358.9324328370057
 20
86.02883824596785
 30
0.0
 11
367.2305958717547
 21
66.84488538221387
 31
0.0
  0
MTEXT
  5
96E
330
379
100
AcDbEntity
  8
SLD-0
 62
     0
100
AcDbMText
 10
350.2215419775244
 20
93.73273774574041
 30
0.0
 40
3.5
 41
0.0
 71
     3
 72
     1
  1
+24VDC\PPOWER IN\PSWITCHCRAFT L712RA
 73
     1
 44
1.0
1001
ACAD
1000
MTEXTBEGIN
1070
    73
1070
     1
1070
    44
1040
1.0
1070
    74
1070
     0
1000
MTEXTEND
  0
SOLID
  5
96F
330
379
100
AcDbEntity
  8
SLD-0
 62
     0
100
AcDbTrace
 10
367.7357001736689
 20
67.06337204534349
 30
0.0
 11
366.7254915698404
 21
66.62639871908424
 31
0.0
 12
368.5415158505323
 22
63.81425957072848
 32
0.0
 13
368.5415158505323
 23
63.81425957072848
 33
0.0
  0
LINE
  5
970
330
379
100
AcDbEntity
  8
SLD-0
 62
     0
370
    -2
100
AcDbLine
 10
368.0885678173928
 20
59.08182080356282
 30
0.0
 11
373.0885678173928
 21
59.08182080356283
 31
0.0
  0
LINE
  5
971
330
379
100
AcDbEntity
  8
SLD-0
 62
     0
370
    -2
100
AcDbLine
 10
370.5885678173928
 20
56.5818208035628
 30
0.0
 11
370.5885678173927
 21
61.5818208035628
 31
0.0
  0
POINT
  5
972
330
379
100
AcDbEntity
  8
Defpoints
 62
     0
100
AcDbPoint
 10
368.5415158505323
 20
63.81425957072848
 30
0.0
  0
POINT
  5
973
330
379
100
AcDbEntity
  8
Defpoints
 62
     0
100
AcDbPoint
 10
372.6356197842533
 20
54.34938203639714
 30
0.0
  0
ENDBLK
  5
37B
330
379
100
AcDbEntity
  8
0
100
AcDbBlockEnd
  0
BLOCK
  5
5B8
330
5B7
100
AcDbEntity
  8
0
100
AcDbBlockBegin
  2
_D_6
 70
     0
 10
0.0
 20
0.0
 30
0.0
  3
_D_6
  1

  0
LINE
  5
91C
330
5B7
100
AcDbEntity
  8
SLD-0
 62
     0
370
    -2
100
AcDbLine
 10
283.9388269268091
 20
187.8922536936337
 30
0.0
 11
304.711092735153
 21
187.8922536936337
 31
0.0
  0
LINE
  5
91D
330
5B7
100
AcDbEntity
  8
SLD-0
 62
     0
370
    -2
100
AcDbLine
 10
283.9388269268091
 20
125.8922536936337
 30
0.0
 11
304.7110927351529
 21
125.8922536936337
 31
0.0
  0
LINE
  5
91E
330
5B7
100
AcDbEntity
  8
SLD-0
 62
     0
370
    -2
100
AcDbLine
 10
301.536092735153
 20
184.5902536936337
 30
0.0
 11
301.536092735153
 21
158.7404322090201
 31
0.0
  0
LINE
  5
91F
330
5B7
100
AcDbEntity
  8
SLD-0
 62
     0
370
    -2
100
AcDbLine
 10
301.536092735153
 20
129.1942536936337
 30
0.0
 11
301.536092735153
 21
152.1184212949683
 31
0.0
  0
SOLID
  5
920
330
5B7
100
AcDbEntity
  8
SLD-0
 62
     0
100
AcDbTrace
 10
300.9857594018196
 20
184.5902536936337
 30
0.0
 11
302.0864260684863
 21
184.5902536936337
 31
0.0
 12
301.536092735153
 22
187.8922536936337
 32
0.0
 13
301.536092735153
 23
187.8922536936337
 33
0.0
  0
SOLID
  5
921
330
5B7
100
AcDbEntity
  8
SLD-0
 62
     0
100
AcDbTrace
 10
300.9857594018196
 20
129.1942536936337
 30
0.0
 11
302.0864260684863
 21
129.1942536936337
 31
0.0
 12
301.5360927351529
 22
125.8922536936337
 32
0.0
 13
301.5360927351529
 23
125.8922536936337
 33
0.0
  0
MTEXT
  5
922
330
5B7
100
AcDbEntity
  8
SLD-0
 62
     0
100
AcDbMText
 10
301.5360927351529
 20
157.2164322090201
 30
0.0
 40
3.5
 41
0.0
 71
     2
 72
     1
  1
62.0
 73
     1
 44
1.0
1001
ACAD
1000
MTEXTBEGIN
1070
    73
1070
     1
1070
    44
1040
1.0
1070
    74
1070
     0
1000
MTEXTEND
  0
POINT
  5
923
330
5B7
100
AcDbEntity
  8
Defpoints
 62
     0
100
AcDbPoint
 10
282.6688269268092
 20
187.8922536936337
 30
0.0
  0
POINT
  5
924
330
5B7
100
AcDbEntity
  8
Defpoints
 62
     0
100
AcDbPoint
 10
282.6688269268092
 20
125.8922536936337
 30
0.0
  0
POINT
  5
925
330
5B7
100
AcDbEntity
  8
Defpoints
 62
     0
100
AcDbPoint
 10
301.5360927351529
 20
125.8922536936337
 30
0.0
  0
ENDBLK
  5
5B9
330
5B7
100
AcDbEntity
  8
0
100
AcDbBlockEnd
  0
BLOCK
  5
5C3
330
5C2
100
AcDbEntity
  8
0
100
AcDbBlockBegin
  2
_D_7
 70
     0
 10
0.0
 20
0.0
 30
0.0
  3
_D_7
  1

  0
LINE
  5
926
330
5C2
100
AcDbEntity
  8
SLD-0
 62
     0
370
    -2
100
AcDbLine
 10
167.6528269268091
 20
190.0983285841306
 30
0.0
 11
167.6528269268091
 21
214.3955818568433
 31
0.0
  0
LINE
  5
927
330
5C2
100
AcDbEntity
  8
SLD-0
 62
     0
370
    -2
100
AcDbLine
 10
281.6528269268092
 20
190.0983285841306
 30
0.0
 11
281.6528269268092
 21
214.3955818568433
 31
0.0
  0
LINE
  5
928
330
5C2
100
AcDbEntity
  8
SLD-0
 62
     0
370
    -2
100
AcDbLine
 10
170.9548269268091
 20
211.2205818568432
 30
0.0
 11
216.7136314089102
 21
211.2205818568432
 31
0.0
  0
LINE
  5
929
330
5C2
100
AcDbEntity
  8
SLD-0
 62
     0
370
    -2
100
AcDbLine
 10
278.3508269268091
 20
211.2205818568432
 30
0.0
 11
231.2309356381053
 21
211.2205818568432
 31
0.0
  0
SOLID
  5
92A
330
5C2
100
AcDbEntity
  8
SLD-0
 62
     0
100
AcDbTrace
 10
170.9548269268091
 20
211.7709151901766
 30
0.0
 11
170.9548269268091
 21
210.6702485235099
 31
0.0
 12
167.6528269268091
 22
211.2205818568432
 32
0.0
 13
167.6528269268091
 23
211.2205818568432
 33
0.0
  0
SOLID
  5
92B
330
5C2
100
AcDbEntity
  8
SLD-0
 62
     0
100
AcDbTrace
 10
278.3508269268091
 20
211.7709151901766
 30
0.0
 11
278.3508269268091
 21
210.6702485235099
 31
0.0
 12
281.6528269268092
 22
211.2205818568432
 32
0.0
 13
281.6528269268092
 23
211.2205818568432
 33
0.0
  0
MTEXT
  5
92C
330
5C2
100
AcDbEntity
  8
SLD-0
 62
     0
100
AcDbMText
 10
223.9722835235077
 20
213.0075873138692
 30
0.0
 40
3.5
 41
0.0
 71
     2
 72
     1
  1
114.0
 73
     1
 44
1.0
1001
ACAD
1000
MTEXTBEGIN
1070
    73
1070
     1
1070
    44
1040
1.0
1070
    74
1070
     0
1000
MTEXTEND
  0
POINT
  5
92D
330
5C2
100
AcDbEntity
  8
Defpoints
 62
     0
100
AcDbPoint
 10
167.6528269268091
 20
188.8283285841306
 30
0.0
  0
POINT
  5
92E
330
5C2
100
AcDbEntity
  8
Defpoints
 62
     0
100
AcDbPoint
 10
281.6528269268092
 20
188.8283285841306
 30
0.0
  0
POINT
  5
92F
330
5C2
100
AcDbEntity
  8
Defpoints
 62
     0
100
AcDbPoint
 10
281.6528269268092
 20
211.2205818568432
 30
0.0
  0
ENDBLK
  5
5C4
330
5C2
100
AcDbEntity
  8
0
100
AcDbBlockEnd
  0
BLOCK
  5
5CF
330
5CE
100
AcDbEntity
  8
0
100
AcDbBlockBegin
  2
_D_8
 70
     0
 10
0.0
 20
0.0
 30
0.0
  3
_D_8
  1

  0
LINE
  5
930
330
5CE
100
AcDbEntity
  8
SLD-0
 62
     0
370
    -2
100
AcDbLine
 10
167.6528269268091
 20
190.0983285841306
 30
0.0
 11
167.6528269268091
 21
214.3955818568433
 31
0.0
  0
LINE
  5
931
330
5CE
100
AcDbEntity
  8
SLD-0
 62
     0
370
    -2
100
AcDbLine
 10
163.0259469269307
 20
196.0082536938919
 30
0.0
 11
163.0259469269307
 21
214.3955818568433
 31
0.0
  0
LINE
  5
932
330
5CE
100
AcDbEntity
  8
SLD-0
 62
     0
370
    -2
100
AcDbLine
 10
170.9548269268091
 20
211.2205818568432
 30
0.0
 11
174.2568269268091
 21
211.2205818568432
 31
0.0
  0
LINE
  5
933
330
5CE
100
AcDbEntity
  8
SLD-0
 62
     0
370
    -2
100
AcDbLine
 10
159.7239469269307
 20
211.2205818568432
 30
0.0
 11
155.5459785674819
 21
211.2205818568432
 31
0.0
  0
SOLID
  5
934
330
5CE
100
AcDbEntity
  8
SLD-0
 62
     0
100
AcDbTrace
 10
170.9548269268091
 20
211.7709151901766
 30
0.0
 11
170.9548269268091
 21
210.6702485235099
 31
0.0
 12
167.6528269268091
 22
211.2205818568432
 32
0.0
 13
167.6528269268091
 23
211.2205818568432
 33
0.0
  0
SOLID
  5
935
330
5CE
100
AcDbEntity
  8
SLD-0
 62
     0
100
AcDbTrace
 10
159.7239469269307
 20
211.7709151901766
 30
0.0
 11
159.7239469269307
 21
210.6702485235099
 31
0.0
 12
163.0259469269307
 22
211.2205818568432
 32
0.0
 13
163.0259469269307
 23
211.2205818568432
 33
0.0
  0
MTEXT
  5
936
330
5CE
100
AcDbEntity
  8
SLD-0
 62
     0
100
AcDbMText
 10
150.766692073621
 20
213.0075873138692
 30
0.0
 40
3.5
 41
0.0
 71
     2
 72
     1
  1
4.6
 73
     1
 44
1.0
1001
ACAD
1000
MTEXTBEGIN
1070
    73
1070
     1
1070
    44
1040
1.0
1070
    74
1070
     0
1000
MTEXTEND
  0
POINT
  5
937
330
5CE
100
AcDbEntity
  8
Defpoints
 62
     0
100
AcDbPoint
 10
167.6528269268091
 20
188.8283285841306
 30
0.0
  0
POINT
  5
938
330
5CE
100
AcDbEntity
  8
Defpoints
 62
     0
100
AcDbPoint
 10
163.0259469269307
 20
194.7382536938919
 30
0.0
  0
POINT
  5
939
330
5CE
100
AcDbEntity
  8
Defpoints
 62
     0
100
AcDbPoint
 10
163.0259469269307
 20
211.2205818568432
 30
0.0
  0
ENDBLK
  5
5D0
330
5CE
100
AcDbEntity
  8
0
100
AcDbBlockEnd
  0
BLOCK
  5
5DB
330
5DA
100
AcDbEntity
  8
0
100
AcDbBlockBegin
  2
_D_9
 70
     0
 10
0.0
 20
0.0
 30
0.0
  3
_D_9
  1

  0
LINE
  5
93A
330
5DA
100
AcDbEntity
  8
SLD-0
 62
     0
370
    -2
100
AcDbLine
 10
283.9388269268091
 20
186.0634536936337
 30
0.0
 11
296.5360534277908
 21
186.0634536936337
 31
0.0
  0
LINE
  5
93B
330
5DA
100
AcDbEntity
  8
SLD-0
 62
     0
370
    -2
100
AcDbLine
 10
283.9388269268091
 20
189.7210536936336
 30
0.0
 11
296.5360534277908
 21
189.7210536936336
 31
0.0
  0
LINE
  5
93C
330
5DA
100
AcDbEntity
  8
SLD-0
 62
     0
370
    -2
100
AcDbLine
 10
293.3610534277908
 20
182.7614536936337
 30
0.0
 11
293.3610534277908
 21
179.4594536936337
 31
0.0
  0
LINE
  5
93D
330
5DA
100
AcDbEntity
  8
SLD-0
 62
     0
370
    -2
100
AcDbLine
 10
293.3610534277908
 20
193.0230536936337
 30
0.0
 11
293.3610534277908
 21
201.2699038733454
 31
0.0
  0
LINE
  5
93E
330
5DA
100
AcDbEntity
  8
SLD-0
 62
     0
370
    -2
100
AcDbLine
 10
293.3610534277908
 20
201.2699038733454
 30
0.0
 11
296.6630534277908
 21
201.2699038733454
 31
0.0
  0
SOLID
  5
93F
330
5DA
100
AcDbEntity
  8
SLD-0
 62
     0
100
AcDbTrace
 10
292.8107200944575
 20
182.7614536936337
 30
0.0
 11
293.9113867611242
 21
182.7614536936337
 31
0.0
 12
293.3610534277908
 22
186.0634536936337
 32
0.0
 13
293.3610534277908
 23
186.0634536936337
 33
0.0
  0
SOLID
  5
940
330
5DA
100
AcDbEntity
  8
SLD-0
 62
     0
100
AcDbTrace
 10
292.8107200944575
 20
193.0230536936337
 30
0.0
 11
293.9113867611242
 21
193.0230536936337
 31
0.0
 12
293.3610534277908
 22
189.7210536936336
 32
0.0
 13
293.3610534277908
 23
189.7210536936336
 33
0.0
  0
MTEXT
  5
941
330
5DA
100
AcDbEntity
  8
SLD-0
 62
     0
100
AcDbMText
 10
298.1870534277907
 20
205.9986442098621
 30
0.0
 40
3.5
 41
0.0
 71
     1
 72
     1
  1
4X\P3.66 MOUNTING SLOT
 73
     1
 44
1.0
1001
ACAD
1000
MTEXTBEGIN
1070
    73
1070
     1
1070
    44
1040
1.0
1070
    74
1070
     0
1000
MTEXTEND
  0
POINT
  5
942
330
5DA
100
AcDbEntity
  8
Defpoints
 62
     0
100
AcDbPoint
 10
282.6688269268092
 20
186.0634536936337
 30
0.0
  0
POINT
  5
943
330
5DA
100
AcDbEntity
  8
Defpoints
 62
     0
100
AcDbPoint
 10
282.6688269268092
 20
189.7210536936336
 30
0.0
  0
POINT
  5
944
330
5DA
100
AcDbEntity
  8
Defpoints
 62
     0
100
AcDbPoint
 10
293.3610534277908
 20
189.7210536936336
 30
0.0
  0
ENDBLK
  5
5DC
330
5DA
100
AcDbEntity
  8
0
100
AcDbBlockEnd
  0
BLOCK
  5
5E9
330
5E8
100
AcDbEntity
  8
0
100
AcDbBlockBegin
  2
_D_10
 70
     0
 10
0.0
 20
0.0
 30
0.0
  3
_D_10
  1

  0
LINE
  5
945
330
5E8
100
AcDbEntity
  8
SLD-0
 62
     0
370
    -2
100
AcDbLine
 10
173.2113469268145
 20
115.7061536936336
 30
0.0
 11
124.2077496997768
 21
115.7061536936336
 31
0.0
  0
LINE
  5
946
330
5E8
100
AcDbEntity
  8
SLD-0
 62
     0
370
    -2
100
AcDbLine
 10
173.2113469268145
 20
198.0783536936336
 30
0.0
 11
124.2077496997768
 21
198.0783536936336
 31
0.0
  0
LINE
  5
947
330
5E8
100
AcDbEntity
  8
SLD-0
 62
     0
370
    -2
100
AcDbLine
 10
127.3827496997768
 20
119.0081536936336
 30
0.0
 11
127.3827496997768
 21
151.9097130475265
 31
0.0
  0
LINE
  5
948
330
5E8
100
AcDbEntity
  8
SLD-0
 62
     0
370
    -2
100
AcDbLine
 10
127.3827496997768
 20
194.7763536936335
 30
0.0
 11
127.3827496997768
 21
158.5317239615784
 31
0.0
  0
SOLID
  5
949
330
5E8
100
AcDbEntity
  8
SLD-0
 62
     0
100
AcDbTrace
 10
126.8324163664434
 20
119.0081536936336
 30
0.0
 11
127.9330830331101
 21
119.0081536936336
 31
0.0
 12
127.3827496997768
 22
115.7061536936336
 32
0.0
 13
127.3827496997768
 23
115.7061536936336
 33
0.0
  0
SOLID
  5
94A
330
5E8
100
AcDbEntity
  8
SLD-0
 62
     0
100
AcDbTrace
 10
126.8324163664435
 20
194.7763536936335
 30
0.0
 11
127.9330830331101
 21
194.7763536936335
 31
0.0
 12
127.3827496997768
 22
198.0783536936336
 32
0.0
 13
127.3827496997768
 23
198.0783536936336
 33
0.0
  0
MTEXT
  5
94B
330
5E8
100
AcDbEntity
  8
SLD-0
 62
     0
100
AcDbMText
 10
127.3827496997768
 20
157.0077239615784
 30
0.0
 40
3.5
 41
0.0
 71
     2
 72
     1
  1
82.4
 73
     1
 44
1.0
1001
ACAD
1000
MTEXTBEGIN
1070
    73
1070
     1
1070
    44
1040
1.0
1070
    74
1070
     0
1000
MTEXTEND
  0
POINT
  5
94C
330
5E8
100
AcDbEntity
  8
Defpoints
 62
     0
100
AcDbPoint
 10
174.4813469268146
 20
115.7061536936336
 30
0.0
  0
POINT
  5
94D
330
5E8
100
AcDbEntity
  8
Defpoints
 62
     0
100
AcDbPoint
 10
174.4813469268146
 20
198.0783536936336
 30
0.0
  0
POINT
  5
94E
330
5E8
100
AcDbEntity
  8
Defpoints
 62
     0
100
AcDbPoint
 10
127.3827496997768
 20
198.0783536936336
 30
0.0
  0
ENDBLK
  5
5EA
330
5E8
100
AcDbEntity
  8
0
100
AcDbBlockEnd
  0
BLOCK
  5
5F4
330
5F3
100
AcDbEntity
  8
0
100
AcDbBlockBegin
  2
_D_11
 70
     0
 10
0.0
 20
0.0
 30
0.0
  3
_D_11
  1

  0
LINE
  5
94F
330
5F3
100
AcDbEntity
  8
SLD-0
 62
     0
370
    -2
100
AcDbLine
 10
163.2799469269307
 20
196.2622536938919
 30
0.0
 11
138.7092269268093
 21
196.2622536938919
 31
0.0
  0
LINE
  5
950
330
5F3
100
AcDbEntity
  8
SLD-0
 62
     0
370
    -2
100
AcDbLine
 10
163.2799469269307
 20
117.5222536938919
 30
0.0
 11
138.7092269268092
 21
117.5222536938919
 31
0.0
  0
LINE
  5
951
330
5F3
100
AcDbEntity
  8
SLD-0
 62
     0
370
    -2
100
AcDbLine
 10
141.8842269268093
 20
192.960253693892
 30
0.0
 11
141.8842269268093
 21
158.5317239615784
 31
0.0
  0
LINE
  5
952
330
5F3
100
AcDbEntity
  8
SLD-0
 62
     0
370
    -2
100
AcDbLine
 10
141.8842269268093
 20
120.8242536938919
 30
0.0
 11
141.8842269268093
 21
151.9097130475266
 31
0.0
  0
SOLID
  5
953
330
5F3
100
AcDbEntity
  8
SLD-0
 62
     0
100
AcDbTrace
 10
141.333893593476
 20
192.960253693892
 30
0.0
 11
142.4345602601426
 21
192.960253693892
 31
0.0
 12
141.8842269268093
 22
196.2622536938919
 32
0.0
 13
141.8842269268093
 23
196.2622536938919
 33
0.0
  0
SOLID
  5
954
330
5F3
100
AcDbEntity
  8
SLD-0
 62
     0
100
AcDbTrace
 10
141.3338935934759
 20
120.8242536938919
 30
0.0
 11
142.4345602601426
 21
120.8242536938919
 31
0.0
 12
141.8842269268093
 22
117.5222536938919
 32
0.0
 13
141.8842269268093
 23
117.5222536938919
 33
0.0
  0
MTEXT
  5
955
330
5F3
100
AcDbEntity
  8
SLD-0
 62
     0
100
AcDbMText
 10
141.8842269268092
 20
157.0077239615784
 30
0.0
 40
3.5
 41
0.0
 71
     2
 72
     1
  1
78.7
 73
     1
 44
1.0
1001
ACAD
1000
MTEXTBEGIN
1070
    73
1070
     1
1070
    44
1040
1.0
1070
    74
1070
     0
1000
MTEXTEND
  0
POINT
  5
956
330
5F3
100
AcDbEntity
  8
Defpoints
 62
     0
100
AcDbPoint
 10
164.5499469269307
 20
196.2622536938919
 30
0.0
  0
POINT
  5
957
330
5F3
100
AcDbEntity
  8
Defpoints
 62
     0
100
AcDbPoint
 10
164.5499469269307
 20
117.5222536938919
 30
0.0
  0
POINT
  5
958
330
5F3
100
AcDbEntity
  8
Defpoints
 62
     0
100
AcDbPoint
 10
141.8842269268093
 20
117.5222536938919
 30
0.0
  0
ENDBLK
  5
5F5
330
5F3
100
AcDbEntity
  8
0
100
AcDbBlockEnd
  0
BLOCK
  5
600
330
5FF
100
AcDbEntity
  8
0
100
AcDbBlockBegin
  2
_D_12
 70
     0
 10
0.0
 20
0.0
 30
0.0
  3
_D_12
  1

  0
LINE
  5
959
330
5FF
100
AcDbEntity
  8
SLD-0
 62
     0
370
    -2
100
AcDbLine
 10
280.6368269268091
 20
190.9910536936337
 30
0.0
 11
280.6368269268091
 21
207.062414877296
 31
0.0
  0
LINE
  5
95A
330
5FF
100
AcDbEntity
  8
SLD-0
 62
     0
370
    -2
100
AcDbLine
 10
282.6688269268092
 20
190.9910536936337
 30
0.0
 11
282.6688269268092
 21
207.062414877296
 31
0.0
  0
LINE
  5
95B
330
5FF
100
AcDbEntity
  8
SLD-0
 62
     0
370
    -2
100
AcDbLine
 10
285.9708269268092
 20
203.887414877296
 30
0.0
 11
289.2728269268092
 21
203.887414877296
 31
0.0
  0
LINE
  5
95C
330
5FF
100
AcDbEntity
  8
SLD-0
 62
     0
370
    -2
100
AcDbLine
 10
277.3348269268091
 20
203.887414877296
 30
0.0
 11
273.044252574831
 21
203.887414877296
 31
0.0
  0
SOLID
  5
95D
330
5FF
100
AcDbEntity
  8
SLD-0
 62
     0
100
AcDbTrace
 10
285.9708269268092
 20
204.4377482106293
 30
0.0
 11
285.9708269268092
 21
203.3370815439627
 31
0.0
 12
282.6688269268092
 22
203.887414877296
 32
0.0
 13
282.6688269268092
 23
203.887414877296
 33
0.0
  0
SOLID
  5
95E
330
5FF
100
AcDbEntity
  8
SLD-0
 62
     0
100
AcDbTrace
 10
277.3348269268091
 20
204.4377482106293
 30
0.0
 11
277.3348269268091
 21
203.3370815439627
 31
0.0
 12
280.6368269268091
 22
203.887414877296
 32
0.0
 13
280.6368269268091
 23
203.887414877296
 33
0.0
  0
MTEXT
  5
95F
330
5FF
100
AcDbEntity
  8
SLD-0
 62
     0
100
AcDbMText
 10
264.6002321109838
 20
205.6744203343219
 30
0.0
 40
3.5
 41
0.0
 71
     2
 72
     1
  1
4X 2.0
 73
     1
 44
1.0
1001
ACAD
1000
MTEXTBEGIN
1070
    73
1070
     1
1070
    44
1040
1.0
1070
    74
1070
     0
1000
MTEXTEND
  0
POINT
  5
960
330
5FF
100
AcDbEntity
  8
Defpoints
 62
     0
100
AcDbPoint
 10
280.6368269268091
 20
189.7210536936336
 30
0.0
  0
POINT
  5
961
330
5FF
100
AcDbEntity
  8
Defpoints
 62
     0
100
AcDbPoint
 10
282.6688269268092
 20
189.7210536936336
 30
0.0
  0
POINT
  5
962
330
5FF
100
AcDbEntity
  8
Defpoints
 62
     0
100
AcDbPoint
 10
282.6688269268092
 20
203.887414877296
 30
0.0
  0
ENDBLK
  5
601
330
5FF
100
AcDbEntity
  8
0
100
AcDbBlockEnd
  0
ENDSEC
  0
SECTION
  2
ENTITIES
  0
LINE
  5
1F0
330
1F
100
AcDbEntity
  8
0
  6
Continuous
 62
     7
370
    25
100
AcDbLine
 10
169.6159455603368
 20
47.10782086412007
 30
0.0
 11
169.4159459000833
 21
46.90782073820526
 31
0.0
  0
LINE
  5
1F1
330
1F
100
AcDbEntity
  8
0
  6
Continuous
 62
     7
370
    25
100
AcDbLine
 10
169.4159459000833
 20
42.80782071808869
 30
0.0
 11
169.6159455603368
 21
42.60782082500452
 31
0.0
  0
LINE
  5
1F2
330
1F
100
AcDbEntity
  8
0
  6
Continuous
 62
     7
370
    25
100
AcDbLine
 10
169.6159455603368
 20
42.60782082500452
 30
0.0
 11
171.9159472411878
 21
42.60782082500452
 31
0.0
  0
LINE
  5
1F3
330
1F
100
AcDbEntity
  8
0
  6
Continuous
 62
     7
370
    25
100
AcDbLine
 10
171.9159472411878
 20
47.10782086412007
 30
0.0
 11
169.6159455603368
 21
47.10782086412007
 31
0.0
  0
LINE
  5
1F4
330
1F
100
AcDbEntity
  8
0
  6
Continuous
 62
     7
370
    25
100
AcDbLine
 10
169.6159455603368
 20
66.0384404466539
 30
0.0
 11
169.4159459000833
 21
65.83844078640038
 31
0.0
  0
LINE
  5
1F5
330
1F
100
AcDbEntity
  8
0
  6
Continuous
 62
     7
370
    25
100
AcDbLine
 10
169.4159459000833
 20
61.73844030062253
 30
0.0
 11
169.6159455603368
 21
61.538440640369
 31
0.0
  0
LINE
  5
1F6
330
1F
100
AcDbEntity
  8
0
  6
Continuous
 62
     7
370
    25
100
AcDbLine
 10
169.6159455603368
 20
61.538440640369
 30
0.0
 11
171.9159472411878
 21
61.538440640369
 31
0.0
  0
LINE
  5
1F7
330
1F
100
AcDbEntity
  8
0
  6
Continuous
 62
     7
370
    25
100
AcDbLine
 10
171.9159472411878
 20
66.0384404466539
 30
0.0
 11
169.6159455603368
 21
66.0384404466539
 31
0.0
  0
LINE
  5
1F8
330
1F
100
AcDbEntity
  8
0
  6
Continuous
 62
     7
370
    25
100
AcDbLine
 10
279.7999258762605
 20
47.10782086412007
 30
0.0
 11
277.4999279206999
 21
47.10782086412007
 31
0.0
  0
LINE
  5
1F9
330
1F
100
AcDbEntity
  8
0
  6
Continuous
 62
     7
370
    25
100
AcDbLine
 10
277.4999279206999
 20
42.60782082500452
 30
0.0
 11
279.7999258762605
 21
42.60782082500452
 31
0.0
  0
LINE
  5
1FA
330
1F
100
AcDbEntity
  8
0
  6
Continuous
 62
     7
370
    25
100
AcDbLine
 10
279.7999258762605
 20
42.60782082500452
 30
0.0
 11
279.9999255365141
 21
42.80782071808869
 31
0.0
  0
LINE
  5
1FB
330
1F
100
AcDbEntity
  8
0
  6
Continuous
 62
     7
370
    25
100
AcDbLine
 10
279.9999255365141
 20
46.90782073820526
 30
0.0
 11
279.7999258762605
 21
47.10782086412007
 31
0.0
  0
LINE
  5
1FC
330
1F
100
AcDbEntity
  8
0
  6
Continuous
 62
     7
370
    25
100
AcDbLine
 10
276.5982251292474
 20
46.1078207002073
 30
0.0
 11
276.3010475462682
 21
46.1078207002073
 31
0.0
  0
LINE
  5
1FD
330
1F
100
AcDbEntity
  8
0
  6
Continuous
 62
     7
370
    25
100
AcDbLine
 10
276.3010475462682
 20
43.60782075608665
 30
0.0
 11
276.5982251292474
 21
43.60782075608665
 31
0.0
  0
LINE
  5
1FE
330
1F
100
AcDbEntity
  8
0
  6
Continuous
 62
     7
370
    25
100
AcDbLine
 10
164.9652260965116
 20
52.96486569503838
 30
0.0
 11
169.4013464874036
 21
52.96486569503838
 31
0.0
  0
LINE
  5
1FF
330
1F
100
AcDbEntity
  8
0
  6
Continuous
 62
     7
370
    25
100
AcDbLine
 10
164.330228013397
 20
53.59986564079815
 30
0.0
 11
164.9652260965116
 21
52.96486569503838
 31
0.0
  0
LINE
  5
200
330
1F
100
AcDbEntity
  8
0
  6
Continuous
 62
     7
370
    25
100
AcDbLine
 10
155.13542552054
 20
64.08562092045838
 30
0.0
 11
151.8842305666215
 21
64.08562092045838
 31
0.0
  0
LINE
  5
201
330
1F
100
AcDbEntity
  8
0
  6
Continuous
 62
     7
370
    25
100
AcDbLine
 10
163.9492276734121
 20
64.08562092045838
 30
0.0
 11
157.1166243082292
 21
64.08562092045838
 31
0.0
  0
LINE
  5
202
330
1F
100
AcDbEntity
  8
0
  6
Continuous
 62
     7
370
    25
100
AcDbLine
 10
157.1166243082292
 20
54.43362099985177
 30
0.0
 11
163.9492276734121
 21
54.43362099985177
 31
0.0
  0
LINE
  5
203
330
1F
100
AcDbEntity
  8
0
  6
Continuous
 62
     7
370
    25
100
AcDbLine
 10
151.8842305666215
 20
54.43362099985177
 30
0.0
 11
155.13542552054
 21
54.43362099985177
 31
0.0
  0
LINE
  5
204
330
1F
100
AcDbEntity
  8
0
  6
Continuous
 62
     7
370
    25
100
AcDbLine
 10
163.9492276734121
 20
54.81462040851408
 30
0.0
 11
164.330228013397
 21
54.81462040851408
 31
0.0
  0
LINE
  5
205
330
1F
100
AcDbEntity
  8
0
  6
Continuous
 62
     7
370
    25
100
AcDbLine
 10
157.1166243082292
 20
53.76052064756447
 30
0.0
 11
157.1166243082292
 21
54.43362099985177
 31
0.0
  0
LINE
  5
206
330
1F
100
AcDbEntity
  8
0
  6
Continuous
 62
     7
370
    25
100
AcDbLine
 10
155.13542552054
 20
54.43362099985177
 30
0.0
 11
155.13542552054
 21
53.76052064756447
 31
0.0
  0
LINE
  5
207
330
1F
100
AcDbEntity
  8
0
  6
Continuous
 62
     7
370
    25
100
AcDbLine
 10
157.1166243082292
 20
64.08562092045838
 30
0.0
 11
157.1166243082292
 21
64.75872127274567
 31
0.0
  0
LINE
  5
208
330
1F
100
AcDbEntity
  8
0
  6
Continuous
 62
     7
370
    25
100
AcDbLine
 10
155.13542552054
 20
64.75872127274567
 30
0.0
 11
155.13542552054
 21
64.08562092045838
 31
0.0
  0
LINE
  5
209
330
1F
100
AcDbEntity
  8
0
  6
Continuous
 62
     7
370
    25
100
AcDbLine
 10
283.4562275236852
 20
63.05057136277253
 30
0.0
 11
279.9129251068838
 21
63.05057136277253
 31
0.0
  0
LINE
  5
20A
330
1F
100
AcDbEntity
  8
0
  6
Continuous
 62
     7
370
    25
100
AcDbLine
 10
283.964226735235
 20
62.54257028857762
 30
0.0
 11
283.4562275236852
 21
63.05057136277253
 31
0.0
  0
LINE
  5
20B
330
1F
100
AcDbEntity
  8
0
  6
Continuous
 62
     7
370
    25
100
AcDbLine
 10
278.1809258884199
 20
64.53708885172898
 30
0.0
 11
277.8809282606848
 21
63.64808743754918
 31
0.0
  0
LINE
  5
20C
330
1F
100
AcDbEntity
  8
0
  6
Continuous
 62
     7
370
    25
100
AcDbLine
 10
277.8809282606848
 20
54.51555317203099
 30
0.0
 11
278.1809258884199
 21
53.62655362049634
 31
0.0
  0
LINE
  5
20D
330
1F
100
AcDbEntity
  8
0
  6
Continuous
 62
     7
370
    25
100
AcDbLine
 10
279.6129274791486
 20
53.62655362049634
 30
0.0
 11
279.9129251068838
 21
54.51555317203099
 31
0.0
  0
LINE
  5
20E
330
1F
100
AcDbEntity
  8
0
  6
Continuous
 62
     7
370
    25
100
AcDbLine
 10
279.9129251068838
 20
63.64808743754918
 30
0.0
 11
279.6129274791486
 21
64.53708885172898
 31
0.0
  0
LINE
  5
20F
330
1F
100
AcDbEntity
  8
0
  6
Continuous
 62
     7
370
    25
100
AcDbLine
 10
277.5056201642759
 20
53.92562085697943
 30
0.0
 11
277.8809282606848
 21
53.92562085697943
 31
0.0
  0
LINE
  5
210
330
1F
100
AcDbEntity
  8
0
  6
Continuous
 62
     7
370
    25
100
AcDbLine
 10
277.8809282606848
 20
64.23802068392331
 30
0.0
 11
277.5056201642759
 21
64.23802068392331
 31
0.0
  0
LINE
  5
211
330
1F
100
AcDbEntity
  8
0
  6
Continuous
 62
     7
370
    25
100
AcDbLine
 10
169.6553479558237
 20
51.94442113796765
 30
0.0
 11
171.6619457727678
 21
51.94442113796765
 31
0.0
  0
LINE
  5
212
330
1F
100
AcDbEntity
  8
0
  6
Continuous
 62
     7
370
    25
100
AcDbLine
 10
171.6619457727678
 20
66.5748207823425
 30
0.0
 11
169.6553479558237
 21
66.5748207823425
 31
0.0
  0
LINE
  5
213
330
1F
100
AcDbEntity
  8
0
  6
Continuous
 62
     7
370
    25
100
AcDbLine
 10
169.6553479558237
 20
66.5748207823425
 30
0.0
 11
169.4013464874036
 21
66.32082117656762
 31
0.0
  0
LINE
  5
214
330
1F
100
AcDbEntity
  8
0
  6
Continuous
 62
     7
370
    25
100
AcDbLine
 10
169.4013464874036
 20
52.19842074374253
 30
0.0
 11
169.6553479558237
 21
51.94442113796765
 31
0.0
  0
LINE
  5
215
330
1F
100
AcDbEntity
  8
0
  6
Continuous
 62
     7
370
    25
100
AcDbLine
 10
276.3010475462682
 20
52.73182084719235
 30
0.0
 11
276.5982251292474
 21
52.73182084719235
 31
0.0
  0
LINE
  5
216
330
1F
100
AcDbEntity
  8
0
  6
Continuous
 62
     7
370
    25
100
AcDbLine
 10
276.5982251292474
 20
65.43182162503296
 30
0.0
 11
276.3010475462682
 21
65.43182162503296
 31
0.0
  0
LINE
  5
217
330
1F
100
AcDbEntity
  8
0
  6
Continuous
 62
     7
370
    25
100
AcDbLine
 10
176.5533450669057
 20
75.08950075069958
 30
0.0
 11
272.5653487867124
 21
75.08950075069958
 31
0.0
  0
LINE
  5
218
330
1F
100
AcDbEntity
  8
0
  6
Continuous
 62
     7
370
    25
100
AcDbLine
 10
272.5653487867124
 20
75.08950075069958
 30
0.0
 11
274.0893464213617
 21
75.08950075069958
 31
0.0
  0
LINE
  5
219
330
1F
100
AcDbEntity
  8
0
  6
Continuous
 62
     7
370
    25
100
AcDbLine
 10
274.0893464213617
 20
75.08950075069958
 30
0.0
 11
274.0893464213617
 21
74.83550300756985
 31
0.0
  0
LINE
  5
21A
330
1F
100
AcDbEntity
  8
0
  6
Continuous
 62
     7
370
    25
100
AcDbLine
 10
175.0293474322565
 20
75.08950075069958
 30
0.0
 11
175.0293474322565
 21
74.83550300756985
 31
0.0
  0
LINE
  5
21B
330
1F
100
AcDbEntity
  8
0
  6
Continuous
 62
     7
370
    25
100
AcDbLine
 10
175.0293474322565
 20
75.08950075069958
 30
0.0
 11
176.5533450669057
 21
75.08950075069958
 31
0.0
  0
LINE
  5
21C
330
1F
100
AcDbEntity
  8
0
  6
Continuous
 62
     7
370
    25
100
AcDbLine
 10
171.9159472411878
 20
61.2865402356773
 30
0.0
 11
171.6619457727678
 21
61.2865402356773
 31
0.0
  0
LINE
  5
21D
330
1F
100
AcDbEntity
  8
0
  6
Continuous
 62
     7
370
    25
100
AcDbLine
 10
171.6619457727678
 20
61.2865402356773
 30
0.0
 11
171.6619457727678
 21
60.27053994993264
 31
0.0
  0
LINE
  5
21E
330
1F
100
AcDbEntity
  8
0
  6
Continuous
 62
     7
370
    25
100
AcDbLine
 10
171.9159472411878
 20
47.43592068488294
 30
0.0
 11
171.6619457727678
 21
47.43592068488294
 31
0.0
  0
LINE
  5
21F
330
1F
100
AcDbEntity
  8
0
  6
Continuous
 62
     7
370
    25
100
AcDbLine
 10
171.6619457727678
 20
48.45192050496632
 30
0.0
 11
171.6619457727678
 21
47.43592068488294
 31
0.0
  0
LINE
  5
220
330
1F
100
AcDbEntity
  8
0
  6
Continuous
 62
     7
370
    25
100
AcDbLine
 10
171.6619457727678
 20
60.27053994993264
 30
0.0
 11
171.6619457727678
 21
48.45192050496632
 31
0.0
  0
LINE
  5
221
330
1F
100
AcDbEntity
  8
0
  6
Continuous
 62
     7
370
    25
100
AcDbLine
 10
171.9159472411878
 20
66.36654166440064
 30
0.0
 11
171.6619457727678
 21
66.36654166440064
 31
0.0
  0
LINE
  5
222
330
1F
100
AcDbEntity
  8
0
  6
Continuous
 62
     7
370
    25
100
AcDbLine
 10
171.6619457727678
 20
67.38254008750016
 30
0.0
 11
171.6619457727678
 21
66.36654166440064
 31
0.0
  0
LINE
  5
223
330
1F
100
AcDbEntity
  8
0
  6
Continuous
 62
     7
370
    25
100
AcDbLine
 10
171.9159472411878
 20
72.34062021533543
 30
0.0
 11
171.6619457727678
 21
72.34062021533543
 31
0.0
  0
LINE
  5
224
330
1F
100
AcDbEntity
  8
0
  6
Continuous
 62
     7
370
    25
100
AcDbLine
 10
171.6619457727678
 20
72.34062021533543
 30
0.0
 11
171.6619457727678
 21
71.32461992959076
 31
0.0
  0
LINE
  5
225
330
1F
100
AcDbEntity
  8
0
  6
Continuous
 62
     7
370
    25
100
AcDbLine
 10
171.6619457727678
 20
71.32461992959076
 30
0.0
 11
171.6619457727678
 21
67.38254008750016
 31
0.0
  0
LINE
  5
226
330
1F
100
AcDbEntity
  8
0
  6
Continuous
 62
     7
370
    25
100
AcDbLine
 10
171.6619457727678
 20
47.43592068488294
 30
0.0
 11
171.6619457727678
 21
47.10782086412007
 31
0.0
  0
LINE
  5
227
330
1F
100
AcDbEntity
  8
0
  6
Continuous
 62
     7
370
    25
100
AcDbLine
 10
171.6619457727678
 20
66.36654166440064
 30
0.0
 11
171.6619457727678
 21
66.0384404466539
 31
0.0
  0
LINE
  5
228
330
1F
100
AcDbEntity
  8
0
  6
Continuous
 62
     7
370
    25
100
AcDbLine
 10
171.6619457727678
 20
61.538440640369
 30
0.0
 11
171.6619457727678
 21
61.2865402356773
 31
0.0
  0
LINE
  5
229
330
1F
100
AcDbEntity
  8
0
  6
Continuous
 62
     7
370
    25
100
AcDbLine
 10
171.9159472411878
 20
42.24162083054477
 30
0.0
 11
171.6619457727678
 21
42.24162083054477
 31
0.0
  0
LINE
  5
22A
330
1F
100
AcDbEntity
  8
0
  6
Continuous
 62
     7
370
    25
100
AcDbLine
 10
171.6619457727678
 20
42.60782082500452
 30
0.0
 11
171.6619457727678
 21
42.24162083054477
 31
0.0
  0
LINE
  5
22B
330
1F
100
AcDbEntity
  8
0
  6
Continuous
 62
     7
370
    25
100
AcDbLine
 10
277.5056201642759
 20
48.41382102976138
 30
0.0
 11
277.5056201642759
 21
47.39782074401671
 31
0.0
  0
LINE
  5
22C
330
1F
100
AcDbEntity
  8
0
  6
Continuous
 62
     7
370
    25
100
AcDbLine
 10
277.5056201642759
 20
47.39782074401671
 30
0.0
 11
277.4999279206999
 21
47.39782074401671
 31
0.0
  0
LINE
  5
22D
330
1F
100
AcDbEntity
  8
0
  6
Continuous
 62
     7
370
    25
100
AcDbLine
 10
277.5056201642759
 20
72.7342790917545
 30
0.0
 11
277.4999279206999
 21
72.7342790917545
 31
0.0
  0
LINE
  5
22E
330
1F
100
AcDbEntity
  8
0
  6
Continuous
 62
     7
370
    25
100
AcDbLine
 10
277.5056201642759
 20
72.7342790917545
 30
0.0
 11
277.5056201642759
 21
71.71828066865498
 31
0.0
  0
LINE
  5
22F
330
1F
100
AcDbEntity
  8
0
  6
Continuous
 62
     7
370
    25
100
AcDbLine
 10
277.5056201642759
 20
71.71828066865498
 30
0.0
 11
277.5056201642759
 21
48.41382102976138
 31
0.0
  0
LINE
  5
230
330
1F
100
AcDbEntity
  8
0
  6
Continuous
 62
     7
370
    25
100
AcDbLine
 10
277.5056201642759
 20
47.39782074401671
 30
0.0
 11
277.5056201642759
 21
47.10782086412007
 31
0.0
  0
LINE
  5
231
330
1F
100
AcDbEntity
  8
0
  6
Continuous
 62
     7
370
    25
100
AcDbLine
 10
277.5056201642759
 20
42.25428099679345
 30
0.0
 11
277.4999279206999
 21
42.25428099679345
 31
0.0
  0
LINE
  5
232
330
1F
100
AcDbEntity
  8
0
  6
Continuous
 62
     7
370
    25
100
AcDbLine
 10
277.5056201642759
 20
42.60782082500452
 30
0.0
 11
277.5056201642759
 21
42.25428099679345
 31
0.0
  0
LINE
  5
233
330
1F
100
AcDbEntity
  8
0
  6
Continuous
 62
     7
370
    25
100
AcDbLine
 10
169.4159459000833
 20
43.42773300530905
 30
0.0
 11
169.4159459000833
 21
46.90782073820526
 31
0.0
  0
LINE
  5
234
330
1F
100
AcDbEntity
  8
0
  6
Continuous
 62
     7
370
    25
100
AcDbLine
 10
169.4159459000833
 20
42.80782071808869
 30
0.0
 11
169.4159459000833
 21
43.42773300530905
 31
0.0
  0
LINE
  5
235
330
1F
100
AcDbEntity
  8
0
  6
Continuous
 62
     7
370
    25
100
AcDbLine
 10
169.6159455603368
 20
43.28821226889783
 30
0.0
 11
169.6159455603368
 21
42.60782082500452
 31
0.0
  0
LINE
  5
236
330
1F
100
AcDbEntity
  8
0
  6
Continuous
 62
     7
370
    25
100
AcDbLine
 10
169.6159455603368
 20
47.10782086412007
 30
0.0
 11
169.6159455603368
 21
43.28821226889783
 31
0.0
  0
LINE
  5
237
330
1F
100
AcDbEntity
  8
0
  6
Continuous
 62
     7
370
    25
100
AcDbLine
 10
169.4159459000833
 20
62.50148778716618
 30
0.0
 11
169.4159459000833
 21
65.83844078640038
 31
0.0
  0
LINE
  5
238
330
1F
100
AcDbEntity
  8
0
  6
Continuous
 62
     7
370
    25
100
AcDbLine
 10
169.4159459000833
 20
61.73844030062253
 30
0.0
 11
169.4159459000833
 21
62.50148778716618
 31
0.0
  0
LINE
  5
239
330
1F
100
AcDbEntity
  8
0
  6
Continuous
 62
     7
370
    25
100
AcDbLine
 10
169.6159455603368
 20
62.37593246559197
 30
0.0
 11
169.6159455603368
 21
61.538440640369
 31
0.0
  0
LINE
  5
23A
330
1F
100
AcDbEntity
  8
0
  6
Continuous
 62
     7
370
    25
100
AcDbLine
 10
169.6159455603368
 20
66.0384404466539
 30
0.0
 11
169.6159455603368
 21
62.37593246559197
 31
0.0
  0
LINE
  5
23B
330
1F
100
AcDbEntity
  8
0
  6
Continuous
 62
     7
370
    25
100
AcDbLine
 10
279.7999258762605
 20
42.60782082500452
 30
0.0
 11
279.7999258762605
 21
47.10782086412007
 31
0.0
  0
LINE
  5
23C
330
1F
100
AcDbEntity
  8
0
  6
Continuous
 62
     7
370
    25
100
AcDbLine
 10
279.9999255365141
 20
46.90782073820526
 30
0.0
 11
279.9999255365141
 21
42.80782071808869
 31
0.0
  0
LINE
  5
23D
330
1F
100
AcDbEntity
  8
0
  6
Continuous
 62
     7
370
    25
100
AcDbLine
 10
164.9652260965116
 20
64.72506513754422
 30
0.0
 11
164.9652260965116
 21
52.96486569503838
 31
0.0
  0
LINE
  5
23E
330
1F
100
AcDbEntity
  8
0
  6
Continuous
 62
     7
370
    25
100
AcDbLine
 10
164.9652260965116
 20
64.72506513754422
 30
0.0
 11
169.4013464874036
 21
64.72506513754422
 31
0.0
  0
LINE
  5
23F
330
1F
100
AcDbEntity
  8
0
  6
Continuous
 62
     7
370
    25
100
AcDbLine
 10
164.330228013397
 20
53.59986564079815
 30
0.0
 11
164.330228013397
 21
64.72506513754422
 31
0.0
  0
SPLINE
  5
240
330
1F
100
AcDbEntity
  8
0
  6
Continuous
 62
     7
370
    25
100
AcDbSpline
210
0.0
220
0.0
230
1.0
 70
    24
 71
     3
 72
     9
 73
     5
 74
     0
 42
0.0000000001
 43
0.0000000001
 40
0.0
 40
0.0
 40
0.0
 40
0.0
 40
0.4970937126984996
 40
1.0
 40
1.0
 40
1.0
 40
1.0
 10
164.330228013397
 20
64.72506513754422
 30
0.0
 10
164.414246007212
 20
64.72506513754422
 30
0.0
 10
164.5832644270164
 20
64.72506513754424
 30
0.0
 10
164.8374131205993
 20
64.72506513754422
 30
0.0
 10
164.9652260965116
 20
64.72506513754422
 30
0.0
  0
ARC
  5
241
330
1F
100
AcDbEntity
  8
0
  6
Continuous
 62
     7
370
    25
100
AcDbCircle
 10
156.1260249143846
 20
49.66073653660703
 30
0.0
 40
4.874598779240019
100
AcDbArc
 50
78.2748795643683
 51
101.7251204356317
  0
LINE
  5
242
330
1F
100
AcDbEntity
  8
0
  6
Continuous
 62
     7
370
    25
100
AcDbLine
 10
163.9492276734121
 20
54.43362099985177
 30
0.0
 11
163.9492276734121
 21
64.08562092045838
 31
0.0
  0
ARC
  5
243
330
1F
100
AcDbEntity
  8
0
  6
Continuous
 62
     7
370
    25
100
AcDbCircle
 10
156.1260249143846
 20
68.85850538370315
 30
0.0
 40
4.874598779240047
100
AcDbArc
 50
258.2748795643691
 51
281.7251204356324
  0
LINE
  5
244
330
1F
100
AcDbEntity
  8
0
  6
Continuous
 62
     7
370
    25
100
AcDbLine
 10
151.8842305666215
 20
64.08562092045838
 30
0.0
 11
151.8842305666215
 21
54.43362099985177
 31
0.0
  0
LINE
  5
245
330
1F
100
AcDbEntity
  8
0
  6
Continuous
 62
     7
370
    25
100
AcDbLine
 10
163.9492276734121
 20
63.22202039817864
 30
0.0
 11
164.330228013397
 21
63.22202039817864
 31
0.0
  0
LINE
  5
246
330
1F
100
AcDbEntity
  8
0
  6
Continuous
 62
     7
370
    25
100
AcDbLine
 10
155.13542552054
 20
53.76052064756447
 30
0.0
 11
157.1166243082292
 21
53.76052064756447
 31
0.0
  0
LINE
  5
247
330
1F
100
AcDbEntity
  8
0
  6
Continuous
 62
     7
370
    25
100
AcDbLine
 10
157.1166243082292
 20
64.75872127274567
 30
0.0
 11
155.13542552054
 21
64.75872127274567
 31
0.0
  0
LINE
  5
248
330
1F
100
AcDbEntity
  8
0
  6
Continuous
 62
     7
370
    25
100
AcDbLine
 10
283.4562275236852
 20
63.05057136277253
 30
0.0
 11
283.4562275236852
 21
55.83697138289505
 31
0.0
  0
LINE
  5
249
330
1F
100
AcDbEntity
  8
0
  6
Continuous
 62
     7
370
    25
100
AcDbLine
 10
279.9129251068838
 20
55.83697138289505
 30
0.0
 11
283.4562275236852
 21
55.83697138289505
 31
0.0
  0
LINE
  5
24A
330
1F
100
AcDbEntity
  8
0
  6
Continuous
 62
     7
370
    25
100
AcDbLine
 10
283.964226735235
 20
62.54257028857762
 30
0.0
 11
283.964226735235
 21
55.83697138289505
 31
0.0
  0
SPLINE
  5
24B
330
1F
100
AcDbEntity
  8
0
  6
Continuous
 62
     7
370
    25
100
AcDbSpline
210
0.0
220
0.0
230
1.0
 70
    24
 71
     3
 72
     9
 73
     5
 74
     0
 42
0.0000000001
 43
0.0000000001
 40
0.0
 40
0.0
 40
0.0
 40
0.0
 40
0.4648276983721485
 40
1.0
 40
1.0
 40
1.0
 40
1.0
 10
283.964226735235
 20
55.83697138289505
 30
0.0
 10
283.8976256964173
 20
55.83697138289505
 30
0.0
 10
283.7543445643959
 20
55.83697138289505
 30
0.0
 10
283.5601533062586
 20
55.83697138289505
 30
0.0
 10
283.4562275236852
 20
55.83697138289505
 30
0.0
  0
LINE
  5
24C
330
1F
100
AcDbEntity
  8
0
  6
Continuous
 62
     7
370
    25
100
AcDbLine
 10
276.3010475462682
 20
67.26019410351807
 30
0.0
 11
276.5982251292474
 21
67.25940620461995
 31
0.0
  0
LINE
  5
24D
330
1F
100
AcDbEntity
  8
0
  6
Continuous
 62
     7
370
    25
100
AcDbLine
 10
276.3010475462682
 20
47.90582088688904
 30
0.0
 11
276.5982251292474
 21
47.90582088688904
 31
0.0
  0
LINE
  5
24E
330
1F
100
AcDbEntity
  8
0
  6
Continuous
 62
     7
370
    25
100
AcDbLine
 10
277.5056201642759
 20
47.90582088688904
 30
0.0
 11
278.7444468265779
 21
47.90582088688904
 31
0.0
  0
LINE
  5
24F
330
1F
100
AcDbEntity
  8
0
  6
Continuous
 62
     7
370
    25
100
AcDbLine
 10
278.7444468265779
 20
47.90582088688904
 30
0.0
 11
278.7444468265779
 21
53.62655362049634
 31
0.0
  0
LINE
  5
250
330
1F
100
AcDbEntity
  8
0
  6
Continuous
 62
     7
370
    25
100
AcDbLine
 10
278.1809258884199
 20
56.35418696264321
 30
0.0
 11
279.6129274791486
 21
56.35418696264321
 31
0.0
  0
SPLINE
  5
251
330
1F
100
AcDbEntity
  8
0
  6
Continuous
 62
     7
370
    25
100
AcDbSpline
210
0.0
220
0.0
230
1.0
 70
     8
 71
     3
 72
    10
 73
     6
 74
     0
 42
0.0000000001
 43
0.0000000001
 40
0.0
 40
0.0
 40
0.0
 40
0.0
 40
0.1270015264819386
 40
0.5580987892305575
 40
0.9999999999999998
 40
0.9999999999999998
 40
0.9999999999999998
 40
0.9999999999999998
 10
278.1809258884199
 20
61.80945364693696
 30
0.0
 10
278.1446032745898
 20
61.58041753347077
 30
0.0
 10
277.9849862419304
 20
60.57393531899345
 30
0.0
 10
277.8567369655606
 20
58.73897352481666
 30
0.0
 10
278.0719750085609
 20
57.15564739482985
 30
0.0
 10
278.1809258884199
 20
56.35418696264324
 30
0.0
  0
LINE
  5
252
330
1F
100
AcDbEntity
  8
0
  6
Continuous
 62
     7
370
    25
100
AcDbLine
 10
278.1809258884199
 20
61.80945364693696
 30
0.0
 11
279.6129274791486
 21
61.80945364693696
 31
0.0
  0
SPLINE
  5
253
330
1F
100
AcDbEntity
  8
0
  6
Continuous
 62
     7
370
    25
100
AcDbSpline
210
0.0
220
0.0
230
1.0
 70
     8
 71
     3
 72
    10
 73
     6
 74
     0
 42
0.0000000001
 43
0.0000000001
 40
0.0
 40
0.0
 40
0.0
 40
0.0
 40
0.1270015127495856
 40
0.5580987687783407
 40
1.0
 40
1.0
 40
1.0
 40
1.0
 10
279.6129274791486
 20
61.80945364693696
 30
0.0
 10
279.6492500247591
 20
61.580417531194
 30
0.0
 10
279.8088667690416
 20
60.5739352347668
 30
0.0
 10
279.9371225923319
 20
58.73897345833978
 30
0.0
 10
279.7218804416135
 20
57.15564738874604
 30
0.0
 10
279.6129274791486
 20
56.35418696264324
 30
0.0
  0
SPLINE
  5
254
330
1F
100
AcDbEntity
  8
0
  6
Continuous
 62
     7
370
    25
100
AcDbSpline
210
0.0
220
0.0
230
1.0
 70
     8
 71
     3
 72
    11
 73
     7
 74
     0
 42
0.0000000001
 43
0.0000000001
 40
0.0
 40
0.0
 40
0.0
 40
0.0
 40
0.2462752029674375
 40
0.4924200216170449
 40
0.7461376200047642
 40
1.0
 40
1.0
 40
1.0
 40
1.0
 10
278.1809258884199
 20
56.35418696264321
 30
0.0
 10
278.1140355567566
 20
56.13155228475315
 30
0.0
 10
277.9802903068623
 20
55.68640079739933
 30
0.0
 10
277.9126562754772
 20
55.0042900146193
 30
0.0
 10
277.9749836530585
 20
54.31499031520295
 30
0.0
 10
278.1122654239275
 20
53.85607615213817
 30
0.0
 10
278.1809258884199
 20
53.62655362049634
 30
0.0
  0
SPLINE
  5
255
330
1F
100
AcDbEntity
  8
0
  6
Continuous
 62
     7
370
    25
100
AcDbSpline
210
0.0
220
0.0
230
1.0
 70
     8
 71
     3
 72
    11
 73
     7
 74
     0
 42
0.0000000001
 43
0.0000000001
 40
0.0
 40
0.0
 40
0.0
 40
0.0
 40
0.2462752455310287
 40
0.4924200225716604
 40
0.7461376629183371
 40
1.0
 40
1.0
 40
1.0
 40
1.0
 10
278.1809258884199
 20
61.80945364693696
 30
0.0
 10
278.1140355574757
 20
62.03208871763374
 30
0.0
 10
277.9802903318753
 20
62.47724091432067
 30
0.0
 10
277.912656274324
 20
63.15935131036585
 30
0.0
 10
277.9749836288047
 20
63.84865233150335
 30
0.0
 10
278.1122654234923
 20
64.30756640383441
 30
0.0
 10
278.1809258884199
 20
64.53708885172898
 30
0.0
  0
LINE
  5
256
330
1F
100
AcDbEntity
  8
0
  6
Continuous
 62
     7
370
    25
100
AcDbLine
 10
278.1809258884199
 20
64.53708885172898
 30
0.0
 11
279.6129274791486
 21
64.53708885172898
 31
0.0
  0
SPLINE
  5
257
330
1F
100
AcDbEntity
  8
0
  6
Continuous
 62
     7
370
    25
100
AcDbSpline
210
0.0
220
0.0
230
1.0
 70
     8
 71
     3
 72
    11
 73
     7
 74
     0
 42
0.0000000001
 43
0.0000000001
 40
0.0
 40
0.0
 40
0.0
 40
0.0
 40
0.2462752455310287
 40
0.4924200225716604
 40
0.7461376629183371
 40
1.0
 40
1.0
 40
1.0
 40
1.0
 10
279.6129274791486
 20
61.80945364693696
 30
0.0
 10
279.6798178100928
 20
62.03208871763374
 30
0.0
 10
279.8135630356932
 20
62.47724091432067
 30
0.0
 10
279.8811970932446
 20
63.15935131036585
 30
0.0
 10
279.8188697387637
 20
63.84865233150335
 30
0.0
 10
279.6815879440762
 20
64.30756640383441
 30
0.0
 10
279.6129274791486
 20
64.53708885172898
 30
0.0
  0
LINE
  5
258
330
1F
100
AcDbEntity
  8
0
  6
Continuous
 62
     7
370
    25
100
AcDbLine
 10
279.9129251068838
 20
54.51555317203099
 30
0.0
 11
279.9129251068838
 21
63.64808743754918
 31
0.0
  0
SPLINE
  5
259
330
1F
100
AcDbEntity
  8
0
  6
Continuous
 62
     7
370
    25
100
AcDbSpline
210
0.0
220
0.0
230
1.0
 70
     8
 71
     3
 72
    11
 73
     7
 74
     0
 42
0.0000000001
 43
0.0000000001
 40
0.0
 40
0.0
 40
0.0
 40
0.0
 40
0.2462752029674375
 40
0.4924200216170449
 40
0.7461376200047642
 40
1.0
 40
1.0
 40
1.0
 40
1.0
 10
279.6129274791486
 20
56.35418696264321
 30
0.0
 10
279.679817810812
 20
56.13155228475315
 30
0.0
 10
279.8135630607062
 20
55.68640079739933
 30
0.0
 10
279.8811970920913
 20
55.0042900146193
 30
0.0
 10
279.81886971451
 20
54.31499031520295
 30
0.0
 10
279.681587943641
 20
53.85607615213817
 30
0.0
 10
279.6129274791486
 20
53.62655362049634
 30
0.0
  0
LINE
  5
25A
330
1F
100
AcDbEntity
  8
0
  6
Continuous
 62
     7
370
    25
100
AcDbLine
 10
278.1809258884199
 20
53.62655362049634
 30
0.0
 11
279.6129274791486
 21
53.62655362049634
 31
0.0
  0
LINE
  5
25B
330
1F
100
AcDbEntity
  8
0
  6
Continuous
 62
     7
370
    25
100
AcDbLine
 10
277.8809282606848
 20
53.92562085697943
 30
0.0
 11
277.8809282606848
 21
64.23802068392331
 31
0.0
  0
LINE
  5
25C
330
1F
100
AcDbEntity
  8
0
  6
Continuous
 62
     7
370
    25
100
AcDbLine
 10
169.6553479558237
 20
61.538440640369
 30
0.0
 11
169.6553479558237
 21
51.94442113796765
 31
0.0
  0
LINE
  5
25D
330
1F
100
AcDbEntity
  8
0
  6
Continuous
 62
     7
370
    25
100
AcDbLine
 10
169.6553479558237
 20
66.5748207823425
 30
0.0
 11
169.6553479558237
 21
66.0384404466539
 31
0.0
  0
LINE
  5
25E
330
1F
100
AcDbEntity
  8
0
  6
Continuous
 62
     7
370
    25
100
AcDbLine
 10
169.4013464874036
 20
65.0893836275726
 30
0.0
 11
169.4013464874036
 21
66.32082117656762
 31
0.0
  0
LINE
  5
25F
330
1F
100
AcDbEntity
  8
0
  6
Continuous
 62
     7
370
    25
100
AcDbLine
 10
169.4013464874036
 20
52.19842074374253
 30
0.0
 11
169.4013464874036
 21
65.0893836275726
 31
0.0
  0
LINE
  5
260
330
1F
100
AcDbEntity
  8
0
  6
Continuous
 62
     7
370
    25
100
AcDbLine
 10
171.9159472411878
 20
71.7945224599033
 30
0.0
 11
171.9159472411878
 21
41.82252078252429
 31
0.0
  0
LINE
  5
261
330
1F
100
AcDbEntity
  8
0
  6
Continuous
 62
     7
370
    25
100
AcDbLine
 10
171.153946561218
 20
40.15882080356175
 30
0.0
 11
164.5499456352003
 21
40.15882080356175
 31
0.0
  0
LINE
  5
262
330
1F
100
AcDbEntity
  8
0
  6
Continuous
 62
     7
370
    25
100
AcDbLine
 10
171.153946561218
 20
41.06052080104643
 30
0.0
 11
164.5499456352003
 21
41.06052080104643
 31
0.0
  0
ARC
  5
263
330
1F
100
AcDbEntity
  8
0
  6
Continuous
 62
     7
370
    25
100
AcDbCircle
 10
171.1539469269306
 20
41.82252080356176
 30
0.0
 40
1.663700000000034
100
AcDbArc
 50
270.0000000000008
 51
0.0000000000004894
  0
ARC
  5
264
330
1F
100
AcDbEntity
  8
0
  6
Continuous
 62
     7
370
    25
100
AcDbCircle
 10
171.1539469269306
 20
41.82252080356176
 30
0.0
 40
0.7620000000000289
100
AcDbArc
 50
270.0000000000008
 51
0.0
  0
LINE
  5
265
330
1F
100
AcDbEntity
  8
0
  6
Continuous
 62
     7
370
    25
100
AcDbLine
 10
171.9159472411878
 20
72.81052088300282
 30
0.0
 11
172.8176463073499
 21
72.81052088300282
 31
0.0
  0
LINE
  5
266
330
1F
100
AcDbEntity
  8
0
  6
Continuous
 62
     7
370
    25
100
AcDbLine
 10
172.8176463073499
 20
72.78527086535985
 30
0.0
 11
172.8176463073499
 21
72.61502509872014
 31
0.0
  0
LINE
  5
267
330
1F
100
AcDbEntity
  8
0
  6
Continuous
 62
     7
370
    25
100
AcDbLine
 10
171.9159472411878
 20
71.7945224599033
 30
0.0
 11
171.9159472411878
 21
72.81052088300282
 31
0.0
  0
LINE
  5
268
330
1F
100
AcDbEntity
  8
0
  6
Continuous
 62
     7
370
    25
100
AcDbLine
 10
164.5499456352003
 20
40.15882080356175
 30
0.0
 11
163.025948000551
 21
40.15882080356175
 31
0.0
  0
LINE
  5
269
330
1F
100
AcDbEntity
  8
0
  6
Continuous
 62
     7
370
    25
100
AcDbLine
 10
163.025948000551
 20
40.15882080356175
 30
0.0
 11
163.025948000551
 21
41.06052080104643
 31
0.0
  0
LINE
  5
26A
330
1F
100
AcDbEntity
  8
0
  6
Continuous
 62
     7
370
    25
100
AcDbLine
 10
163.025948000551
 20
41.06052080104643
 30
0.0
 11
164.5499456352003
 21
41.06052080104643
 31
0.0
  0
LINE
  5
26B
330
1F
100
AcDbEntity
  8
0
  6
Continuous
 62
     7
370
    25
100
AcDbLine
 10
174.4813460534818
 20
40.92844080813745
 30
0.0
 11
172.8176463073499
 21
40.92844080813745
 31
0.0
  0
LINE
  5
26C
330
1F
100
AcDbEntity
  8
0
  6
Continuous
 62
     7
370
    25
100
AcDbLine
 10
172.8176463073499
 20
72.61502509872014
 30
0.0
 11
172.8176463073499
 21
40.92844080813745
 31
0.0
  0
LWPOLYLINE
  5
26D
330
1F
100
AcDbEntity
  8
0
  6
Continuous
 62
     7
370
    25
100
AcDbPolyline
 90
        9
 70
   128
 43
0.0
 10
172.8176463073499
 20
72.61502509872014
 10
172.849613023401
 20
72.62523611942822
 10
172.9442875510461
 20
72.65547430078084
 10
173.0980302816637
 20
72.70458107749516
 10
173.3049329048402
 20
72.77066400209958
 10
173.5570456510789
 20
72.85118615190083
 10
173.8446753150232
 20
72.9430518106609
 10
174.156776410938
 20
73.04273685375744
 10
174.4813460534818
 20
73.14640050689274
  0
LINE
  5
26E
330
1F
100
AcDbEntity
  8
0
  6
Continuous
 62
     7
370
    25
100
AcDbLine
 10
274.6119487708814
 20
40.92844080813745
 30
0.0
 11
174.4813460534818
 21
40.92844080813745
 31
0.0
  0
LINE
  5
26F
330
1F
100
AcDbEntity
  8
0
  6
Continuous
 62
     7
370
    25
100
AcDbLine
 10
174.4813460534818
 20
74.83550300756985
 30
0.0
 11
275.3993484801061
 21
74.83550300756985
 31
0.0
  0
LINE
  5
270
330
1F
100
AcDbEntity
  8
0
  6
Continuous
 62
     7
370
    25
100
AcDbLine
 10
275.3993484801061
 20
74.83550300756985
 30
0.0
 11
275.3993484801061
 21
73.14640050689274
 31
0.0
  0
LINE
  5
271
330
1F
100
AcDbEntity
  8
0
  6
Continuous
 62
     7
370
    25
100
AcDbLine
 10
274.6119487708814
 20
73.14640050689274
 30
0.0
 11
275.3993484801061
 21
73.14640050689274
 31
0.0
  0
LINE
  5
272
330
1F
100
AcDbEntity
  8
0
  6
Continuous
 62
     7
370
    25
100
AcDbLine
 10
174.4813460534818
 20
73.14640050689274
 30
0.0
 11
174.4813460534818
 21
74.83550300756985
 31
0.0
  0
LINE
  5
273
330
1F
100
AcDbEntity
  8
0
  6
Continuous
 62
     7
370
    25
100
AcDbLine
 10
275.3993484801061
 20
73.14640050689274
 30
0.0
 11
276.3010475462682
 21
73.14640050689274
 31
0.0
  0
LINE
  5
274
330
1F
100
AcDbEntity
  8
0
  6
Continuous
 62
     7
370
    25
100
AcDbLine
 10
276.3010475462682
 20
73.14640050689274
 30
0.0
 11
276.3010475462682
 21
40.92844080813745
 31
0.0
  0
LINE
  5
275
330
1F
100
AcDbEntity
  8
0
  6
Continuous
 62
     7
370
    25
100
AcDbLine
 10
276.3010475462682
 20
40.92844080813745
 30
0.0
 11
274.6119487708814
 21
40.92844080813745
 31
0.0
  0
LINE
  5
276
330
1F
100
AcDbEntity
  8
0
  6
Continuous
 62
     7
370
    25
100
AcDbLine
 10
173.719345373512
 20
73.17180326143795
 30
0.0
 11
172.8176463073499
 21
73.17180326143795
 31
0.0
  0
ARC
  5
277
330
1F
100
AcDbEntity
  8
0
  6
Continuous
 62
     7
370
    25
100
AcDbCircle
 10
174.4813469268145
 20
73.17180225190913
 30
0.0
 40
0.7620000000000005
100
AcDbArc
 50
90.0
 51
179.9999999999658
  0
ARC
  5
278
330
1F
100
AcDbEntity
  8
0
  6
Continuous
 62
     7
370
    25
100
AcDbCircle
 10
174.4813469268145
 20
73.17180225190913
 30
0.0
 40
1.663700000000005
100
AcDbArc
 50
90.0
 51
179.9999999999442
  0
ARC
  5
279
330
1F
100
AcDbEntity
  8
0
  6
Continuous
 62
     7
370
    25
100
AcDbCircle
 10
275.8108269268091
 20
73.14640225190803
 30
0.0
 40
0.787399999999991
100
AcDbArc
 50
359.9999999999988
 51
90.0
  0
ARC
  5
27A
330
1F
100
AcDbEntity
  8
0
  6
Continuous
 62
     7
370
    25
100
AcDbCircle
 10
275.8108269268091
 20
73.14640225190803
 30
0.0
 40
1.689099999999996
100
AcDbArc
 50
359.9999999999998
 51
90.0
  0
LINE
  5
27B
330
1F
100
AcDbEntity
  8
0
  6
Continuous
 62
     7
370
    25
100
AcDbLine
 10
275.8108254200227
 20
73.93380394140774
 30
0.0
 11
275.3993484801061
 21
73.93380394140774
 31
0.0
  0
LINE
  5
27C
330
1F
100
AcDbEntity
  8
0
  6
Continuous
 62
     7
370
    25
100
AcDbLine
 10
275.8108254200227
 20
74.83550300756985
 30
0.0
 11
275.3993484801061
 21
74.83550300756985
 31
0.0
  0
LINE
  5
27D
330
1F
100
AcDbEntity
  8
0
  6
Continuous
 62
     7
370
    25
100
AcDbLine
 10
276.5982251292474
 20
41.8479208595171
 30
0.0
 11
276.5982251292474
 21
73.14640050689274
 31
0.0
  0
LINE
  5
27E
330
1F
100
AcDbEntity
  8
0
  6
Continuous
 62
     7
370
    25
100
AcDbLine
 10
277.4999279206999
 20
41.8479208595171
 30
0.0
 11
277.4999279206999
 21
73.14640050689274
 31
0.0
  0
LINE
  5
27F
330
1F
100
AcDbEntity
  8
0
  6
Continuous
 62
     7
370
    25
100
AcDbLine
 10
284.5718886381395
 20
41.06052080104643
 30
0.0
 11
278.2873276299246
 21
41.06052080104643
 31
0.0
  0
LINE
  5
280
330
1F
100
AcDbEntity
  8
0
  6
Continuous
 62
     7
370
    25
100
AcDbLine
 10
284.5718886381395
 20
40.15882080356175
 30
0.0
 11
278.2873276299246
 21
40.15882080356175
 31
0.0
  0
LINE
  5
281
330
1F
100
AcDbEntity
  8
0
  6
Continuous
 62
     7
370
    25
100
AcDbLine
 10
286.0958899980791
 20
41.06052080104643
 30
0.0
 11
286.0958899980791
 21
40.15882080356175
 31
0.0
  0
LINE
  5
282
330
1F
100
AcDbEntity
  8
0
  6
Continuous
 62
     7
370
    25
100
AcDbLine
 10
284.5718886381395
 20
41.06052080104643
 30
0.0
 11
286.0958899980791
 21
41.06052080104643
 31
0.0
  0
LINE
  5
283
330
1F
100
AcDbEntity
  8
0
  6
Continuous
 62
     7
370
    25
100
AcDbLine
 10
286.0958899980791
 20
40.15882080356175
 30
0.0
 11
284.5718886381395
 21
40.15882080356175
 31
0.0
  0
ARC
  5
284
330
1F
100
AcDbEntity
  8
0
  6
Continuous
 62
     7
370
    25
100
AcDbCircle
 10
278.287326926809
 20
41.84792080356174
 30
0.0
 40
1.689099999999996
100
AcDbArc
 50
179.999999999999
 51
270.0000000000027
  0
ARC
  5
285
330
1F
100
AcDbEntity
  8
0
  6
Continuous
 62
     7
370
    25
100
AcDbCircle
 10
278.287326926809
 20
41.84792080356174
 30
0.0
 40
0.787399999999991
100
AcDbArc
 50
179.9999999999979
 51
270.0000000000008
  0
LINE
  5
286
330
1F
100
AcDbEntity
  8
0
  6
Continuous
 62
     7
370
    25
100
AcDbLine
 10
172.8176463073499
 20
73.17180326143795
 30
0.0
 11
172.8176463073499
 21
72.78527086535985
 31
0.0
  0
LINE
  5
287
330
1F
100
AcDbEntity
  8
0
  6
Continuous
 62
     7
370
    25
100
AcDbLine
 10
173.719345373512
 20
73.17180326143795
 30
0.0
 11
173.719345373512
 21
72.90302356640393
 31
0.0
  0
DIMENSION
  5
288
330
1F
100
AcDbEntity
  8
SLD-0
 62
     7
100
AcDbDimension
  2
_D
 10
141.8842269268093
 20
40.15882080356176
 30
0.0
 11
141.8842269268093
 21
57.63628736743595
 31
0.0
 70
   160
  1
<>
 71
     2
 42
34.93068144834624
  3
DATASHEET
100
AcDbAlignedDimension
 13
175.0293468958258
 23
75.08950225190798
 33
0.0
 14
163.025948000551
 24
40.15882080356175
 34
0.0
 50
90.0
100
AcDbRotatedDimension
1001
ACAD
1000
DSTYLE
1002
{
1070
   179
1070
     1
1002
}
  0
DIMENSION
  5
294
330
1F
100
AcDbEntity
  8
SLD-0
 62
     7
100
AcDbDimension
  2
_D_1
 10
286.0958883751552
 20
27.60228804620871
 30
0.0
 11
221.1018912371097
 21
27.60228804620871
 31
0.0
 70
   160
  1
<>
 71
     2
 42
123.0699414482245
  3
DATASHEET
100
AcDbAlignedDimension
 13
163.0259469269307
 23
40.15882080356175
 33
0.0
 14
286.0958883751552
 24
40.15882080356175
 34
0.0
100
AcDbRotatedDimension
  0
DIMENSION
  5
29F
330
1F
100
AcDbEntity
  8
SLD-0
 62
     7
100
AcDbDimension
  2
_D_2
 10
295.3725496957901
 20
40.15882080356175
 30
0.0
 11
303.3881813465405
 21
48.9026485379188
 31
0.0
 70
   160
  1
<>
 71
     2
 42
0.9016999999999768
  3
DATASHEET
100
AcDbAlignedDimension
 13
286.0958883751552
 23
41.06052080356173
 33
0.0
 14
286.0958883751552
 24
40.15882080356175
 34
0.0
 50
90.0
100
AcDbRotatedDimension
  0
DIMENSION
  5
2AC
330
1F
100
AcDbEntity
  8
SLD-0
 62
     7
100
AcDbDimension
  2
_D_3
 10
277.4999269268092
 20
85.08950225190867
 30
0.0
 11
224.9322037461785
 21
85.08950225190867
 31
0.0
 70
   160
  1
<>
 71
     2
 42
105.837979999887
  3
DATASHEET
100
AcDbAlignedDimension
 13
171.6619469269221
 23
72.3406208035625
 33
0.0
 14
277.4999269268092
 24
73.146402251908
 34
0.0
100
AcDbRotatedDimension
  0
DIMENSION
  5
2B7
330
1F
100
AcDbEntity
  8
SLD-0
 62
     7
100
AcDbDimension
  2
_D_4
 10
286.0958883751552
 20
92.89882018709494
 30
0.0
 11
215.0962295873026
 21
92.89882018709494
 31
0.0
 70
   160
  1
<>
 71
     2
 42
134.2116614483458
  3
DATASHEET
100
AcDbAlignedDimension
 13
151.8842269268093
 23
64.0856208035618
 33
0.0
 14
286.0958883751552
 24
41.06052080356173
 34
0.0
100
AcDbRotatedDimension
  0
LINE
  5
2C2
330
1F
100
AcDbEntity
  8
0
  6
Continuous
 62
     7
370
    25
100
AcDbLine
 10
432.5645669283294
 20
75.08950075069958
 30
0.0
 11
434.088568288269
 21
75.08950075069958
 31
0.0
  0
LINE
  5
2C3
330
1F
100
AcDbEntity
  8
0
  6
Continuous
 62
     7
370
    25
100
AcDbLine
 10
434.088568288269
 20
75.08950075069958
 30
0.0
 11
434.088568288269
 21
74.83550300756985
 31
0.0
  0
LINE
  5
2C4
330
1F
100
AcDbEntity
  8
0
  6
Continuous
 62
     7
370
    25
100
AcDbLine
 10
359.4125687064551
 20
75.08950075069958
 30
0.0
 11
432.5645669283294
 21
75.08950075069958
 31
0.0
  0
LINE
  5
2C5
330
1F
100
AcDbEntity
  8
0
  6
Continuous
 62
     7
370
    25
100
AcDbLine
 10
357.8885673465156
 20
75.08950075069958
 30
0.0
 11
357.8885673465156
 21
74.83550300756985
 31
0.0
  0
LINE
  5
2C6
330
1F
100
AcDbEntity
  8
0
  6
Continuous
 62
     7
370
    25
100
AcDbLine
 10
357.8885673465156
 20
75.08950075069958
 30
0.0
 11
359.4125687064551
 21
75.08950075069958
 31
0.0
  0
LINE
  5
2C7
330
1F
100
AcDbEntity
  8
0
  6
Continuous
 62
     7
370
    25
100
AcDbLine
 10
429.7705694021606
 20
43.27028081687683
 30
0.0
 11
429.7705694021606
 21
44.85782096097762
 31
0.0
  0
ARC
  5
2C8
330
1F
100
AcDbEntity
  8
0
  6
Continuous
 62
     7
370
    25
100
AcDbCircle
 10
428.7545678173922
 20
43.27028092707317
 30
0.0
 40
1.016000000000019
100
AcDbArc
 50
270.0000000000008
 51
0.0
  0
LINE
  5
2C9
330
1F
100
AcDbEntity
  8
0
  6
Continuous
 62
     7
370
    25
100
AcDbLine
 10
363.2225683810138
 20
42.25428099679345
 30
0.0
 11
428.7545672537707
 21
42.25428099679345
 31
0.0
  0
ARC
  5
2CA
330
1F
100
AcDbEntity
  8
0
  6
Continuous
 62
     7
370
    25
100
AcDbCircle
 10
363.2225678173922
 20
43.27028092707317
 30
0.0
 40
1.016000000000019
100
AcDbArc
 50
180.0
 51
270.0000000000008
  0
LINE
  5
2CB
330
1F
100
AcDbEntity
  8
0
  6
Continuous
 62
     7
370
    25
100
AcDbLine
 10
362.206566232624
 20
44.85782096097762
 30
0.0
 11
362.206566232624
 21
43.27028081687683
 31
0.0
  0
ARC
  5
2CC
330
1F
100
AcDbEntity
  8
0
  6
Continuous
 62
     7
370
    25
100
AcDbCircle
 10
359.6665678173922
 20
44.85782080356059
 30
0.0
 40
2.54000000000002
100
AcDbArc
 50
0.0
 51
90.0
  0
LINE
  5
2CD
330
1F
100
AcDbEntity
  8
0
  6
Continuous
 62
     7
370
    25
100
AcDbLine
 10
358.9045694949054
 20
47.39782074401671
 30
0.0
 11
359.6665664495849
 21
47.39782074401671
 31
0.0
  0
ARC
  5
2CE
330
1F
100
AcDbEntity
  8
0
  6
Continuous
 62
     7
370
    25
100
AcDbCircle
 10
358.9045678173922
 20
48.41382080356058
 30
0.0
 40
1.016000000000019
100
AcDbArc
 50
179.9999999999984
 51
270.0000000000008
  0
LINE
  5
2CF
330
1F
100
AcDbEntity
  8
0
  6
Continuous
 62
     7
370
    25
100
AcDbLine
 10
357.8885673465156
 20
71.71828066865498
 30
0.0
 11
357.8885673465156
 21
48.41382102976138
 31
0.0
  0
ARC
  5
2D0
330
1F
100
AcDbEntity
  8
0
  6
Continuous
 62
     7
370
    25
100
AcDbCircle
 10
358.9045678173922
 20
71.71828092707312
 30
0.0
 40
1.016000000000019
100
AcDbArc
 50
90.0
 51
180.0
  0
LINE
  5
2D1
330
1F
100
AcDbEntity
  8
0
  6
Continuous
 62
     7
370
    25
100
AcDbLine
 10
433.0725661398791
 20
72.7342790917545
 30
0.0
 11
358.9045694949054
 21
72.7342790917545
 31
0.0
  0
ARC
  5
2D2
330
1F
100
AcDbEntity
  8
0
  6
Continuous
 62
     7
370
    25
100
AcDbCircle
 10
433.0725678173921
 20
71.71828092707312
 30
0.0
 40
1.016000000000019
100
AcDbArc
 50
359.9999999999992
 51
90.0
  0
LINE
  5
2D3
330
1F
100
AcDbEntity
  8
0
  6
Continuous
 62
     7
370
    25
100
AcDbLine
 10
434.088568288269
 20
48.41382102976138
 30
0.0
 11
434.088568288269
 21
71.71828066865498
 31
0.0
  0
ARC
  5
2D4
330
1F
100
AcDbEntity
  8
0
  6
Continuous
 62
     7
370
    25
100
AcDbCircle
 10
433.0725678173921
 20
48.41382080356055
 30
0.0
 40
1.016000000000019
100
AcDbArc
 50
270.0000000000008
 51
0.0
  0
LINE
  5
2D5
330
1F
100
AcDbEntity
  8
0
  6
Continuous
 62
     7
370
    25
100
AcDbLine
 10
432.3105691851997
 20
47.39782074401671
 30
0.0
 11
433.0725661398791
 21
47.39782074401671
 31
0.0
  0
ARC
  5
2D6
330
1F
100
AcDbEntity
  8
0
  6
Continuous
 62
     7
370
    25
100
AcDbCircle
 10
432.3105678173921
 20
44.85782080356059
 30
0.0
 40
2.54000000000002
100
AcDbArc
 50
90.0
 51
179.9999999999994
  0
LINE
  5
2D7
330
1F
100
AcDbEntity
  8
0
  6
Continuous
 62
     7
370
    25
100
AcDbLine
 10
415.8038805158757
 20
48.08362061093146
 30
0.0
 11
415.8038805158757
 21
61.79962074319417
 31
0.0
  0
LINE
  5
2D8
330
1F
100
AcDbEntity
  8
0
  6
Continuous
 62
     7
370
    25
100
AcDbLine
 10
415.8038805158757
 20
61.79962074319417
 30
0.0
 11
414.0225267888927
 21
61.79962074319417
 31
0.0
  0
LINE
  5
2D9
330
1F
100
AcDbEntity
  8
0
  6
Continuous
 62
     7
370
    25
100
AcDbLine
 10
400.8145272651636
 20
61.79962074319417
 30
0.0
 11
399.0398799920403
 21
61.79962074319417
 31
0.0
  0
LINE
  5
2DA
330
1F
100
AcDbEntity
  8
0
  6
Continuous
 62
     7
370
    25
100
AcDbLine
 10
399.0398799920403
 20
61.79962074319417
 30
0.0
 11
399.0398799920403
 21
48.08362061093146
 31
0.0
  0
LINE
  5
2DB
330
1F
100
AcDbEntity
  8
0
  6
Continuous
 62
     7
370
    25
100
AcDbLine
 10
399.0398799920403
 20
48.08362061093146
 30
0.0
 11
399.2905270693772
 21
48.08362061093146
 31
0.0
  0
LINE
  5
2DC
330
1F
100
AcDbEntity
  8
0
  6
Continuous
 62
     7
370
    25
100
AcDbLine
 10
415.5465262861871
 20
48.08362061093146
 30
0.0
 11
415.8038805158757
 21
48.08362061093146
 31
0.0
  0
CIRCLE
  5
2DD
330
1F
100
AcDbEntity
  8
0
  6
Continuous
 62
     7
370
    25
100
AcDbCircle
 10
422.6585678174425
 20
51.74122080355977
 30
0.0
 40
1.04140000000001
  0
LINE
  5
2DE
330
1F
100
AcDbEntity
  8
0
  6
Continuous
 62
     7
370
    25
100
AcDbLine
 10
432.8500135721587
 20
43.82383311102683
 30
0.0
 11
433.4757505835914
 21
44.80800172249371
 31
0.0
  0
LINE
  5
2DF
330
1F
100
AcDbEntity
  8
0
  6
Continuous
 62
     7
370
    25
100
AcDbLine
 10
433.4757505835914
 20
44.80800172249371
 30
0.0
 11
432.936302471342
 21
45.84198910678321
 31
0.0
  0
LINE
  5
2E0
330
1F
100
AcDbEntity
  8
0
  6
Continuous
 62
     7
370
    25
100
AcDbLine
 10
432.936302471342
 20
45.84198910678321
 30
0.0
 11
431.7711210729503
 21
45.89180834526712
 31
0.0
  0
LINE
  5
2E1
330
1F
100
AcDbEntity
  8
0
  6
Continuous
 62
     7
370
    25
100
AcDbLine
 10
431.7711210729503
 20
45.89180834526712
 30
0.0
 11
431.1453840615176
 21
44.90764019946152
 31
0.0
  0
LINE
  5
2E2
330
1F
100
AcDbEntity
  8
0
  6
Continuous
 62
     7
370
    25
100
AcDbLine
 10
431.1453840615176
 20
44.90764019946152
 30
0.0
 11
431.684832173767
 21
43.87365234951073
 31
0.0
  0
LINE
  5
2E3
330
1F
100
AcDbEntity
  8
0
  6
Continuous
 62
     7
370
    25
100
AcDbLine
 10
431.684832173767
 20
43.87365234951073
 30
0.0
 11
432.8500135721587
 21
43.82383311102683
 31
0.0
  0
CIRCLE
  5
2E4
330
1F
100
AcDbEntity
  8
0
  6
Continuous
 62
     7
370
    25
100
AcDbCircle
 10
432.3105678173922
 20
44.85782080356179
 30
0.0
 40
2.049999999999974
  0
CIRCLE
  5
2E5
330
1F
100
AcDbEntity
  8
0
  6
Continuous
 62
     7
370
    25
100
AcDbCircle
 10
432.3105678173922
 20
44.85782080356179
 30
0.0
 40
2.249999999999962
  0
LINE
  5
2E6
330
1F
100
AcDbEntity
  8
0
  6
Continuous
 62
     7
370
    25
100
AcDbLine
 10
360.0182673813724
 20
43.74586767452353
 30
0.0
 11
360.8053988696956
 21
44.60642673010522
 31
0.0
  0
LINE
  5
2E7
330
1F
100
AcDbEntity
  8
0
  6
Continuous
 62
     7
370
    25
100
AcDbLine
 10
360.8053988696956
 20
44.60642673010522
 30
0.0
 11
360.4536979379081
 21
45.71837978372866
 31
0.0
  0
LINE
  5
2E8
330
1F
100
AcDbEntity
  8
0
  6
Continuous
 62
     7
370
    25
100
AcDbLine
 10
360.4536979379081
 20
45.71837978372866
 30
0.0
 11
359.3148655177974
 21
45.96977401460105
 31
0.0
  0
LINE
  5
2E9
330
1F
100
AcDbEntity
  8
0
  6
Continuous
 62
     7
370
    25
100
AcDbLine
 10
359.3148655177974
 20
45.96977401460105
 30
0.0
 11
358.5277377547645
 21
45.10921519185001
 31
0.0
  0
LINE
  5
2EA
330
1F
100
AcDbEntity
  8
0
  6
Continuous
 62
     7
370
    25
100
AcDbLine
 10
358.5277377547645
 20
45.10921519185001
 30
0.0
 11
358.879438686552
 21
43.99726213822657
 31
0.0
  0
LINE
  5
2EB
330
1F
100
AcDbEntity
  8
0
  6
Continuous
 62
     7
370
    25
100
AcDbLine
 10
358.879438686552
 20
43.99726213822657
 30
0.0
 11
360.0182673813724
 21
43.74586767452353
 31
0.0
  0
CIRCLE
  5
2EC
330
1F
100
AcDbEntity
  8
0
  6
Continuous
 62
     7
370
    25
100
AcDbCircle
 10
359.6665678173923
 20
44.85782080356179
 30
0.0
 40
2.049999999999982
  0
CIRCLE
  5
2ED
330
1F
100
AcDbEntity
  8
0
  6
Continuous
 62
     7
370
    25
100
AcDbCircle
 10
359.6665678173922
 20
44.85782080356179
 30
0.0
 40
2.250000000000065
  0
LINE
  5
2EE
330
1F
100
AcDbEntity
  8
0
  6
Continuous
 62
     7
370
    25
100
AcDbLine
 10
415.8038805158757
 20
51.08082061568791
 30
0.0
 11
415.5465262861871
 21
51.08082061568791
 31
0.0
  0
LINE
  5
2EF
330
1F
100
AcDbEntity
  8
0
  6
Continuous
 62
     7
370
    25
100
AcDbLine
 10
399.2804077839427
 20
51.76662048260266
 30
0.0
 11
399.2905270693772
 21
51.76662048260266
 31
0.0
  0
LINE
  5
2F0
330
1F
100
AcDbEntity
  8
0
  6
Continuous
 62
     7
370
    25
100
AcDbLine
 10
399.2804077839427
 20
50.69982120702559
 30
0.0
 11
399.2804077839427
 21
51.76662048260266
 31
0.0
  0
LINE
  5
2F1
330
1F
100
AcDbEntity
  8
0
  6
Continuous
 62
     7
370
    25
100
AcDbLine
 10
415.8038805158757
 20
53.620820398727
 30
0.0
 11
415.5465262861871
 21
53.620820398727
 31
0.0
  0
LINE
  5
2F2
330
1F
100
AcDbEntity
  8
0
  6
Continuous
 62
     7
370
    25
100
AcDbLine
 10
399.2905270693772
 20
53.620820398727
 30
0.0
 11
399.0398799920403
 21
53.620820398727
 31
0.0
  0
LINE
  5
2F3
330
1F
100
AcDbEntity
  8
0
  6
Continuous
 62
     7
370
    25
100
AcDbLine
 10
399.2804077839427
 20
51.48722091625029
 30
0.0
 11
399.2905270693772
 21
51.48722091625029
 31
0.0
  0
ARC
  5
2F4
330
1F
100
AcDbEntity
  8
0
  6
Continuous
 62
     7
370
    25
100
AcDbCircle
 10
418.6453678173922
 20
56.97362080356175
 30
0.0
 40
3.022600000000024
100
AcDbArc
 50
160.0651086755199
 51
199.9348913244809
  0
ARC
  5
2F5
330
1F
100
AcDbEntity
  8
0
  6
Continuous
 62
     7
370
    25
100
AcDbCircle
 10
370.5885678173922
 20
59.08182080356155
 30
0.0
 40
3.460750000000019
100
AcDbArc
 50
290.3452445343394
 51
249.6547554656605
  0
LINE
  5
2F6
330
1F
100
AcDbEntity
  8
0
  6
Continuous
 62
     7
370
    25
100
AcDbLine
 10
371.7917884619855
 20
55.83697138289505
 30
0.0
 11
369.3853477867269
 21
55.83697138289505
 31
0.0
  0
CIRCLE
  5
2F7
330
1F
100
AcDbEntity
  8
0
  6
Continuous
 62
     7
370
    25
100
AcDbCircle
 10
370.5885678173922
 20
59.08182080356155
 30
0.0
 40
2.587400602140689
  0
SPLINE
  5
2F8
330
1F
100
AcDbEntity
  8
0
  6
Continuous
 62
     7
370
    25
100
AcDbSpline
210
0.0
220
0.0
230
1.0
 70
    24
 71
     3
 72
     9
 73
     5
 74
     0
 42
0.0000000001
 43
0.0000000001
 40
0.0
 40
0.0
 40
0.0
 40
0.0
 40
0.4648276983721485
 40
1.0
 40
1.0
 40
1.0
 40
1.0
 10
369.3853477867269
 20
55.83697138289505
 30
0.0
 10
369.2120733390971
 20
55.83697138289505
 30
0.0
 10
368.8393019912697
 20
55.83697138289505
 30
0.0
 10
368.4902294213265
 20
55.83697138289505
 30
0.0
 10
368.3034154506349
 20
55.83697138289505
 30
0.0
  0
ARC
  5
2F9
330
1F
100
AcDbEntity
  8
0
  6
Continuous
 62
     7
370
    25
100
AcDbCircle
 10
370.5885678173922
 20
59.08182080356159
 30
0.0
 40
3.968750000000034
100
AcDbArc
 50
305.1547388047351
 51
234.8452611952651
  0
LINE
  5
2FA
330
1F
100
AcDbEntity
  8
0
  6
Continuous
 62
     7
370
    25
100
AcDbLine
 10
372.8737207980775
 20
55.83697138289505
 30
0.0
 11
371.7917884619855
 21
55.83697138289505
 31
0.0
  0
CIRCLE
  5
2FB
330
1F
100
AcDbEntity
  8
0
  6
Continuous
 62
     7
370
    25
100
AcDbCircle
 10
370.5885678173922
 20
59.08182080356159
 30
0.0
 40
1.104742089211185
  0
CIRCLE
  5
2FC
330
1F
100
AcDbEntity
  8
0
  6
Continuous
 62
     7
370
    25
100
AcDbCircle
 10
370.5885678173922
 20
59.08182080356159
 30
0.0
 40
1.269999999999981
  0
LINE
  5
2FD
330
1F
100
AcDbEntity
  8
0
  6
Continuous
 62
     7
370
    25
100
AcDbLine
 10
415.8038805158757
 20
50.69982120702559
 30
0.0
 11
415.5465262861871
 21
50.69982120702559
 31
0.0
  0
LINE
  5
2FE
330
1F
100
AcDbEntity
  8
0
  6
Continuous
 62
     7
370
    25
100
AcDbLine
 10
415.5465262861871
 20
49.11232041130358
 30
0.0
 11
415.8038805158757
 21
49.11232041130358
 31
0.0
  0
LINE
  5
2FF
330
1F
100
AcDbEntity
  8
0
  6
Continuous
 62
     7
370
    25
100
AcDbLine
 10
399.2905270693772
 20
50.69982120702559
 30
0.0
 11
399.0398799920403
 21
50.69982120702559
 31
0.0
  0
LINE
  5
300
330
1F
100
AcDbEntity
  8
0
  6
Continuous
 62
     7
370
    25
100
AcDbLine
 10
399.0398799920403
 20
49.11232041130358
 30
0.0
 11
399.2905270693772
 21
49.11232041130358
 31
0.0
  0
LINE
  5
301
330
1F
100
AcDbEntity
  8
0
  6
Continuous
 62
     7
370
    25
100
AcDbLine
 10
399.0398799920403
 20
54.76082069734627
 30
0.0
 11
399.2905270693772
 21
54.76082069734627
 31
0.0
  0
LINE
  5
302
330
1F
100
AcDbEntity
  8
0
  6
Continuous
 62
     7
370
    25
100
AcDbLine
 10
399.0398799920403
 20
54.06082095513636
 30
0.0
 11
399.2905270693772
 21
54.06082095513636
 31
0.0
  0
LINE
  5
303
330
1F
100
AcDbEntity
  8
0
  6
Continuous
 62
     7
370
    25
100
AcDbLine
 10
404.4467267500185
 20
62.12982116202408
 30
0.0
 11
404.4467267500185
 21
60.68202061513955
 31
0.0
  0
LINE
  5
304
330
1F
100
AcDbEntity
  8
0
  6
Continuous
 62
     7
370
    25
100
AcDbLine
 10
404.4467267500185
 20
60.68202061513955
 30
0.0
 11
401.4749271715008
 21
60.68202061513955
 31
0.0
  0
LINE
  5
305
330
1F
100
AcDbEntity
  8
0
  6
Continuous
 62
     7
370
    25
100
AcDbLine
 10
401.4749271715008
 20
60.68202061513955
 30
0.0
 11
401.4749271715008
 21
50.3188208670407
 31
0.0
  0
LINE
  5
306
330
1F
100
AcDbEntity
  8
0
  6
Continuous
 62
     7
370
    25
100
AcDbLine
 10
401.4749271715008
 20
50.3188208670407
 30
0.0
 11
413.362127813878
 21
50.3188208670407
 31
0.0
  0
LINE
  5
307
330
1F
100
AcDbEntity
  8
0
  6
Continuous
 62
     7
370
    25
100
AcDbLine
 10
413.362127813878
 20
50.3188208670407
 30
0.0
 11
413.362127813878
 21
60.68202061513955
 31
0.0
  0
LINE
  5
308
330
1F
100
AcDbEntity
  8
0
  6
Continuous
 62
     7
370
    25
100
AcDbLine
 10
413.362127813878
 20
60.68202061513955
 30
0.0
 11
410.3903268383764
 21
60.68202061513955
 31
0.0
  0
LINE
  5
309
330
1F
100
AcDbEntity
  8
0
  6
Continuous
 62
     7
370
    25
100
AcDbLine
 10
410.3903268383764
 20
60.68202061513955
 30
0.0
 11
410.3903268383764
 21
62.12982116202408
 31
0.0
  0
LINE
  5
30A
330
1F
100
AcDbEntity
  8
0
  6
Continuous
 62
     7
370
    25
100
AcDbLine
 10
410.3903268383764
 20
62.12982116202408
 30
0.0
 11
414.0225267888927
 21
62.12982116202408
 31
0.0
  0
LINE
  5
30B
330
1F
100
AcDbEntity
  8
0
  6
Continuous
 62
     7
370
    25
100
AcDbLine
 10
414.0225267888927
 20
61.74882082203919
 30
0.0
 11
414.0225267888927
 21
62.12982116202408
 31
0.0
  0
LINE
  5
30C
330
1F
100
AcDbEntity
  8
0
  6
Continuous
 62
     7
370
    25
100
AcDbLine
 10
414.0225267888927
 20
61.74882082203919
 30
0.0
 11
415.5465262861871
 21
61.74882082203919
 31
0.0
  0
LINE
  5
30D
330
1F
100
AcDbEntity
  8
0
  6
Continuous
 62
     7
370
    25
100
AcDbLine
 10
415.5465262861871
 20
47.90582088688904
 30
0.0
 11
415.5465262861871
 21
61.74882082203919
 31
0.0
  0
LINE
  5
30E
330
1F
100
AcDbEntity
  8
0
  6
Continuous
 62
     7
370
    25
100
AcDbLine
 10
415.5465262861871
 20
47.90582088688904
 30
0.0
 11
399.2905270693772
 21
47.90582088688904
 31
0.0
  0
LINE
  5
30F
330
1F
100
AcDbEntity
  8
0
  6
Continuous
 62
     7
370
    25
100
AcDbLine
 10
399.2905270693772
 20
47.90582088688904
 30
0.0
 11
399.2905270693772
 21
61.74882082203919
 31
0.0
  0
LINE
  5
310
330
1F
100
AcDbEntity
  8
0
  6
Continuous
 62
     7
370
    25
100
AcDbLine
 10
399.2905270693772
 20
61.74882082203919
 30
0.0
 11
400.8145272651636
 21
61.74882082203919
 31
0.0
  0
LINE
  5
311
330
1F
100
AcDbEntity
  8
0
  6
Continuous
 62
     7
370
    25
100
AcDbLine
 10
400.8145272651636
 20
61.74882082203919
 30
0.0
 11
400.8145272651636
 21
62.12982116202408
 31
0.0
  0
LINE
  5
312
330
1F
100
AcDbEntity
  8
0
  6
Continuous
 62
     7
370
    25
100
AcDbLine
 10
400.8145272651636
 20
62.12982116202408
 30
0.0
 11
404.4467267500185
 21
62.12982116202408
 31
0.0
  0
LINE
  5
313
330
1F
100
AcDbEntity
  8
0
  6
Continuous
 62
     7
370
    25
100
AcDbLine
 10
410.6189274148964
 20
58.65002004365021
 30
0.0
 11
413.362127813878
 21
58.65002004365021
 31
0.0
  0
LINE
  5
314
330
1F
100
AcDbEntity
  8
0
  6
Continuous
 62
     7
370
    25
100
AcDbLine
 10
410.6189274148964
 20
60.68202061513955
 30
0.0
 11
410.6189274148964
 21
58.65002004365021
 31
0.0
  0
LINE
  5
315
330
1F
100
AcDbEntity
  8
0
  6
Continuous
 62
     7
370
    25
100
AcDbLine
 10
410.3903268383764
 20
61.74882082203919
 30
0.0
 11
404.4467267500185
 21
61.74882082203919
 31
0.0
  0
LINE
  5
316
330
1F
100
AcDbEntity
  8
0
  6
Continuous
 62
     7
370
    25
100
AcDbLine
 10
404.4467267500185
 20
60.68202061513955
 30
0.0
 11
410.3903268383764
 21
60.68202061513955
 31
0.0
  0
LINE
  5
317
330
1F
100
AcDbEntity
  8
0
  6
Continuous
 62
     7
370
    25
100
AcDbLine
 10
404.2181271048211
 20
58.65002004365021
 30
0.0
 11
404.2181271048211
 21
60.68202061513955
 31
0.0
  0
LINE
  5
318
330
1F
100
AcDbEntity
  8
0
  6
Continuous
 62
     7
370
    25
100
AcDbLine
 10
401.4749271715008
 20
58.65002004365021
 30
0.0
 11
404.2181271048211
 21
58.65002004365021
 31
0.0
  0
LINE
  5
319
330
1F
100
AcDbEntity
  8
0
  6
Continuous
 62
     7
370
    25
100
AcDbLine
 10
410.6570268901013
 20
57.93882114748055
 30
0.0
 11
413.362127813878
 21
57.93882114748055
 31
0.0
  0
LINE
  5
31A
330
1F
100
AcDbEntity
  8
0
  6
Continuous
 62
     7
370
    25
100
AcDbLine
 10
410.6570268901013
 20
57.93882114748055
 30
0.0
 11
410.6570268901013
 21
58.65002004365021
 31
0.0
  0
LINE
  5
31B
330
1F
100
AcDbEntity
  8
0
  6
Continuous
 62
     7
370
    25
100
AcDbLine
 10
404.4467267500185
 20
62.12982116202408
 30
0.0
 11
410.3903268383764
 21
62.12982116202408
 31
0.0
  0
LINE
  5
31C
330
1F
100
AcDbEntity
  8
0
  6
Continuous
 62
     7
370
    25
100
AcDbLine
 10
404.1800276296162
 20
57.93882114748055
 30
0.0
 11
401.4749271715008
 21
57.93882114748055
 31
0.0
  0
LINE
  5
31D
330
1F
100
AcDbEntity
  8
0
  6
Continuous
 62
     7
370
    25
100
AcDbLine
 10
404.1800276296162
 20
57.93882114748055
 30
0.0
 11
404.1800276296162
 21
58.65002004365021
 31
0.0
  0
LINE
  5
31E
330
1F
100
AcDbEntity
  8
0
  6
Continuous
 62
     7
370
    25
100
AcDbLine
 10
399.0398799920403
 20
61.74882082203919
 30
0.0
 11
399.2905270693772
 21
61.74882082203919
 31
0.0
  0
LINE
  5
31F
330
1F
100
AcDbEntity
  8
0
  6
Continuous
 62
     7
370
    25
100
AcDbLine
 10
415.5465262861871
 20
61.74882082203919
 30
0.0
 11
415.8038805158757
 21
61.74882082203919
 31
0.0
  0
LINE
  5
320
330
1F
100
AcDbEntity
  8
0
  6
Continuous
 62
     7
370
    25
100
AcDbLine
 10
410.7713271783613
 20
53.620820398727
 30
0.0
 11
410.7713271783613
 21
50.3188208670407
 31
0.0
  0
LINE
  5
321
330
1F
100
AcDbEntity
  8
0
  6
Continuous
 62
     7
370
    25
100
AcDbLine
 10
410.7713271783613
 20
53.620820398727
 30
0.0
 11
411.2183676021122
 21
53.620820398727
 31
0.0
  0
LINE
  5
322
330
1F
100
AcDbEntity
  8
0
  6
Continuous
 62
     7
370
    25
100
AcDbLine
 10
411.2183676021122
 20
50.3188208670407
 30
0.0
 11
411.2183676021122
 21
53.620820398727
 31
0.0
  0
LINE
  5
323
330
1F
100
AcDbEntity
  8
0
  6
Continuous
 62
     7
370
    25
100
AcDbLine
 10
407.1950075136446
 20
53.620820398727
 30
0.0
 11
407.1950075136446
 21
50.3188208670407
 31
0.0
  0
LINE
  5
324
330
1F
100
AcDbEntity
  8
0
  6
Continuous
 62
     7
370
    25
100
AcDbLine
 10
407.1950075136446
 20
53.620820398727
 30
0.0
 11
407.6420470060729
 21
53.620820398727
 31
0.0
  0
LINE
  5
325
330
1F
100
AcDbEntity
  8
0
  6
Continuous
 62
     7
370
    25
100
AcDbLine
 10
407.6420470060729
 20
50.3188208670407
 30
0.0
 11
407.6420470060729
 21
53.620820398727
 31
0.0
  0
LINE
  5
326
330
1F
100
AcDbEntity
  8
0
  6
Continuous
 62
     7
370
    25
100
AcDbLine
 10
409.8772472621821
 20
53.620820398727
 30
0.0
 11
409.8772472621821
 21
50.3188208670407
 31
0.0
  0
LINE
  5
327
330
1F
100
AcDbEntity
  8
0
  6
Continuous
 62
     7
370
    25
100
AcDbLine
 10
409.8772472621821
 20
53.620820398727
 30
0.0
 11
410.3242867546105
 21
53.620820398727
 31
0.0
  0
LINE
  5
328
330
1F
100
AcDbEntity
  8
0
  6
Continuous
 62
     7
370
    25
100
AcDbLine
 10
410.3242867546105
 20
50.3188208670407
 30
0.0
 11
410.3242867546105
 21
53.620820398727
 31
0.0
  0
LINE
  5
329
330
1F
100
AcDbEntity
  8
0
  6
Continuous
 62
     7
370
    25
100
AcDbLine
 10
408.983167346003
 20
53.620820398727
 30
0.0
 11
408.983167346003
 21
50.3188208670407
 31
0.0
  0
LINE
  5
32A
330
1F
100
AcDbEntity
  8
0
  6
Continuous
 62
     7
370
    25
100
AcDbLine
 10
408.983167346003
 20
53.620820398727
 30
0.0
 11
409.4302068384313
 21
53.620820398727
 31
0.0
  0
LINE
  5
32B
330
1F
100
AcDbEntity
  8
0
  6
Continuous
 62
     7
370
    25
100
AcDbLine
 10
409.4302068384313
 20
50.3188208670407
 30
0.0
 11
409.4302068384313
 21
53.620820398727
 31
0.0
  0
LINE
  5
32C
330
1F
100
AcDbEntity
  8
0
  6
Continuous
 62
     7
370
    25
100
AcDbLine
 10
408.0890874298238
 20
53.620820398727
 30
0.0
 11
408.0890874298238
 21
50.3188208670407
 31
0.0
  0
LINE
  5
32D
330
1F
100
AcDbEntity
  8
0
  6
Continuous
 62
     7
370
    25
100
AcDbLine
 10
408.0890874298238
 20
53.620820398727
 30
0.0
 11
408.5361269222521
 21
53.620820398727
 31
0.0
  0
LINE
  5
32E
330
1F
100
AcDbEntity
  8
0
  6
Continuous
 62
     7
370
    25
100
AcDbLine
 10
408.5361269222521
 20
50.3188208670407
 30
0.0
 11
408.5361269222521
 21
53.620820398727
 31
0.0
  0
LINE
  5
32F
330
1F
100
AcDbEntity
  8
0
  6
Continuous
 62
     7
370
    25
100
AcDbLine
 10
405.4068467499637
 20
53.620820398727
 30
0.0
 11
405.8538871737146
 21
53.620820398727
 31
0.0
  0
LINE
  5
330
330
1F
100
AcDbEntity
  8
0
  6
Continuous
 62
     7
370
    25
100
AcDbLine
 10
405.8538871737146
 20
50.3188208670407
 30
0.0
 11
405.8538871737146
 21
53.620820398727
 31
0.0
  0
LINE
  5
331
330
1F
100
AcDbEntity
  8
0
  6
Continuous
 62
     7
370
    25
100
AcDbLine
 10
405.4068467499637
 20
53.620820398727
 30
0.0
 11
405.4068467499637
 21
50.3188208670407
 31
0.0
  0
LINE
  5
332
330
1F
100
AcDbEntity
  8
0
  6
Continuous
 62
     7
370
    25
100
AcDbLine
 10
406.3009275974654
 20
53.620820398727
 30
0.0
 11
406.7479670898937
 21
53.620820398727
 31
0.0
  0
LINE
  5
333
330
1F
100
AcDbEntity
  8
0
  6
Continuous
 62
     7
370
    25
100
AcDbLine
 10
406.3009275974654
 20
53.620820398727
 30
0.0
 11
406.3009275974654
 21
50.3188208670407
 31
0.0
  0
LINE
  5
334
330
1F
100
AcDbEntity
  8
0
  6
Continuous
 62
     7
370
    25
100
AcDbLine
 10
406.7479670898937
 20
50.3188208670407
 30
0.0
 11
406.7479670898937
 21
53.620820398727
 31
0.0
  0
LINE
  5
335
330
1F
100
AcDbEntity
  8
0
  6
Continuous
 62
     7
370
    25
100
AcDbLine
 10
404.5127668337845
 20
53.620820398727
 30
0.0
 11
404.5127668337845
 21
50.3188208670407
 31
0.0
  0
LINE
  5
336
330
1F
100
AcDbEntity
  8
0
  6
Continuous
 62
     7
370
    25
100
AcDbLine
 10
404.5127668337845
 20
53.620820398727
 30
0.0
 11
404.9598072575354
 21
53.620820398727
 31
0.0
  0
LINE
  5
337
330
1F
100
AcDbEntity
  8
0
  6
Continuous
 62
     7
370
    25
100
AcDbLine
 10
404.9598072575354
 20
50.3188208670407
 30
0.0
 11
404.9598072575354
 21
53.620820398727
 31
0.0
  0
LINE
  5
338
330
1F
100
AcDbEntity
  8
0
  6
Continuous
 62
     7
370
    25
100
AcDbLine
 10
404.0657273413562
 20
53.620820398727
 30
0.0
 11
404.0657273413562
 21
50.3188208670407
 31
0.0
  0
LINE
  5
339
330
1F
100
AcDbEntity
  8
0
  6
Continuous
 62
     7
370
    25
100
AcDbLine
 10
403.6186873832666
 20
50.3188208670407
 30
0.0
 11
403.6186873832666
 21
53.620820398727
 31
0.0
  0
LINE
  5
33A
330
1F
100
AcDbEntity
  8
0
  6
Continuous
 62
     7
370
    25
100
AcDbLine
 10
403.6186873832666
 20
53.620820398727
 30
0.0
 11
404.0657273413562
 21
53.620820398727
 31
0.0
  0
LINE
  5
33B
330
1F
100
AcDbEntity
  8
0
  6
Continuous
 62
     7
370
    25
100
AcDbLine
 10
410.6570268901013
 20
56.92282086173588
 30
0.0
 11
413.362127813878
 21
56.92282086173588
 31
0.0
  0
LINE
  5
33C
330
1F
100
AcDbEntity
  8
0
  6
Continuous
 62
     7
370
    25
100
AcDbLine
 10
410.6570268901013
 20
57.93882114748055
 30
0.0
 11
410.6570268901013
 21
56.92282086173588
 31
0.0
  0
LINE
  5
33D
330
1F
100
AcDbEntity
  8
0
  6
Continuous
 62
     7
370
    25
100
AcDbLine
 10
404.1800276296162
 20
56.92282086173588
 30
0.0
 11
401.4749271715008
 21
56.92282086173588
 31
0.0
  0
LINE
  5
33E
330
1F
100
AcDbEntity
  8
0
  6
Continuous
 62
     7
370
    25
100
AcDbLine
 10
404.1800276296162
 20
56.92282086173588
 30
0.0
 11
404.1800276296162
 21
57.93882114748055
 31
0.0
  0
LINE
  5
33F
330
1F
100
AcDbEntity
  8
0
  6
Continuous
 62
     7
370
    25
100
AcDbLine
 10
415.5465262861871
 20
60.49882015148694
 30
0.0
 11
415.8038805158757
 21
60.49882015148694
 31
0.0
  0
LINE
  5
340
330
1F
100
AcDbEntity
  8
0
  6
Continuous
 62
     7
370
    25
100
AcDbLine
 10
399.2232695141756
 20
60.49882015148694
 30
0.0
 11
399.2232695141756
 21
61.74882082203919
 31
0.0
  0
LINE
  5
341
330
1F
100
AcDbEntity
  8
0
  6
Continuous
 62
     7
370
    25
100
AcDbLine
 10
399.2232695141756
 20
60.49882015148694
 30
0.0
 11
399.2905270693772
 21
60.49882015148694
 31
0.0
  0
LINE
  5
342
330
1F
100
AcDbEntity
  8
0
  6
Continuous
 62
     7
370
    25
100
AcDbLine
 10
399.0398799920403
 20
60.49882015148694
 30
0.0
 11
399.2232695141756
 21
60.49882015148694
 31
0.0
  0
LINE
  5
343
330
1F
100
AcDbEntity
  8
0
  6
Continuous
 62
     7
370
    25
100
AcDbLine
 10
415.8038805158757
 20
60.36882055858666
 30
0.0
 11
415.5465262861871
 21
60.36882055858666
 31
0.0
  0
CIRCLE
  5
344
330
1F
100
AcDbEntity
  8
0
  6
Continuous
 62
     7
370
    25
100
AcDbCircle
 10
370.5885678173922
 20
59.08182080356167
 30
0.0
 40
4.566267223518963
  0
ARC
  5
345
330
1F
100
AcDbEntity
  8
0
  6
Continuous
 62
     7
370
    25
100
AcDbCircle
 10
370.5885678173922
 20
59.08182080356167
 30
0.0
 40
3.454400000000006
100
AcDbArc
 50
249.9407170102266
 51
289.9916843071712
  0
SPLINE
  5
346
330
1F
100
AcDbEntity
  8
0
  6
Continuous
 62
     7
370
    25
100
AcDbSpline
210
0.0
220
0.0
230
1.0
 70
    24
 71
     3
 72
    10
 73
     6
 74
     0
 42
0.0000000001
 43
0.0000000001
 40
0.0
 40
0.0
 40
0.0
 40
0.0
 40
0.1270015127495856
 40
0.5580987687783407
 40
1.0
 40
1.0
 40
1.0
 40
1.0
 10
365.8641680063628
 20
61.80945364693696
 30
0.0
 10
365.8641680063628
 20
61.580417531194
 30
0.0
 10
365.8641680063628
 20
60.5739352347668
 30
0.0
 10
365.8641680063628
 20
58.73897345833978
 30
0.0
 10
365.8641680063628
 20
57.15564738874604
 30
0.0
 10
365.8641680063628
 20
56.35418696264324
 30
0.0
  0
SPLINE
  5
347
330
1F
100
AcDbEntity
  8
0
  6
Continuous
 62
     7
370
    25
100
AcDbSpline
210
0.0
220
0.0
230
1.0
 70
     8
 71
     3
 72
    11
 73
     7
 74
     0
 42
0.0000000001
 43
0.0000000001
 40
0.0
 40
0.0
 40
0.0
 40
0.0
 40
0.2462752455310287
 40
0.4924200225716604
 40
0.7461376629183371
 40
1.0
 40
1.0
 40
1.0
 40
1.0
 10
365.8641680063628
 20
61.80945364693696
 30
0.0
 10
366.2497826272004
 20
62.03208871763374
 30
0.0
 10
367.0208075829868
 20
62.47724091432067
 30
0.0
 10
368.2022589464815
 20
63.15935131036585
 30
0.0
 10
369.3961597134349
 20
63.84865233150335
 30
0.0
 10
370.191023123003
 20
64.30756640383441
 30
0.0
 10
370.5885681243562
 20
64.53708885172898
 30
0.0
  0
SPLINE
  5
348
330
1F
100
AcDbEntity
  8
0
  6
Continuous
 62
     7
370
    25
100
AcDbSpline
210
0.0
220
0.0
230
1.0
 70
     8
 71
     3
 72
    11
 73
     7
 74
     0
 42
0.0000000001
 43
0.0000000001
 40
0.0
 40
0.0
 40
0.0
 40
0.0
 40
0.2462752455310287
 40
0.4924200225716604
 40
0.7461376629183371
 40
1.0
 40
1.0
 40
1.0
 40
1.0
 10
370.5885681243562
 20
64.53708885172898
 30
0.0
 10
370.9741827451938
 20
64.31445378103219
 30
0.0
 10
371.7452077009801
 20
63.86930158434529
 30
0.0
 10
372.9266590644749
 20
63.18719118830014
 30
0.0
 10
374.1205598314282
 20
62.49789016716258
 30
0.0
 10
374.9154232409963
 20
62.03897609483155
 30
0.0
 10
375.3129682423495
 20
61.80945364693696
 30
0.0
  0
SPLINE
  5
349
330
1F
100
AcDbEntity
  8
0
  6
Continuous
 62
     7
370
    25
100
AcDbSpline
210
0.0
220
0.0
230
1.0
 70
    24
 71
     3
 72
    10
 73
     6
 74
     0
 42
0.0000000001
 43
0.0000000001
 40
0.0
 40
0.0
 40
0.0
 40
0.0
 40
0.4314412729583724
 40
0.8729978754565069
 40
1.0
 40
1.0
 40
1.0
 40
1.0
 10
375.3129682423495
 20
56.35418696264321
 30
0.0
 10
375.3129682423495
 20
57.13647887685493
 30
0.0
 10
375.3129682423495
 20
58.71940388171305
 30
0.0
 10
375.3129682423495
 20
60.55508417673974
 30
0.0
 10
375.3129682423495
 20
61.58041892292326
 30
0.0
 10
375.3129682423495
 20
61.80945364693696
 30
0.0
  0
SPLINE
  5
34A
330
1F
100
AcDbEntity
  8
0
  6
Continuous
 62
     7
370
    25
100
AcDbSpline
210
0.0
220
0.0
230
1.0
 70
     8
 71
     3
 72
    11
 73
     7
 74
     0
 42
0.0000000001
 43
0.0000000001
 40
0.0
 40
0.0
 40
0.0
 40
0.0
 40
0.2462752029674375
 40
0.4924200216170449
 40
0.7461376200047642
 40
1.0
 40
1.0
 40
1.0
 40
1.0
 10
370.5885681243562
 20
53.62655362049634
 30
0.0
 10
370.9741827923506
 20
53.84918829838643
 30
0.0
 10
371.7452079741868
 20
54.29433978574024
 30
0.0
 10
372.9266587620426
 20
54.97645056852028
 30
0.0
 10
374.1205601091892
 20
55.6657502679366
 30
0.0
 10
374.9154232893021
 20
56.1246644310014
 30
0.0
 10
375.3129682423495
 20
56.35418696264321
 30
0.0
  0
SPLINE
  5
34B
330
1F
100
AcDbEntity
  8
0
  6
Continuous
 62
     7
370
    25
100
AcDbSpline
210
0.0
220
0.0
230
1.0
 70
     8
 71
     3
 72
    11
 73
     7
 74
     0
 42
0.0000000001
 43
0.0000000001
 40
0.0
 40
0.0
 40
0.0
 40
0.0
 40
0.2462752029674375
 40
0.4924200216170449
 40
0.7461376200047642
 40
1.0
 40
1.0
 40
1.0
 40
1.0
 10
365.8641680063628
 20
56.35418696264321
 30
0.0
 10
366.2497826743573
 20
56.13155228475315
 30
0.0
 10
367.0208078561935
 20
55.68640079739933
 30
0.0
 10
368.2022586440492
 20
55.0042900146193
 30
0.0
 10
369.3961599911959
 20
54.31499031520295
 30
0.0
 10
370.1910231713088
 20
53.85607615213817
 30
0.0
 10
370.5885681243562
 20
53.62655362049634
 30
0.0
  0
ARC
  5
34C
330
1F
100
AcDbEntity
  8
0
  6
Continuous
 62
     7
370
    25
100
AcDbCircle
 10
370.588567817393
 20
59.08182080356287
 30
0.0
 40
5.156200000000039
100
AcDbArc
 50
336.609235747478
 51
22.2999921617295
  0
ARC
  5
34D
330
1F
100
AcDbEntity
  8
0
  6
Continuous
 62
     7
370
    25
100
AcDbCircle
 10
370.588567817393
 20
59.08182080356287
 30
0.0
 40
5.156199999999993
100
AcDbArc
 50
277.8551775849604
 51
322.9251517450634
  0
ARC
  5
34E
330
1F
100
AcDbEntity
  8
0
  6
Continuous
 62
     7
370
    25
100
AcDbCircle
 10
370.588567817393
 20
59.08182080356287
 30
0.0
 40
5.156199999999987
100
AcDbArc
 50
217.0547221043207
 51
262.1466482147686
  0
ARC
  5
34F
330
1F
100
AcDbEntity
  8
0
  6
Continuous
 62
     7
370
    25
100
AcDbCircle
 10
370.588567817393
 20
59.08182080356287
 30
0.0
 40
5.156199999999961
100
AcDbArc
 50
157.7133014159244
 51
203.3673700073355
  0
ARC
  5
350
330
1F
100
AcDbEntity
  8
0
  6
Continuous
 62
     7
370
    25
100
AcDbCircle
 10
370.588567817393
 20
59.08182080356287
 30
0.0
 40
5.156199999999996
100
AcDbArc
 50
97.42502818964384
 51
142.1955236417903
  0
ARC
  5
351
330
1F
100
AcDbEntity
  8
0
  6
Continuous
 62
     7
370
    25
100
AcDbCircle
 10
370.588567817393
 20
59.08182080356287
 30
0.0
 40
5.156200000000019
100
AcDbArc
 50
37.29801106197291
 51
83.13588073573475
  0
LINE
  5
352
330
1F
100
AcDbEntity
  8
0
  6
Continuous
 62
     7
370
    25
100
AcDbLine
 10
433.8345668198489
 20
41.06052080104643
 30
0.0
 11
435.3585681797885
 21
41.06052080104643
 31
0.0
  0
LINE
  5
353
330
1F
100
AcDbEntity
  8
0
  6
Continuous
 62
     7
370
    25
100
AcDbLine
 10
435.3585681797885
 20
41.06052080104643
 30
0.0
 11
435.3585681797885
 21
40.15882080356178
 31
0.0
  0
LINE
  5
354
330
1F
100
AcDbEntity
  8
0
  6
Continuous
 62
     7
370
    25
100
AcDbLine
 10
435.3585681797885
 20
40.15882080356178
 30
0.0
 11
433.8345668198489
 21
40.15882080356178
 31
0.0
  0
LINE
  5
355
330
1F
100
AcDbEntity
  8
0
  6
Continuous
 62
     7
370
    25
100
AcDbLine
 10
433.8345668198489
 20
41.06052080104643
 30
0.0
 11
358.1425688149356
 21
41.06052080104643
 31
0.0
  0
LINE
  5
356
330
1F
100
AcDbEntity
  8
0
  6
Continuous
 62
     7
370
    25
100
AcDbLine
 10
433.8345668198489
 20
40.15882080356178
 30
0.0
 11
358.1425688149356
 21
40.15882080356175
 31
0.0
  0
LINE
  5
357
330
1F
100
AcDbEntity
  8
0
  6
Continuous
 62
     7
370
    25
100
AcDbLine
 10
356.618567454996
 20
40.15882080356175
 30
0.0
 11
356.618567454996
 21
41.06052080104643
 31
0.0
  0
LINE
  5
358
330
1F
100
AcDbEntity
  8
0
  6
Continuous
 62
     7
370
    25
100
AcDbLine
 10
356.618567454996
 20
41.06052080104643
 30
0.0
 11
358.1425688149356
 21
41.06052080104643
 31
0.0
  0
LINE
  5
359
330
1F
100
AcDbEntity
  8
0
  6
Continuous
 62
     7
370
    25
100
AcDbLine
 10
358.1425688149356
 20
40.15882080356175
 30
0.0
 11
356.618567454996
 21
40.15882080356175
 31
0.0
  0
LINE
  5
35A
330
1F
100
AcDbEntity
  8
0
  6
Continuous
 62
     7
370
    25
100
AcDbLine
 10
435.3585681797885
 20
41.8479208595171
 30
0.0
 11
435.3585681797885
 21
41.06052080104643
 31
0.0
  0
LINE
  5
35B
330
1F
100
AcDbEntity
  8
0
  6
Continuous
 62
     7
370
    25
100
AcDbLine
 10
356.618567454996
 20
41.06052080104643
 30
0.0
 11
356.618567454996
 21
41.8479208595171
 31
0.0
  0
LINE
  5
35C
330
1F
100
AcDbEntity
  8
0
  6
Continuous
 62
     7
370
    25
100
AcDbLine
 10
435.3585681797885
 20
73.14640050689274
 30
0.0
 11
435.3585681797885
 21
41.8479208595171
 31
0.0
  0
LINE
  5
35D
330
1F
100
AcDbEntity
  8
0
  6
Continuous
 62
     7
370
    25
100
AcDbLine
 10
356.618567454996
 20
41.8479208595171
 30
0.0
 11
356.618567454996
 21
73.14640050689274
 31
0.0
  0
LINE
  5
35E
330
1F
100
AcDbEntity
  8
0
  6
Continuous
 62
     7
370
    25
100
AcDbLine
 10
435.3585681797885
 20
74.83550300756985
 30
0.0
 11
435.3585681797885
 21
73.14640050689274
 31
0.0
  0
LINE
  5
35F
330
1F
100
AcDbEntity
  8
0
  6
Continuous
 62
     7
370
    25
100
AcDbLine
 10
356.618567454996
 20
73.14640050689274
 30
0.0
 11
356.618567454996
 21
74.83550300756985
 31
0.0
  0
LINE
  5
360
330
1F
100
AcDbEntity
  8
0
  6
Continuous
 62
     7
370
    25
100
AcDbLine
 10
356.618567454996
 20
74.83550300756985
 30
0.0
 11
435.3585681797885
 21
74.83550300756985
 31
0.0
  0
LINE
  5
361
330
1F
100
AcDbEntity
  8
0
  6
Continuous
 62
     7
370
    25
100
AcDbLine
 10
435.4855670513534
 20
40.92844080813745
 30
0.0
 11
435.3585681797885
 21
40.92844080813745
 31
0.0
  0
LINE
  5
362
330
1F
100
AcDbEntity
  8
0
  6
Continuous
 62
     7
370
    25
100
AcDbLine
 10
435.3585681797885
 20
73.14640050689274
 30
0.0
 11
435.4855670513534
 21
73.14640050689274
 31
0.0
  0
LINE
  5
363
330
1F
100
AcDbEntity
  8
0
  6
Continuous
 62
     7
370
    25
100
AcDbLine
 10
437.1746695520305
 20
73.14640050689274
 30
0.0
 11
437.1746695520305
 21
40.92844080813745
 31
0.0
  0
LINE
  5
364
330
1F
100
AcDbEntity
  8
0
  6
Continuous
 62
     7
370
    25
100
AcDbLine
 10
437.1746695520305
 20
40.92844080813745
 30
0.0
 11
435.4855670513534
 21
40.92844080813745
 31
0.0
  0
LINE
  5
365
330
1F
100
AcDbEntity
  8
0
  6
Continuous
 62
     7
370
    25
100
AcDbLine
 10
435.4855670513534
 20
73.14640050689274
 30
0.0
 11
436.9799113752269
 21
73.14640050689274
 31
0.0
  0
LINE
  5
366
330
1F
100
AcDbEntity
  8
0
  6
Continuous
 62
     7
370
    25
100
AcDbLine
 10
356.618567454996
 20
40.92844080813745
 30
0.0
 11
356.4915685834312
 21
40.92844080813745
 31
0.0
  0
LINE
  5
367
330
1F
100
AcDbEntity
  8
0
  6
Continuous
 62
     7
370
    25
100
AcDbLine
 10
356.4915685834312
 20
73.14640050689274
 30
0.0
 11
356.618567454996
 21
73.14640050689274
 31
0.0
  0
LINE
  5
368
330
1F
100
AcDbEntity
  8
0
  6
Continuous
 62
     7
370
    25
100
AcDbLine
 10
354.9972242595576
 20
73.14640050689274
 30
0.0
 11
356.4915685834312
 21
73.14640050689274
 31
0.0
  0
LINE
  5
369
330
1F
100
AcDbEntity
  8
0
  6
Continuous
 62
     7
370
    25
100
AcDbLine
 10
354.802466082754
 20
40.92844080813745
 30
0.0
 11
354.802466082754
 21
73.14640050689274
 31
0.0
  0
LINE
  5
36A
330
1F
100
AcDbEntity
  8
0
  6
Continuous
 62
     7
370
    25
100
AcDbLine
 10
356.4915685834312
 20
40.92844080813745
 30
0.0
 11
354.802466082754
 21
40.92844080813745
 31
0.0
  0
ARC
  5
36B
330
1F
100
AcDbEntity
  8
0
  6
Continuous
 62
     7
370
    25
100
AcDbCircle
 10
435.4855678173922
 20
73.14640225190803
 30
0.0
 40
0.7874000000000479
100
AcDbArc
 50
0.0
 51
90.0
  0
ARC
  5
36C
330
1F
100
AcDbEntity
  8
0
  6
Continuous
 62
     7
370
    25
100
AcDbCircle
 10
435.4855678173922
 20
73.14640225190803
 30
0.0
 40
1.689100000000053
100
AcDbArc
 50
0.0
 51
90.0
  0
LINE
  5
36D
330
1F
100
AcDbEntity
  8
0
  6
Continuous
 62
     7
370
    25
100
AcDbLine
 10
437.1746695520305
 20
73.14640050689274
 30
0.0
 11
436.9799113752269
 21
73.14640050689274
 31
0.0
  0
LINE
  5
36E
330
1F
100
AcDbEntity
  8
0
  6
Continuous
 62
     7
370
    25
100
AcDbLine
 10
435.4855670513534
 20
73.93380394140774
 30
0.0
 11
435.3585681797885
 21
73.93380394140774
 31
0.0
  0
LINE
  5
36F
330
1F
100
AcDbEntity
  8
0
  6
Continuous
 62
     7
370
    25
100
AcDbLine
 10
435.4855670513534
 20
74.83550300756985
 30
0.0
 11
435.3585681797885
 21
74.83550300756985
 31
0.0
  0
LINE
  5
370
330
1F
100
AcDbEntity
  8
0
  6
Continuous
 62
     7
370
    25
100
AcDbLine
 10
354.802466082754
 20
73.14640050689274
 30
0.0
 11
354.9972242595576
 21
73.14640050689274
 31
0.0
  0
ARC
  5
371
330
1F
100
AcDbEntity
  8
0
  6
Continuous
 62
     7
370
    25
100
AcDbCircle
 10
356.4915678173922
 20
73.14640225190803
 30
0.0
 40
1.689099999999996
100
AcDbArc
 50
90.0
 51
180.0000000000018
  0
ARC
  5
372
330
1F
100
AcDbEntity
  8
0
  6
Continuous
 62
     7
370
    25
100
AcDbCircle
 10
356.4915678173922
 20
73.14640225190803
 30
0.0
 40
0.787399999999991
100
AcDbArc
 50
90.0
 51
180.0000000000028
  0
LINE
  5
373
330
1F
100
AcDbEntity
  8
0
  6
Continuous
 62
     7
370
    25
100
AcDbLine
 10
356.618567454996
 20
73.93380394140774
 30
0.0
 11
356.4915685834312
 21
73.93380394140774
 31
0.0
  0
LINE
  5
374
330
1F
100
AcDbEntity
  8
0
  6
Continuous
 62
     7
370
    25
100
AcDbLine
 10
356.618567454996
 20
74.83550300756985
 30
0.0
 11
356.4915685834312
 21
74.83550300756985
 31
0.0
  0
ELLIPSE
  5
375
330
1F
100
AcDbEntity
  8
0
  6
Continuous
 62
     7
370
    25
100
AcDbEllipse
 10
435.4855678174391
 20
73.17180225190802
 30
0.0
 11
0.0
 21
0.7620000000000005
 31
0.0
210
0.0
220
0.0
230
1.0
 40
0.6973436739485801
 41
0.0
 42
0.241338132473098
  0
ELLIPSE
  5
376
330
1F
100
AcDbEntity
  8
0
  6
Continuous
 62
     7
370
    25
100
AcDbEllipse
 10
356.4915678173705
 20
73.17180225190913
 30
0.0
 11
0.0
 21
0.7620000000000005
 31
0.0
210
0.0
220
0.0
230
1.0
 40
0.6973436738186311
 41
6.04184717470955
 42
6.283185307179586
  0
DIMENSION
  5
377
330
1F
100
AcDbEntity
  8
SLD-0
 62
     7
100
AcDbDimension
  2
_D_5
 10
372.6356197842533
 20
54.34938203639714
 30
0.0
 11
323.0273059611534
 21
86.02883824596778
 31
0.0
 70
   163
  1
+24VDC\PPOWER IN\PSWITCHCRAFT L712RA
 71
     3
 42
10.31239999999998
  3
DATASHEET
100
AcDbDiametricDimension
 15
368.5415158505323
 25
63.81425957072848
 35
0.0
 40
0.0
  0
MTEXT
  5
382
330
1F
100
AcDbEntity
  8
SLD-0
 62
     7
100
AcDbMText
 10
367.0145380326257
 20
84.71749773222667
 30
0.0
 40
3.174999999999999
 41
0.0
 71
     1
 72
     1
  1
ETHERNET
 73
     1
 44
1.0
1001
ACAD
1000
MTEXTBEGIN
1070
    73
1070
     1
1070
    44
1040
1.0
1070
    74
1070
     0
1000
MTEXTEND
  0
LEADER
  5
384
330
1F
100
AcDbEntity
  8
SLD-0
 62
     7
100
AcDbLeader
  3
SLDDIMSTYLE3
 76
     3
 10
405.7747601649218
 20
61.7488208035607
 30
0.0
 10
397.6233275050893
 20
82.90214530706919
 30
0.0
 10
391.2733275050894
 20
82.90214530706919
 30
0.0
  0
MTEXT
  5
385
330
1F
100
AcDbEntity
  8
SLD-0
 62
     7
100
AcDbMText
 10
367.4533350332522
 20
92.78338290544491
 30
0.0
 40
3.174999999999999
 41
0.0
 71
     1
 72
     1
  1
POWER-ON LED
 73
     1
 44
1.0
1001
ACAD
1000
MTEXTBEGIN
1070
    73
1070
     1
1070
    44
1040
1.0
1070
    74
1070
     0
1000
MTEXTEND
  0
LEADER
  5
386
330
1F
100
AcDbEntity
  8
SLD-0
 62
     7
100
AcDbLeader
  3
SLDDIMSTYLE3
 76
     3
 10
422.1939977929844
 20
52.67325548766493
 30
0.0
 10
408.6535799228189
 20
91.03117756513364
 30
0.0
 10
402.303579922819
 20
91.03117756513364
 30
0.0
  0
LINE
  5
387
330
1F
100
AcDbEntity
  8
0
  6
Continuous
 62
     7
370
    25
100
AcDbLine
 10
85.79356823706715
 20
53.76052064756447
 30
0.0
 11
85.79356823706715
 21
54.53388532558972
 31
0.0
  0
LINE
  5
388
330
1F
100
AcDbEntity
  8
0
  6
Continuous
 62
     7
370
    25
100
AcDbLine
 10
83.8123675867328
 20
54.53388532558972
 30
0.0
 11
83.8123675867328
 21
53.76052064756447
 31
0.0
  0
LINE
  5
389
330
1F
100
AcDbEntity
  8
0
  6
Continuous
 62
     7
370
    25
100
AcDbLine
 10
85.79356823706715
 20
63.98535659472043
 30
0.0
 11
85.79356823706715
 21
64.75872127274567
 31
0.0
  0
LINE
  5
38A
330
1F
100
AcDbEntity
  8
0
  6
Continuous
 62
     7
370
    25
100
AcDbLine
 10
83.8123675867328
 20
64.75872127274567
 30
0.0
 11
83.8123675867328
 21
63.98535659472043
 31
0.0
  0
LINE
  5
38B
330
1F
100
AcDbEntity
  8
0
  6
Continuous
 62
     7
370
    25
100
AcDbLine
 10
29.43096910262199
 20
75.08950075069958
 30
0.0
 11
102.5829673244962
 21
75.08950075069958
 31
0.0
  0
LINE
  5
38C
330
1F
100
AcDbEntity
  8
0
  6
Continuous
 62
     7
370
    25
100
AcDbLine
 10
104.1069686844358
 20
75.08950075069958
 30
0.0
 11
104.1069686844358
 21
74.83550300756985
 31
0.0
  0
LINE
  5
38D
330
1F
100
AcDbEntity
  8
0
  6
Continuous
 62
     7
370
    25
100
AcDbLine
 10
102.5829673244962
 20
75.08950075069958
 30
0.0
 11
104.1069686844358
 21
75.08950075069958
 31
0.0
  0
LINE
  5
38E
330
1F
100
AcDbEntity
  8
0
  6
Continuous
 62
     7
370
    25
100
AcDbLine
 10
27.90696774268241
 20
75.08950075069958
 30
0.0
 11
27.90696774268241
 21
74.83550300756985
 31
0.0
  0
LINE
  5
38F
330
1F
100
AcDbEntity
  8
0
  6
Continuous
 62
     7
370
    25
100
AcDbLine
 10
27.90696774268241
 20
75.08950075069958
 30
0.0
 11
29.43096910262199
 21
75.08950075069958
 31
0.0
  0
LINE
  5
390
330
1F
100
AcDbEntity
  8
0
  6
Continuous
 62
     7
370
    25
100
AcDbLine
 10
28.92296989107223
 20
72.34062021533543
 30
0.0
 11
103.090966536046
 21
72.34062021533543
 31
0.0
  0
ARC
  5
391
330
1F
100
AcDbEntity
  8
0
  6
Continuous
 62
     7
370
    25
100
AcDbCircle
 10
103.090968213299
 20
71.32462080356251
 30
0.0
 40
1.016000000000019
100
AcDbArc
 50
0.0
 51
90.0
  0
LINE
  5
392
330
1F
100
AcDbEntity
  8
0
  6
Continuous
 62
     7
370
    25
100
AcDbLine
 10
104.1069686844358
 20
71.32461992959076
 30
0.0
 11
104.1069686844358
 21
67.38254008750016
 31
0.0
  0
ARC
  5
393
330
1F
100
AcDbEntity
  8
0
  6
Continuous
 62
     7
370
    25
100
AcDbCircle
 10
103.090968213299
 20
67.38254080356267
 30
0.0
 40
1.016000000000019
100
AcDbArc
 50
270.0000000000008
 51
0.0
  0
LINE
  5
394
330
1F
100
AcDbEntity
  8
0
  6
Continuous
 62
     7
370
    25
100
AcDbLine
 10
103.090966536046
 20
66.36654166440064
 30
0.0
 11
102.3289695813665
 21
66.36654166440064
 31
0.0
  0
ARC
  5
395
330
1F
100
AcDbEntity
  8
0
  6
Continuous
 62
     7
370
    25
100
AcDbCircle
 10
102.328968213299
 20
63.82654080356267
 30
0.0
 40
2.54000000000002
100
AcDbArc
 50
90.0
 51
270.0000000000008
  0
LINE
  5
396
330
1F
100
AcDbEntity
  8
0
  6
Continuous
 62
     7
370
    25
100
AcDbLine
 10
102.3289695813665
 20
61.2865402356773
 30
0.0
 11
103.090966536046
 21
61.2865402356773
 31
0.0
  0
ARC
  5
397
330
1F
100
AcDbEntity
  8
0
  6
Continuous
 62
     7
370
    25
100
AcDbCircle
 10
103.090968213299
 20
60.27054080356268
 30
0.0
 40
1.015999999999991
100
AcDbArc
 50
0.0
 51
90.00000000000161
  0
LINE
  5
398
330
1F
100
AcDbEntity
  8
0
  6
Continuous
 62
     7
370
    25
100
AcDbLine
 10
104.1069686844358
 20
60.27053994993264
 30
0.0
 11
104.1069686844358
 21
48.45192050496632
 31
0.0
  0
ARC
  5
399
330
1F
100
AcDbEntity
  8
0
  6
Continuous
 62
     7
370
    25
100
AcDbCircle
 10
103.090968213299
 20
48.45192080356312
 30
0.0
 40
1.015999999999991
100
AcDbArc
 50
270.0000000000008
 51
0.0
  0
LINE
  5
39A
330
1F
100
AcDbEntity
  8
0
  6
Continuous
 62
     7
370
    25
100
AcDbLine
 10
103.090966536046
 20
47.43592068488294
 30
0.0
 11
102.3289695813665
 21
47.43592068488294
 31
0.0
  0
ARC
  5
39B
330
1F
100
AcDbEntity
  8
0
  6
Continuous
 62
     7
370
    25
100
AcDbCircle
 10
102.328968213299
 20
44.89592080356314
 30
0.0
 40
2.539999999999992
100
AcDbArc
 50
90.0
 51
180.0
  0
LINE
  5
39C
330
1F
100
AcDbEntity
  8
0
  6
Continuous
 62
     7
370
    25
100
AcDbLine
 10
99.7889697983274
 20
44.89592090184385
 30
0.0
 11
99.7889697983274
 21
43.2576208834588
 31
0.0
  0
ARC
  5
39D
330
1F
100
AcDbEntity
  8
0
  6
Continuous
 62
     7
370
    25
100
AcDbCircle
 10
98.77296821329901
 20
43.2576208035625
 30
0.0
 40
1.016000000000019
100
AcDbArc
 50
270.0000000000008
 51
0.0
  0
LINE
  5
39E
330
1F
100
AcDbEntity
  8
0
  6
Continuous
 62
     7
370
    25
100
AcDbLine
 10
98.77296764993758
 20
42.24162083054477
 30
0.0
 11
33.24096877718063
 21
42.24162083054477
 31
0.0
  0
ARC
  5
39F
330
1F
100
AcDbEntity
  8
0
  6
Continuous
 62
     7
370
    25
100
AcDbCircle
 10
33.24096821329892
 20
43.25762080356258
 30
0.0
 40
1.016000000000005
100
AcDbArc
 50
180.0
 51
270.0000000000008
  0
LINE
  5
3A0
330
1F
100
AcDbEntity
  8
0
  6
Continuous
 62
     7
370
    25
100
AcDbLine
 10
32.22496662879081
 20
43.2576208834588
 30
0.0
 11
32.22496662879081
 21
44.89592090184385
 31
0.0
  0
ARC
  5
3A1
330
1F
100
AcDbEntity
  8
0
  6
Continuous
 62
     7
370
    25
100
AcDbCircle
 10
29.68496821329892
 20
44.89592080356323
 30
0.0
 40
2.539999999999992
100
AcDbArc
 50
0.0
 51
90.0
  0
LINE
  5
3A2
330
1F
100
AcDbEntity
  8
0
  6
Continuous
 62
     7
370
    25
100
AcDbLine
 10
29.68496684575172
 20
47.43592068488294
 30
0.0
 11
28.92296989107223
 21
47.43592068488294
 31
0.0
  0
ARC
  5
3A3
330
1F
100
AcDbEntity
  8
0
  6
Continuous
 62
     7
370
    25
100
AcDbCircle
 10
28.9229682132989
 20
48.45192080356321
 30
0.0
 40
1.016000000000019
100
AcDbArc
 50
180.0
 51
270.0000000000008
  0
LINE
  5
3A4
330
1F
100
AcDbEntity
  8
0
  6
Continuous
 62
     7
370
    25
100
AcDbLine
 10
27.90696774268241
 20
48.45192050496632
 30
0.0
 11
27.90696774268241
 21
60.27053994993264
 31
0.0
  0
ARC
  5
3A5
330
1F
100
AcDbEntity
  8
0
  6
Continuous
 62
     7
370
    25
100
AcDbCircle
 10
28.92296821329893
 20
60.27054080356274
 30
0.0
 40
1.015999999999991
100
AcDbArc
 50
90.00000000000161
 51
180.0
  0
LINE
  5
3A6
330
1F
100
AcDbEntity
  8
0
  6
Continuous
 62
     7
370
    25
100
AcDbLine
 10
28.92296989107223
 20
61.2865402356773
 30
0.0
 11
29.68496684575172
 21
61.2865402356773
 31
0.0
  0
ARC
  5
3A7
330
1F
100
AcDbEntity
  8
0
  6
Continuous
 62
     7
370
    25
100
AcDbCircle
 10
29.68496821329892
 20
63.82654080356275
 30
0.0
 40
2.54000000000002
100
AcDbArc
 50
270.0000000000008
 51
90.0
  0
LINE
  5
3A8
330
1F
100
AcDbEntity
  8
0
  6
Continuous
 62
     7
370
    25
100
AcDbLine
 10
29.68496684575172
 20
66.36654166440064
 30
0.0
 11
28.92296989107223
 21
66.36654166440064
 31
0.0
  0
ARC
  5
3A9
330
1F
100
AcDbEntity
  8
0
  6
Continuous
 62
     7
370
    25
100
AcDbCircle
 10
28.9229682132989
 20
67.38254080356276
 30
0.0
 40
1.015999999999991
100
AcDbArc
 50
180.0
 51
270.0000000000008
  0
LINE
  5
3AA
330
1F
100
AcDbEntity
  8
0
  6
Continuous
 62
     7
370
    25
100
AcDbLine
 10
27.90696774268241
 20
67.38254008750016
 30
0.0
 11
27.90696774268241
 21
71.32461992959076
 31
0.0
  0
ARC
  5
3AB
330
1F
100
AcDbEntity
  8
0
  6
Continuous
 62
     7
370
    25
100
AcDbCircle
 10
28.9229682132989
 20
71.32462080356259
 30
0.0
 40
1.016000000000019
100
AcDbArc
 50
90.0
 51
180.0
  0
LINE
  5
3AC
330
1F
100
AcDbEntity
  8
0
  6
Continuous
 62
     7
370
    25
100
AcDbLine
 10
46.31696869278044
 20
59.38861844996506
 30
0.0
 11
46.31696869278044
 21
54.55861845920378
 31
0.0
  0
ARC
  5
3AD
330
1F
100
AcDbEntity
  8
0
  6
Continuous
 62
     7
370
    25
100
AcDbCircle
 10
49.49196821295245
 20
54.55861854432786
 30
0.0
 40
3.175000000000011
100
AcDbArc
 50
180.0
 51
270.0000000000008
  0
LINE
  5
3AE
330
1F
100
AcDbEntity
  8
0
  6
Continuous
 62
     7
370
    25
100
AcDbLine
 10
49.49196842157931
 20
51.38361873040492
 30
0.0
 11
62.20196811141164
 21
51.38361873040492
 31
0.0
  0
ARC
  5
3AF
330
1F
100
AcDbEntity
  8
0
  6
Continuous
 62
     7
370
    25
100
AcDbCircle
 10
62.20196821295252
 20
54.55861854432782
 30
0.0
 40
3.175000000000011
100
AcDbArc
 50
270.0000000000008
 51
0.0
  0
LINE
  5
3B0
330
1F
100
AcDbEntity
  8
0
  6
Continuous
 62
     7
370
    25
100
AcDbLine
 10
65.37696818945646
 20
54.55861845920378
 30
0.0
 11
65.37696818945646
 21
59.38861844996506
 31
0.0
  0
ARC
  5
3B1
330
1F
100
AcDbEntity
  8
0
  6
Continuous
 62
     7
370
    25
100
AcDbCircle
 10
62.2019682129525
 20
59.38861854432784
 30
0.0
 40
3.175000000000039
100
AcDbArc
 50
0.0
 51
90.0
  0
LINE
  5
3B2
330
1F
100
AcDbEntity
  8
0
  6
Continuous
 62
     7
370
    25
100
AcDbLine
 10
62.20196811141164
 20
62.56361817876393
 30
0.0
 11
49.49196842157931
 21
62.56361817876393
 31
0.0
  0
ARC
  5
3B3
330
1F
100
AcDbEntity
  8
0
  6
Continuous
 62
     7
370
    25
100
AcDbCircle
 10
49.49196821295245
 20
59.38861854432786
 30
0.0
 40
3.174999999999997
100
AcDbArc
 50
90.0
 51
179.9999999999984
  0
CIRCLE
  5
3B4
330
1F
100
AcDbEntity
  8
0
  6
Continuous
 62
     7
370
    25
100
AcDbCircle
 10
84.80296821324808
 20
59.25962080356232
 30
0.0
 40
6.349999999999965
  0
CIRCLE
  5
3B5
330
1F
100
AcDbEntity
  8
0
  6
Continuous
 62
     7
370
    25
100
AcDbCircle
 10
29.68496821361834
 20
63.78844080356177
 30
0.0
 40
2.050000000000003
  0
CIRCLE
  5
3B6
330
1F
100
AcDbEntity
  8
0
  6
Continuous
 62
     7
370
    25
100
AcDbCircle
 10
29.68496821361812
 20
63.78844080356177
 30
0.0
 40
2.25
  0
LINE
  5
3B7
330
1F
100
AcDbEntity
  8
0
  6
Continuous
 62
     7
370
    25
100
AcDbLine
 10
29.07436941409202
 20
62.79480969468647
 30
0.0
 11
30.24018038654418
 21
62.76283180276448
 31
0.0
  0
LINE
  5
3B8
330
1F
100
AcDbEntity
  8
0
  6
Continuous
 62
     7
370
    25
100
AcDbLine
 10
30.24018038654418
 20
62.76283180276448
 30
0.0
 11
30.85077781820388
 21
63.75646358291203
 31
0.0
  0
LINE
  5
3B9
330
1F
100
AcDbEntity
  8
0
  6
Continuous
 62
     7
370
    25
100
AcDbLine
 10
30.85077781820388
 20
63.75646358291203
 30
0.0
 11
30.29556427741141
 21
64.78207325498158
 31
0.0
  0
LINE
  5
3BA
330
1F
100
AcDbEntity
  8
0
  6
Continuous
 62
     7
370
    25
100
AcDbLine
 10
30.29556427741141
 20
64.78207325498158
 30
0.0
 11
29.12975703024955
 21
64.81404928425843
 31
0.0
  0
LINE
  5
3BB
330
1F
100
AcDbEntity
  8
0
  6
Continuous
 62
     7
370
    25
100
AcDbLine
 10
29.12975703024955
 20
64.81404928425843
 30
0.0
 11
28.51915959858985
 21
63.82041750411088
 31
0.0
  0
LINE
  5
3BC
330
1F
100
AcDbEntity
  8
0
  6
Continuous
 62
     7
370
    25
100
AcDbLine
 10
28.51915959858985
 20
63.82041750411088
 30
0.0
 11
29.07436941409202
 21
62.79480969468647
 31
0.0
  0
CIRCLE
  5
3BD
330
1F
100
AcDbEntity
  8
0
  6
Continuous
 62
     7
370
    25
100
AcDbCircle
 10
29.68496821361341
 20
44.85782080356222
 30
0.0
 40
2.050000000000021
  0
CIRCLE
  5
3BE
330
1F
100
AcDbEntity
  8
0
  6
Continuous
 62
     7
370
    25
100
AcDbCircle
 10
29.68496821361322
 20
44.85782080356222
 30
0.0
 40
2.250000000000002
  0
LINE
  5
3BF
330
1F
100
AcDbEntity
  8
0
  6
Continuous
 62
     7
370
    25
100
AcDbLine
 10
29.23963819289298
 20
43.77994616451258
 30
0.0
 11
30.39577086114974
 21
43.93321555043155
 31
0.0
  0
LINE
  5
3C0
330
1F
100
AcDbEntity
  8
0
  6
Continuous
 62
     7
370
    25
100
AcDbLine
 10
30.39577086114974
 20
43.93321555043155
 30
0.0
 11
30.84109951400848
 21
45.01109011406595
 31
0.0
  0
LINE
  5
3C1
330
1F
100
AcDbEntity
  8
0
  6
Continuous
 62
     7
370
    25
100
AcDbLine
 10
30.84109951400848
 20
45.01109011406595
 30
0.0
 11
30.13029922390075
 21
45.93569552461201
 31
0.0
  0
LINE
  5
3C2
330
1F
100
AcDbEntity
  8
0
  6
Continuous
 62
     7
370
    25
100
AcDbLine
 10
30.13029922390075
 20
45.93569552461201
 30
0.0
 11
28.97416655564399
 21
45.78242590586239
 31
0.0
  0
LINE
  5
3C3
330
1F
100
AcDbEntity
  8
0
  6
Continuous
 62
     7
370
    25
100
AcDbLine
 10
28.97416655564399
 20
45.78242590586239
 30
0.0
 11
28.52883417749496
 21
44.704551342228
 31
0.0
  0
LINE
  5
3C4
330
1F
100
AcDbEntity
  8
0
  6
Continuous
 62
     7
370
    25
100
AcDbLine
 10
28.52883417749496
 20
44.704551342228
 30
0.0
 11
29.23963819289298
 21
43.77994616451258
 31
0.0
  0
CIRCLE
  5
3C5
330
1F
100
AcDbEntity
  8
0
  6
Continuous
 62
     7
370
    25
100
AcDbCircle
 10
102.3289682136133
 20
44.85782080356222
 30
0.0
 40
2.050000000000011
  0
CIRCLE
  5
3C6
330
1F
100
AcDbEntity
  8
0
  6
Continuous
 62
     7
370
    25
100
AcDbCircle
 10
102.3289682136131
 20
44.85782080356222
 30
0.0
 40
2.24999999999998
  0
LINE
  5
3C7
330
1F
100
AcDbEntity
  8
0
  6
Continuous
 62
     7
370
    25
100
AcDbLine
 10
101.5153885319242
 20
44.02222344587142
 30
0.0
 11
102.6458278729925
 21
43.73544221679265
 31
0.0
  0
LINE
  5
3C8
330
1F
100
AcDbEntity
  8
0
  6
Continuous
 62
     7
370
    25
100
AcDbLine
 10
102.6458278729925
 20
43.73544221679265
 30
0.0
 11
103.4594051971444
 21
44.57103973189885
 31
0.0
  0
LINE
  5
3C9
330
1F
100
AcDbEntity
  8
0
  6
Continuous
 62
     7
370
    25
100
AcDbLine
 10
103.4594051971444
 20
44.57103973189885
 30
0.0
 11
103.1425469055185
 21
45.69341801042253
 31
0.0
  0
LINE
  5
3CA
330
1F
100
AcDbEntity
  8
0
  6
Continuous
 62
     7
370
    25
100
AcDbLine
 10
103.1425469055185
 20
45.69341801042253
 30
0.0
 11
102.0121075644502
 21
45.9801992395013
 31
0.0
  0
LINE
  5
3CB
330
1F
100
AcDbEntity
  8
0
  6
Continuous
 62
     7
370
    25
100
AcDbLine
 10
102.0121075644502
 20
45.9801992395013
 30
0.0
 11
101.1985302402982
 21
45.1446017243951
 31
0.0
  0
LINE
  5
3CC
330
1F
100
AcDbEntity
  8
0
  6
Continuous
 62
     7
370
    25
100
AcDbLine
 10
101.1985302402982
 20
45.1446017243951
 30
0.0
 11
101.5153885319242
 21
44.02222344587142
 31
0.0
  0
CIRCLE
  5
3CD
330
1F
100
AcDbEntity
  8
0
  6
Continuous
 62
     7
370
    25
100
AcDbCircle
 10
102.3289682136182
 20
63.78844080356177
 30
0.0
 40
2.050000000000001
  0
CIRCLE
  5
3CE
330
1F
100
AcDbEntity
  8
0
  6
Continuous
 62
     7
370
    25
100
AcDbCircle
 10
102.328968213618
 20
63.78844080356177
 30
0.0
 40
2.250000000000012
  0
LINE
  5
3CF
330
1F
100
AcDbEntity
  8
0
  6
Continuous
 62
     7
370
    25
100
AcDbLine
 10
101.5968196525583
 20
62.88064597109848
 30
0.0
 11
102.7490668430337
 21
62.70048348168427
 31
0.0
  0
LINE
  5
3D0
330
1F
100
AcDbEntity
  8
0
  6
Continuous
 62
     7
370
    25
100
AcDbLine
 10
102.7490668430337
 20
62.70048348168427
 30
0.0
 11
103.4812167718419
 21
63.60827898541981
 31
0.0
  0
LINE
  5
3D1
330
1F
100
AcDbEntity
  8
0
  6
Continuous
 62
     7
370
    25
100
AcDbLine
 10
103.4812167718419
 20
63.60827898541981
 30
0.0
 11
103.0611157848844
 21
64.69623511592442
 31
0.0
  0
LINE
  5
3D2
330
1F
100
AcDbEntity
  8
0
  6
Continuous
 62
     7
370
    25
100
AcDbLine
 10
103.0611157848844
 20
64.69623511592442
 30
0.0
 11
101.9088685944089
 21
64.87639760533864
 31
0.0
  0
LINE
  5
3D3
330
1F
100
AcDbEntity
  8
0
  6
Continuous
 62
     7
370
    25
100
AcDbLine
 10
101.9088685944089
 20
64.87639760533864
 30
0.0
 11
101.1767186656007
 21
63.96860210160309
 31
0.0
  0
LINE
  5
3D4
330
1F
100
AcDbEntity
  8
0
  6
Continuous
 62
     7
370
    25
100
AcDbLine
 10
101.1767186656007
 20
63.96860210160309
 30
0.0
 11
101.5968196525583
 21
62.88064597109848
 31
0.0
  0
CIRCLE
  5
3D5
330
1F
100
AcDbEntity
  8
0
  6
Continuous
 62
     7
370
    25
100
AcDbCircle
 10
84.80296821355906
 20
59.25962080356183
 30
0.0
 40
4.825999999999993
  0
CIRCLE
  5
3D6
330
1F
100
AcDbEntity
  8
0
  6
Continuous
 62
     7
370
    25
100
AcDbCircle
 10
84.80296821355906
 20
59.25962080356183
 30
0.0
 40
4.457699999999988
  0
CIRCLE
  5
3D7
330
1F
100
AcDbEntity
  8
0
  6
Continuous
 62
     7
370
    25
100
AcDbCircle
 10
84.80296821355906
 20
59.2596208035618
 30
0.0
 40
4.064000000000021
  0
LINE
  5
3D8
330
1F
100
AcDbEntity
  8
0
  6
Continuous
 62
     7
370
    25
100
AcDbLine
 10
83.8123675867328
 20
53.76052064756447
 30
0.0
 11
85.79356823706715
 21
53.76052064756447
 31
0.0
  0
LINE
  5
3D9
330
1F
100
AcDbEntity
  8
0
  6
Continuous
 62
     7
370
    25
100
AcDbLine
 10
85.79356823706715
 20
64.75872127274567
 30
0.0
 11
83.8123675867328
 21
64.75872127274567
 31
0.0
  0
CIRCLE
  5
3DA
330
1F
100
AcDbEntity
  8
0
  6
Continuous
 62
     7
370
    25
100
AcDbCircle
 10
84.80296821355906
 20
59.2596208035618
 30
0.0
 40
1.04140000000001
  0
CIRCLE
  5
3DB
330
1F
100
AcDbEntity
  8
0
  6
Continuous
 62
     7
370
    25
100
AcDbCircle
 10
84.80296821355906
 20
59.2596208035618
 30
0.0
 40
2.33680000000001
  0
CIRCLE
  5
3DC
330
1F
100
AcDbEntity
  8
0
  6
Continuous
 62
     7
370
    25
100
AcDbCircle
 10
84.80296821355906
 20
59.2596208035618
 30
0.0
 40
0.5080000000000098
  0
CIRCLE
  5
3DD
330
1F
100
AcDbEntity
  8
0
  6
Continuous
 62
     7
370
    25
100
AcDbCircle
 10
84.80296821355906
 20
59.25962080356177
 30
0.0
 40
3.37820000000002
  0
SPLINE
  5
3DE
330
1F
100
AcDbEntity
  8
0
  6
Continuous
 62
     7
370
    25
100
AcDbSpline
210
0.0
220
0.0
230
1.0
 70
    24
 71
     3
 72
     9
 73
     5
 74
     0
 42
0.0000000001
 43
0.0000000001
 40
0.0
 40
0.0
 40
0.0
 40
0.0
 40
0.4975892476901173
 40
1.0
 40
1.0
 40
1.0
 40
1.0
 10
81.68001328253835
 20
64.72506513754422
 30
0.0
 10
81.94598293189688
 20
64.72506513754424
 30
0.0
 10
82.48049940425465
 20
64.72506513754424
 30
0.0
 10
83.047709828256
 20
64.72506513754422
 30
0.0
 10
83.3326824440965
 20
64.72506513754422
 30
0.0
  0
ARC
  5
3DF
330
1F
100
AcDbEntity
  8
0
  6
Continuous
 62
     7
370
    25
100
AcDbCircle
 10
84.80296821355906
 20
59.25962080356177
 30
0.0
 40
5.659755000006931
100
AcDbArc
 50
105.0569426986613
 51
74.94305730140094
  0
SPLINE
  5
3E0
330
1F
100
AcDbEntity
  8
0
  6
Continuous
 62
     7
370
    25
100
AcDbSpline
210
0.0
220
0.0
230
1.0
 70
    24
 71
     3
 72
     9
 73
     5
 74
     0
 42
0.0000000001
 43
0.0000000001
 40
0.0
 40
0.0
 40
0.0
 40
0.0
 40
0.4970937126984996
 40
1.0
 40
1.0
 40
1.0
 40
1.0
 10
86.27325337970345
 20
64.72506513754422
 30
0.0
 10
86.55523574447206
 20
64.72506513754422
 30
0.0
 10
87.12249772659985
 20
64.72506513754424
 30
0.0
 10
87.65707974551569
 20
64.72506513754422
 30
0.0
 10
87.92592440390675
 20
64.72506513754422
 30
0.0
  0
ARC
  5
3E1
330
1F
100
AcDbEntity
  8
0
  6
Continuous
 62
     7
370
    25
100
AcDbCircle
 10
84.80296821355906
 20
59.25962080356175
 30
0.0
 40
6.294755000037458
100
AcDbArc
 50
119.743649527785
 51
60.2563504722102
  0
LINE
  5
3E2
330
1F
100
AcDbEntity
  8
0
  6
Continuous
 62
     7
370
    25
100
AcDbLine
 10
83.3326824440965
 20
64.72506513754422
 30
0.0
 11
83.8123675867328
 21
64.72506513754422
 31
0.0
  0
LINE
  5
3E3
330
1F
100
AcDbEntity
  8
0
  6
Continuous
 62
     7
370
    25
100
AcDbLine
 10
85.79356823706715
 20
64.72506513754422
 30
0.0
 11
86.27325337970345
 21
64.72506513754422
 31
0.0
  0
LINE
  5
3E4
330
1F
100
AcDbEntity
  8
0
  6
Continuous
 62
     7
370
    25
100
AcDbLine
 10
63.67139815943033
 20
57.86124197701508
 30
0.0
 11
63.21457023391217
 21
55.27044134149844
 31
0.0
  0
SPLINE
  5
3E5
330
1F
100
AcDbEntity
  8
0
  6
Continuous
 62
     7
370
    25
100
AcDbSpline
210
0.0
220
0.0
230
1.0
 70
     8
 71
     3
 72
    11
 73
     7
 74
     0
 42
0.0000000001
 43
0.0000000001
 40
0.0
 40
0.0
 40
0.0
 40
0.0
 40
0.2499998986624359
 40
0.4999998961805346
 40
0.749999831920761
 40
1.0
 40
1.0
 40
1.0
 40
1.0
 10
60.9019402846107
 20
53.32990502873951
 30
0.0
 10
61.17543871119027
 20
53.35767076174139
 30
0.0
 10
61.72243567249693
 20
53.41320223872426
 30
0.0
 10
62.43898653131053
 20
53.84644020732384
 30
0.0
 10
62.9900710305786
 20
54.47687398979337
 30
0.0
 10
63.13974381742958
 20
55.00591818810332
 30
0.0
 10
63.21458024562985
 20
55.27044041017586
 30
0.0
  0
LINE
  5
3E6
330
1F
100
AcDbEntity
  8
0
  6
Continuous
 62
     7
370
    25
100
AcDbLine
 10
60.9019402846107
 20
53.32991434196526
 30
0.0
 11
50.79199601554961
 21
53.32991434196526
 31
0.0
  0
SPLINE
  5
3E7
330
1F
100
AcDbEntity
  8
0
  6
Continuous
 62
     7
370
    25
100
AcDbSpline
210
0.0
220
0.0
230
1.0
 70
     8
 71
     3
 72
    11
 73
     7
 74
     0
 42
0.0000000001
 43
0.0000000001
 40
0.0
 40
0.0
 40
0.0
 40
0.0
 40
0.2500001758207881
 40
0.4999999816729267
 40
0.7500002341699556
 40
1.0
 40
1.0
 40
1.0
 40
1.0
 10
48.47935628736109
 20
55.27044041017586
 30
0.0
 10
48.55419276220513
 20
55.00591823397588
 30
0.0
 10
48.70386560114468
 20
54.47687427303526
 30
0.0
 10
49.25494939140219
 20
53.84643966544058
 30
0.0
 10
49.97150081701123
 20
53.41320255231977
 30
0.0
 10
50.51849779350707
 20
53.35767085191597
 30
0.0
 10
50.79199601554961
 20
53.32990502873951
 30
0.0
  0
LINE
  5
3E8
330
1F
100
AcDbEntity
  8
0
  6
Continuous
 62
     7
370
    25
100
AcDbLine
 10
48.47936560058684
 20
55.27044134149844
 30
0.0
 11
48.0225388392219
 21
57.86124197701508
 31
0.0
  0
SPLINE
  5
3E9
330
1F
100
AcDbEntity
  8
0
  6
Continuous
 62
     7
370
    25
100
AcDbSpline
210
0.0
220
0.0
230
1.0
 70
     8
 71
     3
 72
    15
 73
    11
 74
     0
 42
0.0000000001
 43
0.0000000001
 40
0.0
 40
0.0
 40
0.0
 40
0.0
 40
0.1249999255249901
 40
0.2499998911206307
 40
0.3749997965825047
 40
0.5000001181362749
 40
0.6249997975239572
 40
0.7499999627610078
 40
0.8750000067511304
 40
1.0
 40
1.0
 40
1.0
 40
1.0
 10
50.33516739153952
 20
60.61732536117131
 30
0.0
 10
50.16439572256373
 20
60.60652678709786
 30
0.0
 10
49.82285232986868
 20
60.58492963548926
 30
0.0
 10
49.33483392352575
 20
60.41291731332719
 30
0.0
 10
48.89420053363512
 20
60.14724816468302
 30
0.0
 10
48.52203021672041
 20
59.79042431438256
 30
0.0
 10
48.23525352030647
 20
59.36194586689549
 30
0.0
 10
48.05013850227688
 20
58.88187339560568
 30
0.0
 10
47.9654783653613
 20
58.37139954148142
 30
0.0
 10
48.0035199256055
 20
58.03129447549406
 30
0.0
 10
48.02254070186705
 20
57.86124197701508
 30
0.0
  0
LINE
  5
3EA
330
1F
100
AcDbEntity
  8
0
  6
Continuous
 62
     7
370
    25
100
AcDbLine
 10
50.33516739153952
 20
60.61732722381646
 30
0.0
 11
61.35876797729821
 21
60.61732722381646
 31
0.0
  0
SPLINE
  5
3EB
330
1F
100
AcDbEntity
  8
0
  6
Continuous
 62
     7
370
    25
100
AcDbSpline
210
0.0
220
0.0
230
1.0
 70
     8
 71
     3
 72
    15
 73
    11
 74
     0
 42
0.0000000001
 43
0.0000000001
 40
0.0
 40
0.0
 40
0.0
 40
0.0
 40
0.1249999447951482
 40
0.2499999243097339
 40
0.3750000597071977
 40
0.4999998989959423
 40
0.6249999851229098
 40
0.7500000553937563
 40
0.8749999911498578
 40
1.0
 40
1.0
 40
1.0
 40
1.0
 10
63.67139652961582
 20
57.86124197701511
 30
0.0
 10
63.69041671951123
 20
58.0312944729354
 30
0.0
 10
63.72845710458503
 20
58.37139951200899
 30
0.0
 10
63.64379878674113
 20
58.88187340802222
 30
0.0
 10
63.45868366833485
 20
59.36194638801009
 30
0.0
 10
63.17190518115895
 20
59.79042341910929
 30
0.0
 10
62.79973618523297
 20
60.14724892474816
 30
0.0
 10
62.35910198285893
 20
60.41291697961909
 30
0.0
 10
61.87108340226316
 20
60.58492975056913
 30
0.0
 10
61.52953981890627
 20
60.6065268221991
 30
0.0
 10
61.35876797729821
 20
60.61732536117131
 30
0.0
  0
ARC
  5
3EC
330
1F
100
AcDbEntity
  8
0
  6
Continuous
 62
     7
370
    25
100
AcDbCircle
 10
61.36892821355909
 20
58.39602080356178
 30
0.0
 40
1.04140000000001
100
AcDbArc
 50
269.9999999999985
 51
90.0
  0
ARC
  5
3ED
330
1F
100
AcDbEntity
  8
0
  6
Continuous
 62
     7
370
    25
100
AcDbCircle
 10
61.36892821355909
 20
58.39602080356178
 30
0.0
 40
1.04140000000001
100
AcDbArc
 50
90.0
 51
269.9999999999985
  0
ARC
  5
3EE
330
1F
100
AcDbEntity
  8
0
  6
Continuous
 62
     7
370
    25
100
AcDbCircle
 10
58.60794821355908
 20
58.39602080356176
 30
0.0
 40
1.041400000000038
100
AcDbArc
 50
269.9999999999977
 51
90.00000000000078
  0
ARC
  5
3EF
330
1F
100
AcDbEntity
  8
0
  6
Continuous
 62
     7
370
    25
100
AcDbCircle
 10
58.60794821355908
 20
58.39602080356176
 30
0.0
 40
1.041400000000038
100
AcDbArc
 50
90.00000000000078
 51
269.9999999999977
  0
ARC
  5
3F0
330
1F
100
AcDbEntity
  8
0
  6
Continuous
 62
     7
370
    25
100
AcDbCircle
 10
55.84696821355908
 20
58.39602080356176
 30
0.0
 40
1.041400000000038
100
AcDbArc
 50
269.9999999999985
 51
90.0
  0
ARC
  5
3F1
330
1F
100
AcDbEntity
  8
0
  6
Continuous
 62
     7
370
    25
100
AcDbCircle
 10
55.84696821355908
 20
58.39602080356176
 30
0.0
 40
1.041400000000038
100
AcDbArc
 50
90.0
 51
269.9999999999985
  0
ARC
  5
3F2
330
1F
100
AcDbEntity
  8
0
  6
Continuous
 62
     7
370
    25
100
AcDbCircle
 10
53.08598821355907
 20
58.39602080356178
 30
0.0
 40
1.04140000000001
100
AcDbArc
 50
269.9999999999985
 51
90.0
  0
ARC
  5
3F3
330
1F
100
AcDbEntity
  8
0
  6
Continuous
 62
     7
370
    25
100
AcDbCircle
 10
53.08598821355907
 20
58.39602080356178
 30
0.0
 40
1.04140000000001
100
AcDbArc
 50
90.0
 51
269.9999999999985
  0
ARC
  5
3F4
330
1F
100
AcDbEntity
  8
0
  6
Continuous
 62
     7
370
    25
100
AcDbCircle
 10
50.32500821355909
 20
58.39602080356178
 30
0.0
 40
1.04140000000001
100
AcDbArc
 50
269.9999999999985
 51
90.0
  0
ARC
  5
3F5
330
1F
100
AcDbEntity
  8
0
  6
Continuous
 62
     7
370
    25
100
AcDbCircle
 10
50.32500821355909
 20
58.39602080356178
 30
0.0
 40
1.04140000000001
100
AcDbArc
 50
90.0
 51
269.9999999999985
  0
ARC
  5
3F6
330
1F
100
AcDbEntity
  8
0
  6
Continuous
 62
     7
370
    25
100
AcDbCircle
 10
59.98843821355906
 20
55.55122080356179
 30
0.0
 40
1.04140000000001
100
AcDbArc
 50
269.9999999999993
 51
90.0
  0
ARC
  5
3F7
330
1F
100
AcDbEntity
  8
0
  6
Continuous
 62
     7
370
    25
100
AcDbCircle
 10
59.98843821355906
 20
55.55122080356179
 30
0.0
 40
1.04140000000001
100
AcDbArc
 50
90.0
 51
269.9999999999993
  0
ARC
  5
3F8
330
1F
100
AcDbEntity
  8
0
  6
Continuous
 62
     7
370
    25
100
AcDbCircle
 10
57.22745821355907
 20
55.55122080356179
 30
0.0
 40
1.04140000000001
100
AcDbArc
 50
269.9999999999993
 51
90.0
  0
ARC
  5
3F9
330
1F
100
AcDbEntity
  8
0
  6
Continuous
 62
     7
370
    25
100
AcDbCircle
 10
57.22745821355907
 20
55.55122080356179
 30
0.0
 40
1.04140000000001
100
AcDbArc
 50
90.0
 51
269.9999999999993
  0
ARC
  5
3FA
330
1F
100
AcDbEntity
  8
0
  6
Continuous
 62
     7
370
    25
100
AcDbCircle
 10
54.46647821355907
 20
55.55122080356179
 30
0.0
 40
1.04140000000001
100
AcDbArc
 50
269.9999999999985
 51
90.0
  0
ARC
  5
3FB
330
1F
100
AcDbEntity
  8
0
  6
Continuous
 62
     7
370
    25
100
AcDbCircle
 10
54.46647821355907
 20
55.55122080356179
 30
0.0
 40
1.04140000000001
100
AcDbArc
 50
90.0
 51
269.9999999999985
  0
ARC
  5
3FC
330
1F
100
AcDbEntity
  8
0
  6
Continuous
 62
     7
370
    25
100
AcDbCircle
 10
51.70549821355908
 20
55.55122080356179
 30
0.0
 40
1.04140000000001
100
AcDbArc
 50
269.9999999999985
 51
90.0
  0
ARC
  5
3FD
330
1F
100
AcDbEntity
  8
0
  6
Continuous
 62
     7
370
    25
100
AcDbCircle
 10
51.70549821355908
 20
55.55122080356179
 30
0.0
 40
1.04140000000001
100
AcDbArc
 50
90.0
 51
269.9999999999985
  0
LINE
  5
3FE
330
1F
100
AcDbEntity
  8
0
  6
Continuous
 62
     7
370
    25
100
AcDbLine
 10
59.52996802175135
 20
54.43362099985177
 30
0.0
 11
60.41896803894729
 21
54.43362099985177
 31
0.0
  0
LINE
  5
3FF
330
1F
100
AcDbEntity
  8
0
  6
Continuous
 62
     7
370
    25
100
AcDbLine
 10
59.52996802175135
 20
53.4176207141071
 30
0.0
 11
59.52996802175135
 21
54.43362099985177
 31
0.0
  0
LINE
  5
400
330
1F
100
AcDbEntity
  8
0
  6
Continuous
 62
     7
370
    25
100
AcDbLine
 10
60.41896803894729
 20
53.4176207141071
 30
0.0
 11
59.52996802175135
 21
53.4176207141071
 31
0.0
  0
LINE
  5
401
330
1F
100
AcDbEntity
  8
0
  6
Continuous
 62
     7
370
    25
100
AcDbLine
 10
60.41896803894729
 20
54.43362099985177
 30
0.0
 11
60.41896803894729
 21
53.4176207141071
 31
0.0
  0
LINE
  5
402
330
1F
100
AcDbEntity
  8
0
  6
Continuous
 62
     7
370
    25
100
AcDbLine
 10
60.79996837893219
 20
60.52962085167462
 30
0.0
 11
61.5619681275794
 21
60.52962085167462
 31
0.0
  0
LINE
  5
403
330
1F
100
AcDbEntity
  8
0
  6
Continuous
 62
     7
370
    25
100
AcDbLine
 10
60.79996837893219
 20
59.51362056592995
 30
0.0
 11
60.79996837893219
 21
60.52962085167462
 31
0.0
  0
LINE
  5
404
330
1F
100
AcDbEntity
  8
0
  6
Continuous
 62
     7
370
    25
100
AcDbLine
 10
61.5619681275794
 20
59.51362056592995
 30
0.0
 11
60.79996837893219
 21
59.51362056592995
 31
0.0
  0
LINE
  5
405
330
1F
100
AcDbEntity
  8
0
  6
Continuous
 62
     7
370
    25
100
AcDbLine
 10
61.5619681275794
 20
60.52962085167462
 30
0.0
 11
61.5619681275794
 21
59.51362056592995
 31
0.0
  0
SPLINE
  5
406
330
1F
100
AcDbEntity
  8
0
  6
Continuous
 62
     7
370
    25
100
AcDbSpline
210
0.0
220
0.0
230
1.0
 70
     8
 71
     3
 72
    11
 73
     7
 74
     0
 42
0.0000000001
 43
0.0000000001
 40
0.0
 40
0.0
 40
0.0
 40
0.0
 40
0.2500000570375605
 40
0.499999971920125
 40
0.7499999913277103
 40
1.0
 40
1.0
 40
1.0
 40
1.0
 10
60.9019402846107
 20
53.03659802238041
 30
0.0
 10
61.20959896550896
 20
53.06783208640382
 30
0.0
 10
61.82491615236464
 20
53.13030019669034
 30
0.0
 10
62.63096459988158
 20
53.61765006940842
 30
0.0
 10
63.25087960789983
 20
54.32682534036306
 30
0.0
 10
63.41924680904369
 20
54.92194727852376
 30
0.0
 10
63.50343040780813
 20
55.21950824121529
 30
0.0
  0
LINE
  5
407
330
1F
100
AcDbEntity
  8
0
  6
Continuous
 62
     7
370
    25
100
AcDbLine
 10
63.96023644724578
 20
57.81031167069966
 30
0.0
 11
63.50340852172762
 21
55.21951196650559
 31
0.0
  0
SPLINE
  5
408
330
1F
100
AcDbEntity
  8
0
  6
Continuous
 62
     7
370
    25
100
AcDbSpline
210
0.0
220
0.0
230
1.0
 70
     8
 71
     3
 72
    11
 73
     7
 74
     0
 42
0.0000000001
 43
0.0000000001
 40
0.0
 40
0.0
 40
0.0
 40
0.0
 40
0.249999963842595
 40
0.4999999627378457
 40
0.7500001726232765
 40
1.0
 40
1.0
 40
1.0
 40
1.0
 10
48.1905065908441
 20
55.21950824121529
 30
0.0
 10
48.27468993010723
 20
54.92194728692857
 30
0.0
 10
48.44305662043686
 20
54.32682533663387
 30
0.0
 10
49.06297164887963
 20
53.61764960420376
 30
0.0
 10
49.86902058405377
 20
53.13030061740227
 30
0.0
 10
50.48433769529374
 20
53.06783220479124
 30
0.0
 10
50.79199601554961
 20
53.03659802238041
 30
0.0
  0
LINE
  5
409
330
1F
100
AcDbEntity
  8
0
  6
Continuous
 62
     7
370
    25
100
AcDbLine
 10
60.9019402846107
 20
53.0366203741222
 30
0.0
 11
50.79199601554961
 21
53.0366203741222
 31
0.0
  0
LINE
  5
40A
330
1F
100
AcDbEntity
  8
0
  6
Continuous
 62
     7
370
    25
100
AcDbLine
 10
48.19052707994075
 20
55.21951196650559
 30
0.0
 11
47.73370031857581
 21
57.81031167069966
 31
0.0
  0
SPLINE
  5
40B
330
1F
100
AcDbEntity
  8
0
  6
Continuous
 62
     7
370
    25
100
AcDbSpline
210
0.0
220
0.0
230
1.0
 70
     8
 71
     3
 72
    15
 73
    11
 74
     0
 42
0.0000000001
 43
0.0000000001
 40
0.0
 40
0.0
 40
0.0
 40
0.0
 40
0.1249997689100281
 40
0.2499998716599501
 40
0.3749999338397821
 40
0.5000000722627941
 40
0.6249999320049228
 40
0.7499999700209813
 40
0.874999947032094
 40
1.0
 40
1.0
 40
1.0
 40
1.0
 10
50.33516739153952
 20
60.91063423017556
 30
0.0
 10
50.14306624351944
 20
60.89848663459671
 30
0.0
 10
49.75886343443014
 20
60.8741914109961
 30
0.0
 10
49.20989032249138
 20
60.68069438361075
 30
0.0
 10
48.71422062691735
 20
60.38184254379999
 30
0.0
 10
48.29556544739883
 20
59.98045052300432
 30
0.0
 10
47.97296807454294
 20
59.49845536072365
 30
0.0
 10
47.76473391486236
 20
58.95841993679136
 30
0.0
 10
47.66949864757906
 20
58.38418737049074
 30
0.0
 10
47.71229106489902
 20
58.00160236761318
 30
0.0
 10
47.73368728005976
 20
57.81030980805451
 30
0.0
  0
LINE
  5
40C
330
1F
100
AcDbEntity
  8
0
  6
Continuous
 62
     7
370
    25
100
AcDbLine
 10
50.33516739153952
 20
60.91062119165951
 30
0.0
 11
61.3587684429595
 21
60.91062119165951
 31
0.0
  0
SPLINE
  5
40D
330
1F
100
AcDbEntity
  8
0
  6
Continuous
 62
     7
370
    25
100
AcDbSpline
210
0.0
220
0.0
230
1.0
 70
     8
 71
     3
 72
    15
 73
    11
 74
     0
 42
0.0000000001
 43
0.0000000001
 40
0.0
 40
0.0
 40
0.0
 40
0.0
 40
0.1250000401865106
 40
0.2499999692377293
 40
0.3750000894793668
 40
0.4999999678617426
 40
0.6249999506046224
 40
0.7500000898304707
 40
0.875000039362739
 40
1.0
 40
1.0
 40
1.0
 40
1.0
 10
63.96024878726989
 20
57.81030980805451
 30
0.0
 10
63.98164474875695
 20
58.00160233946511
 30
0.0
 10
64.02443665270827
 20
58.38418723221147
 30
0.0
 10
63.92920380078402
 20
58.95842031229742
 30
0.0
 10
63.72096743000624
 20
59.49845520544887
 30
0.0
 10
63.39837021845458
 20
59.98045012548326
 30
0.0
 10
62.97971581602272
 20
60.38184301927564
 30
0.0
 10
62.48404595080024
 20
60.6806940301422
 30
0.0
 10
61.93507286592309
 20
60.87419165473159
 30
0.0
 10
61.55086992296947
 20
60.89848670466785
 30
0.0
 10
61.3587684429595
 20
60.91063423017556
 30
0.0
  0
LINE
  5
40E
330
1F
100
AcDbEntity
  8
0
  6
Continuous
 62
     7
370
    25
100
AcDbLine
 10
60.19671815106363
 20
53.67432301799351
 30
0.0
 11
60.22846833461613
 21
53.75538719753319
 31
0.0
  0
LINE
  5
40F
330
1F
100
AcDbEntity
  8
0
  6
Continuous
 62
     7
370
    25
100
AcDbLine
 10
60.14909310856552
 20
53.60947223315531
 30
0.0
 11
60.19671815106363
 21
53.67432301799351
 31
0.0
  0
LINE
  5
410
330
1F
100
AcDbEntity
  8
0
  6
Continuous
 62
     7
370
    25
100
AcDbLine
 10
60.06971834817619
 20
53.56083391169602
 30
0.0
 11
60.14909310856552
 21
53.60947223315531
 31
0.0
  0
LINE
  5
411
330
1F
100
AcDbEntity
  8
0
  6
Continuous
 62
     7
370
    25
100
AcDbLine
 10
59.99034312212558
 20
53.54462051699454
 30
0.0
 11
60.06971834817619
 21
53.56083391169602
 31
0.0
  0
LINE
  5
412
330
1F
100
AcDbEntity
  8
0
  6
Continuous
 62
     7
370
    25
100
AcDbLine
 10
59.91096836173625
 20
53.54462051699454
 30
0.0
 11
59.99034312212558
 21
53.54462051699454
 31
0.0
  0
LINE
  5
413
330
1F
100
AcDbEntity
  8
0
  6
Continuous
 62
     7
370
    25
100
AcDbLine
 10
59.83159313568563
 20
53.56083391169602
 30
0.0
 11
59.91096836173625
 21
53.54462051699454
 31
0.0
  0
LINE
  5
414
330
1F
100
AcDbEntity
  8
0
  6
Continuous
 62
     7
370
    25
100
AcDbLine
 10
59.7522183752963
 20
53.60947223315531
 30
0.0
 11
59.83159313568563
 21
53.56083391169602
 31
0.0
  0
LINE
  5
415
330
1F
100
AcDbEntity
  8
0
  6
Continuous
 62
     7
370
    25
100
AcDbLine
 10
59.70459333279819
 20
53.67432301799351
 30
0.0
 11
59.7522183752963
 21
53.60947223315531
 31
0.0
  0
LINE
  5
416
330
1F
100
AcDbEntity
  8
0
  6
Continuous
 62
     7
370
    25
100
AcDbLine
 10
59.67284314924569
 20
53.75538719753319
 30
0.0
 11
59.70459333279819
 21
53.67432301799351
 31
0.0
  0
LINE
  5
417
330
1F
100
AcDbEntity
  8
0
  6
Continuous
 62
     7
370
    25
100
AcDbLine
 10
59.65696829030008
 20
53.86887630383069
 30
0.0
 11
59.67284314924569
 21
53.75538719753319
 31
0.0
  0
LINE
  5
418
330
1F
100
AcDbEntity
  8
0
  6
Continuous
 62
     7
370
    25
100
AcDbLine
 10
60.05384302356929
 20
54.29040780226285
 30
0.0
 11
59.97446826317997
 21
54.30662119696433
 31
0.0
  0
LINE
  5
419
330
1F
100
AcDbEntity
  8
0
  6
Continuous
 62
     7
370
    25
100
AcDbLine
 10
59.73634305068941
 20
53.98236541012818
 30
0.0
 11
59.7522183752963
 21
54.07964205304677
 31
0.0
  0
LINE
  5
41A
330
1F
100
AcDbEntity
  8
0
  6
Continuous
 62
     7
370
    25
100
AcDbLine
 10
60.14909310856552
 20
53.96615294674927
 30
0.0
 11
60.06971834817619
 21
54.01479126820857
 31
0.0
  0
LINE
  5
41B
330
1F
100
AcDbEntity
  8
0
  6
Continuous
 62
     7
370
    25
100
AcDbLine
 10
60.22846833461613
 20
53.8364504457503
 30
0.0
 11
60.19671815106363
 21
53.91751462528998
 31
0.0
  0
LINE
  5
41C
330
1F
100
AcDbEntity
  8
0
  6
Continuous
 62
     7
370
    25
100
AcDbLine
 10
60.22846833461613
 20
53.75538719753319
 30
0.0
 11
60.22846833461613
 21
53.8364504457503
 31
0.0
  0
LINE
  5
41D
330
1F
100
AcDbEntity
  8
0
  6
Continuous
 62
     7
370
    25
100
AcDbLine
 10
60.00621844673247
 20
53.94993955204779
 30
0.0
 11
60.05384302356929
 21
53.93372708866889
 31
0.0
  0
LINE
  5
41E
330
1F
100
AcDbEntity
  8
0
  6
Continuous
 62
     7
370
    25
100
AcDbLine
 10
59.89509303712935
 20
53.94993955204779
 30
0.0
 11
60.00621844673247
 21
53.94993955204779
 31
0.0
  0
LINE
  5
41F
330
1F
100
AcDbEntity
  8
0
  6
Continuous
 62
     7
370
    25
100
AcDbLine
 10
59.84746799463124
 20
53.93372708866889
 30
0.0
 11
59.89509303712935
 21
53.94993955204779
 31
0.0
  0
LINE
  5
420
330
1F
100
AcDbEntity
  8
0
  6
Continuous
 62
     7
370
    25
100
AcDbLine
 10
59.79984341779442
 20
53.9013012305885
 30
0.0
 11
59.84746799463124
 21
53.93372708866889
 31
0.0
  0
LINE
  5
421
330
1F
100
AcDbEntity
  8
0
  6
Continuous
 62
     7
370
    25
100
AcDbLine
 10
59.76809323424191
 20
53.86887630383069
 30
0.0
 11
59.79984341779442
 21
53.9013012305885
 31
0.0
  0
LINE
  5
422
330
1F
100
AcDbEntity
  8
0
  6
Continuous
 62
     7
370
    25
100
AcDbLine
 10
59.7522183752963
 20
53.82023798237139
 30
0.0
 11
59.76809323424191
 21
53.86887630383069
 31
0.0
  0
LINE
  5
423
330
1F
100
AcDbEntity
  8
0
  6
Continuous
 62
     7
370
    25
100
AcDbLine
 10
59.7522183752963
 20
53.7715996609121
 30
0.0
 11
59.7522183752963
 21
53.82023798237139
 31
0.0
  0
LINE
  5
424
330
1F
100
AcDbEntity
  8
0
  6
Continuous
 62
     7
370
    25
100
AcDbLine
 10
59.76809323424191
 20
53.72296133945281
 30
0.0
 11
59.7522183752963
 21
53.7715996609121
 31
0.0
  0
LINE
  5
425
330
1F
100
AcDbEntity
  8
0
  6
Continuous
 62
     7
370
    25
100
AcDbLine
 10
59.79984341779442
 20
53.67432301799351
 30
0.0
 11
59.76809323424191
 21
53.72296133945281
 31
0.0
  0
LINE
  5
426
330
1F
100
AcDbEntity
  8
0
  6
Continuous
 62
     7
370
    25
100
AcDbLine
 10
59.84746799463124
 20
53.64189715991313
 30
0.0
 11
59.79984341779442
 21
53.67432301799351
 31
0.0
  0
LINE
  5
427
330
1F
100
AcDbEntity
  8
0
  6
Continuous
 62
     7
370
    25
100
AcDbLine
 10
59.89509303712935
 20
53.62568469653422
 30
0.0
 11
59.84746799463124
 21
53.64189715991313
 31
0.0
  0
LINE
  5
428
330
1F
100
AcDbEntity
  8
0
  6
Continuous
 62
     7
370
    25
100
AcDbLine
 10
60.00621844673247
 20
53.62568469653422
 30
0.0
 11
59.89509303712935
 21
53.62568469653422
 31
0.0
  0
LINE
  5
429
330
1F
100
AcDbEntity
  8
0
  6
Continuous
 62
     7
370
    25
100
AcDbLine
 10
60.05384302356929
 20
53.64189715991313
 30
0.0
 11
60.00621844673247
 21
53.62568469653422
 31
0.0
  0
LINE
  5
42A
330
1F
100
AcDbEntity
  8
0
  6
Continuous
 62
     7
370
    25
100
AcDbLine
 10
60.10146806606741
 20
53.67432301799351
 30
0.0
 11
60.05384302356929
 21
53.64189715991313
 31
0.0
  0
LINE
  5
42B
330
1F
100
AcDbEntity
  8
0
  6
Continuous
 62
     7
370
    25
100
AcDbLine
 10
60.13321824961991
 20
53.72296133945281
 30
0.0
 11
60.10146806606741
 21
53.67432301799351
 31
0.0
  0
LINE
  5
42C
330
1F
100
AcDbEntity
  8
0
  6
Continuous
 62
     7
370
    25
100
AcDbLine
 10
60.14909310856552
 20
53.7715996609121
 30
0.0
 11
60.13321824961991
 21
53.72296133945281
 31
0.0
  0
LINE
  5
42D
330
1F
100
AcDbEntity
  8
0
  6
Continuous
 62
     7
370
    25
100
AcDbLine
 10
60.14909310856552
 20
53.82023798237139
 30
0.0
 11
60.14909310856552
 21
53.7715996609121
 31
0.0
  0
LINE
  5
42E
330
1F
100
AcDbEntity
  8
0
  6
Continuous
 62
     7
370
    25
100
AcDbLine
 10
60.13321824961991
 20
53.86887630383069
 30
0.0
 11
60.14909310856552
 21
53.82023798237139
 31
0.0
  0
LINE
  5
42F
330
1F
100
AcDbEntity
  8
0
  6
Continuous
 62
     7
370
    25
100
AcDbLine
 10
60.10146806606741
 20
53.9013012305885
 30
0.0
 11
60.13321824961991
 21
53.86887630383069
 31
0.0
  0
LINE
  5
430
330
1F
100
AcDbEntity
  8
0
  6
Continuous
 62
     7
370
    25
100
AcDbLine
 10
60.05384302356929
 20
53.93372708866889
 30
0.0
 11
60.10146806606741
 21
53.9013012305885
 31
0.0
  0
LINE
  5
431
330
1F
100
AcDbEntity
  8
0
  6
Continuous
 62
     7
370
    25
100
AcDbLine
 10
59.99034312212558
 20
54.03100373158747
 30
0.0
 11
59.91096836173625
 21
54.03100373158747
 31
0.0
  0
LINE
  5
432
330
1F
100
AcDbEntity
  8
0
  6
Continuous
 62
     7
370
    25
100
AcDbLine
 10
60.13321824961991
 20
54.24176948080355
 30
0.0
 11
60.05384302356929
 21
54.29040780226285
 31
0.0
  0
LINE
  5
433
330
1F
100
AcDbEntity
  8
0
  6
Continuous
 62
     7
370
    25
100
AcDbLine
 10
59.73634305068941
 20
53.94993955204779
 30
0.0
 11
59.73634305068941
 21
53.98236541012818
 31
0.0
  0
LINE
  5
434
330
1F
100
AcDbEntity
  8
0
  6
Continuous
 62
     7
370
    25
100
AcDbLine
 10
60.19671815106363
 20
53.91751462528998
 30
0.0
 11
60.14909310856552
 21
53.96615294674927
 31
0.0
  0
LINE
  5
435
330
1F
100
AcDbEntity
  8
0
  6
Continuous
 62
     7
370
    25
100
AcDbLine
 10
60.06971834817619
 20
54.01479126820857
 30
0.0
 11
59.99034312212558
 21
54.03100373158747
 31
0.0
  0
LINE
  5
436
330
1F
100
AcDbEntity
  8
0
  6
Continuous
 62
     7
370
    25
100
AcDbLine
 10
59.65696829030008
 20
53.98236541012818
 30
0.0
 11
59.65696829030008
 21
53.86887630383069
 31
0.0
  0
LINE
  5
437
330
1F
100
AcDbEntity
  8
0
  6
Continuous
 62
     7
370
    25
100
AcDbLine
 10
60.1173433906743
 20
54.12828037450606
 30
0.0
 11
60.19671815106363
 21
54.12828037450606
 31
0.0
  0
LINE
  5
438
330
1F
100
AcDbEntity
  8
0
  6
Continuous
 62
     7
370
    25
100
AcDbLine
 10
59.83159313568563
 20
54.01479126820857
 30
0.0
 11
59.73634305068941
 21
53.94993955204779
 31
0.0
  0
LINE
  5
439
330
1F
100
AcDbEntity
  8
0
  6
Continuous
 62
     7
370
    25
100
AcDbLine
 10
60.18084329211802
 20
54.17691869596535
 30
0.0
 11
60.13321824961991
 21
54.24176948080355
 31
0.0
  0
LINE
  5
43A
330
1F
100
AcDbEntity
  8
0
  6
Continuous
 62
     7
370
    25
100
AcDbLine
 10
59.7522183752963
 20
54.07964205304677
 30
0.0
 11
59.76809323424191
 21
54.12828037450606
 31
0.0
  0
LINE
  5
43B
330
1F
100
AcDbEntity
  8
0
  6
Continuous
 62
     7
370
    25
100
AcDbLine
 10
59.91096836173625
 20
54.30662119696433
 30
0.0
 11
59.83159313568563
 21
54.29040780226285
 31
0.0
  0
LINE
  5
43C
330
1F
100
AcDbEntity
  8
0
  6
Continuous
 62
     7
370
    25
100
AcDbLine
 10
59.91096836173625
 20
54.03100373158747
 30
0.0
 11
59.83159313568563
 21
54.01479126820857
 31
0.0
  0
LINE
  5
43D
330
1F
100
AcDbEntity
  8
0
  6
Continuous
 62
     7
370
    25
100
AcDbLine
 10
59.83159313568563
 20
54.29040780226285
 30
0.0
 11
59.7522183752963
 21
54.24176948080355
 31
0.0
  0
LINE
  5
43E
330
1F
100
AcDbEntity
  8
0
  6
Continuous
 62
     7
370
    25
100
AcDbLine
 10
59.67284314924569
 20
54.09585451642567
 30
0.0
 11
59.65696829030008
 21
53.98236541012818
 31
0.0
  0
LINE
  5
43F
330
1F
100
AcDbEntity
  8
0
  6
Continuous
 62
     7
370
    25
100
AcDbLine
 10
60.0855932071218
 20
54.17691869596535
 30
0.0
 11
60.1173433906743
 21
54.12828037450606
 31
0.0
  0
LINE
  5
440
330
1F
100
AcDbEntity
  8
0
  6
Continuous
 62
     7
370
    25
100
AcDbLine
 10
60.19671815106363
 20
54.12828037450606
 30
0.0
 11
60.18084329211802
 21
54.17691869596535
 31
0.0
  0
LINE
  5
441
330
1F
100
AcDbEntity
  8
0
  6
Continuous
 62
     7
370
    25
100
AcDbLine
 10
59.76809323424191
 20
54.12828037450606
 30
0.0
 11
59.79984341779442
 21
54.17691869596535
 31
0.0
  0
LINE
  5
442
330
1F
100
AcDbEntity
  8
0
  6
Continuous
 62
     7
370
    25
100
AcDbLine
 10
59.79984341779442
 20
54.17691869596535
 30
0.0
 11
59.84746799463124
 21
54.20934455404574
 31
0.0
  0
LINE
  5
443
330
1F
100
AcDbEntity
  8
0
  6
Continuous
 62
     7
370
    25
100
AcDbLine
 10
59.7522183752963
 20
54.24176948080355
 30
0.0
 11
59.70459333279819
 21
54.17691869596535
 31
0.0
  0
LINE
  5
444
330
1F
100
AcDbEntity
  8
0
  6
Continuous
 62
     7
370
    25
100
AcDbLine
 10
59.99034312212558
 20
54.22555701742465
 30
0.0
 11
60.03796816462369
 21
54.20934455404574
 31
0.0
  0
LINE
  5
445
330
1F
100
AcDbEntity
  8
0
  6
Continuous
 62
     7
370
    25
100
AcDbLine
 10
59.70459333279819
 20
54.17691869596535
 30
0.0
 11
59.67284314924569
 21
54.09585451642567
 31
0.0
  0
LINE
  5
446
330
1F
100
AcDbEntity
  8
0
  6
Continuous
 62
     7
370
    25
100
AcDbLine
 10
59.84746799463124
 20
54.20934455404574
 30
0.0
 11
59.89509303712935
 21
54.22555701742465
 31
0.0
  0
LINE
  5
447
330
1F
100
AcDbEntity
  8
0
  6
Continuous
 62
     7
370
    25
100
AcDbLine
 10
59.89509303712935
 20
54.22555701742465
 30
0.0
 11
59.99034312212558
 21
54.22555701742465
 31
0.0
  0
LINE
  5
448
330
1F
100
AcDbEntity
  8
0
  6
Continuous
 62
     7
370
    25
100
AcDbLine
 10
60.03796816462369
 20
54.20934455404574
 30
0.0
 11
60.0855932071218
 21
54.17691869596535
 31
0.0
  0
LINE
  5
449
330
1F
100
AcDbEntity
  8
0
  6
Continuous
 62
     7
370
    25
100
AcDbLine
 10
59.97446826317997
 20
54.30662119696433
 30
0.0
 11
59.91096836173625
 21
54.30662119696433
 31
0.0
  0
LINE
  5
44A
330
1F
100
AcDbEntity
  8
0
  6
Continuous
 62
     7
370
    25
100
AcDbLine
 10
61.05396798470707
 20
60.15942944149071
 30
0.0
 11
61.14921806970329
 21
60.27291854778821
 31
0.0
  0
LINE
  5
44B
330
1F
100
AcDbEntity
  8
0
  6
Continuous
 62
     7
370
    25
100
AcDbLine
 10
61.05396798470707
 20
60.28913101116711
 30
0.0
 11
61.05396798470707
 21
60.15942944149071
 31
0.0
  0
LINE
  5
44C
330
1F
100
AcDbEntity
  8
0
  6
Continuous
 62
     7
370
    25
100
AcDbLine
 10
61.14921806970329
 20
60.4026201174646
 30
0.0
 11
61.05396798470707
 21
60.28913101116711
 31
0.0
  0
LINE
  5
44D
330
1F
100
AcDbEntity
  8
0
  6
Continuous
 62
     7
370
    25
100
AcDbLine
 10
61.24446815469951
 20
60.4026201174646
 30
0.0
 11
61.14921806970329
 21
60.4026201174646
 31
0.0
  0
LINE
  5
44E
330
1F
100
AcDbEntity
  8
0
  6
Continuous
 62
     7
370
    25
100
AcDbLine
 10
61.24446815469951
 20
59.64062130013997
 30
0.0
 11
61.24446815469951
 21
60.4026201174646
 31
0.0
  0
LINE
  5
44F
330
1F
100
AcDbEntity
  8
0
  6
Continuous
 62
     7
370
    25
100
AcDbLine
 10
61.14921806970329
 20
60.27291854778821
 30
0.0
 11
61.14921806970329
 21
59.64062130013997
 31
0.0
  0
LINE
  5
450
330
1F
100
AcDbEntity
  8
0
  6
Continuous
 62
     7
370
    25
100
AcDbLine
 10
61.14921806970329
 20
59.64062130013997
 30
0.0
 11
61.24446815469951
 21
59.64062130013997
 31
0.0
  0
CIRCLE
  5
451
330
1F
100
AcDbEntity
  8
0
  6
Continuous
 62
     7
370
    25
100
AcDbCircle
 10
50.32500821355909
 20
58.39602080356178
 30
0.0
 40
0.5842000000004362
  0
CIRCLE
  5
452
330
1F
100
AcDbEntity
  8
0
  6
Continuous
 62
     7
370
    25
100
AcDbCircle
 10
51.70549821355908
 20
55.55122080356179
 30
0.0
 40
0.5841999999999814
  0
CIRCLE
  5
453
330
1F
100
AcDbEntity
  8
0
  6
Continuous
 62
     7
370
    25
100
AcDbCircle
 10
53.08598821355907
 20
58.39602080356178
 30
0.0
 40
0.5842000000004362
  0
CIRCLE
  5
454
330
1F
100
AcDbEntity
  8
0
  6
Continuous
 62
     7
370
    25
100
AcDbCircle
 10
55.84696821355908
 20
58.39602080356178
 30
0.0
 40
0.5842000000004362
  0
CIRCLE
  5
455
330
1F
100
AcDbEntity
  8
0
  6
Continuous
 62
     7
370
    25
100
AcDbCircle
 10
54.46647821355907
 20
55.55122080356179
 30
0.0
 40
0.5841999999999814
  0
CIRCLE
  5
456
330
1F
100
AcDbEntity
  8
0
  6
Continuous
 62
     7
370
    25
100
AcDbCircle
 10
59.98843821355906
 20
55.55122080356179
 30
0.0
 40
0.5841999999999814
  0
CIRCLE
  5
457
330
1F
100
AcDbEntity
  8
0
  6
Continuous
 62
     7
370
    25
100
AcDbCircle
 10
57.22745821355907
 20
55.55122080356179
 30
0.0
 40
0.5841999999999814
  0
CIRCLE
  5
458
330
1F
100
AcDbEntity
  8
0
  6
Continuous
 62
     7
370
    25
100
AcDbCircle
 10
58.60794821355908
 20
58.39602080356178
 30
0.0
 40
0.5842000000004362
  0
CIRCLE
  5
459
330
1F
100
AcDbEntity
  8
0
  6
Continuous
 62
     7
370
    25
100
AcDbCircle
 10
61.36892821355909
 20
58.39602080356178
 30
0.0
 40
0.5842000000004362
  0
LINE
  5
45A
330
1F
100
AcDbEntity
  8
0
  6
Continuous
 62
     7
370
    25
100
AcDbLine
 10
62.00646836900801
 20
51.76662048260266
 30
0.0
 11
62.00646836900801
 21
51.38361873040492
 31
0.0
  0
LINE
  5
45B
330
1F
100
AcDbEntity
  8
0
  6
Continuous
 62
     7
370
    25
100
AcDbLine
 10
49.68746793115229
 20
51.76662048260266
 30
0.0
 11
62.00646836900801
 21
51.76662048260266
 31
0.0
  0
LINE
  5
45C
330
1F
100
AcDbEntity
  8
0
  6
Continuous
 62
     7
370
    25
100
AcDbLine
 10
49.68746793115229
 20
51.38361873040492
 30
0.0
 11
49.68746793115229
 21
51.76662048260266
 31
0.0
  0
LINE
  5
45D
330
1F
100
AcDbEntity
  8
0
  6
Continuous
 62
     7
370
    25
100
AcDbLine
 10
63.71370511719674
 20
62.18062108317906
 30
0.0
 11
47.98023071730227
 21
62.18062108317906
 31
0.0
  0
LINE
  5
45E
330
1F
100
AcDbEntity
  8
0
  6
Continuous
 62
     7
370
    25
100
AcDbLine
 10
62.00646836900801
 20
51.48722091625029
 30
0.0
 11
49.68746793115229
 21
51.48722091625029
 31
0.0
  0
LINE
  5
45F
330
1F
100
AcDbEntity
  8
0
  6
Continuous
 62
     7
370
    25
100
AcDbLine
 10
54.97701787048669
 20
51.38361873040492
 30
0.0
 11
54.97701787048669
 21
51.48722091625029
 31
0.0
  0
LINE
  5
460
330
1F
100
AcDbEntity
  8
0
  6
Continuous
 62
     7
370
    25
100
AcDbLine
 10
52.21603852355571
 20
51.38361873040492
 30
0.0
 11
52.21603852355571
 21
51.48722091625029
 31
0.0
  0
LINE
  5
461
330
1F
100
AcDbEntity
  8
0
  6
Continuous
 62
     7
370
    25
100
AcDbLine
 10
57.73799814874024
 20
51.38361873040492
 30
0.0
 11
57.73799814874024
 21
51.48722091625029
 31
0.0
  0
LINE
  5
462
330
1F
100
AcDbEntity
  8
0
  6
Continuous
 62
     7
370
    25
100
AcDbLine
 10
60.4989784269938
 20
51.38361873040492
 30
0.0
 11
60.4989784269938
 21
51.48722091625029
 31
0.0
  0
LINE
  5
463
330
1F
100
AcDbEntity
  8
0
  6
Continuous
 62
     7
370
    25
100
AcDbLine
 10
53.93561855548711
 20
51.48722091625029
 30
0.0
 11
53.93561855548711
 21
51.38361873040492
 31
0.0
  0
LINE
  5
464
330
1F
100
AcDbEntity
  8
0
  6
Continuous
 62
     7
370
    25
100
AcDbLine
 10
51.17463827723355
 20
51.48722091625029
 30
0.0
 11
51.17463827723355
 21
51.38361873040492
 31
0.0
  0
LINE
  5
465
330
1F
100
AcDbEntity
  8
0
  6
Continuous
 62
     7
370
    25
100
AcDbLine
 10
56.69659790241809
 20
51.48722091625029
 30
0.0
 11
56.69659790241809
 21
51.38361873040492
 31
0.0
  0
LINE
  5
466
330
1F
100
AcDbEntity
  8
0
  6
Continuous
 62
     7
370
    25
100
AcDbLine
 10
59.45757818067164
 20
51.48722091625029
 30
0.0
 11
59.45757818067164
 21
51.38361873040492
 31
0.0
  0
LINE
  5
467
330
1F
100
AcDbEntity
  8
0
  6
Continuous
 62
     7
370
    25
100
AcDbLine
 10
56.35750800961346
 20
51.38361873040492
 30
0.0
 11
56.35750800961346
 21
51.48722091625029
 31
0.0
  0
LINE
  5
468
330
1F
100
AcDbEntity
  8
0
  6
Continuous
 62
     7
370
    25
100
AcDbLine
 10
50.83554838442893
 20
51.38361873040492
 30
0.0
 11
50.83554838442893
 21
51.48722091625029
 31
0.0
  0
LINE
  5
469
330
1F
100
AcDbEntity
  8
0
  6
Continuous
 62
     7
370
    25
100
AcDbLine
 10
53.59652866268248
 20
51.38361873040492
 30
0.0
 11
53.59652866268248
 21
51.48722091625029
 31
0.0
  0
LINE
  5
46A
330
1F
100
AcDbEntity
  8
0
  6
Continuous
 62
     7
370
    25
100
AcDbLine
 10
59.11848828786702
 20
51.38361873040492
 30
0.0
 11
59.11848828786702
 21
51.48722091625029
 31
0.0
  0
LINE
  5
46B
330
1F
100
AcDbEntity
  8
0
  6
Continuous
 62
     7
370
    25
100
AcDbLine
 10
61.87946810045929
 20
51.38361873040492
 30
0.0
 11
61.87946810045929
 21
51.48722091625029
 31
0.0
  0
LINE
  5
46C
330
1F
100
AcDbEntity
  8
0
  6
Continuous
 62
     7
370
    25
100
AcDbLine
 10
49.79414906942935
 20
51.48722091625029
 30
0.0
 11
49.79414906942935
 21
51.38361873040492
 31
0.0
  0
LINE
  5
46D
330
1F
100
AcDbEntity
  8
0
  6
Continuous
 62
     7
370
    25
100
AcDbLine
 10
52.55512841636033
 20
51.48722091625029
 30
0.0
 11
52.55512841636033
 21
51.38361873040492
 31
0.0
  0
LINE
  5
46E
330
1F
100
AcDbEntity
  8
0
  6
Continuous
 62
     7
370
    25
100
AcDbLine
 10
58.07708804154486
 20
51.48722091625029
 30
0.0
 11
58.07708804154486
 21
51.38361873040492
 31
0.0
  0
LINE
  5
46F
330
1F
100
AcDbEntity
  8
0
  6
Continuous
 62
     7
370
    25
100
AcDbLine
 10
60.83806831979842
 20
51.48722091625029
 30
0.0
 11
60.83806831979842
 21
51.38361873040492
 31
0.0
  0
LINE
  5
470
330
1F
100
AcDbEntity
  8
0
  6
Continuous
 62
     7
370
    25
100
AcDbLine
 10
55.31610776329131
 20
51.48722091625029
 30
0.0
 11
55.31610776329131
 21
51.38361873040492
 31
0.0
  0
SPLINE
  5
471
330
1F
100
AcDbEntity
  8
0
  6
Continuous
 62
     7
370
    25
100
AcDbSpline
210
0.0
220
0.0
230
1.0
 70
     8
 71
     3
 72
     9
 73
     5
 74
     0
 42
0.0000000001
 43
0.0000000001
 40
0.0
 40
0.0
 40
0.0
 40
0.0
 40
0.4912122928909934
 40
1.0
 40
1.0
 40
1.0
 40
1.0
 10
40.82119320178121
 20
58.36560344258842
 30
0.0
 10
41.22551909316413
 20
58.61019283321224
 30
0.0
 10
42.04863752328991
 20
59.10812294238022
 30
0.0
 10
42.87216948820852
 20
59.60630171637593
 30
0.0
 10
43.29117242837043
 20
59.85976895252759
 30
0.0
  0
SPLINE
  5
472
330
1F
100
AcDbEntity
  8
0
  6
Continuous
 62
     7
370
    25
100
AcDbSpline
210
0.0
220
0.0
230
1.0
 70
     8
 71
     3
 72
    11
 73
     7
 74
     0
 42
0.0000000001
 43
0.0000000001
 40
0.0
 40
0.0
 40
0.0
 40
0.0
 40
0.0133254839575963
 40
0.4375572602055721
 40
0.8731436552975655
 40
1.0
 40
1.0
 40
1.0
 40
1.0
 10
43.29117242837043
 20
59.85976895252759
 30
0.0
 10
43.3022834018943
 20
59.85365351287843
 30
0.0
 10
43.66712472013785
 20
59.65284617061931
 30
0.0
 10
44.40528134943956
 20
59.24654530540135
 30
0.0
 10
45.24454352665154
 20
58.7846079488759
 30
0.0
 10
45.71421651809235
 20
58.52609311219552
 30
0.0
 10
45.82014907741637
 20
58.46778629283005
 30
0.0
  0
SPLINE
  5
473
330
1F
100
AcDbEntity
  8
0
  6
Continuous
 62
     7
370
    25
100
AcDbSpline
210
0.0
220
0.0
230
1.0
 70
     8
 71
     3
 72
     9
 73
     5
 74
     0
 42
0.0000000001
 43
0.0000000001
 40
0.0
 40
0.0
 40
0.0
 40
0.0
 40
0.4912125602012107
 40
0.9999999999999998
 40
0.9999999999999998
 40
0.9999999999999998
 40
0.9999999999999998
 10
45.82014907741637
 20
58.46778629283005
 30
0.0
 10
45.82980608801167
 20
57.99533472854662
 30
0.0
 10
45.84946562316559
 20
57.03352796185905
 30
0.0
 10
45.86913516085816
 20
56.07123877494794
 30
0.0
 10
45.87914277458281
 20
55.58163812319333
 30
0.0
  0
SPLINE
  5
474
330
1F
100
AcDbEntity
  8
0
  6
Continuous
 62
     7
370
    25
100
AcDbSpline
210
0.0
220
0.0
230
1.0
 70
     8
 71
     3
 72
     9
 73
     5
 74
     0
 42
0.0000000001
 43
0.0000000001
 40
0.0
 40
0.0
 40
0.0
 40
0.0
 40
0.4912122928909934
 40
1.0
 40
1.0
 40
1.0
 40
1.0
 10
45.8791427745828
 20
55.58163812319333
 30
0.0
 10
45.47481688319989
 20
55.33704873256951
 30
0.0
 10
44.65169845307412
 20
54.83911862340153
 30
0.0
 10
43.82816648815551
 20
54.3409398494058
 30
0.0
 10
43.40916354799361
 20
54.08747261325413
 30
0.0
  0
SPLINE
  5
475
330
1F
100
AcDbEntity
  8
0
  6
Continuous
 62
     7
370
    25
100
AcDbSpline
210
0.0
220
0.0
230
1.0
 70
     8
 71
     3
 72
    11
 73
     7
 74
     0
 42
0.0000000001
 43
0.0000000001
 40
0.0
 40
0.0
 40
0.0
 40
0.0
 40
0.1268555805798859
 40
0.5507404422302928
 40
0.9866751337019486
 40
1.0
 40
1.0
 40
1.0
 40
1.0
 10
43.40916354799361
 20
54.08747261325413
 30
0.0
 10
43.30322955442497
 20
54.14577980597377
 30
0.0
 10
42.8433196773938
 20
54.39891907629055
 30
0.0
 10
42.0045049394471
 20
54.86061771910016
 30
0.0
 10
41.26589339789776
 20
55.26715276507388
 30
0.0
 10
40.8912990853346
 20
55.4733398432376
 30
0.0
 10
40.88018876159281
 20
55.47945527295166
 30
0.0
  0
SPLINE
  5
476
330
1F
100
AcDbEntity
  8
0
  6
Continuous
 62
     7
370
    25
100
AcDbSpline
210
0.0
220
0.0
230
1.0
 70
     8
 71
     3
 72
     9
 73
     5
 74
     0
 42
0.0000000001
 43
0.0000000001
 40
0.0
 40
0.0
 40
0.0
 40
0.0
 40
0.4912125668460238
 40
1.0
 40
1.0
 40
1.0
 40
1.0
 10
40.88018876159281
 20
55.47945527295166
 30
0.0
 10
40.87053097768643
 20
55.95190683414819
 30
0.0
 10
40.85086986850841
 20
56.91371358154071
 30
0.0
 10
40.83120065197394
 20
57.87600278752424
 30
0.0
 10
40.82119320178122
 20
58.36560344258839
 30
0.0
  0
CIRCLE
  5
477
330
1F
100
AcDbEntity
  8
0
  6
Continuous
 62
     7
370
    25
100
AcDbCircle
 10
43.35016821348922
 20
56.97362080352647
 30
0.0
 40
2.468035787223248
  0
CIRCLE
  5
478
330
1F
100
AcDbEntity
  8
0
  6
Continuous
 62
     7
370
    25
100
AcDbCircle
 10
43.35016821348922
 20
56.97362080352647
 30
0.0
 40
1.130299999999996
  0
SPLINE
  5
479
330
1F
100
AcDbEntity
  8
0
  6
Continuous
 62
     7
370
    25
100
AcDbSpline
210
0.0
220
0.0
230
1.0
 70
     8
 71
     3
 72
     9
 73
     5
 74
     0
 42
0.0000000001
 43
0.0000000001
 40
0.0
 40
0.0
 40
0.0
 40
0.0
 40
0.4912124537333708
 40
1.0
 40
1.0
 40
1.0
 40
1.0
 10
70.62367437997548
 20
55.20292604277426
 30
0.0
 10
70.18604575859959
 20
55.02464300530161
 30
0.0
 10
69.29513059948703
 20
54.66169814077776
 30
0.0
 10
68.40376852710696
 20
54.29857133262564
 30
0.0
 10
67.95025460546551
 20
54.11381693492228
 30
0.0
  0
SPLINE
  5
47A
330
1F
100
AcDbEntity
  8
0
  6
Continuous
 62
     7
370
    25
100
AcDbSpline
210
0.0
220
0.0
230
1.0
 70
     8
 71
     3
 72
    11
 73
     7
 74
     0
 42
0.0000000001
 43
0.0000000001
 40
0.0
 40
0.0
 40
0.0
 40
0.0
 40
0.0133252346704861
 40
0.4375572713982959
 40
0.8731439832260413
 40
1.0
 40
1.0
 40
1.0
 40
1.0
 10
67.95025460546551
 20
54.11381693492228
 30
0.0
 10
67.9402380918475
 20
54.12159610322015
 30
0.0
 10
67.61132843464321
 20
54.37703863300075
 30
0.0
 10
66.94587034712981
 20
54.89387689673813
 30
0.0
 10
66.18926424268778
 20
55.48149412463678
 30
0.0
 10
65.76584766977354
 20
55.81034180097922
 30
0.0
 10
65.67034827553382
 20
55.88451167503888
 30
0.0
  0
SPLINE
  5
47B
330
1F
100
AcDbEntity
  8
0
  6
Continuous
 62
     7
370
    25
100
AcDbSpline
210
0.0
220
0.0
230
1.0
 70
     8
 71
     3
 72
     9
 73
     5
 74
     0
 42
0.0000000001
 43
0.0000000001
 40
0.0
 40
0.0
 40
0.0
 40
0.0
 40
0.4912125824004906
 40
1.0
 40
1.0
 40
1.0
 40
1.0
 10
65.67034827553382
 20
55.88451167503888
 30
0.0
 10
65.73476494569788
 20
56.3526509501284
 30
0.0
 10
65.86590301599986
 20
57.30567880784693
 30
0.0
 10
65.99710696769654
 20
58.25918466937645
 30
0.0
 10
66.06386188745912
 20
58.74431645433003
 30
0.0
  0
SPLINE
  5
47C
330
1F
100
AcDbEntity
  8
0
  6
Continuous
 62
     7
370
    25
100
AcDbSpline
210
0.0
220
0.0
230
1.0
 70
     8
 71
     3
 72
     9
 73
     5
 74
     0
 42
0.0000000001
 43
0.0000000001
 40
0.0
 40
0.0
 40
0.0
 40
0.0
 40
0.4912123349832662
 40
1.0
 40
1.0
 40
1.0
 40
1.0
 10
66.06386188745912
 20
58.74431645433006
 30
0.0
 10
66.50149060209122
 20
58.92259905232098
 30
0.0
 10
67.39240616643056
 20
59.28554310989841
 30
0.0
 10
68.2837679974078
 20
59.64867071558277
 30
0.0
 10
68.73728190207569
 20
59.83342556218201
 30
0.0
  0
SPLINE
  5
47D
330
1F
100
AcDbEntity
  8
0
  6
Continuous
 62
     7
370
    25
100
AcDbSpline
210
0.0
220
0.0
230
1.0
 70
     8
 71
     3
 72
    11
 73
     7
 74
     0
 42
0.0000000001
 43
0.0000000001
 40
0.0
 40
0.0
 40
0.0
 40
0.0
 40
0.1268552822665614
 40
0.5507402811799257
 40
0.9866748385833362
 40
1.0
 40
1.0
 40
1.0
 40
1.0
 10
68.73728190207569
 20
59.83342556218201
 30
0.0
 10
68.83278250253877
 20
59.75925471918512
 30
0.0
 10
69.24739690890902
 20
59.43724313088068
 30
0.0
 10
70.00360249334946
 20
58.84993628331693
 30
0.0
 10
70.66946409205351
 20
58.3327841907716
 30
0.0
 10
71.00717148012484
 20
58.07050904067378
 30
0.0
 10
71.01718797007291
 20
58.06272989074284
 30
0.0
  0
SPLINE
  5
47E
330
1F
100
AcDbEntity
  8
0
  6
Continuous
 62
     7
370
    25
100
AcDbSpline
210
0.0
220
0.0
230
1.0
 70
     8
 71
     3
 72
     9
 73
     5
 74
     0
 42
0.0000000001
 43
0.0000000001
 40
0.0
 40
0.0
 40
0.0
 40
0.0
 40
0.4912127302762599
 40
0.9999999999999998
 40
0.9999999999999998
 40
0.9999999999999998
 40
0.9999999999999998
 10
71.01718797007291
 20
58.06272989074284
 30
0.0
 10
70.95277139385643
 20
57.59459061011154
 30
0.0
 10
70.82163355428892
 20
56.64156302801282
 30
0.0
 10
70.69042938900611
 20
55.68805751129279
 30
0.0
 10
70.62367437997548
 20
55.20292604277426
 30
0.0
  0
CIRCLE
  5
47F
330
1F
100
AcDbEntity
  8
0
  6
Continuous
 62
     7
370
    25
100
AcDbCircle
 10
68.34376821355906
 20
56.97362080356106
 30
0.0
 40
2.468035787223223
  0
CIRCLE
  5
480
330
1F
100
AcDbEntity
  8
0
  6
Continuous
 62
     7
370
    25
100
AcDbCircle
 10
68.34376821355906
 20
56.97362080356106
 30
0.0
 40
1.130300000000025
  0
CIRCLE
  5
481
330
1F
100
AcDbEntity
  8
0
  6
Continuous
 62
     7
370
    25
100
AcDbCircle
 10
84.8029682135581
 20
59.25962080356228
 30
0.0
 40
6.413500000000007
  0
CIRCLE
  5
482
330
1F
100
AcDbEntity
  8
0
  6
Continuous
 62
     7
370
    25
100
AcDbCircle
 10
84.8029682135581
 20
59.25962080356228
 30
0.0
 40
7.061200000000022
  0
CIRCLE
  5
483
330
1F
100
AcDbEntity
  8
0
  6
Continuous
 62
     7
370
    25
100
AcDbCircle
 10
84.8029682135581
 20
59.25962080356232
 30
0.0
 40
7.315200000000006
  0
LINE
  5
484
330
1F
100
AcDbEntity
  8
0
  6
Continuous
 62
     7
370
    25
100
AcDbLine
 10
28.16096921110244
 20
40.15882080356175
 30
0.0
 11
26.63696785116286
 21
40.15882080356175
 31
0.0
  0
LINE
  5
485
330
1F
100
AcDbEntity
  8
0
  6
Continuous
 62
     7
370
    25
100
AcDbLine
 10
26.63696785116286
 20
40.15882080356175
 30
0.0
 11
26.63696785116286
 21
41.06052080104643
 31
0.0
  0
LINE
  5
486
330
1F
100
AcDbEntity
  8
0
  6
Continuous
 62
     7
370
    25
100
AcDbLine
 10
26.63696785116286
 20
41.06052080104643
 30
0.0
 11
28.16096921110244
 21
41.06052080104643
 31
0.0
  0
LINE
  5
487
330
1F
100
AcDbEntity
  8
0
  6
Continuous
 62
     7
370
    25
100
AcDbLine
 10
28.16096921110244
 20
40.15882080356175
 30
0.0
 11
103.8529672160158
 21
40.15882080356175
 31
0.0
  0
LINE
  5
488
330
1F
100
AcDbEntity
  8
0
  6
Continuous
 62
     7
370
    25
100
AcDbLine
 10
28.16096921110244
 20
41.06052080104643
 30
0.0
 11
103.8529672160158
 21
41.06052080104643
 31
0.0
  0
LINE
  5
489
330
1F
100
AcDbEntity
  8
0
  6
Continuous
 62
     7
370
    25
100
AcDbLine
 10
105.3769685759553
 20
41.06052080104643
 30
0.0
 11
105.3769685759553
 21
40.15882080356175
 31
0.0
  0
LINE
  5
48A
330
1F
100
AcDbEntity
  8
0
  6
Continuous
 62
     7
370
    25
100
AcDbLine
 10
105.3769685759553
 20
40.15882080356175
 30
0.0
 11
103.8529672160158
 21
40.15882080356175
 31
0.0
  0
LINE
  5
48B
330
1F
100
AcDbEntity
  8
0
  6
Continuous
 62
     7
370
    25
100
AcDbLine
 10
103.8529672160158
 20
41.06052080104643
 30
0.0
 11
105.3769685759553
 21
41.06052080104643
 31
0.0
  0
LINE
  5
48C
330
1F
100
AcDbEntity
  8
0
  6
Continuous
 62
     7
370
    25
100
AcDbLine
 10
105.3769685759553
 20
41.82252078252429
 30
0.0
 11
105.3769685759553
 21
41.06052080104643
 31
0.0
  0
LINE
  5
48D
330
1F
100
AcDbEntity
  8
0
  6
Continuous
 62
     7
370
    25
100
AcDbLine
 10
26.63696785116286
 20
41.06052080104643
 30
0.0
 11
26.63696785116286
 21
41.82252078252429
 31
0.0
  0
LINE
  5
48E
330
1F
100
AcDbEntity
  8
0
  6
Continuous
 62
     7
370
    25
100
AcDbLine
 10
26.63696785116286
 20
71.7945224599033
 30
0.0
 11
26.63696785116286
 21
41.82252078252429
 31
0.0
  0
ARC
  5
48F
330
1F
100
AcDbEntity
  8
0
  6
Continuous
 62
     7
370
    25
100
AcDbCircle
 10
27.65296821330088
 20
71.79452080356174
 30
0.0
 40
1.016000000000019
100
AcDbArc
 50
90.0
 51
180.0
  0
LINE
  5
490
330
1F
100
AcDbEntity
  8
0
  6
Continuous
 62
     7
370
    25
100
AcDbLine
 10
27.65296999955268
 20
72.81052088300282
 30
0.0
 11
104.3609664275655
 21
72.81052088300282
 31
0.0
  0
ARC
  5
491
330
1F
100
AcDbEntity
  8
0
  6
Continuous
 62
     7
370
    25
100
AcDbCircle
 10
104.3609682133008
 20
71.79452080356177
 30
0.0
 40
1.015999999999991
100
AcDbArc
 50
0.0
 51
90.0
  0
LINE
  5
492
330
1F
100
AcDbEntity
  8
0
  6
Continuous
 62
     7
370
    25
100
AcDbLine
 10
105.3769685759553
 20
71.7945224599033
 30
0.0
 11
105.3769685759553
 21
41.82252078252429
 31
0.0
  0
LINE
  5
493
330
1F
100
AcDbEntity
  8
0
  6
Continuous
 62
     7
370
    25
100
AcDbLine
 10
26.48456995034309
 20
72.61502509872014
 30
0.0
 11
26.78197850132079
 21
72.31761654774243
 31
0.0
  0
LINE
  5
494
330
1F
100
AcDbEntity
  8
0
  6
Continuous
 62
     7
370
    25
100
AcDbLine
 10
26.63696785116286
 20
40.92844080813745
 30
0.0
 11
26.48456995034309
 21
40.92844080813745
 31
0.0
  0
LINE
  5
495
330
1F
100
AcDbEntity
  8
0
  6
Continuous
 62
     7
370
    25
100
AcDbLine
 10
104.9725920393476
 20
73.17180326143795
 30
0.0
 11
104.5860633685598
 21
72.78527086535985
 31
0.0
  0
LINE
  5
496
330
1F
100
AcDbEntity
  8
0
  6
Continuous
 62
     7
370
    25
100
AcDbLine
 10
27.42787305855842
 20
72.78527086535985
 30
0.0
 11
27.04134438777061
 21
73.17180326143795
 31
0.0
  0
LINE
  5
497
330
1F
100
AcDbEntity
  8
0
  6
Continuous
 62
     7
370
    25
100
AcDbLine
 10
105.2319579257974
 20
72.31761654774243
 30
0.0
 11
105.5293664767751
 21
72.61502509872014
 31
0.0
  0
LINE
  5
498
330
1F
100
AcDbEntity
  8
0
  6
Continuous
 62
     7
370
    25
100
AcDbLine
 10
105.5293664767751
 20
40.92844080813745
 30
0.0
 11
105.3769685759553
 21
40.92844080813745
 31
0.0
  0
ELLIPSE
  5
499
330
1F
100
AcDbEntity
  8
0
  6
Continuous
 62
     7
370
    25
100
AcDbEllipse
 10
26.48456821355914
 20
73.14640225188347
 30
0.0
 11
1.663700000000005
 21
0.0
 31
0.0
210
0.0
220
0.0
230
1.0
 40
0.3193940490761755
 41
3.141592653543581
 42
4.712388980383711
  0
LINE
  5
49A
330
1F
100
AcDbEntity
  8
0
  6
Continuous
 62
     7
370
    25
100
AcDbLine
 10
26.48456995034309
 20
40.92844080813745
 30
0.0
 11
24.82086647892089
 21
40.92844080813745
 31
0.0
  0
LINE
  5
49B
330
1F
100
AcDbEntity
  8
0
  6
Continuous
 62
     7
370
    25
100
AcDbLine
 10
24.82086647892089
 20
40.92844080813745
 30
0.0
 11
24.82086647892089
 21
73.14640050689274
 31
0.0
  0
ELLIPSE
  5
49C
330
1F
100
AcDbEntity
  8
0
  6
Continuous
 62
     7
370
    25
100
AcDbEllipse
 10
26.50996821351216
 20
73.17180225190802
 30
0.0
 11
0.0000000000000142
 21
0.7620000000000005
 31
0.0
210
0.0
220
0.0
230
1.0
 40
0.6973436739485428
 41
4.712388980385719
 42
6.283185307179586
  0
LINE
  5
49D
330
1F
100
AcDbEntity
  8
0
  6
Continuous
 62
     7
370
    25
100
AcDbLine
 10
26.509968979598
 20
73.93380394140774
 30
0.0
 11
26.509968979598
 21
74.83550300756985
 31
0.0
  0
ELLIPSE
  5
49E
330
1F
100
AcDbEntity
  8
0
  6
Continuous
 62
     7
370
    25
100
AcDbEllipse
 10
26.50996821351216
 20
73.17180225190802
 30
0.0
 11
0.0
 21
1.663700000000005
 31
0.0
210
0.0
220
0.0
230
1.0
 40
0.3193940491367362
 41
4.712388980385684
 42
6.283185307179586
  0
ELLIPSE
  5
49F
330
1F
100
AcDbEntity
  8
0
  6
Continuous
 62
     7
370
    25
100
AcDbEllipse
 10
105.5039682135809
 20
73.17180225190913
 30
0.0
 11
-0.0000000000000284
 21
1.663700000000005
 31
0.0
210
0.0
220
0.0
230
1.0
 40
0.3193940490772518
 41
0.0
 42
1.570796326793917
  0
LINE
  5
4A0
330
1F
100
AcDbEntity
  8
0
  6
Continuous
 62
     7
370
    25
100
AcDbLine
 10
26.509968979598
 20
74.83550300756985
 30
0.0
 11
105.5039674475202
 21
74.83550300756985
 31
0.0
  0
LINE
  5
4A1
330
1F
100
AcDbEntity
  8
0
  6
Continuous
 62
     7
370
    25
100
AcDbLine
 10
25.7225692703733
 20
73.14640050689274
 30
0.0
 11
24.82086647892089
 21
73.14640050689274
 31
0.0
  0
ELLIPSE
  5
4A2
330
1F
100
AcDbEntity
  8
0
  6
Continuous
 62
     7
370
    25
100
AcDbEllipse
 10
26.48456821355914
 20
73.14640225188347
 30
0.0
 11
0.7620000000000005
 21
0.0
 31
0.0
210
0.0
220
0.0
230
1.0
 40
0.6973436738162812
 41
3.14159265354358
 42
4.712388980383729
  0
LINE
  5
4A3
330
1F
100
AcDbEntity
  8
0
  6
Continuous
 62
     7
370
    25
100
AcDbLine
 10
107.1930699481973
 20
40.92844080813745
 30
0.0
 11
105.5293664767751
 21
40.92844080813745
 31
0.0
  0
ELLIPSE
  5
4A4
330
1F
100
AcDbEntity
  8
0
  6
Continuous
 62
     7
370
    25
100
AcDbEllipse
 10
105.5293682135591
 20
73.14640225195498
 30
0.0
 11
1.663700000000005
 21
0.0000000000000284
 31
0.0
210
0.0
220
0.0
230
1.0
 40
0.3193940491126486
 41
4.712388980385679
 42
6.283185307179586
  0
LINE
  5
4A5
330
1F
100
AcDbEntity
  8
0
  6
Continuous
 62
     7
370
    25
100
AcDbLine
 10
107.1930699481973
 20
73.14640050689274
 30
0.0
 11
107.1930699481973
 21
40.92844080813745
 31
0.0
  0
ELLIPSE
  5
4A6
330
1F
100
AcDbEntity
  8
0
  6
Continuous
 62
     7
370
    25
100
AcDbEllipse
 10
105.5293682135591
 20
73.14640225195498
 30
0.0
 11
0.7620000000000005
 21
0.0
 31
0.0
210
0.0
220
0.0
230
1.0
 40
0.6973436738959516
 41
4.712388980385706
 42
6.283185307179586
  0
LINE
  5
4A7
330
1F
100
AcDbEntity
  8
0
  6
Continuous
 62
     7
370
    25
100
AcDbLine
 10
106.2913671567449
 20
73.14640050689274
 30
0.0
 11
107.1930699481973
 21
73.14640050689274
 31
0.0
  0
LINE
  5
4A8
330
1F
100
AcDbEntity
  8
0
  6
Continuous
 62
     7
370
    25
100
AcDbLine
 10
105.5039674475202
 20
73.93380394140774
 30
0.0
 11
105.5039674475202
 21
74.83550300756985
 31
0.0
  0
ELLIPSE
  5
4A9
330
1F
100
AcDbEntity
  8
0
  6
Continuous
 62
     7
370
    25
100
AcDbEllipse
 10
105.5039682135809
 20
73.17180225190913
 30
0.0
 11
0.0
 21
0.7620000000000005
 31
0.0
210
0.0
220
0.0
230
1.0
 40
0.6973436738186684
 41
0.0
 42
1.570796326794299
  0
ARC
  5
4AA
330
1F
100
AcDbEntity
  8
0
  6
Continuous
 62
     7
370
    25
100
AcDbCircle
 10
26.50996821355918
 20
73.14640225190803
 30
0.0
 40
0.7874000000000337
100
AcDbArc
 50
90.0
 51
179.9999999999995
  0
ARC
  5
4AB
330
1F
100
AcDbEntity
  8
0
  6
Continuous
 62
     7
370
    25
100
AcDbCircle
 10
26.50996821355916
 20
73.14640225190803
 30
0.0
 40
1.689100000000024
100
AcDbArc
 50
90.00000000047723
 51
180.0
  0
ARC
  5
4AC
330
1F
100
AcDbEntity
  8
0
  6
Continuous
 62
     7
370
    25
100
AcDbCircle
 10
105.5039682135591
 20
73.14640225190803
 30
0.0
 40
1.689100000001104
100
AcDbArc
 50
0.0000000004762606
 51
89.99999999999904
  0
ARC
  5
4AD
330
1F
100
AcDbEntity
  8
0
  6
Continuous
 62
     7
370
    25
100
AcDbCircle
 10
105.5039682135591
 20
73.14640225190803
 30
0.0
 40
0.7874000000010995
100
AcDbArc
 50
0.0000000000010341
 51
89.99999999999793
  0
LINE
  5
4AE
330
1F
100
AcDbEntity
  8
0
  6
Continuous
 62
     7
370
    25
100
AcDbLine
 10
26.509968979598
 20
73.14640050689274
 30
0.0
 11
25.7225692703733
 21
73.14640050689274
 31
0.0
  0
LINE
  5
4AF
330
1F
100
AcDbEntity
  8
0
  6
Continuous
 62
     7
370
    25
100
AcDbLine
 10
106.2913671567449
 20
73.14640050689274
 30
0.0
 11
105.5039674475202
 21
73.14640050689274
 31
0.0
  0
LINE
  5
4B0
330
1F
100
AcDbEntity
  8
0
  6
Continuous
 62
     7
370
    25
100
AcDbLine
 10
27.06674341702552
 20
73.14640050689274
 30
0.0
 11
26.509968979598
 21
73.14640050689274
 31
0.0
  0
LINE
  5
4B1
330
1F
100
AcDbEntity
  8
0
  6
Continuous
 62
     7
370
    25
100
AcDbLine
 10
105.5039674475202
 20
73.14640050689274
 30
0.0
 11
104.9471930100927
 21
73.14640050689274
 31
0.0
  0
LINE
  5
4B2
330
1F
100
AcDbEntity
  8
0
  6
Continuous
 62
     7
370
    25
100
AcDbLine
 10
105.3769685759553
 20
73.14640050689274
 30
0.0
 11
105.3769685759553
 21
73.91172042051846
 31
0.0
  0
LINE
  5
4B3
330
1F
100
AcDbEntity
  8
0
  6
Continuous
 62
     7
370
    25
100
AcDbLine
 10
26.63696785116286
 20
73.91172042051846
 30
0.0
 11
26.63696785116286
 21
73.14640050689274
 31
0.0
  0
LEADER
  5
4BA
330
1F
100
AcDbEntity
  8
SLD-0
 62
     7
100
AcDbLeader
  3
SLDDIMSTYLE3
 76
     3
 10
88.01187084555754
 20
65.5495722611133
 30
0.0
 10
96.16118438415917
 20
84.3215001457788
 30
0.0
 10
102.5111843841591
 20
84.3215001457788
 30
0.0
  0
LEADER
  5
4C1
330
1F
100
AcDbEntity
  8
SLD-0
 62
     7
100
AcDbLeader
  3
SLDDIMSTYLE3
 76
     3
 10
53.7958063825491
 20
62.56361854432788
 30
0.0
 10
65.19344244867525
 20
93.99891950061746
 30
0.0
 10
71.54344244867528
 20
93.99891950061746
 30
0.0
  0
LINE
  5
4C2
330
1F
100
AcDbEntity
  8
0
  6
Continuous
 62
     7
370
    25
100
AcDbLine
 10
169.6159455603368
 20
190.9642542269761
 30
0.0
 11
171.6619457727678
 21
190.9642542269761
 31
0.0
  0
LINE
  5
4C3
330
1F
100
AcDbEntity
  8
0
  6
Continuous
 62
     7
370
    25
100
AcDbLine
 10
171.9159472411878
 20
195.4642521706158
 30
0.0
 11
169.6159455603368
 21
195.4642521706158
 31
0.0
  0
LINE
  5
4C4
330
1F
100
AcDbEntity
  8
0
  6
Continuous
 62
     7
370
    25
100
AcDbLine
 10
169.6159455603368
 20
195.4642521706158
 30
0.0
 11
169.4159459000833
 21
195.2642525103623
 31
0.0
  0
LINE
  5
4C5
330
1F
100
AcDbEntity
  8
0
  6
Continuous
 62
     7
370
    25
100
AcDbLine
 10
169.4159459000833
 20
191.1642538872296
 30
0.0
 11
169.6159455603368
 21
190.9642542269761
 31
0.0
  0
LINE
  5
4C6
330
1F
100
AcDbEntity
  8
0
  6
Continuous
 62
     7
370
    25
100
AcDbLine
 10
279.7999258762605
 20
195.4642521706158
 30
0.0
 11
277.4999279206999
 21
195.4642521706158
 31
0.0
  0
LINE
  5
4C7
330
1F
100
AcDbEntity
  8
0
  6
Continuous
 62
     7
370
    25
100
AcDbLine
 10
277.5056201642759
 20
190.9642542269761
 30
0.0
 11
279.7999258762605
 21
190.9642542269761
 31
0.0
  0
LINE
  5
4C8
330
1F
100
AcDbEntity
  8
0
  6
Continuous
 62
     7
370
    25
100
AcDbLine
 10
279.7999258762605
 20
190.9642542269761
 30
0.0
 11
279.9999255365141
 21
191.1642538872296
 31
0.0
  0
LINE
  5
4C9
330
1F
100
AcDbEntity
  8
0
  6
Continuous
 62
     7
370
    25
100
AcDbLine
 10
279.9999255365141
 20
195.2642525103623
 30
0.0
 11
279.7999258762605
 21
195.4642521706158
 31
0.0
  0
LINE
  5
4CA
330
1F
100
AcDbEntity
  8
0
  6
Continuous
 62
     7
370
    25
100
AcDbLine
 10
169.6159455603368
 20
118.3202552166516
 30
0.0
 11
171.9159472411878
 21
118.3202552166516
 31
0.0
  0
LINE
  5
4CB
330
1F
100
AcDbEntity
  8
0
  6
Continuous
 62
     7
370
    25
100
AcDbLine
 10
171.6619457727678
 20
122.8202531602913
 30
0.0
 11
169.6159455603368
 21
122.8202531602913
 31
0.0
  0
LINE
  5
4CC
330
1F
100
AcDbEntity
  8
0
  6
Continuous
 62
     7
370
    25
100
AcDbLine
 10
169.6159455603368
 20
122.8202531602913
 30
0.0
 11
169.4159459000833
 21
122.6202535000378
 31
0.0
  0
LINE
  5
4CD
330
1F
100
AcDbEntity
  8
0
  6
Continuous
 62
     7
370
    25
100
AcDbLine
 10
169.4159459000833
 20
118.5202548769051
 30
0.0
 11
169.6159455603368
 21
118.3202552166516
 31
0.0
  0
LINE
  5
4CE
330
1F
100
AcDbEntity
  8
0
  6
Continuous
 62
     7
370
    25
100
AcDbLine
 10
279.7999258762605
 20
122.8202531602913
 30
0.0
 11
277.5056201642759
 21
122.8202531602913
 31
0.0
  0
LINE
  5
4CF
330
1F
100
AcDbEntity
  8
0
  6
Continuous
 62
     7
370
    25
100
AcDbLine
 10
277.4999279206999
 20
118.3202552166516
 30
0.0
 11
279.7999258762605
 21
118.3202552166516
 31
0.0
  0
LINE
  5
4D0
330
1F
100
AcDbEntity
  8
0
  6
Continuous
 62
     7
370
    25
100
AcDbLine
 10
279.7999258762605
 20
118.3202552166516
 30
0.0
 11
279.9999255365141
 21
118.5202548769051
 31
0.0
  0
LINE
  5
4D1
330
1F
100
AcDbEntity
  8
0
  6
Continuous
 62
     7
370
    25
100
AcDbLine
 10
279.9999255365141
 20
122.6202535000378
 30
0.0
 11
279.7999258762605
 21
122.8202531602913
 31
0.0
  0
LINE
  5
4D2
330
1F
100
AcDbEntity
  8
0
  6
Continuous
 62
     7
370
    25
100
AcDbLine
 10
164.9652260965116
 20
144.3910083290869
 30
0.0
 11
164.330228013397
 21
143.7560083833271
 31
0.0
  0
LINE
  5
4D3
330
1F
100
AcDbEntity
  8
0
  6
Continuous
 62
     7
370
    25
100
AcDbLine
 10
164.330228013397
 20
132.4364996072584
 30
0.0
 11
164.9652260965116
 21
131.8014977988535
 31
0.0
  0
LINE
  5
4D4
330
1F
100
AcDbEntity
  8
0
  6
Continuous
 62
     7
370
    25
100
AcDbLine
 10
169.4013464874036
 20
144.3910083290869
 30
0.0
 11
164.9652260965116
 21
144.3910083290869
 31
0.0
  0
LINE
  5
4D5
330
1F
100
AcDbEntity
  8
0
  6
Continuous
 62
     7
370
    25
100
AcDbLine
 10
164.9652260965116
 20
131.8014977988535
 30
0.0
 11
169.4013464874036
 21
131.8014977988535
 31
0.0
  0
LINE
  5
4D6
330
1F
100
AcDbEntity
  8
0
  6
Continuous
 62
     7
370
    25
100
AcDbLine
 10
163.9492276734121
 20
142.9222539555961
 30
0.0
 11
151.8842305666215
 21
142.9222539555961
 31
0.0
  0
LINE
  5
4D7
330
1F
100
AcDbEntity
  8
0
  6
Continuous
 62
     7
370
    25
100
AcDbLine
 10
151.8842305666215
 20
133.2702531036669
 30
0.0
 11
163.9492276734121
 21
133.2702531036669
 31
0.0
  0
LINE
  5
4D8
330
1F
100
AcDbEntity
  8
0
  6
Continuous
 62
     7
370
    25
100
AcDbLine
 10
164.330228013397
 20
142.5412536156112
 30
0.0
 11
163.9492276734121
 21
142.5412536156112
 31
0.0
  0
LINE
  5
4D9
330
1F
100
AcDbEntity
  8
0
  6
Continuous
 62
     7
370
    25
100
AcDbLine
 10
163.9492276734121
 20
133.6512534436518
 30
0.0
 11
164.330228013397
 21
133.6512534436518
 31
0.0
  0
LINE
  5
4DA
330
1F
100
AcDbEntity
  8
0
  6
Continuous
 62
     7
370
    25
100
AcDbLine
 10
167.4073066240556
 20
175.2063898858363
 30
0.0
 11
166.8967742151029
 21
174.9116337415511
 31
0.0
  0
LINE
  5
4DB
330
1F
100
AcDbEntity
  8
0
  6
Continuous
 62
     7
370
    25
100
AcDbLine
 10
171.6619457727678
 20
175.2056541410023
 30
0.0
 11
167.404777151943
 21
175.2056541410023
 31
0.0
  0
LINE
  5
4DC
330
1F
100
AcDbEntity
  8
0
  6
Continuous
 62
     7
370
    25
100
AcDbLine
 10
167.404777151943
 20
158.8988536060536
 30
0.0
 11
171.6619457727678
 21
158.8988536060536
 31
0.0
  0
LINE
  5
4DD
330
1F
100
AcDbEntity
  8
0
  6
Continuous
 62
     7
370
    25
100
AcDbLine
 10
166.8967742151029
 20
159.1928742383355
 30
0.0
 11
167.4073028987653
 21
158.8981187925423
 31
0.0
  0
LINE
  5
4DE
330
1F
100
AcDbEntity
  8
0
  6
Continuous
 62
     7
370
    25
100
AcDbLine
 10
283.4562275236852
 20
135.4610031959349
 30
0.0
 11
279.9129251068838
 21
135.4610031959349
 31
0.0
  0
LINE
  5
4DF
330
1F
100
AcDbEntity
  8
0
  6
Continuous
 62
     7
370
    25
100
AcDbLine
 10
279.9129251068838
 20
127.5235029426152
 30
0.0
 11
283.4562275236852
 21
127.5235029426152
 31
0.0
  0
LINE
  5
4E0
330
1F
100
AcDbEntity
  8
0
  6
Continuous
 62
     7
370
    25
100
AcDbLine
 10
283.4562275236852
 20
127.5235029426152
 30
0.0
 11
283.964226735235
 21
128.0315040168101
 31
0.0
  0
LINE
  5
4E1
330
1F
100
AcDbEntity
  8
0
  6
Continuous
 62
     7
370
    25
100
AcDbLine
 10
283.964226735235
 20
134.9530039843851
 30
0.0
 11
283.4562275236852
 21
135.4610031959349
 31
0.0
  0
LINE
  5
4E2
330
1F
100
AcDbEntity
  8
0
  6
Continuous
 62
     7
370
    25
100
AcDbLine
 10
277.9342893189199
 20
136.216654118591
 30
0.0
 11
277.8809282606848
 21
136.0585211333567
 31
0.0
  0
LINE
  5
4E3
330
1F
100
AcDbEntity
  8
0
  6
Continuous
 62
     7
370
    25
100
AcDbLine
 10
277.8809282606848
 20
126.9259868678385
 30
0.0
 11
277.9342893189199
 21
126.7678538826042
 31
0.0
  0
LINE
  5
4E4
330
1F
100
AcDbEntity
  8
0
  6
Continuous
 62
     7
370
    25
100
AcDbLine
 10
279.8595640486486
 20
126.7678538826042
 30
0.0
 11
279.9129251068838
 21
126.9259868678385
 31
0.0
  0
LINE
  5
4E5
330
1F
100
AcDbEntity
  8
0
  6
Continuous
 62
     7
370
    25
100
AcDbLine
 10
279.9129251068838
 20
136.0585211333567
 30
0.0
 11
279.8595640486486
 21
136.216654118591
 31
0.0
  0
LINE
  5
4E6
330
1F
100
AcDbEntity
  8
0
  6
Continuous
 62
     7
370
    25
100
AcDbLine
 10
277.5056201642759
 20
126.3360536214644
 30
0.0
 11
277.8809282606848
 21
126.3360536214644
 31
0.0
  0
LINE
  5
4E7
330
1F
100
AcDbEntity
  8
0
  6
Continuous
 62
     7
370
    25
100
AcDbLine
 10
277.8809282606848
 20
136.6484543797308
 30
0.0
 11
277.5056201642759
 21
136.6484543797308
 31
0.0
  0
LINE
  5
4E8
330
1F
100
AcDbEntity
  8
0
  6
Continuous
 62
     7
370
    25
100
AcDbLine
 10
171.6386552578218
 20
152.0234263990754
 30
0.0
 11
171.6619457727678
 21
152.0874180388385
 31
0.0
  0
LINE
  5
4E9
330
1F
100
AcDbEntity
  8
0
  6
Continuous
 62
     7
370
    25
100
AcDbLine
 10
171.6619457727678
 20
157.0234894862845
 30
0.0
 11
171.6386552578218
 21
157.0874810387362
 31
0.0
  0
LINE
  5
4EA
330
1F
100
AcDbEntity
  8
0
  6
Continuous
 62
     7
370
    25
100
AcDbLine
 10
167.0847970670469
 20
157.0862702320777
 30
0.0
 11
167.0619461363561
 21
157.0234894862845
 31
0.0
  0
LINE
  5
4EB
330
1F
100
AcDbEntity
  8
0
  6
Continuous
 62
     7
370
    25
100
AcDbLine
 10
167.0619461363561
 20
152.0874180388385
 30
0.0
 11
167.0847970670469
 21
152.0246371184224
 31
0.0
  0
LINE
  5
4EC
330
1F
100
AcDbEntity
  8
0
  6
Continuous
 62
     7
370
    25
100
AcDbLine
 10
169.6553479558237
 20
130.7810532417828
 30
0.0
 11
171.6619457727678
 21
130.7810532417828
 31
0.0
  0
LINE
  5
4ED
330
1F
100
AcDbEntity
  8
0
  6
Continuous
 62
     7
370
    25
100
AcDbLine
 10
171.6619457727678
 20
145.4114538174802
 30
0.0
 11
169.6553479558237
 21
145.4114538174802
 31
0.0
  0
LINE
  5
4EE
330
1F
100
AcDbEntity
  8
0
  6
Continuous
 62
     7
370
    25
100
AcDbLine
 10
169.6553479558237
 20
145.4114538174802
 30
0.0
 11
169.4013464874036
 21
145.1574532803828
 31
0.0
  0
LINE
  5
4EF
330
1F
100
AcDbEntity
  8
0
  6
Continuous
 62
     7
370
    25
100
AcDbLine
 10
169.4013464874036
 20
131.0350528475577
 30
0.0
 11
169.6553479558237
 21
130.7810532417828
 31
0.0
  0
LINE
  5
4F0
330
1F
100
AcDbEntity
  8
0
  6
Continuous
 62
     7
370
    25
100
AcDbLine
 10
175.0293474322565
 20
193.4682528045708
 30
0.0
 11
175.0293474322565
 21
120.3162545826966
 31
0.0
  0
LINE
  5
4F1
330
1F
100
AcDbEntity
  8
0
  6
Continuous
 62
     7
370
    25
100
AcDbLine
 10
272.5653487867124
 20
194.9922541645104
 30
0.0
 11
176.5533450669057
 21
194.9922541645104
 31
0.0
  0
LINE
  5
4F2
330
1F
100
AcDbEntity
  8
0
  6
Continuous
 62
     7
370
    25
100
AcDbLine
 10
274.0893464213617
 20
120.3162545826966
 30
0.0
 11
274.0893464213617
 21
193.4682528045708
 31
0.0
  0
ARC
  5
4F3
330
1F
100
AcDbEntity
  8
0
  6
Continuous
 62
     7
370
    25
100
AcDbCircle
 10
272.5653468958258
 20
120.3162536529681
 30
0.0
 40
1.524000000000058
100
AcDbArc
 50
270.0000032953411
 51
0.0000021816180881
  0
LINE
  5
4F4
330
1F
100
AcDbEntity
  8
0
  6
Continuous
 62
     7
370
    25
100
AcDbLine
 10
176.5533450669057
 20
118.792253222757
 30
0.0
 11
272.5653487867124
 21
118.792253222757
 31
0.0
  0
ARC
  5
4F5
330
1F
100
AcDbEntity
  8
0
  6
Continuous
 62
     7
370
    25
100
AcDbCircle
 10
176.5533468958258
 20
120.3162537342993
 30
0.0
 40
1.524000000000001
100
AcDbArc
 50
179.9999990943767
 51
269.9999990343389
  0
ARC
  5
4F6
330
1F
100
AcDbEntity
  8
0
  6
Continuous
 62
     7
370
    25
100
AcDbCircle
 10
272.5653469577924
 20
193.4682536529681
 30
0.0
 40
1.524000000000057
100
AcDbArc
 50
0.0000008760814997
 51
89.99999908791108
  0
ARC
  5
4F7
330
1F
100
AcDbEntity
  8
0
  6
Continuous
 62
     7
370
    25
100
AcDbCircle
 10
176.5533469577924
 20
193.4682537342993
 30
0.0
 40
1.524000000000032
100
AcDbArc
 50
90.00000324176291
 51
180.0000039633236
  0
LINE
  5
4F8
330
1F
100
AcDbEntity
  8
0
  6
Continuous
 62
     7
370
    25
100
AcDbLine
 10
171.6619457727678
 20
193.9762520161206
 30
0.0
 11
171.6619457727678
 21
119.8082553711468
 31
0.0
  0
LINE
  5
4F9
330
1F
100
AcDbEntity
  8
0
  6
Continuous
 62
     7
370
    25
100
AcDbLine
 10
171.9159472411878
 20
194.9922541645104
 30
0.0
 11
171.6619457727678
 21
194.9922541645104
 31
0.0
  0
LINE
  5
4FA
330
1F
100
AcDbEntity
  8
0
  6
Continuous
 62
     7
370
    25
100
AcDbLine
 10
171.6619457727678
 20
194.9922541645104
 30
0.0
 11
171.6619457727678
 21
193.9762520161206
 31
0.0
  0
LINE
  5
4FB
330
1F
100
AcDbEntity
  8
0
  6
Continuous
 62
     7
370
    25
100
AcDbLine
 10
171.9159472411878
 20
118.792253222757
 30
0.0
 11
171.6619457727678
 21
118.792253222757
 31
0.0
  0
LINE
  5
4FC
330
1F
100
AcDbEntity
  8
0
  6
Continuous
 62
     7
370
    25
100
AcDbLine
 10
171.6619457727678
 20
119.8082553711468
 30
0.0
 11
171.6619457727678
 21
118.792253222757
 31
0.0
  0
LINE
  5
4FD
330
1F
100
AcDbEntity
  8
0
  6
Continuous
 62
     7
370
    25
100
AcDbLine
 10
277.5056201642759
 20
193.9762520161206
 30
0.0
 11
277.5056201642759
 21
119.8082553711468
 31
0.0
  0
LINE
  5
4FE
330
1F
100
AcDbEntity
  8
0
  6
Continuous
 62
     7
370
    25
100
AcDbLine
 10
277.5056201642759
 20
194.9922541645104
 30
0.0
 11
277.4999279206999
 21
194.9922541645104
 31
0.0
  0
LINE
  5
4FF
330
1F
100
AcDbEntity
  8
0
  6
Continuous
 62
     7
370
    25
100
AcDbLine
 10
277.5056201642759
 20
194.9922541645104
 30
0.0
 11
277.5056201642759
 21
193.9762520161206
 31
0.0
  0
LINE
  5
500
330
1F
100
AcDbEntity
  8
0
  6
Continuous
 62
     7
370
    25
100
AcDbLine
 10
277.5056201642759
 20
118.792253222757
 30
0.0
 11
277.4999279206999
 21
118.792253222757
 31
0.0
  0
LINE
  5
501
330
1F
100
AcDbEntity
  8
0
  6
Continuous
 62
     7
370
    25
100
AcDbLine
 10
277.5056201642759
 20
119.8082553711468
 30
0.0
 11
277.5056201642759
 21
118.792253222757
 31
0.0
  0
LINE
  5
502
330
1F
100
AcDbEntity
  8
0
  6
Continuous
 62
     7
370
    25
100
AcDbLine
 10
169.6159455603368
 20
195.4642521706158
 30
0.0
 11
169.6159455603368
 21
190.9642542269761
 31
0.0
  0
LINE
  5
503
330
1F
100
AcDbEntity
  8
0
  6
Continuous
 62
     7
370
    25
100
AcDbLine
 10
169.4159459000833
 20
191.1642538872296
 30
0.0
 11
169.4159459000833
 21
195.2642525103623
 31
0.0
  0
LINE
  5
504
330
1F
100
AcDbEntity
  8
0
  6
Continuous
 62
     7
370
    25
100
AcDbLine
 10
279.7999258762605
 20
195.2090884116227
 30
0.0
 11
279.7999258762605
 21
195.4642521706158
 31
0.0
  0
LINE
  5
505
330
1F
100
AcDbEntity
  8
0
  6
Continuous
 62
     7
370
    25
100
AcDbLine
 10
279.7999258762605
 20
190.9642542269761
 30
0.0
 11
279.7999258762605
 21
195.2090884116227
 31
0.0
  0
LINE
  5
506
330
1F
100
AcDbEntity
  8
0
  6
Continuous
 62
     7
370
    25
100
AcDbLine
 10
279.9999255365141
 20
195.0317720439965
 30
0.0
 11
279.9999255365141
 21
191.1642538872296
 31
0.0
  0
LINE
  5
507
330
1F
100
AcDbEntity
  8
0
  6
Continuous
 62
     7
370
    25
100
AcDbLine
 10
279.9999255365141
 20
195.2642525103623
 30
0.0
 11
279.9999255365141
 21
195.0317720439965
 31
0.0
  0
LINE
  5
508
330
1F
100
AcDbEntity
  8
0
  6
Continuous
 62
     7
370
    25
100
AcDbLine
 10
169.6159455603368
 20
122.8202531602913
 30
0.0
 11
169.6159455603368
 21
118.3202552166516
 31
0.0
  0
LINE
  5
509
330
1F
100
AcDbEntity
  8
0
  6
Continuous
 62
     7
370
    25
100
AcDbLine
 10
169.4159459000833
 20
118.5202548769051
 30
0.0
 11
169.4159459000833
 21
122.6202535000378
 31
0.0
  0
LINE
  5
50A
330
1F
100
AcDbEntity
  8
0
  6
Continuous
 62
     7
370
    25
100
AcDbLine
 10
279.7999258762605
 20
122.7155054476792
 30
0.0
 11
279.7999258762605
 21
122.8202531602913
 31
0.0
  0
LINE
  5
50B
330
1F
100
AcDbEntity
  8
0
  6
Continuous
 62
     7
370
    25
100
AcDbLine
 10
279.7999258762605
 20
118.3202552166516
 30
0.0
 11
279.7999258762605
 21
122.7155054476792
 31
0.0
  0
LINE
  5
50C
330
1F
100
AcDbEntity
  8
0
  6
Continuous
 62
     7
370
    25
100
AcDbLine
 10
279.9999255365141
 20
122.5248152878815
 30
0.0
 11
279.9999255365141
 21
118.5202548769051
 31
0.0
  0
LINE
  5
50D
330
1F
100
AcDbEntity
  8
0
  6
Continuous
 62
     7
370
    25
100
AcDbLine
 10
279.9999255365141
 20
122.6202535000378
 30
0.0
 11
279.9999255365141
 21
122.5248152878815
 31
0.0
  0
CIRCLE
  5
50E
330
1F
100
AcDbEntity
  8
0
  6
Continuous
 62
     7
370
    25
100
AcDbCircle
 10
156.1260269268093
 20
138.0962536936337
 30
0.0
 40
0.990600000000029
  0
SPLINE
  5
50F
330
1F
100
AcDbEntity
  8
0
  6
Continuous
 62
     7
370
    25
100
AcDbSpline
210
0.0
220
0.0
230
1.0
 70
     8
 71
     3
 72
     9
 73
     5
 74
     0
 42
0.0000000001
 43
0.0000000001
 40
0.0
 40
0.0
 40
0.0
 40
0.0
 40
0.4975892476901173
 40
1.0
 40
1.0
 40
1.0
 40
1.0
 10
164.9652260965116
 20
141.2192086246544
 30
0.0
 10
164.8387149834674
 20
140.9532389752959
 30
0.0
 10
164.5844668990657
 20
140.4187225029382
 30
0.0
 10
164.4152462746274
 20
139.8515120789368
 30
0.0
 10
164.330228013397
 20
139.5665394630963
 30
0.0
  0
LINE
  5
510
330
1F
100
AcDbEntity
  8
0
  6
Continuous
 62
     7
370
    25
100
AcDbLine
 10
164.330228013397
 20
139.5665394630963
 30
0.0
 11
164.330228013397
 21
143.7560083833271
 31
0.0
  0
LINE
  5
511
330
1F
100
AcDbEntity
  8
0
  6
Continuous
 62
     7
370
    25
100
AcDbLine
 10
164.330228013397
 20
132.4364996072584
 30
0.0
 11
164.330228013397
 21
136.6259685274893
 31
0.0
  0
SPLINE
  5
512
330
1F
100
AcDbEntity
  8
0
  6
Continuous
 62
     7
370
    25
100
AcDbSpline
210
0.0
220
0.0
230
1.0
 70
     8
 71
     3
 72
     9
 73
     5
 74
     0
 42
0.0000000001
 43
0.0000000001
 40
0.0
 40
0.0
 40
0.0
 40
0.0
 40
0.4970937126984996
 40
1.0
 40
1.0
 40
1.0
 40
1.0
 10
164.330228013397
 20
136.6259685274893
 30
0.0
 10
164.414246007212
 20
136.3439861627207
 30
0.0
 10
164.5832644270164
 20
135.7767241805929
 30
0.0
 10
164.8374131205993
 20
135.2421421616771
 30
0.0
 10
164.9652260965116
 20
134.973297503286
 30
0.0
  0
LINE
  5
513
330
1F
100
AcDbEntity
  8
0
  6
Continuous
 62
     7
370
    25
100
AcDbLine
 10
164.9652260965116
 20
134.973297503286
 30
0.0
 11
164.9652260965116
 21
131.8014977988535
 31
0.0
  0
LINE
  5
514
330
1F
100
AcDbEntity
  8
0
  6
Continuous
 62
     7
370
    25
100
AcDbLine
 10
164.9652260965116
 20
144.3910083290869
 30
0.0
 11
164.9652260965116
 21
141.2192086246544
 31
0.0
  0
LINE
  5
515
330
1F
100
AcDbEntity
  8
0
  6
Continuous
 62
     7
370
    25
100
AcDbLine
 10
164.9652260965116
 20
141.2192086246544
 30
0.0
 11
169.4013464874036
 21
141.2192086246544
 31
0.0
  0
LINE
  5
516
330
1F
100
AcDbEntity
  8
0
  6
Continuous
 62
     7
370
    25
100
AcDbLine
 10
164.9652260965116
 20
134.973297503286
 30
0.0
 11
169.4013464874036
 21
134.973297503286
 31
0.0
  0
LINE
  5
517
330
1F
100
AcDbEntity
  8
0
  6
Continuous
 62
     7
370
    25
100
AcDbLine
 10
164.330228013397
 20
139.5665394630963
 30
0.0
 11
164.330228013397
 21
136.6259685274893
 31
0.0
  0
LINE
  5
518
330
1F
100
AcDbEntity
  8
0
  6
Continuous
 62
     7
370
    25
100
AcDbLine
 10
163.9492276734121
 20
138.0962530639702
 30
0.0
 11
163.9492276734121
 21
142.9222539555961
 31
0.0
  0
LINE
  5
519
330
1F
100
AcDbEntity
  8
0
  6
Continuous
 62
     7
370
    25
100
AcDbLine
 10
163.9492276734121
 20
133.2702531036669
 30
0.0
 11
163.9492276734121
 21
138.0962530639702
 31
0.0
  0
LINE
  5
51A
330
1F
100
AcDbEntity
  8
0
  6
Continuous
 62
     7
370
    25
100
AcDbLine
 10
151.8842305666215
 20
138.0962530639702
 30
0.0
 11
151.8842305666215
 21
133.2702531036669
 31
0.0
  0
LINE
  5
51B
330
1F
100
AcDbEntity
  8
0
  6
Continuous
 62
     7
370
    25
100
AcDbLine
 10
151.8842305666215
 20
142.9222539555961
 30
0.0
 11
151.8842305666215
 21
138.0962530639702
 31
0.0
  0
LINE
  5
51C
330
1F
100
AcDbEntity
  8
0
  6
Continuous
 62
     7
370
    25
100
AcDbLine
 10
163.9492276734121
 20
140.1105547812516
 30
0.0
 11
164.330228013397
 21
140.1105547812516
 31
0.0
  0
LINE
  5
51D
330
1F
100
AcDbEntity
  8
0
  6
Continuous
 62
     7
370
    25
100
AcDbLine
 10
163.9492276734121
 20
136.0819513466889
 30
0.0
 11
164.330228013397
 21
136.0819513466889
 31
0.0
  0
SPLINE
  5
51E
330
1F
100
AcDbEntity
  8
0
  6
Continuous
 62
     7
370
    25
100
AcDbSpline
210
0.0
220
0.0
230
1.0
 70
    24
 71
     3
 72
    15
 73
    11
 74
     0
 42
0.0000000001
 43
0.0000000001
 40
0.0
 40
0.0
 40
0.0
 40
0.0
 40
0.1389266590959497
 40
0.2778533627269789
 40
0.416779999524502
 40
0.5557070987723564
 40
0.6946334843078725
 40
0.8335604098231465
 40
0.9724872005828954
 40
1.0
 40
1.0
 40
1.0
 40
1.0
 10
166.8980296379335
 20
172.5640545156533
 30
0.0
 10
166.8980296379335
 20
172.7348282233367
 30
0.0
 10
166.8980296379335
 20
173.0763756934478
 30
0.0
 10
166.8980296379335
 20
173.5643635191681
 30
0.0
 10
166.8980296379335
 20
174.0051131155074
 30
0.0
 10
166.8980296379335
 20
174.3768491866624
 30
0.0
 10
166.8980296379335
 20
174.6652466546829
 30
0.0
 10
166.8980296379335
 20
174.8443128166405
 30
0.0
 10
166.8980296379335
 20
174.9228815483439
 30
0.0
 10
166.8980296379335
 20
174.906248969037
 30
0.0
 10
166.8980296379335
 20
174.9034995701844
 30
0.0
  0
SPLINE
  5
51F
330
1F
100
AcDbEntity
  8
0
  6
Continuous
 62
     7
370
    25
100
AcDbSpline
210
0.0
220
0.0
230
1.0
 70
    24
 71
     3
 72
    15
 73
    11
 74
     0
 42
0.0000000001
 43
0.0000000001
 40
0.0
 40
0.0
 40
0.0
 40
0.0
 40
0.1388904513308973
 40
0.2777812735998685
 40
0.4166720507903717
 40
0.5555629126966287
 40
0.6944534649534041
 40
0.8333442152949183
 40
0.9722348978522715
 40
1.0
 40
1.0
 40
1.0
 40
1.0
 10
167.4060549265153
 20
172.5640545156533
 30
0.0
 10
167.4060549265153
 20
172.7561579477765
 30
0.0
 10
167.4060549265153
 20
173.1403653250781
 30
0.0
 10
167.4060549265154
 20
173.6893041753577
 30
0.0
 10
167.4060549265153
 20
174.1851040652946
 30
0.0
 10
167.4060549265153
 20
174.6032727291551
 30
0.0
 10
167.4060549265153
 20
174.927685967493
 30
0.0
 10
167.4060549265153
 20
175.1291431750949
 30
0.0
 10
167.4060549265153
 20
175.2175260127314
 30
0.0
 10
167.4060549265153
 20
175.1987580225877
 30
0.0
 10
167.4060549265153
 20
175.1956312474543
 30
0.0
  0
LINE
  5
520
330
1F
100
AcDbEntity
  8
0
  6
Continuous
 62
     7
370
    25
100
AcDbLine
 10
166.8980259126432
 20
172.5640545156533
 30
0.0
 11
166.8980259126432
 21
161.5404539298946
 31
0.0
  0
LINE
  5
521
330
1F
100
AcDbEntity
  8
0
  6
Continuous
 62
     7
370
    25
100
AcDbLine
 10
167.406025124193
 20
172.5640545156533
 30
0.0
 11
167.406025124193
 21
161.5404534642333
 31
0.0
  0
SPLINE
  5
522
330
1F
100
AcDbEntity
  8
0
  6
Continuous
 62
     7
370
    25
100
AcDbSpline
210
0.0
220
0.0
230
1.0
 70
    24
 71
     3
 72
    15
 73
    11
 74
     0
 42
0.0000000001
 43
0.0000000001
 40
0.0
 40
0.0
 40
0.0
 40
0.0
 40
0.0277265122437106
 40
0.1666226523233315
 40
0.3055190048479626
 40
0.4444150886258978
 40
0.5833112883660686
 40
0.7222076619853805
 40
0.8611038248229244
 40
1.0
 40
1.0
 40
1.0
 40
1.0
 10
167.4060549265153
 20
158.9088646252388
 30
0.0
 10
167.4060549265153
 20
158.9057435434775
 30
0.0
 10
167.4060549265153
 20
158.8869873827091
 30
0.0
 10
167.4060549265154
 20
158.9753653388828
 30
0.0
 10
167.4060549265153
 20
159.1768216953043
 30
0.0
 10
167.4060549265153
 20
159.5012355920459
 30
0.0
 10
167.4060549265153
 20
159.9194032597422
 30
0.0
 10
167.4060549265153
 20
160.4152033780746
 30
0.0
 10
167.4060549265153
 20
160.9641421858528
 30
0.0
 10
167.4060549265153
 20
161.3483496990843
 30
0.0
 10
167.4060549265153
 20
161.5404534642333
 30
0.0
  0
SPLINE
  5
523
330
1F
100
AcDbEntity
  8
0
  6
Continuous
 62
     7
370
    25
100
AcDbSpline
210
0.0
220
0.0
230
1.0
 70
    24
 71
     3
 72
    15
 73
    11
 74
     0
 42
0.0000000001
 43
0.0000000001
 40
0.0
 40
0.0
 40
0.0
 40
0.0
 40
0.0275127714285784
 40
0.1664394868345158
 40
0.3053663754908515
 40
0.444292935047839
 40
0.5832197689442601
 40
0.7221465852179678
 40
0.8610732519901173
 40
1.0
 40
1.0
 40
1.0
 40
1.0
 10
166.8980296379335
 20
159.2010070127184
 30
0.0
 10
166.8980296379335
 20
159.1982580449653
 30
0.0
 10
166.8980296379335
 20
159.181628067018
 30
0.0
 10
166.8980296379335
 20
159.2601929992314
 30
0.0
 10
166.8980296379335
 20
159.4392601587345
 30
0.0
 10
166.8980296379335
 20
159.7276591785366
 30
0.0
 10
166.8980296379335
 20
160.0993939935441
 30
0.0
 10
166.8980296379335
 20
160.5401443852135
 30
0.0
 10
166.8980296379335
 20
161.0281323897083
 30
0.0
 10
166.8980296379335
 20
161.369680049879
 30
0.0
 10
166.8980296379335
 20
161.5404539298946
 30
0.0
  0
LINE
  5
524
330
1F
100
AcDbEntity
  8
0
  6
Continuous
 62
     7
370
    25
100
AcDbLine
 10
283.4562275236852
 20
135.4610031959349
 30
0.0
 11
283.4562275236852
 21
127.5235029426152
 31
0.0
  0
LINE
  5
525
330
1F
100
AcDbEntity
  8
0
  6
Continuous
 62
     7
370
    25
100
AcDbLine
 10
283.964226735235
 20
134.9530039843851
 30
0.0
 11
283.964226735235
 21
128.0315040168101
 31
0.0
  0
LINE
  5
526
330
1F
100
AcDbEntity
  8
0
  6
Continuous
 62
     7
370
    25
100
AcDbLine
 10
278.2364438897379
 20
171.2940127146179
 30
0.0
 11
278.7444468265779
 21
171.2940127146179
 31
0.0
  0
LINE
  5
527
330
1F
100
AcDbEntity
  8
0
  6
Continuous
 62
     7
370
    25
100
AcDbLine
 10
278.2364438897379
 20
165.35041262626
 30
0.0
 11
278.2364438897379
 21
171.2940127146179
 31
0.0
  0
LINE
  5
528
330
1F
100
AcDbEntity
  8
0
  6
Continuous
 62
     7
370
    25
100
AcDbLine
 10
278.7444468265779
 20
165.35041262626
 30
0.0
 11
278.2364438897379
 21
165.35041262626
 31
0.0
  0
LINE
  5
529
330
1F
100
AcDbEntity
  8
0
  6
Continuous
 62
     7
370
    25
100
AcDbLine
 10
277.5056201642759
 20
161.718213141405
 30
0.0
 11
278.7444468265779
 21
161.718213141405
 31
0.0
  0
LINE
  5
52A
330
1F
100
AcDbEntity
  8
0
  6
Continuous
 62
     7
370
    25
100
AcDbLine
 10
278.7444468265779
 20
171.2940127146179
 30
0.0
 11
278.7444468265779
 21
174.9262126651341
 31
0.0
  0
LINE
  5
52B
330
1F
100
AcDbEntity
  8
0
  6
Continuous
 62
     7
370
    25
100
AcDbLine
 10
278.7444468265779
 20
161.718213141405
 30
0.0
 11
278.7444468265779
 21
165.35041262626
 31
0.0
  0
LINE
  5
52C
330
1F
100
AcDbEntity
  8
0
  6
Continuous
 62
     7
370
    25
100
AcDbLine
 10
278.7444468265779
 20
174.9262126651341
 30
0.0
 11
277.5056201642759
 21
174.9262126651341
 31
0.0
  0
LINE
  5
52D
330
1F
100
AcDbEntity
  8
0
  6
Continuous
 62
     7
370
    25
100
AcDbLine
 10
278.7444468265779
 20
174.9262126651341
 30
0.0
 11
278.7444468265779
 21
176.4502121624285
 31
0.0
  0
LINE
  5
52E
330
1F
100
AcDbEntity
  8
0
  6
Continuous
 62
     7
370
    25
100
AcDbLine
 10
278.7444468265779
 20
176.4502121624285
 30
0.0
 11
277.5056201642759
 21
176.4502121624285
 31
0.0
  0
LINE
  5
52F
330
1F
100
AcDbEntity
  8
0
  6
Continuous
 62
     7
370
    25
100
AcDbLine
 10
278.7444468265779
 20
160.1942129456187
 30
0.0
 11
278.7444468265779
 21
161.718213141405
 31
0.0
  0
LINE
  5
530
330
1F
100
AcDbEntity
  8
0
  6
Continuous
 62
     7
370
    25
100
AcDbLine
 10
278.7444468265779
 20
160.1942129456187
 30
0.0
 11
277.5056201642759
 21
160.1942129456187
 31
0.0
  0
LINE
  5
531
330
1F
100
AcDbEntity
  8
0
  6
Continuous
 62
     7
370
    25
100
AcDbLine
 10
278.6174442297228
 20
171.2940127146179
 30
0.0
 11
278.6174442297228
 21
165.35041262626
 31
0.0
  0
LINE
  5
532
330
1F
100
AcDbEntity
  8
0
  6
Continuous
 62
     7
370
    25
100
AcDbLine
 10
278.7444468265779
 20
165.35041262626
 30
0.0
 11
278.7444468265779
 21
171.2940127146179
 31
0.0
  0
SPLINE
  5
533
330
1F
100
AcDbEntity
  8
0
  6
Continuous
 62
     7
370
    25
100
AcDbSpline
210
0.0
220
0.0
230
1.0
 70
    24
 71
     3
 72
     9
 73
     5
 74
     0
 42
0.0000000001
 43
0.0000000001
 40
0.0
 40
0.0
 40
0.0
 40
0.0
 40
0.7460848594508978
 40
1.0
 40
1.0
 40
1.0
 40
1.0
 10
277.9605749672659
 20
136.216654118591
 30
0.0
 10
277.9754913542441
 20
136.216654118591
 30
0.0
 10
277.9954842368085
 20
136.216654118591
 30
0.0
 10
278.1433743496356
 20
136.216654118591
 30
0.0
 10
278.1809258884199
 20
136.216654118591
 30
0.0
  0
SPLINE
  5
534
330
1F
100
AcDbEntity
  8
0
  6
Continuous
 62
     7
370
    25
100
AcDbSpline
210
0.0
220
0.0
230
1.0
 70
     8
 71
     3
 72
    11
 73
     7
 74
     0
 42
0.0000000001
 43
0.0000000001
 40
0.0
 40
0.0
 40
0.0
 40
0.0
 40
0.2462752455310287
 40
0.4924200225716604
 40
0.7461376629183371
 40
1.0
 40
1.0
 40
1.0
 40
1.0
 10
278.1809258884199
 20
131.4922540005976
 30
0.0
 10
278.1140355574757
 20
131.8778686214353
 30
0.0
 10
277.9802903318753
 20
132.6488935772216
 30
0.0
 10
277.912656274324
 20
133.8303449407163
 30
0.0
 10
277.9749836288047
 20
135.0242457076697
 30
0.0
 10
278.1122654234923
 20
135.8191091172377
 30
0.0
 10
278.1809258884199
 20
136.216654118591
 30
0.0
  0
SPLINE
  5
535
330
1F
100
AcDbEntity
  8
0
  6
Continuous
 62
     7
370
    25
100
AcDbSpline
210
0.0
220
0.0
230
1.0
 70
     8
 71
     3
 72
    11
 73
     7
 74
     0
 42
0.0000000001
 43
0.0000000001
 40
0.0
 40
0.0
 40
0.0
 40
0.0
 40
0.2462752455310287
 40
0.4924200225716604
 40
0.7461376629183371
 40
1.0
 40
1.0
 40
1.0
 40
1.0
 10
278.1809258884199
 20
126.7678538826042
 30
0.0
 10
278.1140355574757
 20
127.1534685034419
 30
0.0
 10
277.9802903318753
 20
127.9244934592282
 30
0.0
 10
277.912656274324
 20
129.105944822723
 30
0.0
 10
277.9749836288047
 20
130.2998455896763
 30
0.0
 10
278.1122654234923
 20
131.0947089992444
 30
0.0
 10
278.1809258884199
 20
131.4922540005976
 30
0.0
  0
SPLINE
  5
536
330
1F
100
AcDbEntity
  8
0
  6
Continuous
 62
     7
370
    25
100
AcDbSpline
210
0.0
220
0.0
230
1.0
 70
    24
 71
     3
 72
     9
 73
     5
 74
     0
 42
0.0000000001
 43
0.0000000001
 40
0.0
 40
0.0
 40
0.0
 40
0.0
 40
0.2539069554876069
 40
1.0
 40
1.0
 40
1.0
 40
1.0
 10
278.1809258884199
 20
126.7678538826042
 30
0.0
 10
278.1434326293702
 20
126.7678538826042
 30
0.0
 10
277.9957672809449
 20
126.7678538826042
 30
0.0
 10
277.9732954092044
 20
126.7678538826042
 30
0.0
 10
277.9565293020017
 20
126.7678538826042
 30
0.0
  0
LINE
  5
537
330
1F
100
AcDbEntity
  8
0
  6
Continuous
 62
     7
370
    25
100
AcDbLine
 10
278.1809258884199
 20
136.216654118591
 30
0.0
 11
279.6129274791486
 21
136.216654118591
 31
0.0
  0
SPLINE
  5
538
330
1F
100
AcDbEntity
  8
0
  6
Continuous
 62
     7
370
    25
100
AcDbSpline
210
0.0
220
0.0
230
1.0
 70
     8
 71
     3
 72
    11
 73
     7
 74
     0
 42
0.0000000001
 43
0.0000000001
 40
0.0
 40
0.0
 40
0.0
 40
0.0
 40
0.2462752455310287
 40
0.4924200225716604
 40
0.7461376629183371
 40
1.0
 40
1.0
 40
1.0
 40
1.0
 10
279.6129274791486
 20
131.4922540005976
 30
0.0
 10
279.6798178100928
 20
131.8778686214353
 30
0.0
 10
279.8135630356932
 20
132.6488935772216
 30
0.0
 10
279.8811970932446
 20
133.8303449407163
 30
0.0
 10
279.8188697387637
 20
135.0242457076697
 30
0.0
 10
279.6815879440762
 20
135.8191091172377
 30
0.0
 10
279.6129274791486
 20
136.216654118591
 30
0.0
  0
LINE
  5
539
330
1F
100
AcDbEntity
  8
0
  6
Continuous
 62
     7
370
    25
100
AcDbLine
 10
278.1809258884199
 20
131.4922540005976
 30
0.0
 11
279.6129274791486
 21
131.4922540005976
 31
0.0
  0
SPLINE
  5
53A
330
1F
100
AcDbEntity
  8
0
  6
Continuous
 62
     7
370
    25
100
AcDbSpline
210
0.0
220
0.0
230
1.0
 70
     8
 71
     3
 72
    11
 73
     7
 74
     0
 42
0.0000000001
 43
0.0000000001
 40
0.0
 40
0.0
 40
0.0
 40
0.0
 40
0.2462752455310287
 40
0.4924200225716604
 40
0.7461376629183371
 40
1.0
 40
1.0
 40
1.0
 40
1.0
 10
279.6129274791486
 20
126.7678538826042
 30
0.0
 10
279.6798178100928
 20
127.1534685034419
 30
0.0
 10
279.8135630356932
 20
127.9244934592282
 30
0.0
 10
279.8811970932446
 20
129.105944822723
 30
0.0
 10
279.8188697387637
 20
130.2998455896763
 30
0.0
 10
279.6815879440762
 20
131.0947089992444
 30
0.0
 10
279.6129274791486
 20
131.4922540005976
 30
0.0
  0
LINE
  5
53B
330
1F
100
AcDbEntity
  8
0
  6
Continuous
 62
     7
370
    25
100
AcDbLine
 10
278.1809258884199
 20
126.7678538826042
 30
0.0
 11
279.6129274791486
 21
126.7678538826042
 31
0.0
  0
LINE
  5
53C
330
1F
100
AcDbEntity
  8
0
  6
Continuous
 62
     7
370
    25
100
AcDbLine
 10
279.9129251068838
 20
126.9259868678385
 30
0.0
 11
279.9129251068838
 21
136.0585211333567
 31
0.0
  0
SPLINE
  5
53D
330
1F
100
AcDbEntity
  8
0
  6
Continuous
 62
     7
370
    25
100
AcDbSpline
210
0.0
220
0.0
230
1.0
 70
    24
 71
     3
 72
     9
 73
     5
 74
     0
 42
0.0000000001
 43
0.0000000001
 40
0.0
 40
0.0
 40
0.0
 40
0.0
 40
0.2539069554876069
 40
1.0
 40
1.0
 40
1.0
 40
1.0
 10
279.6129274791486
 20
126.7678538826042
 30
0.0
 10
279.6504207381984
 20
126.7678538826042
 30
0.0
 10
279.7980860866237
 20
126.7678538826042
 30
0.0
 10
279.8205579583641
 20
126.7678538826042
 30
0.0
 10
279.8373240655668
 20
126.7678538826042
 30
0.0
  0
SPLINE
  5
53E
330
1F
100
AcDbEntity
  8
0
  6
Continuous
 62
     7
370
    25
100
AcDbSpline
210
0.0
220
0.0
230
1.0
 70
    24
 71
     3
 72
     9
 73
     5
 74
     0
 42
0.0000000001
 43
0.0000000001
 40
0.0
 40
0.0
 40
0.0
 40
0.0
 40
0.7460848594508978
 40
1.0
 40
1.0
 40
1.0
 40
1.0
 10
279.8332784003027
 20
136.216654118591
 30
0.0
 10
279.8183620133245
 20
136.216654118591
 30
0.0
 10
279.7983691307601
 20
136.216654118591
 30
0.0
 10
279.6504790179329
 20
136.216654118591
 30
0.0
 10
279.6129274791486
 20
136.216654118591
 30
0.0
  0
LINE
  5
53F
330
1F
100
AcDbEntity
  8
0
  6
Continuous
 62
     7
370
    25
100
AcDbLine
 10
277.8809282606848
 20
136.050187658959
 30
0.0
 11
277.8809282606848
 21
136.6484543797308
 31
0.0
  0
LINE
  5
540
330
1F
100
AcDbEntity
  8
0
  6
Continuous
 62
     7
370
    25
100
AcDbLine
 10
277.8809282606848
 20
126.3360536214644
 30
0.0
 11
277.8809282606848
 21
136.050187658959
 31
0.0
  0
SPLINE
  5
541
330
1F
100
AcDbEntity
  8
0
  6
Continuous
 62
     7
370
    25
100
AcDbSpline
210
0.0
220
0.0
230
1.0
 70
     8
 71
     3
 72
     9
 73
     5
 74
     0
 42
0.0000000001
 43
0.0000000001
 40
0.0
 40
0.0
 40
0.0
 40
0.0
 40
0.4912122928909934
 40
1.0
 40
1.0
 40
1.0
 40
1.0
 10
167.2143477624662
 20
182.0780287054116
 30
0.0
 10
167.1447983646171
 20
181.6737028140287
 30
0.0
 10
167.0032111143473
 20
180.8505843839029
 30
0.0
 10
167.1431490573224
 20
180.0270524189843
 30
0.0
 10
167.2143477624662
 20
179.6080494788224
 30
0.0
  0
LINE
  5
542
330
1F
100
AcDbEntity
  8
0
  6
Continuous
 62
     7
370
    25
100
AcDbLine
 10
167.2143477624662
 20
182.0780287054116
 30
0.0
 11
171.509547871948
 21
182.0780287054116
 31
0.0
  0
SPLINE
  5
543
330
1F
100
AcDbEntity
  8
0
  6
Continuous
 62
     7
370
    25
100
AcDbSpline
210
0.0
220
0.0
230
1.0
 70
     8
 71
     3
 72
     9
 73
     5
 74
     0
 42
0.0000000001
 43
0.0000000001
 40
0.0
 40
0.0
 40
0.0
 40
0.0
 40
0.4912122928909934
 40
1.0
 40
1.0
 40
1.0
 40
1.0
 10
171.509547871948
 20
179.6080494788224
 30
0.0
 10
171.5790972697972
 20
180.0123753702053
 30
0.0
 10
171.7206845200669
 20
180.8354938003311
 30
0.0
 10
171.5807465770918
 20
181.6590257652497
 30
0.0
 10
171.509547871948
 20
182.0780287054116
 30
0.0
  0
LINE
  5
544
330
1F
100
AcDbEntity
  8
0
  6
Continuous
 62
     7
370
    25
100
AcDbLine
 10
167.2143477624662
 20
179.6080494788224
 30
0.0
 11
171.509547871948
 21
179.6080494788224
 31
0.0
  0
SPLINE
  5
545
330
1F
100
AcDbEntity
  8
0
  6
Continuous
 62
     7
370
    25
100
AcDbSpline
210
0.0
220
0.0
230
1.0
 70
     8
 71
     3
 72
    11
 73
     7
 74
     0
 42
0.0000000001
 43
0.0000000001
 40
0.0
 40
0.0
 40
0.0
 40
0.0
 40
0.0133254839575963
 40
0.4375572602055721
 40
0.8731436552975655
 40
1.0
 40
1.0
 40
1.0
 40
1.0
 10
167.2143477624662
 20
179.6080494788224
 30
0.0
 10
167.2120538170673
 20
179.5969385052985
 30
0.0
 10
167.1367295386398
 20
179.232097187055
 30
0.0
 10
167.0371472033467
 20
178.4939405577532
 30
0.0
 10
167.1015251285354
 20
177.6546783805413
 30
0.0
 10
167.1935842546333
 20
177.1850053891004
 30
0.0
 10
167.2143477624662
 20
177.0790728297764
 30
0.0
  0
SPLINE
  5
546
330
1F
100
AcDbEntity
  8
0
  6
Continuous
 62
     7
370
    25
100
AcDbSpline
210
0.0
220
0.0
230
1.0
 70
     8
 71
     3
 72
     9
 73
     5
 74
     0
 42
0.0000000001
 43
0.0000000001
 40
0.0
 40
0.0
 40
0.0
 40
0.0
 40
0.4912125602012107
 40
0.9999999999999998
 40
0.9999999999999998
 40
0.9999999999999998
 40
0.9999999999999998
 10
167.2143477624662
 20
177.0790728297764
 30
0.0
 10
167.1447983403987
 20
177.0694158191811
 30
0.0
 10
167.0032111178754
 20
177.0497562840272
 30
0.0
 10
167.1431490833047
 20
177.0300867463346
 30
0.0
 10
167.2143477624662
 20
177.02007913261
 30
0.0
  0
SPLINE
  5
547
330
1F
100
AcDbEntity
  8
0
  6
Continuous
 62
     7
370
    25
100
AcDbSpline
210
0.0
220
0.0
230
1.0
 70
     8
 71
     3
 72
     9
 73
     5
 74
     0
 42
0.0000000001
 43
0.0000000001
 40
0.0
 40
0.0
 40
0.0
 40
0.0
 40
0.4912122928909934
 40
1.0
 40
1.0
 40
1.0
 40
1.0
 10
167.2143477624662
 20
177.02007913261
 30
0.0
 10
167.1447983646171
 20
177.4244050239929
 30
0.0
 10
167.0032111143473
 20
178.2475234541187
 30
0.0
 10
167.1431490573224
 20
179.0710554190373
 30
0.0
 10
167.2143477624662
 20
179.4900583591992
 30
0.0
  0
SPLINE
  5
548
330
1F
100
AcDbEntity
  8
0
  6
Continuous
 62
     7
370
    25
100
AcDbSpline
210
0.0
220
0.0
230
1.0
 70
     8
 71
     3
 72
    11
 73
     7
 74
     0
 42
0.0000000001
 43
0.0000000001
 40
0.0
 40
0.0
 40
0.0
 40
0.0
 40
0.1268555805798859
 40
0.5507404422302928
 40
0.9866751337019486
 40
1.0
 40
1.0
 40
1.0
 40
1.0
 10
167.2143477624662
 20
179.4900583591992
 30
0.0
 10
167.1935870886854
 20
179.5959923527678
 30
0.0
 10
167.1034551243937
 20
180.055902229799
 30
0.0
 10
167.0367916114455
 20
180.8947169677457
 30
0.0
 10
167.134709797
 20
181.633328509295
 30
0.0
 10
167.212053769874
 20
182.0079228218581
 30
0.0
 10
167.2143477624662
 20
182.0190331456
 30
0.0
  0
SPLINE
  5
549
330
1F
100
AcDbEntity
  8
0
  6
Continuous
 62
     7
370
    25
100
AcDbSpline
210
0.0
220
0.0
230
1.0
 70
     8
 71
     3
 72
     9
 73
     5
 74
     0
 42
0.0000000001
 43
0.0000000001
 40
0.0
 40
0.0
 40
0.0
 40
0.0
 40
0.4912125668460238
 40
1.0
 40
1.0
 40
1.0
 40
1.0
 10
167.2143477624662
 20
182.0190331456
 30
0.0
 10
167.1447983397967
 20
182.0286909295063
 30
0.0
 10
167.003211117963
 20
182.0483520386844
 30
0.0
 10
167.1431490839506
 20
182.0680212552188
 30
0.0
 10
167.2143477624662
 20
182.0780287054116
 30
0.0
  0
LINE
  5
54A
330
1F
100
AcDbEntity
  8
0
  6
Continuous
 62
     7
370
    25
100
AcDbLine
 10
167.0619461363561
 20
177.0870337751443
 30
0.0
 11
167.0619461363561
 21
182.0152612891728
 31
0.0
  0
SPLINE
  5
54B
330
1F
100
AcDbEntity
  8
0
  6
Continuous
 62
     7
370
    25
100
AcDbSpline
210
0.0
220
0.0
230
1.0
 70
     8
 71
     3
 72
     9
 73
     5
 74
     0
 42
0.0000000001
 43
0.0000000001
 40
0.0
 40
0.0
 40
0.0
 40
0.0
 40
0.4912125537837586
 40
0.9999999999999998
 40
0.9999999999999998
 40
0.9999999999999998
 40
0.9999999999999998
 10
171.509547871948
 20
182.0780287054116
 30
0.0
 10
171.5790972934341
 20
182.0683718419803
 30
0.0
 10
171.7206845166236
 20
182.0487126061629
 30
0.0
 10
171.5807465517333
 20
182.0290415380894
 30
0.0
 10
171.509547871948
 20
182.0190331456
 30
0.0
  0
SPLINE
  5
54C
330
1F
100
AcDbEntity
  8
0
  6
Continuous
 62
     7
370
    25
100
AcDbSpline
210
0.0
220
0.0
230
1.0
 70
     8
 71
     3
 72
    10
 73
     6
 74
     0
 42
0.0000000001
 43
0.0000000001
 40
0.0
 40
0.0
 40
0.0
 40
0.0
 40
0.0275581368089587
 40
0.9049538620576967
 40
1.0
 40
1.0
 40
1.0
 40
1.0
 10
171.509547871948
 20
182.0190331456
 30
0.0
 10
171.5118312327435
 20
182.0079230782787
 30
0.0
 10
171.5868122151192
 20
181.6430907821102
 30
0.0
 10
171.6749730278178
 20
181.2333174406214
 30
0.0
 10
171.6427474712392
 20
180.8357043370351
 30
0.0
 10
171.6395977562673
 20
180.7968417671258
 30
0.0
  0
LINE
  5
54D
330
1F
100
AcDbEntity
  8
0
  6
Continuous
 62
     7
370
    25
100
AcDbLine
 10
171.6502669876821
 20
178.276979040795
 30
0.0
 11
171.509547871948
 21
177.02007913261
 31
0.0
  0
SPLINE
  5
54E
330
1F
100
AcDbEntity
  8
0
  6
Continuous
 62
     7
370
    25
100
AcDbSpline
210
0.0
220
0.0
230
1.0
 70
     8
 71
     3
 72
     9
 73
     5
 74
     0
 42
0.0000000001
 43
0.0000000001
 40
0.0
 40
0.0
 40
0.0
 40
0.0
 40
0.4912125602012107
 40
0.9999999999999998
 40
0.9999999999999998
 40
0.9999999999999998
 40
0.9999999999999998
 10
171.509547871948
 20
177.02007913261
 30
0.0
 10
171.5790972940155
 20
177.0297361432053
 30
0.0
 10
171.7206845165389
 20
177.0493956783592
 30
0.0
 10
171.5807465511095
 20
177.0690652160518
 30
0.0
 10
171.509547871948
 20
177.0790728297764
 30
0.0
  0
SPLINE
  5
54F
330
1F
100
AcDbEntity
  8
0
  6
Continuous
 62
     7
370
    25
100
AcDbSpline
210
0.0
220
0.0
230
1.0
 70
     8
 71
     3
 72
    11
 73
     7
 74
     0
 42
0.0000000001
 43
0.0000000001
 40
0.0
 40
0.0
 40
0.0
 40
0.0
 40
0.1268554834977566
 40
0.5507401322661494
 40
0.9866748123673911
 40
1.0
 40
1.0
 40
1.0
 40
1.0
 10
171.509547871948
 20
177.0790728297764
 30
0.0
 10
171.5303068456569
 20
177.1850067660342
 30
0.0
 10
171.6204314473765
 20
177.6449164873757
 30
0.0
 10
171.6871281755176
 20
178.483736957111
 30
0.0
 10
171.5891401116455
 20
179.2223318552162
 30
0.0
 10
171.5118405995573
 20
179.5969385282023
 30
0.0
 10
171.509547871948
 20
179.6080494788224
 30
0.0
  0
LINE
  5
550
330
1F
100
AcDbEntity
  8
0
  6
Continuous
 62
     7
370
    25
100
AcDbLine
 10
167.2143477624662
 20
177.0790728297764
 30
0.0
 11
171.509547871948
 21
177.0790728297764
 31
0.0
  0
LINE
  5
551
330
1F
100
AcDbEntity
  8
0
  6
Continuous
 62
     7
370
    25
100
AcDbLine
 10
167.2143477624662
 20
177.02007913261
 30
0.0
 11
171.509547871948
 21
177.02007913261
 31
0.0
  0
SPLINE
  5
552
330
1F
100
AcDbEntity
  8
0
  6
Continuous
 62
     7
370
    25
100
AcDbSpline
210
0.0
220
0.0
230
1.0
 70
     8
 71
     3
 72
     9
 73
     5
 74
     0
 42
0.0000000001
 43
0.0000000001
 40
0.0
 40
0.0
 40
0.0
 40
0.0
 40
0.4912123349832662
 40
1.0
 40
1.0
 40
1.0
 40
1.0
 10
167.2143477624662
 20
156.8353600197337
 30
0.0
 10
167.1447983608035
 20
156.3977313051016
 30
0.0
 10
167.0032111149028
 20
155.5068157407622
 30
0.0
 10
167.1431490614137
 20
154.615453909785
 30
0.0
 10
167.2143477624662
 20
154.1619400051171
 30
0.0
  0
LINE
  5
553
330
1F
100
AcDbEntity
  8
0
  6
Continuous
 62
     7
370
    25
100
AcDbLine
 10
167.2143477624662
 20
156.8353600197337
 30
0.0
 11
171.509547871948
 21
156.8353600197337
 31
0.0
  0
SPLINE
  5
554
330
1F
100
AcDbEntity
  8
0
  6
Continuous
 62
     7
370
    25
100
AcDbSpline
210
0.0
220
0.0
230
1.0
 70
     8
 71
     3
 72
     9
 73
     5
 74
     0
 42
0.0000000001
 43
0.0000000001
 40
0.0
 40
0.0
 40
0.0
 40
0.0
 40
0.4912126108070389
 40
1.0
 40
1.0
 40
1.0
 40
1.0
 10
171.509547871948
 20
154.1619400051171
 30
0.0
 10
171.5790972986003
 20
154.5995686549973
 30
0.0
 10
171.7206845158709
 20
155.4904835872529
 30
0.0
 10
171.5807465461906
 20
156.3818460430328
 30
0.0
 10
171.509547871948
 20
156.8353600197337
 30
0.0
  0
LINE
  5
555
330
1F
100
AcDbEntity
  8
0
  6
Continuous
 62
     7
370
    25
100
AcDbLine
 10
167.2143477624662
 20
154.1619400051171
 30
0.0
 11
171.509547871948
 21
154.1619400051171
 31
0.0
  0
LINE
  5
556
330
1F
100
AcDbEntity
  8
0
  6
Continuous
 62
     7
370
    25
100
AcDbLine
 10
171.6149661368139
 20
152.0320490491325
 30
0.0
 11
171.509547871948
 21
151.8820339371199
 31
0.0
  0
SPLINE
  5
557
330
1F
100
AcDbEntity
  8
0
  6
Continuous
 62
     7
370
    25
100
AcDbSpline
210
0.0
220
0.0
230
1.0
 70
     8
 71
     3
 72
    11
 73
     7
 74
     0
 42
0.0000000001
 43
0.0000000001
 40
0.0
 40
0.0
 40
0.0
 40
0.0
 40
0.01332501114594
 40
0.4375573436025776
 40
0.8731441884626665
 40
1.0
 40
1.0
 40
1.0
 40
1.0
 10
171.509547871948
 20
151.8820339371199
 30
0.0
 10
171.511840554472
 20
151.8920504538781
 30
0.0
 10
171.5871260505915
 20
152.2209657858709
 30
0.0
 10
171.6867636964621
 20
152.8864152827103
 30
0.0
 10
171.622362241701
 20
153.643023730705
 30
0.0
 10
171.5303097901791
 20
154.0664406703982
 30
0.0
 10
171.509547871948
 20
154.1619400051171
 30
0.0
  0
SPLINE
  5
558
330
1F
100
AcDbEntity
  8
0
  6
Continuous
 62
     7
370
    25
100
AcDbSpline
210
0.0
220
0.0
230
1.0
 70
     8
 71
     3
 72
     9
 73
     5
 74
     0
 42
0.0000000001
 43
0.0000000001
 40
0.0
 40
0.0
 40
0.0
 40
0.0
 40
0.4912125827408351
 40
1.0
 40
1.0
 40
1.0
 40
1.0
 10
171.509547871948
 20
156.8353600197337
 30
0.0
 10
171.5790972960576
 20
156.8997766934722
 30
0.0
 10
171.7206845162414
 20
157.0309147709603
 30
0.0
 10
171.5807465489187
 20
157.1621187155546
 30
0.0
 10
171.509547871948
 20
157.228873631659
 30
0.0
  0
SPLINE
  5
559
330
1F
100
AcDbEntity
  8
0
  6
Continuous
 62
     7
370
    25
100
AcDbSpline
210
0.0
220
0.0
230
1.0
 70
     8
 71
     3
 72
     9
 73
     5
 74
     0
 42
0.0000000001
 43
0.0000000001
 40
0.0
 40
0.0
 40
0.0
 40
0.0
 40
0.4912125824004906
 40
1.0
 40
1.0
 40
1.0
 40
1.0
 10
167.2143477624662
 20
157.228873631659
 30
0.0
 10
167.1447983383874
 20
157.1644569614949
 30
0.0
 10
167.0032111181683
 20
157.0333188911929
 30
0.0
 10
167.1431490854625
 20
156.9021149394962
 30
0.0
 10
167.2143477624662
 20
156.8353600197337
 30
0.0
  0
SPLINE
  5
55A
330
1F
100
AcDbEntity
  8
0
  6
Continuous
 62
     7
370
    25
100
AcDbSpline
210
0.0
220
0.0
230
1.0
 70
     8
 71
     3
 72
    11
 73
     7
 74
     0
 42
0.0000000001
 43
0.0000000001
 40
0.0
 40
0.0
 40
0.0
 40
0.0
 40
0.1268552822665614
 40
0.5507402811799257
 40
0.9866748385833362
 40
1.0
 40
1.0
 40
1.0
 40
1.0
 10
167.2143477624662
 20
154.1619400051171
 30
0.0
 10
167.1935870951915
 20
154.066439404654
 30
0.0
 10
167.103454973548
 20
153.6518249982838
 30
0.0
 10
167.0367909105245
 20
152.8956194138433
 30
0.0
 10
167.1347115002218
 20
152.2297578151393
 30
0.0
 10
167.2120537703917
 20
151.892050427068
 30
0.0
 10
167.2143477624662
 20
151.8820339371199
 30
0.0
  0
LINE
  5
55B
330
1F
100
AcDbEntity
  8
0
  6
Continuous
 62
     7
370
    25
100
AcDbLine
 10
167.2143477624662
 20
151.8820339371199
 30
0.0
 11
167.1051297014959
 21
152.032036941939
 31
0.0
  0
LINE
  5
55C
330
1F
100
AcDbEntity
  8
0
  6
Continuous
 62
     7
370
    25
100
AcDbLine
 10
167.0619461363561
 20
156.5046657016249
 30
0.0
 11
167.0619461363561
 21
152.0874180388385
 31
0.0
  0
LINE
  5
55D
330
1F
100
AcDbEntity
  8
0
  6
Continuous
 62
     7
370
    25
100
AcDbLine
 10
167.0619461363561
 20
157.0234894862845
 30
0.0
 11
167.0619461363561
 21
156.5046657016249
 31
0.0
  0
LINE
  5
55E
330
1F
100
AcDbEntity
  8
0
  6
Continuous
 62
     7
370
    25
100
AcDbLine
 10
167.2143477624662
 20
151.8820339371199
 30
0.0
 11
171.509547871948
 21
151.8820339371199
 31
0.0
  0
LINE
  5
55F
330
1F
100
AcDbEntity
  8
0
  6
Continuous
 62
     7
370
    25
100
AcDbLine
 10
167.2143477624662
 20
157.228873631659
 30
0.0
 11
171.509547871948
 21
157.228873631659
 31
0.0
  0
LINE
  5
560
330
1F
100
AcDbEntity
  8
0
  6
Continuous
 62
     7
370
    25
100
AcDbLine
 10
169.6553479558237
 20
133.968663078242
 30
0.0
 11
169.6553479558237
 21
130.7810532417828
 31
0.0
  0
LINE
  5
561
330
1F
100
AcDbEntity
  8
0
  6
Continuous
 62
     7
370
    25
100
AcDbLine
 10
169.6553479558237
 20
145.4114538174802
 30
0.0
 11
169.6553479558237
 21
133.968663078242
 31
0.0
  0
LINE
  5
565
330
1F
100
AcDbEntity
  8
0
  6
Continuous
 62
     7
370
    25
100
AcDbLine
 10
169.4013464874036
 20
134.1119824466044
 30
0.0
 11
169.4013464874036
 21
145.1574532803828
 31
0.0
  0
LINE
  5
566
330
1F
100
AcDbEntity
  8
0
  6
Continuous
 62
     7
370
    25
100
AcDbLine
 10
169.4013464874036
 20
131.0350528475577
 30
0.0
 11
169.4013464874036
 21
134.1119824466044
 31
0.0
  0
LINE
  5
568
330
1F
100
AcDbEntity
  8
0
  6
Continuous
 62
     7
370
    25
100
AcDbLine
 10
171.9159472411878
 20
196.2622540560299
 30
0.0
 11
172.8176463073499
 21
196.2622540560299
 31
0.0
  0
LINE
  5
569
330
1F
100
AcDbEntity
  8
0
  6
Continuous
 62
     7
370
    25
100
AcDbLine
 10
171.9159472411878
 20
195.2462519076401
 30
0.0
 11
171.9159472411878
 21
196.2622540560299
 31
0.0
  0
LINE
  5
56A
330
1F
100
AcDbEntity
  8
0
  6
Continuous
 62
     7
370
    25
100
AcDbLine
 10
172.8176463073499
 20
196.117243405872
 30
0.0
 11
172.8176463073499
 21
195.8578775194222
 31
0.0
  0
LINE
  5
56B
330
1F
100
AcDbEntity
  8
0
  6
Continuous
 62
     7
370
    25
100
AcDbLine
 10
171.9159472411878
 20
195.2462519076401
 30
0.0
 11
171.9159472411878
 21
118.5382554796273
 31
0.0
  0
LINE
  5
56C
330
1F
100
AcDbEntity
  8
0
  6
Continuous
 62
     7
370
    25
100
AcDbLine
 10
172.8176463073499
 20
117.5222533312374
 30
0.0
 11
171.9159472411878
 21
117.5222533312374
 31
0.0
  0
LINE
  5
56D
330
1F
100
AcDbEntity
  8
0
  6
Continuous
 62
     7
370
    25
100
AcDbLine
 10
171.9159472411878
 20
117.5222533312374
 30
0.0
 11
171.9159472411878
 21
118.5382554796273
 31
0.0
  0
LINE
  5
56E
330
1F
100
AcDbEntity
  8
0
  6
Continuous
 62
     7
370
    25
100
AcDbLine
 10
172.8176463073499
 20
117.9266298678452
 30
0.0
 11
172.8176463073499
 21
117.6672639813954
 31
0.0
  0
LINE
  5
56F
330
1F
100
AcDbEntity
  8
0
  6
Continuous
 62
     7
370
    25
100
AcDbLine
 10
171.9159472411878
 20
117.5222533312374
 30
0.0
 11
171.153946561218
 21
117.5222533312374
 31
0.0
  0
LINE
  5
570
330
1F
100
AcDbEntity
  8
0
  6
Continuous
 62
     7
370
    25
100
AcDbLine
 10
171.153946561218
 20
196.2622540560299
 30
0.0
 11
171.9159472411878
 21
196.2622540560299
 31
0.0
  0
ARC
  5
571
330
1F
100
AcDbEntity
  8
0
  6
Continuous
 62
     7
370
    25
100
AcDbCircle
 10
166.7216469269306
 20
125.8922536938919
 30
0.0
 40
1.828800000000001
100
AcDbArc
 50
90.0
 51
270.0000000000008
  0
LINE
  5
572
330
1F
100
AcDbEntity
  8
0
  6
Continuous
 62
     7
370
    25
100
AcDbLine
 10
168.7536451643713
 20
124.0634533134037
 30
0.0
 11
166.7216483181722
 21
124.0634533134037
 31
0.0
  0
ARC
  5
573
330
1F
100
AcDbEntity
  8
0
  6
Continuous
 62
     7
370
    25
100
AcDbCircle
 10
168.7536469269307
 20
125.8922536938919
 30
0.0
 40
1.828800000000029
100
AcDbArc
 50
270.0000000000008
 51
90.0
  0
LINE
  5
574
330
1F
100
AcDbEntity
  8
0
  6
Continuous
 62
     7
370
    25
100
AcDbLine
 10
166.7216483181722
 20
127.7210532244974
 30
0.0
 11
168.7536451643713
 21
127.7210532244974
 31
0.0
  0
ARC
  5
575
330
1F
100
AcDbEntity
  8
0
  6
Continuous
 62
     7
370
    25
100
AcDbCircle
 10
164.5499469269307
 20
194.7382536938919
 30
0.0
 40
1.524000000000057
100
AcDbArc
 50
90.0
 51
179.9999999999998
  0
LINE
  5
576
330
1F
100
AcDbEntity
  8
0
  6
Continuous
 62
     7
370
    25
100
AcDbLine
 10
171.153946561218
 20
196.2622540560299
 30
0.0
 11
164.5499456352003
 21
196.2622540560299
 31
0.0
  0
LINE
  5
577
330
1F
100
AcDbEntity
  8
0
  6
Continuous
 62
     7
370
    25
100
AcDbLine
 10
171.153946561218
 20
117.5222533312374
 30
0.0
 11
164.5499456352003
 21
117.5222533312374
 31
0.0
  0
ARC
  5
578
330
1F
100
AcDbEntity
  8
0
  6
Continuous
 62
     7
370
    25
100
AcDbCircle
 10
164.5499469269307
 20
119.0462536938919
 30
0.0
 40
1.524
100
AcDbArc
 50
180.0
 51
270.0000000000008
  0
LINE
  5
579
330
1F
100
AcDbEntity
  8
0
  6
Continuous
 62
     7
370
    25
100
AcDbLine
 10
163.025948000551
 20
194.7382526960904
 30
0.0
 11
163.025948000551
 21
142.9222539555961
 31
0.0
  0
LINE
  5
57A
330
1F
100
AcDbEntity
  8
0
  6
Continuous
 62
     7
370
    25
100
AcDbLine
 10
163.025948000551
 20
133.2702531036669
 30
0.0
 11
163.025948000551
 21
119.046254691177
 31
0.0
  0
LINE
  5
57B
330
1F
100
AcDbEntity
  8
0
  6
Continuous
 62
     7
370
    25
100
AcDbLine
 10
168.7536451643713
 20
186.0634541627699
 30
0.0
 11
166.7216483181722
 21
186.0634541627699
 31
0.0
  0
ARC
  5
57C
330
1F
100
AcDbEntity
  8
0
  6
Continuous
 62
     7
370
    25
100
AcDbCircle
 10
168.7536469269307
 20
187.892253693892
 30
0.0
 40
1.828800000000001
100
AcDbArc
 50
270.0000000000008
 51
90.0
  0
LINE
  5
57D
330
1F
100
AcDbEntity
  8
0
  6
Continuous
 62
     7
370
    25
100
AcDbLine
 10
166.7216483181722
 20
189.7210540738637
 30
0.0
 11
168.7536451643713
 21
189.7210540738637
 31
0.0
  0
ARC
  5
57E
330
1F
100
AcDbEntity
  8
0
  6
Continuous
 62
     7
370
    25
100
AcDbCircle
 10
166.7216469269306
 20
187.892253693892
 30
0.0
 40
1.828800000000001
100
AcDbArc
 50
90.0
 51
270.0000000000008
  0
LINE
  5
57F
330
1F
100
AcDbEntity
  8
0
  6
Continuous
 62
     7
370
    25
100
AcDbLine
 10
275.3993484801061
 20
196.3892529275948
 30
0.0
 11
275.3993484801061
 21
196.2622540560299
 31
0.0
  0
LINE
  5
580
330
1F
100
AcDbEntity
  8
0
  6
Continuous
 62
     7
370
    25
100
AcDbLine
 10
275.3993484801061
 20
196.2622540560299
 30
0.0
 11
275.8108254200227
 21
196.2622540560299
 31
0.0
  0
LINE
  5
581
330
1F
100
AcDbEntity
  8
0
  6
Continuous
 62
     7
370
    25
100
AcDbLine
 10
275.8108254200227
 20
117.5222533312374
 30
0.0
 11
275.3993484801061
 21
117.5222533312374
 31
0.0
  0
LINE
  5
582
330
1F
100
AcDbEntity
  8
0
  6
Continuous
 62
     7
370
    25
100
AcDbLine
 10
275.3993484801061
 20
117.5222533312374
 30
0.0
 11
275.3993484801061
 21
117.3952544596726
 31
0.0
  0
LWPOLYLINE
  5
583
330
1F
100
AcDbEntity
  8
0
  6
Continuous
 62
     7
370
    25
100
AcDbPolyline
 90
        9
 70
   128
 43
0.0
 10
174.4813460534818
 20
117.3952544596726
 10
174.156776410938
 20
117.4989218380982
 10
173.8446753150232
 20
117.5986031559044
 10
173.5570456510789
 20
117.6904688146645
 10
173.3049329048402
 20
117.770994689756
 10
173.0980302816637
 20
117.8370776143605
 10
172.9442875510461
 20
117.8861806657845
 10
172.849613023401
 20
117.9164188471371
 10
172.8176463073499
 20
117.9266298678452
  0
LINE
  5
584
330
1F
100
AcDbEntity
  8
0
  6
Continuous
 62
     7
370
    25
100
AcDbLine
 10
172.8176463073499
 20
195.8578775194222
 30
0.0
 11
172.8176463073499
 21
117.9266298678452
 31
0.0
  0
LWPOLYLINE
  5
585
330
1F
100
AcDbEntity
  8
0
  6
Continuous
 62
     7
370
    25
100
AcDbPolyline
 90
        9
 70
   128
 43
0.0
 10
172.8176463073499
 20
195.8578775194222
 10
172.849613023401
 20
195.8680885401303
 10
172.9442875510461
 20
195.8983267214829
 10
173.0980302816637
 20
195.9474297729069
 10
173.3049329048402
 20
196.0135126975113
 10
173.5570456510789
 20
196.0940385726029
 10
173.8446753150232
 20
196.185904231363
 10
174.156776410938
 20
196.2855855491692
 10
174.4813460534818
 20
196.3892529275948
  0
LINE
  5
586
330
1F
100
AcDbEntity
  8
0
  6
Continuous
 62
     7
370
    25
100
AcDbLine
 10
275.3993484801061
 20
117.3952544596726
 30
0.0
 11
275.3993484801061
 21
115.7061519589955
 31
0.0
  0
LINE
  5
587
330
1F
100
AcDbEntity
  8
0
  6
Continuous
 62
     7
370
    25
100
AcDbLine
 10
274.6119487708814
 20
115.7061519589955
 30
0.0
 11
275.3993484801061
 21
115.7061519589955
 31
0.0
  0
LINE
  5
588
330
1F
100
AcDbEntity
  8
0
  6
Continuous
 62
     7
370
    25
100
AcDbLine
 10
174.4813460534818
 20
115.7061519589955
 30
0.0
 11
274.6119487708814
 21
115.7061519589955
 31
0.0
  0
LINE
  5
589
330
1F
100
AcDbEntity
  8
0
  6
Continuous
 62
     7
370
    25
100
AcDbLine
 10
174.4813460534818
 20
115.7061519589955
 30
0.0
 11
174.4813460534818
 21
117.3952544596726
 31
0.0
  0
LINE
  5
58A
330
1F
100
AcDbEntity
  8
0
  6
Continuous
 62
     7
370
    25
100
AcDbLine
 10
274.6119487708814
 20
198.0783554282719
 30
0.0
 11
275.3993484801061
 21
198.0783554282719
 31
0.0
  0
LINE
  5
58B
330
1F
100
AcDbEntity
  8
0
  6
Continuous
 62
     7
370
    25
100
AcDbLine
 10
174.4813460534818
 20
198.0783554282719
 30
0.0
 11
274.6119487708814
 21
198.0783554282719
 31
0.0
  0
LINE
  5
58C
330
1F
100
AcDbEntity
  8
0
  6
Continuous
 62
     7
370
    25
100
AcDbLine
 10
275.3993484801061
 20
198.0783554282719
 30
0.0
 11
275.3993484801061
 21
196.3892529275948
 31
0.0
  0
LINE
  5
58D
330
1F
100
AcDbEntity
  8
0
  6
Continuous
 62
     7
370
    25
100
AcDbLine
 10
174.4813460534818
 20
196.3892529275948
 30
0.0
 11
174.4813460534818
 21
198.0783554282719
 31
0.0
  0
LINE
  5
58E
330
1F
100
AcDbEntity
  8
0
  6
Continuous
 62
     7
370
    25
100
AcDbLine
 10
275.8108254200227
 20
196.2622540560299
 30
0.0
 11
277.4999279206999
 21
196.2622540560299
 31
0.0
  0
LINE
  5
58F
330
1F
100
AcDbEntity
  8
0
  6
Continuous
 62
     7
370
    25
100
AcDbLine
 10
277.4999279206999
 20
117.5222533312374
 30
0.0
 11
277.4999279206999
 21
196.2622540560299
 31
0.0
  0
LINE
  5
590
330
1F
100
AcDbEntity
  8
0
  6
Continuous
 62
     7
370
    25
100
AcDbLine
 10
277.4999279206999
 20
117.5222533312374
 30
0.0
 11
275.8108254200227
 21
117.5222533312374
 31
0.0
  0
ARC
  5
591
330
1F
100
AcDbEntity
  8
0
  6
Continuous
 62
     7
370
    25
100
AcDbCircle
 10
174.4813469268145
 20
117.3698536936337
 30
0.0
 40
0.7620000000000289
100
AcDbArc
 50
180.0000000000563
 51
270.0000000000008
  0
LINE
  5
592
330
1F
100
AcDbEntity
  8
0
  6
Continuous
 62
     7
370
    25
100
AcDbLine
 10
173.719345373512
 20
117.3698554304177
 30
0.0
 11
172.8176463073499
 21
117.3698554304177
 31
0.0
  0
ARC
  5
593
330
1F
100
AcDbEntity
  8
0
  6
Continuous
 62
     7
370
    25
100
AcDbCircle
 10
174.4813469268145
 20
117.3698536936337
 30
0.0
 40
1.663700000000005
100
AcDbArc
 50
180.0000000000576
 51
270.0000000000008
  0
LINE
  5
594
330
1F
100
AcDbEntity
  8
0
  6
Continuous
 62
     7
370
    25
100
AcDbLine
 10
276.3010475462682
 20
196.2622540560299
 30
0.0
 11
276.3010475462682
 21
196.3892529275948
 31
0.0
  0
ARC
  5
595
330
1F
100
AcDbEntity
  8
0
  6
Continuous
 62
     7
370
    25
100
AcDbCircle
 10
274.6119469268091
 20
196.3892536936337
 30
0.0
 40
1.689100000000011
100
AcDbArc
 50
359.9999999999988
 51
62.21432828335894
  0
LINE
  5
596
330
1F
100
AcDbEntity
  8
0
  6
Continuous
 62
     7
370
    25
100
AcDbLine
 10
173.719345373512
 20
196.4146519568497
 30
0.0
 11
172.8176463073499
 21
196.4146519568497
 31
0.0
  0
ARC
  5
597
330
1F
100
AcDbEntity
  8
0
  6
Continuous
 62
     7
370
    25
100
AcDbCircle
 10
174.4813469268145
 20
196.4146536936337
 30
0.0
 40
1.663700000000005
100
AcDbArc
 50
90.0
 51
179.9999999999432
  0
ARC
  5
598
330
1F
100
AcDbEntity
  8
0
  6
Continuous
 62
     7
370
    25
100
AcDbCircle
 10
174.4813469268145
 20
196.4146536936337
 30
0.0
 40
0.7620000000000005
100
AcDbArc
 50
90.0
 51
179.9999999999444
  0
LINE
  5
599
330
1F
100
AcDbEntity
  8
0
  6
Continuous
 62
     7
370
    25
100
AcDbLine
 10
276.3010475462682
 20
117.3952544596726
 30
0.0
 11
276.3010475462682
 21
117.5222533312374
 31
0.0
  0
ARC
  5
59A
330
1F
100
AcDbEntity
  8
0
  6
Continuous
 62
     7
370
    25
100
AcDbCircle
 10
274.6119469268091
 20
117.3952536936337
 30
0.0
 40
1.689100000000036
100
AcDbArc
 50
297.7856717166414
 51
0.000000000000241
  0
LINE
  5
59B
330
1F
100
AcDbEntity
  8
0
  6
Continuous
 62
     7
370
    25
100
AcDbLine
 10
172.8176463073499
 20
196.4146519568497
 30
0.0
 11
172.8176463073499
 21
196.117243405872
 31
0.0
  0
LINE
  5
59C
330
1F
100
AcDbEntity
  8
0
  6
Continuous
 62
     7
370
    25
100
AcDbLine
 10
173.719345373512
 20
196.4146519568497
 30
0.0
 11
173.719345373512
 21
196.145875987106
 31
0.0
  0
LINE
  5
59D
330
1F
100
AcDbEntity
  8
0
  6
Continuous
 62
     7
370
    25
100
AcDbLine
 10
173.719345373512
 20
117.6386314001614
 30
0.0
 11
173.719345373512
 21
117.3698554304177
 31
0.0
  0
LINE
  5
59E
330
1F
100
AcDbEntity
  8
0
  6
Continuous
 62
     7
370
    25
100
AcDbLine
 10
172.8176463073499
 20
117.6672639813954
 30
0.0
 11
172.8176463073499
 21
117.3698554304177
 31
0.0
  0
LINE
  5
59F
330
1F
100
AcDbEntity
  8
0
  6
Continuous
 62
     7
370
    25
100
AcDbLine
 10
277.4999279206999
 20
196.2622540560299
 30
0.0
 11
278.2873276299246
 21
196.2622540560299
 31
0.0
  0
LINE
  5
5A0
330
1F
100
AcDbEntity
  8
0
  6
Continuous
 62
     7
370
    25
100
AcDbLine
 10
278.2873276299246
 20
117.5222533312374
 30
0.0
 11
277.4999279206999
 21
117.5222533312374
 31
0.0
  0
LINE
  5
5A1
330
1F
100
AcDbEntity
  8
0
  6
Continuous
 62
     7
370
    25
100
AcDbLine
 10
282.6688278144605
 20
186.0634541627699
 30
0.0
 11
280.6368272429712
 21
186.0634541627699
 31
0.0
  0
ARC
  5
5A2
330
1F
100
AcDbEntity
  8
0
  6
Continuous
 62
     7
370
    25
100
AcDbCircle
 10
282.6688269268092
 20
187.8922536936337
 30
0.0
 40
1.828800000000001
100
AcDbArc
 50
270.0000000000008
 51
90.0
  0
LINE
  5
5A3
330
1F
100
AcDbEntity
  8
0
  6
Continuous
 62
     7
370
    25
100
AcDbLine
 10
280.6368272429712
 20
189.7210540738637
 30
0.0
 11
282.6688278144605
 21
189.7210540738637
 31
0.0
  0
ARC
  5
5A4
330
1F
100
AcDbEntity
  8
0
  6
Continuous
 62
     7
370
    25
100
AcDbCircle
 10
280.6368269268091
 20
187.8922536936337
 30
0.0
 40
1.828800000000001
100
AcDbArc
 50
90.0
 51
270.0000000000008
  0
ARC
  5
5A5
330
1F
100
AcDbEntity
  8
0
  6
Continuous
 62
     7
370
    25
100
AcDbCircle
 10
282.6688269268092
 20
125.8922536936337
 30
0.0
 40
1.828799999999996
100
AcDbArc
 50
270.0000000000008
 51
64.04284955935013
  0
ARC
  5
5A6
330
1F
100
AcDbEntity
  8
0
  6
Continuous
 62
     7
370
    25
100
AcDbCircle
 10
280.6368269268091
 20
125.8922536936337
 30
0.0
 40
1.828799999999996
100
AcDbArc
 50
151.3939931778675
 51
270.0000000000008
  0
LINE
  5
5A7
330
1F
100
AcDbEntity
  8
0
  6
Continuous
 62
     7
370
    25
100
AcDbLine
 10
280.6368272429712
 20
124.0634533134037
 30
0.0
 11
282.6688278144605
 21
124.0634533134037
 31
0.0
  0
ARC
  5
5A8
330
1F
100
AcDbEntity
  8
0
  6
Continuous
 62
     7
370
    25
100
AcDbCircle
 10
284.5718883751552
 20
119.0462536936337
 30
0.0
 40
1.524
100
AcDbArc
 50
270.0000000000008
 51
0.0000000000002671
  0
LINE
  5
5A9
330
1F
100
AcDbEntity
  8
0
  6
Continuous
 62
     7
370
    25
100
AcDbLine
 10
284.5718886381395
 20
117.5222533312374
 30
0.0
 11
278.2873276299246
 21
117.5222533312374
 31
0.0
  0
LINE
  5
5AA
330
1F
100
AcDbEntity
  8
0
  6
Continuous
 62
     7
370
    25
100
AcDbLine
 10
278.2873276299246
 20
196.2622540560299
 30
0.0
 11
284.5718886381395
 21
196.2622540560299
 31
0.0
  0
ARC
  5
5AB
330
1F
100
AcDbEntity
  8
0
  6
Continuous
 62
     7
370
    25
100
AcDbCircle
 10
284.5718883751553
 20
194.7382536936337
 30
0.0
 40
1.524000000000057
100
AcDbArc
 50
0.0000000000002671
 51
90.0
  0
LINE
  5
5AC
330
1F
100
AcDbEntity
  8
0
  6
Continuous
 62
     7
370
    25
100
AcDbLine
 10
286.0958899980791
 20
194.7382526960904
 30
0.0
 11
286.0958899980791
 21
119.046254691177
 31
0.0
  0
LINE
  5
5AD
330
1F
100
AcDbEntity
  8
SLD-0
 62
     7
100
AcDbLine
 10
166.7216469269307
 20
187.8922536938919
 30
0.0
 11
168.7536469269307
 21
187.8922536938919
 31
0.0
  0
LINE
  5
5AE
330
1F
100
AcDbEntity
  8
SLD-0
 62
     7
100
AcDbLine
 10
166.7216469269307
 20
125.8922536938919
 30
0.0
 11
168.7536469269307
 21
125.8922536938919
 31
0.0
  0
LINE
  5
5AF
330
1F
100
AcDbEntity
  8
SLD-0
 62
     7
100
AcDbLine
 10
280.6368269268091
 20
125.8922536936337
 30
0.0
 11
282.6688269268092
 21
125.8922536936337
 31
0.0
  0
LINE
  5
5B0
330
1F
100
AcDbEntity
  8
SLD-0
 62
     7
100
AcDbLine
 10
280.6368269268091
 20
187.8922536936337
 30
0.0
 11
282.6688269268092
 21
187.8922536936337
 31
0.0
  0
LINE
  5
5B1
330
1F
100
AcDbEntity
  8
SLD-0
 62
     7
100
AcDbLine
 10
281.6528269268092
 20
188.8283285841306
 30
0.0
 11
281.6528269268092
 21
186.9714319606288
 31
0.0
  0
LINE
  5
5B2
330
1F
100
AcDbEntity
  8
SLD-0
 62
     7
100
AcDbLine
 10
281.6528269268092
 20
126.7023295116833
 30
0.0
 11
281.6528269268092
 21
125.1020697446874
 31
0.0
  0
LINE
  5
5B3
330
1F
100
AcDbEntity
  8
SLD-0
 62
     7
100
AcDbLine
 10
167.6528269268091
 20
188.8283285841306
 30
0.0
 11
167.6528269268091
 21
186.9714319606288
 31
0.0
  0
LINE
  5
5B4
330
1F
100
AcDbEntity
  8
SLD-0
 62
     7
100
AcDbLine
 10
167.6528269268091
 20
126.7023295116833
 30
0.0
 11
167.6528269268091
 21
125.1020697446874
 31
0.0
  0
DIMENSION
  5
5B5
330
1F
100
AcDbEntity
  8
SLD-0
 62
     7
100
AcDbDimension
  2
_D_6
 10
301.5360927351529
 20
125.8922536936337
 30
0.0
 11
301.5360927351529
 21
155.4294267519942
 31
0.0
 70
   160
  1
<>
 71
     2
 42
62.00000000000002
  3
DATASHEET
100
AcDbAlignedDimension
 13
282.6688269268092
 23
187.8922536936337
 33
0.0
 14
282.6688269268092
 24
125.8922536936337
 34
0.0
 50
90.0
100
AcDbRotatedDimension
  0
DIMENSION
  5
5C1
330
1F
100
AcDbEntity
  8
SLD-0
 62
     7
100
AcDbDimension
  2
_D_7
 10
281.6528269268092
 20
211.2205818568432
 30
0.0
 11
223.9722835235077
 21
211.2205818568432
 31
0.0
 70
   160
  1
<>
 71
     2
 42
114.0
  3
DATASHEET
100
AcDbAlignedDimension
 13
167.6528269268091
 23
188.8283285841306
 33
0.0
 14
281.6528269268092
 24
188.8283285841306
 34
0.0
100
AcDbRotatedDimension
  0
DIMENSION
  5
5CC
330
1F
100
AcDbEntity
  8
SLD-0
 62
     7
100
AcDbDimension
  2
_D_8
 10
163.0259469269307
 20
211.2205818568432
 30
0.0
 11
150.766692073621
 21
211.2205818568432
 31
0.0
 70
   160
  1
<>
 71
     2
 42
4.626879999878411
  3
DATASHEET
100
AcDbAlignedDimension
 13
167.6528269268091
 23
188.8283285841306
 33
0.0
 14
163.0259469269307
 24
194.7382536938919
 34
0.0
100
AcDbRotatedDimension
  0
DIMENSION
  5
5D8
330
1F
100
AcDbEntity
  8
SLD-0
 62
     7
100
AcDbDimension
  2
_D_9
 10
293.3610534277908
 20
189.7210536936336
 30
0.0
 11
323.8461598397962
 21
201.2699038733455
 31
0.0
 70
   160
  1
4X\P<> MOUNTING SLOT
 42
3.657599999999945
  3
DATASHEET
100
AcDbAlignedDimension
 13
282.6688269268092
 23
186.0634536936337
 33
0.0
 14
282.6688269268092
 24
189.7210536936336
 34
0.0
 50
90.0
100
AcDbRotatedDimension
1001
ACAD
1000
DSTYLE
1002
{
1070
   271
1070
     2
1070
   272
1070
     2
1002
}
  0
DIMENSION
  5
5E7
330
1F
100
AcDbEntity
  8
SLD-0
 62
     7
100
AcDbDimension
  2
_D_10
 10
127.3827496997768
 20
198.0783536936336
 30
0.0
 11
127.3827496997768
 21
155.2207185045525
 31
0.0
 70
   160
  1
<>
 71
     2
 42
82.37219999999991
  3
DATASHEET
100
AcDbAlignedDimension
 13
174.4813469268146
 23
115.7061536936336
 33
0.0
 14
174.4813469268146
 24
198.0783536936336
 34
0.0
 50
90.0
100
AcDbRotatedDimension
  0
DIMENSION
  5
5F2
330
1F
100
AcDbEntity
  8
SLD-0
 62
     7
100
AcDbDimension
  2
_D_11
 10
141.8842269268093
 20
117.5222536938919
 30
0.0
 11
141.8842269268092
 21
155.2207185045525
 31
0.0
 70
   160
  1
<>
 71
     2
 42
78.74000000000002
  3
DATASHEET
100
AcDbAlignedDimension
 13
164.5499469269307
 23
196.2622536938919
 33
0.0
 14
164.5499469269307
 24
117.5222536938919
 34
0.0
 50
90.0
100
AcDbRotatedDimension
  0
DIMENSION
  5
5FD
330
1F
100
AcDbEntity
  8
SLD-0
 62
     7
100
AcDbDimension
  2
_D_12
 10
282.6688269268092
 20
203.887414877296
 30
0.0
 11
264.6002321109838
 21
203.887414877296
 31
0.0
 70
   160
  1
4X <>
 71
     2
 42
2.032000000000039
  3
DATASHEET
100
AcDbAlignedDimension
 13
280.6368269268091
 23
189.7210536936336
 33
0.0
 14
282.6688269268092
 24
189.7210536936336
 34
0.0
100
AcDbRotatedDimension
  0
MTEXT
  5
8DB
330
1F
100
AcDbEntity
  8
SLD-0
 62
     0
100
AcDbMText
 10
103.1363900769339
 20
85.97404511874783
 30
0.0
 40
3.174999999999999
 41
0.0
 71
     1
 72
     1
  1
MONITOR OUT\PBNC
 73
     1
 44
1.0
1001
ACAD
1000
MTEXTBEGIN
1070
    73
1070
     1
1070
    44
1040
1.0
1070
    74
1070
     0
1000
MTEXTEND
  0
MTEXT
  5
8DF
330
1F
100
AcDbEntity
  8
SLD-0
 62
     0
100
AcDbMText
 10
73.30747201096542
 20
95.51735765154672
 30
0.0
 40
3.174999999999999
 41
0.0
 71
     1
 72
     1
  1
HP-1 PROBE\PDB9 FEMALE
 73
     1
 44
1.0
1001
ACAD
1000
MTEXTBEGIN
1070
    73
1070
     1
1070
    44
1040
1.0
1070
    74
1070
     0
1000
MTEXTEND
  0
ENDSEC
  0
SECTION
  2
OBJECTS
  0
DICTIONARY
  5
C
330
0
100
AcDbDictionary
281
     1
  3
ACAD_COLOR
350
60C
  3
ACAD_GROUP
350
D
  3
ACAD_LAYOUT
350
1A
  3
ACAD_MATERIAL
350
60B
  3
ACAD_MLINESTYLE
350
17
  3
ACAD_PLOTSETTINGS
350
19
  3
ACAD_PLOTSTYLENAME
350
E
  3
ACAD_SCALELIST
350
47
  3
ACAD_TABLESTYLE
350
60D
  3
ACDBHEADERROUNDTRIPXREC
350
9CA
  3
AcDbVariableDictionary
350
616
  0
DICTIONARY
  5
612
330
2
100
AcDbDictionary
280
     1
281
     1
  3
ACAD_LAYERFILTERS
360
614
  3
ACLYDICTIONARY
360
613
  0
DICTIONARY
  5
8DD
330
1F
100
AcDbDictionary
280
     1
281
     1
  3
ACAD_SORTENTS
360
8DE
  0
DICTIONARY
  5
60C
102
{ACAD_REACTORS
330
C
102
}
330
C
100
AcDbDictionary
281
     1
  0
DICTIONARY
  5
D
102
{ACAD_REACTORS
330
C
102
}
330
C
100
AcDbDictionary
281
     1
  0
DICTIONARY
  5
1A
102
{ACAD_REACTORS
330
C
102
}
330
C
100
AcDbDictionary
281
     1
  3
Layout1
350
1E
  3
Layout2
350
26
  3
Model
350
22
  0
DICTIONARY
  5
60B
102
{ACAD_REACTORS
330
C
102
}
330
C
100
AcDbDictionary
281
     1
  0
DICTIONARY
  5
17
102
{ACAD_REACTORS
330
C
102
}
330
C
100
AcDbDictionary
281
     1
  3
Standard
350
18
  0
DICTIONARY
  5
19
102
{ACAD_REACTORS
330
C
102
}
330
C
100
AcDbDictionary
281
     1
  0
ACDBDICTIONARYWDFLT
  5
E
102
{ACAD_REACTORS
330
C
102
}
330
C
100
AcDbDictionary
281
     1
  3
Normal
350
F
100
AcDbDictionaryWithDefault
340
F
  0
DICTIONARY
  5
47
102
{ACAD_REACTORS
330
C
102
}
330
C
100
AcDbDictionary
281
     1
  3
A0
350
48
  3
A1
350
49
  3
A2
350
4A
  3
A3
350
4B
  3
A4
350
4C
  3
A5
350
4D
  3
A6
350
4E
  3
A7
350
4F
  3
A8
350
50
  3
A9
350
51
  3
B0
350
52
  3
B1
350
53
  3
B2
350
54
  3
B3
350
55
  3
B4
350
56
  3
B5
350
57
  3
B6
350
58
  3
B7
350
59
  3
B8
350
5A
  3
B9
350
5B
  3
C0
350
5C
  3
C1
350
5D
  3
C2
350
5E
  3
C3
350
5F
  3
C4
350
60
  3
C5
350
61
  3
C6
350
62
  3
C7
350
63
  3
C8
350
64
  3
C9
350
65
  3
D0
350
66
  3
D1
350
67
  3
D2
350
68
  0
DICTIONARY
  5
60D
102
{ACAD_REACTORS
330
C
102
}
330
C
100
AcDbDictionary
281
     1
  3
Standard
350
60E
  0
DICTIONARY
  5
9CA
102
{ACAD_REACTORS
330
C
102
}
330
C
100
AcDbDictionary
281
     1
  0
DICTIONARY
  5
616
102
{ACAD_REACTORS
330
C
102
}
330
C
100
AcDbDictionary
281
     1
  3
CTABLESTYLE
350
617
  3
DIMASSOC
350
9C7
  3
PROJECTNAME
350
9C8
  0
DICTIONARY
  5
614
102
{ACAD_REACTORS
330
612
102
}
330
612
100
AcDbDictionary
281
     1
  0
DICTIONARY
  5
613
102
{ACAD_REACTORS
330
612
102
}
330
612
100
AcDbDictionary
281
     1
1001
ACAD
1000
<All
  0
SORTENTSTABLE
  5
8DE
102
{ACAD_REACTORS
330
8DD
102
}
330
8DD
100
AcDbSortentsTable
330
1F
331
222
  5
222
331
1F3
  5
1F3
331
261
  5
261
331
478
  5
47A
331
3CB
  5
3CD
331
402
  5
404
331
316
  5
316
331
355
  5
355
331
269
  5
269
331
22A
  5
22A
331
2DF
  5
2DF
331
1FB
  5
1FB
331
38C
  5
38E
331
441
  5
443
331
5AB
  5
5AF
331
4F6
  5
4FA
331
449
  5
44B
331
480
  5
482
331
535
  5
539
331
35D
  5
35D
331
394
  5
396
331
2E7
  5
2E7
331
31E
  5
31E
331
232
  5
232
331
271
  5
271
331
3D3
  5
3D5
331
40A
  5
40C
331
56C
  5
570
331
53D
  5
541
331
574
  5
578
331
4C7
  5
4CB
331
4FE
  5
502
331
5B3
  5
5CC
331
412
  5
414
331
451
  5
453
331
488
  5
48A
331
365
  5
365
331
39C
  5
39E
331
23A
  5
23A
331
2EF
  5
2EF
331
326
  5
326
331
3DB
  5
3DD
331
5F2
  5
8DF
331
545
  5
549
331
57C
  5
580
331
490
  5
492
331
41A
  5
41C
331
4CF
  5
4D3
331
3A4
  5
3A6
331
506
  5
50A
331
32E
  5
32E
331
584
  5
588
331
50E
  5
512
331
203
  5
203
331
242
  5
242
331
279
  5
279
331
498
  5
49A
331
3E3
  5
3E5
331
422
  5
424
331
336
  5
336
331
36D
  5
36D
331
281
  5
281
331
20B
  5
20B
331
24A
  5
24A
331
2F7
  5
2F7
331
3AC
  5
3AE
331
459
  5
45B
331
516
  5
51A
331
54D
  5
551
331
461
  5
463
331
4A0
  5
4A2
331
3B4
  5
3B6
331
3EB
  5
3ED
331
2FF
  5
2FF
331
33E
  5
33E
331
2C8
  5
2C8
331
375
  5
375
331
42A
  5
42C
331
4D7
  5
4DB
331
58C
  5
590
331
213
  5
213
331
252
  5
252
331
594
  5
598
331
4DF
  5
4E3
331
51E
  5
522
331
432
  5
434
331
469
  5
46B
331
3BC
  5
3BE
331
307
  5
307
331
346
  5
346
331
3F3
  5
3F5
331
4A8
  5
4AA
331
555
  5
559
331
25A
  5
25A
331
21B
  5
21B
331
2D0
  5
2D0
331
55D
  5
561
331
59C
  5
5A0
331
4E7
  5
4EB
331
526
  5
52A
331
43A
  5
43C
331
471
  5
473
331
385
  5
385
331
3C4
  5
3C6
331
30F
  5
30F
331
34E
  5
34E
331
3FB
  5
3FD
331
4B0
  5
4B2
331
565
  5
569
331
5A4
  5
5A8
331
4EF
  5
4F3
331
52E
  5
532
331
2D8
  5
2D8
331
223
  5
223
331
1F4
  5
1F4
331
262
  5
262
331
403
  5
405
331
442
  5
444
331
356
  5
356
331
38D
  5
38F
331
2E0
  5
2E0
331
317
  5
317
331
3CC
  5
3CE
331
479
  5
47B
331
22B
  5
22B
331
1FC
  5
1FC
331
26A
  5
26A
331
536
  5
53A
331
56D
  5
571
331
481
  5
483
331
4F7
  5
4FB
331
5AC
  5
5B0
331
3D4
  5
3D6
331
40B
  5
40D
331
35E
  5
35E
331
395
  5
397
331
272
  5
272
331
233
  5
233
331
2E8
  5
2E8
331
31F
  5
31F
331
44A
  5
44C
331
5B4
  5
5D8
331
4FF
  5
503
331
53E
  5
542
331
575
  5
579
331
452
  5
454
331
489
  5
48B
331
3DC
  5
3DE
331
413
  5
415
331
4C8
  5
4CC
331
327
  5
327
331
23B
  5
23B
331
366
  5
366
331
39D
  5
39F
331
507
  5
50B
331
491
  5
493
331
546
  5
54A
331
3A5
  5
3A7
331
32F
  5
32F
331
41B
  5
41D
331
57D
  5
581
331
585
  5
589
331
50F
  5
513
331
2F0
  5
2F0
331
243
  5
243
331
27A
  5
27A
331
204
  5
204
331
4D0
  5
4D4
331
423
  5
425
331
45A
  5
45C
331
36E
  5
36E
331
3AD
  5
3AF
331
2F8
  5
2F8
331
24B
  5
24B
331
282
  5
282
331
337
  5
337
331
3E4
  5
3E6
331
499
  5
49B
331
20C
  5
20C
331
54E
  5
552
331
58D
  5
591
331
4A1
  5
4A3
331
4D8
  5
4DC
331
42B
  5
42D
331
462
  5
464
331
517
  5
51B
331
376
  5
376
331
3B5
  5
3B7
331
2C9
  5
2C9
331
214
  5
214
331
253
  5
253
331
300
  5
300
331
33F
  5
33F
331
3EC
  5
3EE
331
5CC
  5
5FD
331
556
  5
55A
331
595
  5
599
331
4A9
  5
4AB
331
4E0
  5
4E4
331
3F4
  5
3F6
331
433
  5
435
331
347
  5
347
331
2D1
  5
2D1
331
21C
  5
21C
331
25B
  5
25B
331
308
  5
308
331
3BD
  5
3BF
331
46A
  5
46C
331
51F
  5
523
331
527
  5
52B
331
55E
  5
562
331
472
  5
474
331
4B1
  5
4B3
331
3C5
  5
3C7
331
3FC
  5
3FE
331
34F
  5
34F
331
386
  5
386
331
43B
  5
43D
331
4E8
  5
4EC
331
59D
  5
5A1
331
5A5
  5
5A9
331
52F
  5
533
331
566
  5
56A
331
310
  5
310
331
2D9
  5
2D9
331
224
  5
224
331
1F5
  5
1F5
331
263
  5
263
331
4F0
  5
4F4
331
443
  5
445
331
47A
  5
47C
331
3CD
  5
3CF
331
404
  5
406
331
2E1
  5
2E1
331
318
  5
318
331
26B
  5
26B
331
357
  5
357
331
22C
  5
22C
331
1FD
  5
1FD
331
38E
  5
390
331
56E
  5
572
331
5AD
  5
5B1
331
4C1
  5
4C5
331
4F8
  5
4FC
331
44B
  5
44D
331
482
  5
484
331
537
  5
53B
331
35F
  5
35F
331
396
  5
398
331
2E9
  5
2E9
331
320
  5
320
331
234
  5
234
331
273
  5
273
331
3D5
  5
3D7
331
40C
  5
40E
331
53F
  5
543
331
576
  5
57A
331
4C9
  5
4CD
331
500
  5
504
331
5B5
  5
5E7
331
3DD
  5
3DF
331
414
  5
416
331
367
  5
367
331
39E
  5
3A0
331
453
  5
455
331
23C
  5
23C
331
328
  5
328
331
48A
  5
48C
331
547
  5
54B
331
57E
  5
582
331
492
  5
494
331
41C
  5
41E
331
3A6
  5
3A8
331
508
  5
50C
331
8DB
  5
387
331
586
  5
58A
331
2F1
  5
2F1
331
205
  5
205
331
244
  5
244
331
27B
  5
27B
331
330
  5
330
331
510
  5
514
331
49A
  5
49C
331
4D1
  5
4D5
331
3E5
  5
3E7
331
424
  5
426
331
338
  5
338
331
36F
  5
36F
331
283
  5
283
331
2C2
  5
2C2
331
20D
  5
20D
331
24C
  5
24C
331
2F9
  5
2F9
331
3AE
  5
3B0
331
45B
  5
45D
331
518
  5
51C
331
54F
  5
553
331
463
  5
465
331
4A2
  5
4A4
331
3B6
  5
3B8
331
3ED
  5
3EF
331
301
  5
301
331
340
  5
340
331
254
  5
254
331
215
  5
215
331
2CA
  5
2CA
331
377
  5
377
331
42C
  5
42E
331
4D9
  5
4DD
331
58E
  5
592
331
596
  5
59A
331
4E1
  5
4E5
331
520
  5
524
331
434
  5
436
331
46B
  5
46D
331
3BE
  5
3C0
331
309
  5
309
331
348
  5
348
331
3F5
  5
3F7
331
4AA
  5
4AC
331
557
  5
55B
331
25C
  5
25C
331
21D
  5
21D
331
2D2
  5
2D2
331
55F
  5
563
331
59E
  5
5A2
331
4B2
  5
4BA
331
4E9
  5
4ED
331
43C
  5
43E
331
473
  5
475
331
528
  5
52C
331
387
  5
389
331
3C6
  5
3C8
331
3FD
  5
3FF
331
5A6
  5
5AA
331
2DA
  5
2DA
331
225
  5
225
331
1F6
  5
1F6
331
264
  5
264
331
311
  5
311
331
350
  5
350
331
4BA
  5
4C1
331
4F1
  5
4F5
331
405
  5
407
331
444
  5
446
331
358
  5
358
331
38F
  5
391
331
2E2
  5
2E2
331
319
  5
319
331
3CE
  5
3D0
331
47B
  5
47D
331
530
  5
534
331
22D
  5
22D
331
1FE
  5
1FE
331
26C
  5
26C
331
538
  5
53C
331
56F
  5
573
331
44C
  5
44E
331
483
  5
485
331
3D6
  5
3D8
331
40D
  5
40F
331
321
  5
321
331
360
  5
360
331
397
  5
399
331
4C2
  5
4C6
331
4F9
  5
4FD
331
5AE
  5
5B2
331
274
  5
274
331
235
  5
235
331
2EA
  5
2EA
331
501
  5
505
331
540
  5
544
331
577
  5
57B
331
454
  5
456
331
48B
  5
48D
331
3DE
  5
3E0
331
415
  5
417
331
4CA
  5
4CE
331
329
  5
329
331
23D
  5
23D
331
39F
  5
3A1
331
57F
  5
583
331
509
  5
50D
331
493
  5
495
331
3A7
  5
3A9
331
41D
  5
41F
331
587
  5
58B
331
5FD
  5
8E0
331
2F2
  5
2F2
331
245
  5
245
331
27C
  5
27C
331
331
  5
331
331
206
  5
206
331
368
  5
368
331
4D2
  5
4D6
331
511
  5
515
331
425
  5
427
331
45C
  5
45E
331
370
  5
370
331
3AF
  5
3B1
331
2C3
  5
2C3
331
2FA
  5
2FA
331
24D
  5
24D
331
284
  5
284
331
339
  5
339
331
3E6
  5
3E8
331
49B
  5
49D
331
548
  5
54C
331
20E
  5
20E
331
550
  5
554
331
58F
  5
593
331
4A3
  5
4A5
331
4DA
  5
4DE
331
3EE
  5
3F0
331
42D
  5
42F
331
3B7
  5
3B9
331
464
  5
466
331
519
  5
51D
331
2CB
  5
2CB
331
216
  5
216
331
255
  5
255
331
302
  5
302
331
341
  5
341
331
521
  5
525
331
558
  5
55C
331
4AB
  5
4AD
331
4E2
  5
4E6
331
597
  5
59B
331
3F6
  5
3F8
331
435
  5
437
331
349
  5
349
331
294
  5
294
331
2D3
  5
2D3
331
21E
  5
21E
331
25D
  5
25D
331
30A
  5
30A
331
3BF
  5
3C1
331
46C
  5
46E
331
529
  5
52D
331
560
  5
564
331
474
  5
476
331
4B3
  5
4C0
331
3C7
  5
3C9
331
3FE
  5
400
331
43D
  5
43F
331
4EA
  5
4EE
331
59F
  5
5A3
331
5A7
  5
5AB
331
312
  5
312
331
351
  5
351
331
265
  5
265
331
226
  5
226
331
2DB
  5
2DB
331
1F7
  5
1F7
331
388
  5
38A
331
4F2
  5
4F6
331
445
  5
447
331
47C
  5
47E
331
531
  5
535
331
390
  5
392
331
3CF
  5
3D1
331
406
  5
408
331
568
  5
56C
331
2E3
  5
2E3
331
31A
  5
31A
331
26D
  5
26D
331
1FF
  5
1FF
331
22E
  5
22E
331
359
  5
359
331
570
  5
574
331
5AF
  5
5B3
331
4C3
  5
4C7
331
4FA
  5
4FE
331
44D
  5
44F
331
484
  5
486
331
361
  5
361
331
398
  5
39A
331
2EB
  5
2EB
331
322
  5
322
331
236
  5
236
331
275
  5
275
331
2AC
  5
2AC
331
3D7
  5
3D9
331
40E
  5
410
331
539
  5
53D
331
541
  5
545
331
578
  5
57C
331
4CB
  5
4CF
331
502
  5
506
331
3DF
  5
3E1
331
416
  5
418
331
3A0
  5
3A2
331
455
  5
457
331
23E
  5
23E
331
32A
  5
32A
331
48C
  5
48E
331
580
  5
584
331
494
  5
496
331
41E
  5
420
331
50A
  5
50E
331
332
  5
332
331
369
  5
369
331
2F3
  5
2F3
331
3A8
  5
3AA
331
207
  5
207
331
246
  5
246
331
27D
  5
27D
331
512
  5
516
331
549
  5
54D
331
45D
  5
45F
331
49C
  5
49E
331
3E7
  5
3E9
331
426
  5
428
331
4D3
  5
4D7
331
588
  5
58C
331
33A
  5
33A
331
371
  5
371
331
285
  5
285
331
2C4
  5
2C4
331
20F
  5
20F
331
24E
  5
24E
331
2FB
  5
2FB
331
3B0
  5
3B2
331
590
  5
594
331
51A
  5
51E
331
551
  5
555
331
465
  5
467
331
4A4
  5
4A6
331
3B8
  5
3BA
331
303
  5
303
331
342
  5
342
331
3EF
  5
3F1
331
256
  5
256
331
217
  5
217
331
2CC
  5
2CC
331
42E
  5
430
331
4DB
  5
4DF
331
598
  5
59C
331
4E3
  5
4E7
331
522
  5
526
331
436
  5
438
331
46D
  5
46F
331
3C0
  5
3C2
331
2D4
  5
2D4
331
25E
  5
25E
331
30B
  5
30B
331
34A
  5
34A
331
3F7
  5
3F9
331
4AC
  5
4AE
331
559
  5
55D
331
21F
  5
21F
331
561
  5
565
331
5A0
  5
5A4
331
4EB
  5
4EF
331
3FF
  5
401
331
43E
  5
440
331
475
  5
477
331
52A
  5
52E
331
1F0
  5
1F0
331
389
  5
38B
331
3C8
  5
3CA
331
2DC
  5
2DC
331
227
  5
227
331
1F8
  5
1F8
331
266
  5
266
331
313
  5
313
331
352
  5
352
331
532
  5
536
331
569
  5
56D
331
4F3
  5
4F7
331
5A8
  5
5AC
331
3D0
  5
3D2
331
407
  5
409
331
35A
  5
35A
331
391
  5
393
331
446
  5
448
331
26E
  5
26E
331
22F
  5
22F
331
2E4
  5
2E4
331
31B
  5
31B
331
47D
  5
47F
331
5B0
  5
5B4
331
5E7
  5
8DC
331
53A
  5
53E
331
571
  5
575
331
44E
  5
450
331
485
  5
487
331
3D8
  5
3DA
331
40F
  5
411
331
4C4
  5
4C8
331
323
  5
323
331
362
  5
362
331
399
  5
39B
331
4FB
  5
4FF
331
276
  5
276
331
237
  5
237
331
2EC
  5
2EC
331
4CC
  5
4D0
331
503
  5
507
331
456
  5
458
331
48D
  5
48F
331
542
  5
546
331
3A1
  5
3A3
331
32B
  5
32B
331
417
  5
419
331
579
  5
57D
331
23F
  5
23F
331
581
  5
585
331
50B
  5
50F
331
495
  5
497
331
41F
  5
421
331
200
  5
200
331
3A9
  5
3AB
331
3E0
  5
3E2
331
2F4
  5
2F4
331
247
  5
247
331
27E
  5
27E
331
333
  5
333
331
208
  5
208
331
36A
  5
36A
331
589
  5
58D
331
4D4
  5
4D8
331
513
  5
517
331
427
  5
429
331
45E
  5
460
331
372
  5
372
331
3B1
  5
3B3
331
2C5
  5
2C5
331
2FC
  5
2FC
331
210
  5
210
331
24F
  5
24F
331
286
  5
286
331
33B
  5
33B
331
3E8
  5
3EA
331
49D
  5
49F
331
54A
  5
54E
331
552
  5
556
331
591
  5
595
331
4A5
  5
4A7
331
4DC
  5
4E0
331
3F0
  5
3F2
331
42F
  5
431
331
343
  5
343
331
2CD
  5
2CD
331
218
  5
218
331
257
  5
257
331
304
  5
304
331
3B9
  5
3BB
331
466
  5
468
331
51B
  5
51F
331
523
  5
527
331
55A
  5
55E
331
46E
  5
470
331
4AD
  5
4AF
331
3F8
  5
3FA
331
437
  5
439
331
4E4
  5
4E8
331
599
  5
59D
331
34B
  5
34B
331
382
  5
382
331
2D5
  5
2D5
331
25F
  5
25F
331
30C
  5
30C
331
3C1
  5
3C3
331
5A1
  5
5A5
331
52B
  5
52F
331
5D8
  5
8DB
331
476
  5
478
331
43F
  5
441
331
4EC
  5
4F0
331
220
  5
220
331
1F1
  5
1F1
331
3C9
  5
3CB
331
400
  5
402
331
314
  5
314
331
353
  5
353
331
267
  5
267
331
228
  5
228
331
2DD
  5
2DD
331
1F9
  5
1F9
331
38A
  5
38C
331
5A9
  5
5AD
331
4F4
  5
4F8
331
447
  5
449
331
47E
  5
480
331
533
  5
537
331
392
  5
394
331
3D1
  5
3D3
331
408
  5
40A
331
56A
  5
56E
331
2E5
  5
2E5
331
31C
  5
31C
331
26F
  5
26F
331
230
  5
230
331
35B
  5
35B
331
53B
  5
53F
331
572
  5
576
331
4C5
  5
4C9
331
4FC
  5
500
331
410
  5
412
331
44F
  5
451
331
486
  5
488
331
5B1
  5
5B5
331
363
  5
363
331
39A
  5
39C
331
2ED
  5
2ED
331
324
  5
324
331
238
  5
238
331
277
  5
277
331
3D9
  5
3DB
331
543
  5
547
331
57A
  5
57E
331
4CD
  5
4D1
331
504
  5
508
331
418
  5
41A
331
3A2
  5
3A4
331
457
  5
459
331
32C
  5
32C
331
48E
  5
490
331
582
  5
586
331
496
  5
498
331
50C
  5
510
331
8DF
  5
4C3
331
201
  5
201
331
240
  5
240
331
3E1
  5
3E3
331
420
  5
422
331
334
  5
334
331
36B
  5
36B
331
27F
  5
27F
331
209
  5
209
331
248
  5
248
331
2F5
  5
2F5
331
3AA
  5
3AC
331
5C1
  5
5F2
331
514
  5
518
331
54B
  5
54F
331
45F
  5
461
331
49E
  5
4A0
331
3B2
  5
3B4
331
3E9
  5
3EB
331
33C
  5
33C
331
373
  5
373
331
428
  5
42A
331
4D5
  5
4D9
331
58A
  5
58E
331
287
  5
287
331
2C6
  5
2C6
331
211
  5
211
331
250
  5
250
331
2FD
  5
2FD
331
592
  5
596
331
4DD
  5
4E1
331
51C
  5
520
331
467
  5
469
331
4A6
  5
4A8
331
553
  5
557
331
3BA
  5
3BC
331
305
  5
305
331
344
  5
344
331
3F1
  5
3F3
331
258
  5
258
331
219
  5
219
331
2CE
  5
2CE
331
430
  5
432
331
59A
  5
59E
331
4E5
  5
4E9
331
524
  5
528
331
438
  5
43A
331
46F
  5
471
331
3C2
  5
3C4
331
2D6
  5
2D6
331
30D
  5
30D
331
34C
  5
34C
331
3F9
  5
3FB
331
4AE
  5
4B0
331
55B
  5
55F
331
5A2
  5
5A6
331
4ED
  5
4F1
331
477
  5
479
331
52C
  5
530
331
221
  5
221
331
1F2
  5
1F2
331
260
  5
260
331
401
  5
403
331
440
  5
442
331
354
  5
354
331
38B
  5
38D
331
2DE
  5
2DE
331
315
  5
315
331
3CA
  5
3CC
331
229
  5
229
331
1FA
  5
1FA
331
268
  5
268
331
29F
  5
29F
331
534
  5
538
331
56B
  5
56F
331
47F
  5
481
331
4F5
  5
4F9
331
5AA
  5
5AE
331
3D2
  5
3D4
331
409
  5
40B
331
35C
  5
35C
331
393
  5
395
331
270
  5
270
331
231
  5
231
331
2E6
  5
2E6
331
31D
  5
31D
331
448
  5
44A
331
5B2
  5
5C1
331
53C
  5
540
331
573
  5
577
331
450
  5
452
331
487
  5
489
331
3DA
  5
3DC
331
411
  5
413
331
4C6
  5
4CA
331
2EE
  5
2EE
331
325
  5
325
331
239
  5
239
331
364
  5
364
331
39B
  5
39D
331
4FD
  5
501
331
4CE
  5
4D2
331
505
  5
509
331
48F
  5
491
331
544
  5
548
331
3A3
  5
3A5
331
32D
  5
32D
331
2B7
  5
2B7
331
419
  5
41B
331
57B
  5
57F
331
583
  5
587
331
50D
  5
511
331
497
  5
499
331
278
  5
278
331
202
  5
202
331
241
  5
241
331
421
  5
423
331
458
  5
45A
331
3AB
  5
3AD
331
3E2
  5
3E4
331
2F6
  5
2F6
331
249
  5
249
331
280
  5
280
331
335
  5
335
331
20A
  5
20A
331
36C
  5
36C
331
54C
  5
550
331
58B
  5
58F
331
4D6
  5
4DA
331
515
  5
519
331
429
  5
42B
331
460
  5
462
331
374
  5
374
331
3B3
  5
3B5
331
2C7
  5
2C7
331
2FE
  5
2FE
331
212
  5
212
331
251
  5
251
331
288
  5
288
331
33D
  5
33D
331
3EA
  5
3EC
331
49F
  5
4A1
331
554
  5
558
331
593
  5
597
331
4A7
  5
4A9
331
4DE
  5
4E2
331
3F2
  5
3F4
331
431
  5
433
331
345
  5
345
331
2CF
  5
2CF
331
21A
  5
21A
331
259
  5
259
331
306
  5
306
331
3BB
  5
3BD
331
468
  5
46A
331
51D
  5
521
331
525
  5
529
331
55C
  5
560
331
470
  5
472
331
4AF
  5
4B1
331
3C3
  5
3C5
331
3FA
  5
3FC
331
34D
  5
34D
331
384
  5
384
331
439
  5
43B
331
4E6
  5
4EA
331
59B
  5
59F
331
2D7
  5
2D7
331
30E
  5
30E
331
5A3
  5
5A7
331
4EE
  5
4F2
331
52D
  5
531
  0
LAYOUT
  5
1E
102
{ACAD_XDICTIONARY
360
9CB
102
}
102
{ACAD_REACTORS
330
1A
102
}
330
1A
100
AcDbPlotSettings
  1

  2
none_device
  4

  6

 40
0.0
 41
0.0
 42
0.0
 43
0.0
 44
0.0
 45
0.0
 46
0.0
 47
0.0
 48
0.0
 49
0.0
140
0.0
141
0.0
142
1.0
143
1.0
 70
   688
 72
     1
 73
     0
 74
     5
  7

 75
    16
147
1.0
148
0.0
149
0.0
100
AcDbLayout
  1
Layout1
 70
     1
 71
     1
 10
0.0
 20
0.0
 11
420.0
 21
297.0
 12
0.0
 22
0.0
 32
0.0
 14
1.000000000000000E+20
 24
1.000000000000000E+20
 34
1.000000000000000E+20
 15
-1.000000000000000E+20
 25
-1.000000000000000E+20
 35
-1.000000000000000E+20
146
0.0
 13
0.0
 23
0.0
 33
0.0
 16
1.0
 26
0.0
 36
0.0
 17
0.0
 27
1.0
 37
0.0
 76
     0
330
1B
  0
LAYOUT
  5
26
102
{ACAD_XDICTIONARY
360
9CF
102
}
102
{ACAD_REACTORS
330
1A
102
}
330
1A
100
AcDbPlotSettings
  1

  2
none_device
  4

  6

 40
0.0
 41
0.0
 42
0.0
 43
0.0
 44
0.0
 45
0.0
 46
0.0
 47
0.0
 48
0.0
 49
0.0
140
0.0
141
0.0
142
1.0
143
1.0
 70
   688
 72
     1
 73
     0
 74
     5
  7

 75
    16
147
1.0
148
0.0
149
0.0
100
AcDbLayout
  1
Layout2
 70
     1
 71
     2
 10
0.0
 20
0.0
 11
0.0
 21
0.0
 12
0.0
 22
0.0
 32
0.0
 14
0.0
 24
0.0
 34
0.0
 15
0.0
 25
0.0
 35
0.0
146
0.0
 13
0.0
 23
0.0
 33
0.0
 16
1.0
 26
0.0
 36
0.0
 17
0.0
 27
1.0
 37
0.0
 76
     0
330
23
  0
LAYOUT
  5
22
102
{ACAD_XDICTIONARY
360
9CD
102
}
102
{ACAD_REACTORS
330
1A
102
}
330
1A
100
AcDbPlotSettings
  1

  2
none_device
  4
Letter_(8.50_x_11.00_Inches)
  6

 40
6.349999999999999
 41
6.349999999999999
 42
6.350005079999999
 43
6.350005079999999
 44
215.9
 45
279.4
 46
0.0
 47
0.0
 48
0.0
 49
0.0
140
0.0
141
0.0
142
1.0
143
1.0
 70
  1712
 72
     1
 73
     0
 74
     0
  7

 75
     0
147
1.0
148
0.0
149
0.0
100
AcDbLayout
  1
Model
 70
     1
 71
     0
 10
0.0
 20
0.0
 11
594.0
 21
420.0
 12
0.0
 22
0.0
 32
0.0
 14
0.0
 24
0.0
 34
0.0
 15
594.0
 25
420.0
 35
0.0
146
0.0
 13
0.0
 23
0.0
 33
0.0
 16
1.0
 26
0.0
 36
0.0
 17
0.0
 27
1.0
 37
0.0
 76
     0
330
1F
  0
MLINESTYLE
  5
18
102
{ACAD_REACTORS
330
17
102
}
330
17
100
AcDbMlineStyle
  2
STANDARD
 70
     0
  3

 62
   256
 51
90.0
 52
90.0
 71
     2
 49
0.5
 62
   256
  6
BYLAYER
 49
-0.5
 62
   256
  6
BYLAYER
  0
ACDBPLACEHOLDER
  5
F
102
{ACAD_REACTORS
330
E
102
}
330
E
  0
ACAD_PROXY_OBJECT
  5
48
102
{ACAD_REACTORS
330
47
102
}
330
47
100
AcDbProxyObject
 90
      499
 91
      503
 95
   393239
 70
     0
 93
       41
310
903313A31580
 94
        0
1001
ACAD
1000
AcRTDxfName
1000
SCALE
  0
ACAD_PROXY_OBJECT
  5
49
102
{ACAD_REACTORS
330
47
102
}
330
47
100
AcDbProxyObject
 90
      499
 91
      503
 95
   393239
 70
     0
 93
      105
310
903313A324000000000000004013
 94
        0
1001
ACAD
1000
AcRTDxfName
1000
SCALE
  0
ACAD_PROXY_OBJECT
  5
4A
102
{ACAD_REACTORS
330
47
102
}
330
47
100
AcDbProxyObject
 90
      499
 91
      503
 95
   393239
 70
     0
 93
      105
310
903313A34400000000000010400C
 94
        0
1001
ACAD
1000
AcRTDxfName
1000
SCALE
  0
ACAD_PROXY_OBJECT
  5
4B
102
{ACAD_REACTORS
330
47
102
}
330
47
100
AcDbProxyObject
 90
      499
 91
      503
 95
   393239
 70
     0
 93
      105
310
903313A354000000000000144013
 94
        0
1001
ACAD
1000
AcRTDxfName
1000
SCALE
  0
ACAD_PROXY_OBJECT
  5
4C
102
{ACAD_REACTORS
330
47
102
}
330
47
100
AcDbProxyObject
 90
      499
 91
      503
 95
   393239
 70
     0
 93
      105
310
903313A38400000000000020400C
 94
        0
1001
ACAD
1000
AcRTDxfName
1000
SCALE
  0
ACAD_PROXY_OBJECT
  5
4D
102
{ACAD_REACTORS
330
47
102
}
330
47
100
AcDbProxyObject
 90
      499
 91
      503
 95
   393239
 70
     0
 93
      113
310
904313A31304000000000000244023
 94
        0
1001
ACAD
1000
AcRTDxfName
1000
SCALE
  0
ACAD_PROXY_OBJECT
  5
4E
102
{ACAD_REACTORS
330
47
102
}
330
47
100
AcDbProxyObject
 90
      499
 91
      503
 95
   393239
 70
     0
 93
      113
310
904313A31364000000000000304057
 94
        0
1001
ACAD
1000
AcRTDxfName
1000
SCALE
  0
ACAD_PROXY_OBJECT
  5
4F
102
{ACAD_REACTORS
330
47
102
}
330
47
100
AcDbProxyObject
 90
      499
 91
      503
 95
   393239
 70
     0
 93
      113
310
904313A32304000000000000344023
 94
        0
1001
ACAD
1000
AcRTDxfName
1000
SCALE
  0
ACAD_PROXY_OBJECT
  5
50
102
{ACAD_REACTORS
330
47
102
}
330
47
100
AcDbProxyObject
 90
      499
 91
      503
 95
   393239
 70
     0
 93
      113
310
904313A333040000000000003E4057
 94
        0
1001
ACAD
1000
AcRTDxfName
1000
SCALE
  0
ACAD_PROXY_OBJECT
  5
51
102
{ACAD_REACTORS
330
47
102
}
330
47
100
AcDbProxyObject
 90
      499
 91
      503
 95
   393239
 70
     0
 93
      113
310
904313A34304000000000000444023
 94
        0
1001
ACAD
1000
AcRTDxfName
1000
SCALE
  0
ACAD_PROXY_OBJECT
  5
52
102
{ACAD_REACTORS
330
47
102
}
330
47
100
AcDbProxyObject
 90
      499
 91
      503
 95
   393239
 70
     0
 93
      113
310
904313A35304000000000000494057
 94
        0
1001
ACAD
1000
AcRTDxfName
1000
SCALE
  0
ACAD_PROXY_OBJECT
  5
53
102
{ACAD_REACTORS
330
47
102
}
330
47
100
AcDbProxyObject
 90
      499
 91
      503
 95
   393239
 70
     0
 93
      121
310
905313A3130304000000000000594015
 94
        0
1001
ACAD
1000
AcRTDxfName
1000
SCALE
  0
ACAD_PROXY_OBJECT
  5
54
102
{ACAD_REACTORS
330
47
102
}
330
47
100
AcDbProxyObject
 90
      499
 91
      503
 95
   393239
 70
     0
 93
      105
310
903323A310000000000000010140
 94
        0
1001
ACAD
1000
AcRTDxfName
1000
SCALE
  0
ACAD_PROXY_OBJECT
  5
55
102
{ACAD_REACTORS
330
47
102
}
330
47
100
AcDbProxyObject
 90
      499
 91
      503
 95
   393239
 70
     0
 93
      105
310
903343A310000000000000410159
 94
        0
1001
ACAD
1000
AcRTDxfName
1000
SCALE
  0
ACAD_PROXY_OBJECT
  5
56
102
{ACAD_REACTORS
330
47
102
}
330
47
100
AcDbProxyObject
 90
      499
 91
      503
 95
   393239
 70
     0
 93
      105
310
903383A310000000000000810140
 94
        0
1001
ACAD
1000
AcRTDxfName
1000
SCALE
  0
ACAD_PROXY_OBJECT
  5
57
102
{ACAD_REACTORS
330
47
102
}
330
47
100
AcDbProxyObject
 90
      499
 91
      503
 95
   393239
 70
     0
 93
      113
310
90431303A310000000000000910140
 94
        0
1001
ACAD
1000
AcRTDxfName
1000
SCALE
  0
ACAD_PROXY_OBJECT
  5
58
102
{ACAD_REACTORS
330
47
102
}
330
47
100
AcDbProxyObject
 90
      499
 91
      503
 95
   393239
 70
     0
 93
      121
310
9053130303A310000000000001650100
 94
        0
1001
ACAD
1000
AcRTDxfName
1000
SCALE
  0
ACAD_PROXY_OBJECT
  5
59
102
{ACAD_REACTORS
330
47
102
}
330
47
100
AcDbProxyObject
 90
      499
 91
      503
 95
   393239
 70
     0
 93
      257
310
90E312F31323822203D2031272D3022000000000000200FC000000000000284000
 94
        0
1001
ACAD
1000
AcRTDxfName
1000
SCALE
  0
ACAD_PROXY_OBJECT
  5
5A
102
{ACAD_REACTORS
330
47
102
}
330
47
100
AcDbProxyObject
 90
      499
 91
      503
 95
   393239
 70
     0
 93
      249
310
90D312F363422203D2031272D3022000000000000240FC000000000000284000
 94
        0
1001
ACAD
1000
AcRTDxfName
1000
SCALE
  0
ACAD_PROXY_OBJECT
  5
5B
102
{ACAD_REACTORS
330
47
102
}
330
47
100
AcDbProxyObject
 90
      499
 91
      503
 95
   393239
 70
     0
 93
      249
310
90D312F333222203D2031272D3022000000000000280FC000000000000284040
 94
        0
1001
ACAD
1000
AcRTDxfName
1000
SCALE
  0
ACAD_PROXY_OBJECT
  5
5C
102
{ACAD_REACTORS
330
47
102
}
330
47
100
AcDbProxyObject
 90
      499
 91
      503
 95
   393239
 70
     0
 93
      249
310
90D312F313622203D2031272D30220000000000002C0FC000000000000284000
 94
        0
1001
ACAD
1000
AcRTDxfName
1000
SCALE
  0
ACAD_PROXY_OBJECT
  5
5D
102
{ACAD_REACTORS
330
47
102
}
330
47
100
AcDbProxyObject
 90
      499
 91
      503
 95
   393239
 70
     0
 93
      249
310
90D332F333222203D2031272D30220000000000002E0FC000000000000284000
 94
        0
1001
ACAD
1000
AcRTDxfName
1000
SCALE
  0
ACAD_PROXY_OBJECT
  5
5E
102
{ACAD_REACTORS
330
47
102
}
330
47
100
AcDbProxyObject
 90
      499
 91
      503
 95
   393239
 70
     0
 93
      241
310
90C312F3822203D2031272D3022000000000000300FC000000000000284000
 94
        0
1001
ACAD
1000
AcRTDxfName
1000
SCALE
  0
ACAD_PROXY_OBJECT
  5
5F
102
{ACAD_REACTORS
330
47
102
}
330
47
100
AcDbProxyObject
 90
      499
 91
      503
 95
   393239
 70
     0
 93
      249
310
90D332F313622203D2031272D3022000000000000320FC000000000000284000
 94
        0
1001
ACAD
1000
AcRTDxfName
1000
SCALE
  0
ACAD_PROXY_OBJECT
  5
60
102
{ACAD_REACTORS
330
47
102
}
330
47
100
AcDbProxyObject
 90
      499
 91
      503
 95
   393239
 70
     0
 93
      241
310
90C312F3422203D2031272D3022000000000000340FC000000000000284000
 94
        0
1001
ACAD
1000
AcRTDxfName
1000
SCALE
  0
ACAD_PROXY_OBJECT
  5
61
102
{ACAD_REACTORS
330
47
102
}
330
47
100
AcDbProxyObject
 90
      499
 91
      503
 95
   393239
 70
     0
 93
      241
310
90C332F3822203D2031272D3022000000000000360FC000000000000284040
 94
        0
1001
ACAD
1000
AcRTDxfName
1000
SCALE
  0
ACAD_PROXY_OBJECT
  5
62
102
{ACAD_REACTORS
330
47
102
}
330
47
100
AcDbProxyObject
 90
      499
 91
      503
 95
   393239
 70
     0
 93
      241
310
90C312F3222203D2031272D3022000000000000380FC000000000000284000
 94
        0
1001
ACAD
1000
AcRTDxfName
1000
SCALE
  0
ACAD_PROXY_OBJECT
  5
63
102
{ACAD_REACTORS
330
47
102
}
330
47
100
AcDbProxyObject
 90
      499
 91
      503
 95
   393239
 70
     0
 93
      241
310
90C332F3422203D2031272D30220000000000003A0FC000000000000284040
 94
        0
1001
ACAD
1000
AcRTDxfName
1000
SCALE
  0
ACAD_PROXY_OBJECT
  5
64
102
{ACAD_REACTORS
330
47
102
}
330
47
100
AcDbProxyObject
 90
      499
 91
      503
 95
   393239
 70
     0
 93
      161
310
90A3122203D2031272D30224000000000000284000
 94
        0
1001
ACAD
1000
AcRTDxfName
1000
SCALE
  0
ACAD_PROXY_OBJECT
  5
65
102
{ACAD_REACTORS
330
47
102
}
330
47
100
AcDbProxyObject
 90
      499
 91
      503
 95
   393239
 70
     0
 93
      257
310
90E312D312F3222203D2031272D30220000000000003E0FC000000000000284000
 94
        0
1001
ACAD
1000
AcRTDxfName
1000
SCALE
  0
ACAD_PROXY_OBJECT
  5
66
102
{ACAD_REACTORS
330
47
102
}
330
47
100
AcDbProxyObject
 90
      499
 91
      503
 95
   393239
 70
     0
 93
      225
310
90A3322203D2031272D302200000000000002100000000000000284028
 94
        0
1001
ACAD
1000
AcRTDxfName
1000
SCALE
  0
ACAD_PROXY_OBJECT
  5
67
102
{ACAD_REACTORS
330
47
102
}
330
47
100
AcDbProxyObject
 90
      499
 91
      503
 95
   393239
 70
     0
 93
      225
310
90A3622203D2031272D302200000000000006100000000000000284000
 94
        0
1001
ACAD
1000
AcRTDxfName
1000
SCALE
  0
ACAD_PROXY_OBJECT
  5
68
102
{ACAD_REACTORS
330
47
102
}
330
47
100
AcDbProxyObject
 90
      499
 91
      503
 95
   393239
 70
     0
 93
      249
310
90D31272D3022203D2031272D30220000000000000A100000000000000284000
 94
        0
1001
ACAD
1000
AcRTDxfName
1000
SCALE
  0
TABLESTYLE
  5
60E
102
{ACAD_REACTORS
330
60D
102
}
330
60D
100
AcDbTableStyle
  3
Standard
 70
     0
 71
     0
 40
1.5
 41
1.5
280
     0
281
     0
  7
Standard
140
4.5
170
     2
 62
     0
 63
     7
283
     0
274
    -2
284
     1
 64
     0
275
    -2
285
     1
 65
     0
276
    -2
286
     1
 66
     0
277
    -2
287
     1
 67
     0
278
    -2
288
     1
 68
     0
279
    -2
289
     1
 69
     0
  7
Standard
140
6.0
170
     5
 62
     0
 63
     7
283
     0
274
    -2
284
     1
 64
     0
275
    -2
285
     1
 65
     0
276
    -2
286
     1
 66
     0
277
    -2
287
     1
 67
     0
278
    -2
288
     1
 68
     0
279
    -2
289
     1
 69
     0
  7
Standard
140
4.5
170
     5
 62
     0
 63
     7
283
     0
274
    -2
284
     1
 64
     0
275
    -2
285
     1
 65
     0
276
    -2
286
     1
 66
     0
277
    -2
287
     1
 67
     0
278
    -2
288
     1
 68
     0
279
    -2
289
     1
 69
     0
  0
DICTIONARYVAR
  5
617
102
{ACAD_REACTORS
330
616
102
}
330
616
100
DictionaryVariables
280
     0
  1
STANDARD
  0
DICTIONARYVAR
  5
9C7
102
{ACAD_REACTORS
330
616
102
}
330
616
100
DictionaryVariables
280
     0
  1
1
  0
DICTIONARYVAR
  5
9C8
102
{ACAD_REACTORS
330
616
102
}
330
616
100
DictionaryVariables
280
     0
  1

  0
DICTIONARY
  5
9CB
330
1E
100
AcDbDictionary
280
     1
281
     1
  3
ACAD_XREC_ROUNDTRIP
360
9CC
  0
DICTIONARY
  5
9CF
330
26
100
AcDbDictionary
280
     1
281
     1
  3
ACAD_XREC_ROUNDTRIP
360
9D0
  0
DICTIONARY
  5
9CD
330
22
100
AcDbDictionary
280
     1
281
     1
  3
ACAD_XREC_ROUNDTRIP
360
9CE
  0
XRECORD
  5
9CC
102
{ACAD_REACTORS
330
9CB
102
}
330
9CB
100
AcDbXrecord
280
     1
102
SHADEPLOT
 70
     0
102
SHADEPLOTRESLEVEL
 70
     2
102
SHADEPLOTCUSTOMDPI
 70
   300
  0
XRECORD
  5
9D0
102
{ACAD_REACTORS
330
9CF
102
}
330
9CF
100
AcDbXrecord
280
     1
102
SHADEPLOT
 70
     0
102
SHADEPLOTRESLEVEL
 70
     2
102
SHADEPLOTCUSTOMDPI
 70
   300
  0
XRECORD
  5
9CE
102
{ACAD_REACTORS
330
9CD
102
}
330
9CD
100
AcDbXrecord
280
     1
102
SHADEPLOT
 70
     0
102
SHADEPLOTRESLEVEL
 70
     2
102
SHADEPLOTCUSTOMDPI
 70
   300
  0
ENDSEC
  0
EOF
