  0
SECTION
  2
HEADER
  9
$ACADVER
  1
AC1015
  9
$ACADMAINTVER
 70
    20
  9
$DWGCODEPAGE
  3
ANSI_1252
  9
$INSBASE
 10
0.0
 20
0.0
 30
0.0
  9
$EXTMIN
 10
36.93749971115267
 20
11.97777815389233
 30
0.0
  9
$EXTMAX
 10
640.3342428376533
 20
664.6082827823106
 30
0.0
  9
$LIMMIN
 10
0.0
 20
0.0
  9
$LIMMAX
 10
36.05
 20
26.9
  9
$ORTHOMODE
 70
     1
  9
$REGENMODE
 70
     1
  9
$FILLMODE
 70
     1
  9
$QTEXTMODE
 70
     0
  9
$MIRRTEXT
 70
     0
  9
$LTSCALE
 40
12.0
  9
$ATTMODE
 70
     1
  9
$TEXTSIZE
 40
0.2
  9
$TRACEWID
 40
0.05
  9
$TEXTSTYLE
  7
Standard
  9
$CLAYER
  8
DIM
  9
$CELTYPE
  6
ByLayer
  9
$CECOLOR
 62
   256
  9
$CELTSCALE
 40
1.0
  9
$DISPSILH
 70
     0
  9
$DIMSCALE
 40
1.0
  9
$DIMASZ
 40
5.0
  9
$DIMEXO
 40
1.6
  9
$DIMDLI
 40
10.0
  9
$DIMRND
 40
0.0
  9
$DIMDLE
 40
0.0
  9
$DIMEXE
 40
1.6
  9
$DIMTP
 40
0.0
  9
$DIMTM
 40
0.0
  9
$DIMTXT
 40
5.0
  9
$DIMCEN
 40
2.5
  9
$DIMTSZ
 40
0.0
  9
$DIMTOL
 70
     0
  9
$DIMLIM
 70
     0
  9
$DIMTIH
 70
     1
  9
$DIMTOH
 70
     1
  9
$DIMSE1
 70
     0
  9
$DIMSE2
 70
     0
  9
$DIMTAD
 70
     0
  9
$DIMZIN
 70
     0
  9
$DIMBLK
  1

  9
$DIMASO
 70
     1
  9
$DIMSHO
 70
     1
  9
$DIMPOST
  1

  9
$DIMAPOST
  1

  9
$DIMALT
 70
     0
  9
$DIMALTD
 70
     2
  9
$DIMALTF
 40
25.4
  9
$DIMLFAC
 40
1.0
  9
$DIMTOFL
 70
     0
  9
$DIMTVP
 40
0.0
  9
$DIMTIX
 70
     0
  9
$DIMSOXD
 70
     0
  9
$DIMSAH
 70
     0
  9
$DIMBLK1
  1

  9
$DIMBLK2
  1

  9
$DIMSTYLE
  2
METRIC
  9
$DIMCLRD
 70
     0
  9
$DIMCLRE
 70
     0
  9
$DIMCLRT
 70
   256
  9
$DIMTFAC
 40
1.0
  9
$DIMGAP
 40
2.5
  9
$DIMJUST
 70
     0
  9
$DIMSD1
 70
     0
  9
$DIMSD2
 70
     0
  9
$DIMTOLJ
 70
     1
  9
$DIMTZIN
 70
     0
  9
$DIMALTZ
 70
     0
  9
$DIMALTTZ
 70
     0
  9
$DIMUPT
 70
     0
  9
$DIMDEC
 70
     1
  9
$DIMTDEC
 70
     1
  9
$DIMALTU
 70
     2
  9
$DIMALTTD
 70
     2
  9
$DIMTXSTY
  7
ARIAL
  9
$DIMAUNIT
 70
     0
  9
$DIMADEC
 70
     1
  9
$DIMALTRND
 40
0.0
  9
$DIMAZIN
 70
     0
  9
$DIMDSEP
 70
    46
  9
$DIMATFIT
 70
     3
  9
$DIMFRAC
 70
     0
  9
$DIMLDRBLK
  1

  9
$DIMLUNIT
 70
     2
  9
$DIMLWD
 70
    -2
  9
$DIMLWE
 70
    -2
  9
$DIMTMOVE
 70
     0
  9
$LUNITS
 70
     2
  9
$LUPREC
 70
     4
  9
$SKETCHINC
 40
0.1
  9
$FILLETRAD
 40
0.08
  9
$AUNITS
 70
     0
  9
$AUPREC
 70
     0
  9
$MENU
  1
.
  9
$ELEVATION
 40
0.0
  9
$PELEVATION
 40
0.0
  9
$THICKNESS
 40
0.0
  9
$LIMCHECK
 70
     0
  9
$CHAMFERA
 40
0.0
  9
$CHAMFERB
 40
0.0
  9
$CHAMFERC
 40
1.0
  9
$CHAMFERD
 40
0.0
  9
$SKPOLY
 70
     0
  9
$TDCREATE
 40
2451534.924419676
  9
$TDUCREATE
 40
2451535.091086343
  9
$TDUPDATE
 40
2454656.618938253
  9
$TDUUPDATE
 40
2454656.785604919
  9
$TDINDWG
 40
6.8055187963
  9
$TDUSRTIMER
 40
6.8055187963
  9
$USRTIMER
 70
     1
  9
$ANGBASE
 50
0.0
  9
$ANGDIR
 70
     0
  9
$PDMODE
 70
     0
  9
$PDSIZE
 40
0.0
  9
$PLINEWID
 40
0.0
  9
$SPLFRAME
 70
     0
  9
$SPLINETYPE
 70
     6
  9
$SPLINESEGS
 70
 32767
  9
$HANDSEED
  5
13494
  9
$SURFTAB1
 70
     6
  9
$SURFTAB2
 70
     6
  9
$SURFTYPE
 70
     6
  9
$SURFU
 70
     6
  9
$SURFV
 70
     6
  9
$UCSBASE
  2

  9
$UCSNAME
  2

  9
$UCSORG
 10
0.0
 20
0.0
 30
0.0
  9
$UCSXDIR
 10
1.0
 20
0.0
 30
0.0
  9
$UCSYDIR
 10
0.0
 20
1.0
 30
0.0
  9
$UCSORTHOREF
  2

  9
$UCSORTHOVIEW
 70
     0
  9
$UCSORGTOP
 10
0.0
 20
0.0
 30
0.0
  9
$UCSORGBOTTOM
 10
0.0
 20
0.0
 30
0.0
  9
$UCSORGLEFT
 10
0.0
 20
0.0
 30
0.0
  9
$UCSORGRIGHT
 10
0.0
 20
0.0
 30
0.0
  9
$UCSORGFRONT
 10
0.0
 20
0.0
 30
0.0
  9
$UCSORGBACK
 10
0.0
 20
0.0
 30
0.0
  9
$PUCSBASE
  2

  9
$PUCSNAME
  2

  9
$PUCSORG
 10
0.0
 20
0.0
 30
0.0
  9
$PUCSXDIR
 10
1.0
 20
0.0
 30
0.0
  9
$PUCSYDIR
 10
0.0
 20
1.0
 30
0.0
  9
$PUCSORTHOREF
  2

  9
$PUCSORTHOVIEW
 70
     0
  9
$PUCSORGTOP
 10
0.0
 20
0.0
 30
0.0
  9
$PUCSORGBOTTOM
 10
0.0
 20
0.0
 30
0.0
  9
$PUCSORGLEFT
 10
0.0
 20
0.0
 30
0.0
  9
$PUCSORGRIGHT
 10
0.0
 20
0.0
 30
0.0
  9
$PUCSORGFRONT
 10
0.0
 20
0.0
 30
0.0
  9
$PUCSORGBACK
 10
0.0
 20
0.0
 30
0.0
  9
$USERI1
 70
     0
  9
$USERI2
 70
     0
  9
$USERI3
 70
     0
  9
$USERI4
 70
     0
  9
$USERI5
 70
     0
  9
$USERR1
 40
0.0
  9
$USERR2
 40
0.0
  9
$USERR3
 40
0.0
  9
$USERR4
 40
0.0
  9
$USERR5
 40
0.0
  9
$WORLDVIEW
 70
     1
  9
$SHADEDGE
 70
     3
  9
$SHADEDIF
 70
    70
  9
$TILEMODE
 70
     1
  9
$MAXACTVP
 70
    64
  9
$PINSBASE
 10
0.0
 20
0.0
 30
0.0
  9
$PLIMCHECK
 70
     0
  9
$PEXTMIN
 10
0.0
 20
0.0
 30
0.0
  9
$PEXTMAX
 10
0.0
 20
0.0
 30
0.0
  9
$PLIMMIN
 10
0.0
 20
0.0
  9
$PLIMMAX
 10
12.0
 20
9.0
  9
$UNITMODE
 70
     0
  9
$VISRETAIN
 70
     1
  9
$PLINEGEN
 70
     0
  9
$PSLTSCALE
 70
     1
  9
$TREEDEPTH
 70
  3020
  9
$CMLSTYLE
  2
Standard
  9
$CMLJUST
 70
     0
  9
$CMLSCALE
 40
1.0
  9
$PROXYGRAPHICS
 70
     1
  9
$MEASUREMENT
 70
     0
  9
$CELWEIGHT
370
    -1
  9
$ENDCAPS
280
     0
  9
$JOINSTYLE
280
     0
  9
$LWDISPLAY
290
     0
  9
$INSUNITS
 70
     1
  9
$HYPERLINKBASE
  1

  9
$STYLESHEET
  1
Dart1.ctb
  9
$XEDIT
290
     1
  9
$CEPSNTYPE
380
     0
  9
$PSTYLEMODE
290
     1
  9
$FINGERPRINTGUID
  2
{FDEAD576-A652-11D2-9A35-0060089B3A3F}
  9
$VERSIONGUID
  2
{675703CC-E099-4830-AD13-07F921C664E1}
  9
$EXTNAMES
290
     1
  9
$PSVPSCALE
 40
0.0
  9
$OLESTARTUP
290
     0
  0
ENDSEC
  0
SECTION
  2
CLASSES
  0
CLASS
  1
ACDBDICTIONARYWDFLT
  2
AcDbDictionaryWithDefault
  3
ObjectDBX Classes
 90
        0
280
     0
281
     0
  0
CLASS
  1
ACDBPLACEHOLDER
  2
AcDbPlaceHolder
  3
ObjectDBX Classes
 90
        0
280
     0
281
     0
  0
CLASS
  1
LAYOUT
  2
AcDbLayout
  3
ObjectDBX Classes
 90
        0
280
     0
281
     0
  0
CLASS
  1
TABLESTYLE
  2
AcDbTableStyle
  3
ObjectDBX Classes
 90
     2047
280
     0
281
     0
  0
CLASS
  1
DICTIONARYVAR
  2
AcDbDictionaryVar
  3
ObjectDBX Classes
 90
        0
280
     0
281
     0
  0
CLASS
  1
SORTENTSTABLE
  2
AcDbSortentsTable
  3
ObjectDBX Classes
 90
        0
280
     0
281
     0
  0
ENDSEC
  0
SECTION
  2
TABLES
  0
TABLE
  2
VPORT
  5
8
330
0
100
AcDbSymbolTable
 70
     5
  0
VPORT
  5
1348B
330
8
100
AcDbSymbolTableRecord
100
AcDbViewportTableRecord
  2
*Active
 70
     0
 10
0.0
 20
0.0
 11
1.0
 21
1.0
 12
413.9784360249727
 22
324.1655864939053
 13
0.0
 23
0.0
 14
1.0
 24
1.0
 15
0.5
 25
0.5
 16
0.0
 26
0.0
 36
1.0
 17
0.0
 27
0.0
 37
0.0
 40
794.2502689029765
 41
1.571609632446134
 42
50.0
 43
0.0
 44
0.0
 50
0.0
 51
0.0
 71
     0
 72
 20000
 73
     1
 74
     3
 75
     0
 76
     0
 77
     0
 78
     0
281
     0
 65
     1
110
0.0
120
0.0
130
0.0
111
1.0
121
0.0
131
0.0
112
0.0
122
1.0
132
0.0
 79
     0
146
0.0
  0
ENDTAB
  0
TABLE
  2
LTYPE
  5
5
330
0
100
AcDbSymbolTable
 70
     3
  0
LTYPE
  5
14
330
5
100
AcDbSymbolTableRecord
100
AcDbLinetypeTableRecord
  2
ByBlock
 70
     0
  3

 72
    65
 73
     0
 40
0.0
  0
LTYPE
  5
15
330
5
100
AcDbSymbolTableRecord
100
AcDbLinetypeTableRecord
  2
ByLayer
 70
     0
  3

 72
    65
 73
     0
 40
0.0
  0
LTYPE
  5
16
330
5
100
AcDbSymbolTableRecord
100
AcDbLinetypeTableRecord
  2
Continuous
 70
     0
  3
Solid line
 72
    65
 73
     0
 40
0.0
  0
LTYPE
  5
3184
330
5
100
AcDbSymbolTableRecord
100
AcDbLinetypeTableRecord
  2
HIDDEN
 70
     0
  3
Hidden __ __ __ __ __ __ __ __ __ __ __ __ __ _
 72
    65
 73
     2
 40
0.375
 49
0.25
 74
     0
 49
-0.125
 74
     0
  0
LTYPE
  5
5233
330
5
100
AcDbSymbolTableRecord
100
AcDbLinetypeTableRecord
  2
CENTER
 70
     0
  3
____ _ ____ _ ____ _ ____ _ ____ _ ____ _ ____
 72
    65
 73
     4
 40
2.0
 49
1.25
 74
     0
 49
-0.25
 74
     0
 49
0.25
 74
     0
 49
-0.25
 74
     0
  0
ENDTAB
  0
TABLE
  2
LAYER
  5
2
102
{ACAD_XDICTIONARY
360
5031
102
}
330
0
100
AcDbSymbolTable
 70
    19
  0
LAYER
  5
10
330
2
100
AcDbSymbolTableRecord
100
AcDbLayerTableRecord
  2
0
 70
     0
 62
     7
  6
Continuous
370
    -3
390
F
  0
LAYER
  5
6FD
330
2
100
AcDbSymbolTableRecord
100
AcDbLayerTableRecord
  2
DEFPOINTS
 70
     0
 62
     7
  6
Continuous
290
     0
370
    -3
390
F
  0
LAYER
  5
1A71
330
2
100
AcDbSymbolTableRecord
100
AcDbLayerTableRecord
  2
Front Panel
 70
     0
 62
     7
  6
Continuous
370
    -3
390
F
  0
LAYER
  5
1AB5
330
2
100
AcDbSymbolTableRecord
100
AcDbLayerTableRecord
  2
Rear Panel
 70
     0
 62
     7
  6
Continuous
370
    -3
390
F
  0
LAYER
  5
4ACC
330
2
100
AcDbSymbolTableRecord
100
AcDbLayerTableRecord
  2
Hidden
 70
     0
 62
     7
  6
HIDDEN
370
    -3
390
F
  0
LAYER
  5
5234
330
2
100
AcDbSymbolTableRecord
100
AcDbLayerTableRecord
  2
CENTER
 70
     0
 62
     7
  6
CENTER
370
    -3
390
F
  0
LAYER
  5
5235
330
2
100
AcDbSymbolTableRecord
100
AcDbLayerTableRecord
  2
CONNECT
 70
     0
 62
     7
  6
Continuous
370
    -3
390
F
  0
LAYER
  5
5239
330
2
100
AcDbSymbolTableRecord
100
AcDbLayerTableRecord
  2
SWITCH
 70
     0
 62
     7
  6
Continuous
370
    -3
390
F
  0
LAYER
  5
55CC
330
2
100
AcDbSymbolTableRecord
100
AcDbLayerTableRecord
  2
DIM
 70
     0
 62
     7
  6
Continuous
370
    -3
390
F
  0
LAYER
  5
857F
330
2
100
AcDbSymbolTableRecord
100
AcDbLayerTableRecord
  2
FASTENER
 70
     0
 62
     7
  6
Continuous
370
    -3
390
F
  0
LAYER
  5
AAD1
330
2
100
AcDbSymbolTableRecord
100
AcDbLayerTableRecord
  2
MOTOR
 70
     0
 62
     7
  6
Continuous
370
    -3
390
F
  0
LAYER
  5
AD13
330
2
100
AcDbSymbolTableRecord
100
AcDbLayerTableRecord
  2
PART
 70
     0
 62
     7
  6
Continuous
370
    -3
390
F
  0
LAYER
  5
B076
330
2
100
AcDbSymbolTableRecord
100
AcDbLayerTableRecord
  2
VENT
 70
     0
 62
     7
  6
Continuous
370
    -3
390
F
  0
LAYER
  5
C19C
330
2
100
AcDbSymbolTableRecord
100
AcDbLayerTableRecord
  2
Base
 70
     0
 62
     7
  6
Continuous
370
    -3
390
F
1001
AcAecLayerStandard
1000

1000

  0
LAYER
  5
C19F
330
2
100
AcDbSymbolTableRecord
100
AcDbLayerTableRecord
  2
Top Panel
 70
     0
 62
     7
  6
Continuous
370
    -3
390
F
1001
AcAecLayerStandard
1000

1000

  0
LAYER
  5
E3D8
330
2
100
AcDbSymbolTableRecord
100
AcDbLayerTableRecord
  2
PANEL
 70
     0
 62
     7
  6
Continuous
370
    -3
390
F
  0
LAYER
  5
E3D9
330
2
100
AcDbSymbolTableRecord
100
AcDbLayerTableRecord
  2
CONNECTOR
 70
     0
 62
     7
  6
Continuous
370
    -3
390
F
  0
LAYER
  5
1052D
330
2
100
AcDbSymbolTableRecord
100
AcDbLayerTableRecord
  2
CONN
 70
     0
 62
     7
  6
Continuous
370
    20
390
F
  0
LAYER
  5
1091F
330
2
100
AcDbSymbolTableRecord
100
AcDbLayerTableRecord
  2
LED
 70
     0
 62
     7
  6
Continuous
370
    20
390
F
1001
AcAecLayerStandard
1000

1000

  0
ENDTAB
  0
TABLE
  2
STYLE
  5
3
330
0
100
AcDbSymbolTable
 70
     3
  0
STYLE
  5
11
330
3
100
AcDbSymbolTableRecord
100
AcDbTextStyleTableRecord
  2
Standard
 70
     0
 40
0.0
 41
1.0
 50
0.0
 71
     0
 42
0.2
  3
romans.shx
  4

  0
STYLE
  5
EE94
330
3
100
AcDbSymbolTableRecord
100
AcDbTextStyleTableRecord
  2
ARIAL
 70
     0
 40
0.0
 41
1.0
 50
0.0
 71
     0
 42
3.5
  3
ARIAL.TTF
  4

1001
ACAD
1000
Arial
1071
       34
  0
STYLE
  5
11C5C
330
3
100
AcDbSymbolTableRecord
100
AcDbTextStyleTableRecord
  2
ROMANS
 70
     0
 40
0.0
 41
1.0
 50
0.0
 71
     0
 42
8.0
  3
ROMANS.SHX
  4

  0
ENDTAB
  0
TABLE
  2
VIEW
  5
6
330
0
100
AcDbSymbolTable
 70
     0
  0
ENDTAB
  0
TABLE
  2
UCS
  5
7
330
0
100
AcDbSymbolTable
 70
     6
  0
UCS
  5
96E6
330
7
100
AcDbSymbolTableRecord
100
AcDbUCSTableRecord
  2
TOP
 70
     0
 10
4.048409592529651
 20
10.77986676717617
 30
0.0
 11
1.0
 21
0.0
 31
0.0
 12
0.0
 22
1.0
 32
0.0
 79
     0
146
0.0
  0
UCS
  5
AD9D
330
7
100
AcDbSymbolTableRecord
100
AcDbUCSTableRecord
  2
PCB TOP
 70
     0
 10
20.54840959252969
 20
10.82986676717617
 30
0.0
 11
1.0
 21
0.0
 31
0.0
 12
0.0
 22
1.0
 32
0.0
 79
     0
146
0.0
  0
UCS
  5
C2DB
330
7
100
AcDbSymbolTableRecord
100
AcDbUCSTableRecord
  2
FRONT PANEL
 70
     0
 10
21.89840959252965
 20
3.940614798672223
 30
0.0
 11
1.0
 21
0.0
 31
0.0
 12
0.0
 22
1.0
 32
0.0
 79
     0
146
0.0
  0
UCS
  5
D271
330
7
100
AcDbSymbolTableRecord
100
AcDbUCSTableRecord
  2
REAR PANEL
 70
     0
 10
21.15825211221469
 20
24.92247319142812
 30
0.0
 11
1.0
 21
0.0
 31
0.0
 12
0.0
 22
1.0
 32
0.0
 79
     0
146
0.0
  0
UCS
  5
D579
330
7
100
AcDbSymbolTableRecord
100
AcDbUCSTableRecord
  2
PCB 2
 70
     0
 10
54.84840959252968
 20
10.82986676717617
 30
0.0
 11
1.0
 21
0.0
 31
0.0
 12
0.0
 22
1.0
 32
0.0
 79
     0
146
0.0
  0
UCS
  5
D57A
330
7
100
AcDbSymbolTableRecord
100
AcDbUCSTableRecord
  2
REAR PANEL 2
 70
     0
 10
55.45825211221469
 20
24.92247319142812
 30
0.0
 11
1.0
 21
0.0
 31
0.0
 12
0.0
 22
1.0
 32
0.0
 79
     0
146
0.0
  0
ENDTAB
  0
TABLE
  2
APPID
  5
9
330
0
100
AcDbSymbolTable
 70
     6
  0
APPID
  5
12
330
9
100
AcDbSymbolTableRecord
100
AcDbRegAppTableRecord
  2
ACAD
 70
     0
  0
APPID
  5
5240
330
9
100
AcDbSymbolTableRecord
100
AcDbRegAppTableRecord
  2
PHOENIX7010
 70
     0
  0
APPID
  5
5241
330
9
100
AcDbSymbolTableRecord
100
AcDbRegAppTableRecord
  2
AcAecLayerStandard
 70
     0
  0
APPID
  5
5242
330
9
100
AcDbSymbolTableRecord
100
AcDbRegAppTableRecord
  2
ACAD_PSEXT
 70
     0
  0
APPID
  5
55E7
330
9
100
AcDbSymbolTableRecord
100
AcDbRegAppTableRecord
  2
ACAD_DSTYLE_DIMTEXT_FILL
 70
     0
  0
APPID
  5
5A7B
330
9
100
AcDbSymbolTableRecord
100
AcDbRegAppTableRecord
  2
DCO15
 70
     0
  0
ENDTAB
  0
TABLE
  2
DIMSTYLE
  5
A
330
0
100
AcDbSymbolTable
 70
     2
100
AcDbDimStyleTable
 71
     2
340
EE95
340
27
  0
DIMSTYLE
105
27
330
A
100
AcDbSymbolTableRecord
100
AcDbDimStyleTableRecord
  2
Standard
 70
     0
  3
\X
  4
mm
 40
0.0
 73
     0
140
0.156
141
0.0
178
     3
271
     2
272
     2
340
11
  0
DIMSTYLE
105
EE95
102
{ACAD_REACTORS
330
F98E
330
F99C
330
FAA4
330
FAB3
330
FA26
330
FB14
330
FFE5
330
107C7
330
107C9
330
107CB
330
10C11
330
10BED
330
10BEF
330
10BEB
330
10BE9
330
12BF1
330
12BF2
330
13407
102
}
330
A
100
AcDbSymbolTableRecord
100
AcDbDimStyleTableRecord
  2
METRIC
 70
     0
 41
5.0
 42
1.6
 43
10.0
 44
1.6
140
5.0
141
2.5
147
2.5
178
   256
271
     1
272
     1
340
EE94
  0
ENDTAB
  0
TABLE
  2
BLOCK_RECORD
  5
1
330
0
100
AcDbSymbolTable
 70
    19
  0
BLOCK_RECORD
  5
1F
102
{ACAD_XDICTIONARY
360
54D8
102
}
330
1
100
AcDbSymbolTableRecord
100
AcDbBlockTableRecord
  2
*Model_Space
340
22
  0
BLOCK_RECORD
  5
F8D6
330
1
100
AcDbSymbolTableRecord
100
AcDbBlockTableRecord
  2
*Paper_Space
340
F8D7
  0
BLOCK_RECORD
  5
ACC9
330
1
100
AcDbSymbolTableRecord
100
AcDbBlockTableRecord
  2
m4nute
340
0
102
{BLKREFS
331
12C73
331
12C76
102
}
  0
BLOCK_RECORD
  5
ACDB
330
1
100
AcDbSymbolTableRecord
100
AcDbBlockTableRecord
  2
M4NUTT
340
0
102
{BLKREFS
331
11BBD
102
}
  0
BLOCK_RECORD
  5
ADF6
330
1
100
AcDbSymbolTableRecord
100
AcDbBlockTableRecord
  2
m4washe
340
0
102
{BLKREFS
331
12C72
331
12C74
331
12C75
102
}
  0
BLOCK_RECORD
  5
E951
330
1
100
AcDbSymbolTableRecord
100
AcDbBlockTableRecord
  2
m2.5flatt
340
0
102
{BLKREFS
331
E961
331
E962
331
E963
331
E964
331
ED41
331
ED42
331
ED43
331
1346F
102
}
  0
BLOCK_RECORD
  5
F261
330
1
100
AcDbSymbolTableRecord
100
AcDbBlockTableRecord
  2
m4pant
340
0
102
{BLKREFS
331
F271
331
F272
331
F273
331
F274
102
}
  0
BLOCK_RECORD
  5
F98F
330
1
100
AcDbSymbolTableRecord
100
AcDbBlockTableRecord
  2
*D5
340
0
  0
BLOCK_RECORD
  5
F99D
330
1
100
AcDbSymbolTableRecord
100
AcDbBlockTableRecord
  2
*D6
340
0
  0
BLOCK_RECORD
  5
FA27
330
1
100
AcDbSymbolTableRecord
100
AcDbBlockTableRecord
  2
*D7
340
0
  0
BLOCK_RECORD
  5
FAA5
330
1
100
AcDbSymbolTableRecord
100
AcDbBlockTableRecord
  2
*D8
340
0
  0
BLOCK_RECORD
  5
FAB4
330
1
100
AcDbSymbolTableRecord
100
AcDbBlockTableRecord
  2
*D9
340
0
  0
BLOCK_RECORD
  5
FB15
330
1
100
AcDbSymbolTableRecord
100
AcDbBlockTableRecord
  2
*D10
340
0
  0
BLOCK_RECORD
  5
FFE6
330
1
100
AcDbSymbolTableRecord
100
AcDbBlockTableRecord
  2
*D11
340
0
  0
BLOCK_RECORD
  5
11BB3
330
1
100
AcDbSymbolTableRecord
100
AcDbBlockTableRecord
  2
m4washt
340
0
102
{BLKREFS
331
11BBC
102
}
  0
BLOCK_RECORD
  5
11BB8
102
{ACAD_XDICTIONARY
360
11BB9
102
}
330
1
100
AcDbSymbolTableRecord
100
AcDbBlockTableRecord
  2
A$C5AD21B8F
340
0
102
{BLKREFS
331
11DC3
102
}
  0
BLOCK_RECORD
  5
12C2F
330
1
100
AcDbSymbolTableRecord
100
AcDbBlockTableRecord
  2
*D14
340
0
  0
BLOCK_RECORD
  5
12C3C
330
1
100
AcDbSymbolTableRecord
100
AcDbBlockTableRecord
  2
*D15
340
0
  0
BLOCK_RECORD
  5
13030
330
1
100
AcDbSymbolTableRecord
100
AcDbBlockTableRecord
  2
M3PANT
340
0
102
{BLKREFS
331
13040
331
13045
331
13046
331
13047
102
}
  0
BLOCK_RECORD
  5
13408
330
1
100
AcDbSymbolTableRecord
100
AcDbBlockTableRecord
  2
*D17
340
0
  0
BLOCK_RECORD
  5
1344E
330
1
100
AcDbSymbolTableRecord
100
AcDbBlockTableRecord
  2
m3washe
340
0
102
{BLKREFS
331
13455
331
13456
102
}
  0
ENDTAB
  0
ENDSEC
  0
SECTION
  2
BLOCKS
  0
BLOCK
  5
20
330
1F
100
AcDbEntity
  8
0
100
AcDbBlockBegin
  2
*Model_Space
 70
     0
 10
0.0
 20
0.0
 30
0.0
  3
*Model_Space
  1

  0
ENDBLK
  5
21
330
1F
100
AcDbEntity
  8
0
100
AcDbBlockEnd
  0
BLOCK
  5
F8D8
330
F8D6
100
AcDbEntity
 67
     1
  8
0
100
AcDbBlockBegin
  2
*Paper_Space
 70
     0
 10
0.0
 20
0.0
 30
0.0
  3
*Paper_Space
  1

  0
ENDBLK
  5
F8D9
330
F8D6
100
AcDbEntity
 67
     1
  8
0
100
AcDbBlockEnd
  0
BLOCK
  5
ACD6
330
ACC9
100
AcDbEntity
  8
0
100
AcDbBlockBegin
  2
m4nute
 70
     0
 10
0.0
 20
0.0
 30
0.0
  3
m4nute
  1

  0
ARC
  5
ACCA
330
ACC9
100
AcDbEntity
  8
FASTENER
100
AcDbCircle
 10
-3.074135924899792
 20
-1.754522327360632
 30
0.0
 40
1.445475872639358
100
AcDbArc
 50
228.0562545220055
 51
311.9437454779944
  0
LINE
  5
ACCB
330
ACC9
100
AcDbEntity
  8
FASTENER
100
AcDbLine
 10
-2.107978919900347
 20
-2.829669359198987
 30
0.0
 11
-2.107978919900347
 21
-0.3703288408028129
 31
0.0
  0
LINE
  5
ACCC
330
ACC9
100
AcDbEntity
  8
FASTENER
100
AcDbLine
 10
4.040292930099553
 20
-2.829669359198987
 30
0.0
 11
4.040292930099667
 21
-0.3703288408095489
 31
0.0
  0
LINE
  5
ACCD
330
ACC9
100
AcDbEntity
  8
FASTENER
100
AcDbLine
 10
-4.040292929900374
 20
-2.829669359198987
 30
0.0
 11
-4.040292929900488
 21
-0.3703288408028413
 31
0.0
  0
ARC
  5
ACCE
330
ACC9
100
AcDbEntity
  8
FASTENER
100
AcDbCircle
 10
-3.074135924899792
 20
-1.445475872639377
 30
0.0
 40
1.445475872639358
100
AcDbArc
 50
48.05625452200557
 51
131.9437454779944
  0
LINE
  5
ACCF
330
ACC9
100
AcDbEntity
  8
FASTENER
100
AcDbLine
 10
-3.074135924899792
 20
-0.0000000000000284
 30
0.0
 11
3.064094790576291
 21
-0.0000000000000853
 31
0.0
  0
LINE
  5
ACD0
330
ACC9
100
AcDbEntity
  8
FASTENER
100
AcDbLine
 10
2.097937785576846
 20
-2.829669359198987
 30
0.0
 11
2.097937785576846
 21
-0.3703288408028129
 31
0.0
  0
ARC
  5
ACD1
330
ACC9
100
AcDbEntity
  8
FASTENER
100
AcDbCircle
 10
3.064094790576291
 20
-1.445475872639377
 30
0.0
 40
1.445475872639358
100
AcDbArc
 50
48.05625452200557
 51
131.9437454779944
  0
ARC
  5
ACD2
330
ACC9
100
AcDbEntity
  8
FASTENER
100
AcDbCircle
 10
-0.0050205671636832
 20
-6.157324545608531
 30
0.0
 40
6.157252075463616
100
AcDbArc
 50
70.02916925897912
 51
109.9708307409719
  0
LINE
  5
ACD3
330
ACC9
100
AcDbEntity
  8
FASTENER
100
AcDbLine
 10
-3.074135924899792
 20
-3.199998200001772
 30
0.0
 11
3.064094790576291
 21
-3.199998200001772
 31
0.0
  0
ARC
  5
ACD4
330
ACC9
100
AcDbEntity
  8
FASTENER
100
AcDbCircle
 10
3.064094790576291
 20
-1.754522327360632
 30
0.0
 40
1.445475872639358
100
AcDbArc
 50
228.0562545220055
 51
311.9437454779944
  0
ARC
  5
ACD5
330
ACC9
100
AcDbEntity
  8
FASTENER
100
AcDbCircle
 10
-0.0050205671636832
 20
2.95732634560673
 30
0.0
 40
6.157252075463616
100
AcDbArc
 50
250.0291692590281
 51
289.9708307410209
  0
ENDBLK
  5
ACD7
330
ACC9
100
AcDbEntity
  8
0
100
AcDbBlockEnd
  0
BLOCK
  5
ACE0
330
ACDB
100
AcDbEntity
  8
0
100
AcDbBlockBegin
  2
M4NUTT
 70
     0
 10
0.0
 20
0.0
 30
0.0
  3
M4NUTT
  1

  0
ARC
  5
ACDC
330
ACDB
100
AcDbEntity
  8
FASTENER
100
AcDbCircle
 10
0.0
 20
0.0
 30
0.0
 40
2.0
100
AcDbArc
 50
76.12461886653091
 51
20.66365099019179
  0
CIRCLE
  5
ACDD
330
ACDB
100
AcDbEntity
  8
FASTENER
100
AcDbCircle
 10
0.0
 20
0.0
 30
0.0
 40
1.5
  0
CIRCLE
  5
ACDE
330
ACDB
100
AcDbEntity
  8
FASTENER
100
AcDbCircle
 10
0.0
 20
0.0
 30
0.0
 40
3.498996316197036
  0
LWPOLYLINE
  5
ACDF
330
ACDB
100
AcDbEntity
  8
FASTENER
100
AcDbPolyline
 90
        6
 70
     1
 43
0.0
 10
4.040292930099667
 20
0.0
 10
2.020146465049947
 20
3.498996316197036
 10
-2.020146465049833
 20
3.498996316197036
 10
-4.040292930099667
 20
0.0
 10
-2.020146465049947
 20
-3.498996316197036
 10
2.020146465049833
 20
-3.498996316197036
  0
ENDBLK
  5
ACE1
330
ACDB
100
AcDbEntity
  8
0
100
AcDbBlockEnd
  0
BLOCK
  5
ADF7
330
ADF6
100
AcDbEntity
  8
0
100
AcDbBlockBegin
  2
m4washe
 70
     0
 10
0.0
 20
0.0
 30
0.0
  3
m4washe
  1

  0
LINE
  5
ADF8
330
ADF6
100
AcDbEntity
  8
FASTENER
 48
25.4
100
AcDbLine
 10
-0.8000000000000113
 20
4.5
 30
0.0
 11
0.0
 21
4.5
 31
0.0
  0
LINE
  5
ADF9
330
ADF6
100
AcDbEntity
  8
FASTENER
 48
25.4
100
AcDbLine
 10
-0.8000000000000113
 20
-4.5
 30
0.0
 11
-0.8000000000000113
 21
4.5
 31
0.0
  0
LINE
  5
ADFA
330
ADF6
100
AcDbEntity
  8
FASTENER
 48
25.4
100
AcDbLine
 10
0.0
 20
-4.5
 30
0.0
 11
-0.8000000000000113
 21
-4.5
 31
0.0
  0
LINE
  5
ADFB
330
ADF6
100
AcDbEntity
  8
FASTENER
 48
25.4
100
AcDbLine
 10
0.0
 20
4.5
 30
0.0
 11
0.0
 21
-4.5
 31
0.0
  0
ENDBLK
  5
ADFC
330
ADF6
100
AcDbEntity
  8
0
100
AcDbBlockEnd
  0
BLOCK
  5
E95F
330
E951
100
AcDbEntity
  8
0
100
AcDbBlockBegin
  2
m2.5flatt
 70
     0
 10
0.0
 20
0.0
 30
0.0
  3
m2.5flatt
  1

  0
LINE
  5
E952
330
E951
100
AcDbEntity
  8
FASTENER
100
AcDbLine
 10
-0.3065217391305168
 20
-1.226086956521896
 30
0.0
 11
0.3065217391304316
 21
-1.226086956521896
 31
0.0
  0
LINE
  5
E953
330
E951
100
AcDbEntity
  8
FASTENER
100
AcDbLine
 10
-0.3065217391303747
 20
1.226086956521726
 30
0.0
 11
0.3065217391304316
 21
1.226086956521896
 31
0.0
  0
LINE
  5
E954
330
E951
100
AcDbEntity
  8
FASTENER
100
AcDbLine
 10
-1.226086956521726
 20
-0.3065217391306305
 30
0.0
 11
-0.3065217391303747
 21
-0.3065217391304031
 31
0.0
  0
LINE
  5
E955
330
E951
100
AcDbEntity
  8
FASTENER
100
AcDbLine
 10
-1.226086956521584
 20
0.3065217391306305
 30
0.0
 11
-0.3065217391305737
 21
0.3065217391306305
 31
0.0
  0
LINE
  5
E956
330
E951
100
AcDbEntity
  8
FASTENER
100
AcDbLine
 10
-0.3065217391305168
 20
0.3065217391304031
 30
0.0
 11
-0.3065217391303747
 21
1.226086956521726
 31
0.0
  0
LINE
  5
E957
330
E951
100
AcDbEntity
  8
FASTENER
100
AcDbLine
 10
-0.3065217391305168
 20
-1.226086956521896
 30
0.0
 11
-0.3065217391304316
 21
-0.3065217391306305
 31
0.0
  0
LINE
  5
E958
330
E951
100
AcDbEntity
  8
FASTENER
100
AcDbLine
 10
-1.226086956521726
 20
-0.3065217391306305
 30
0.0
 11
-1.226086956521584
 21
0.3065217391306305
 31
0.0
  0
LINE
  5
E959
330
E951
100
AcDbEntity
  8
FASTENER
100
AcDbLine
 10
0.3065217391304316
 20
-0.3065217391304031
 30
0.0
 11
1.226086956521811
 21
-0.3065217391304031
 31
0.0
  0
LINE
  5
E95A
330
E951
100
AcDbEntity
  8
FASTENER
100
AcDbLine
 10
0.3065217391303747
 20
0.3065217391306305
 30
0.0
 11
1.226086956521754
 21
0.3065217391306305
 31
0.0
  0
LINE
  5
E95B
330
E951
100
AcDbEntity
  8
FASTENER
100
AcDbLine
 10
0.3065217391304316
 20
-1.226086956521896
 30
0.0
 11
0.3065217391304316
 21
-0.3065217391304031
 31
0.0
  0
LINE
  5
E95C
330
E951
100
AcDbEntity
  8
FASTENER
100
AcDbLine
 10
0.3065217391303747
 20
0.3065217391304031
 30
0.0
 11
0.3065217391304316
 21
1.226086956521896
 31
0.0
  0
LINE
  5
E95D
330
E951
100
AcDbEntity
  8
FASTENER
100
AcDbLine
 10
1.226086956521811
 20
-0.3065217391304031
 30
0.0
 11
1.226086956521754
 21
0.3065217391306305
 31
0.0
  0
CIRCLE
  5
E95E
330
E951
100
AcDbEntity
  8
FASTENER
100
AcDbCircle
 10
0.0
 20
0.0
 30
0.0
 40
2.35
  0
ENDBLK
  5
E960
330
E951
100
AcDbEntity
  8
0
100
AcDbBlockEnd
  0
BLOCK
  5
F26F
330
F261
100
AcDbEntity
  8
0
100
AcDbBlockBegin
  2
m4pant
 70
     0
 10
0.0
 20
0.0
 30
0.0
  3
m4pant
  1

  0
CIRCLE
  5
F262
330
F261
100
AcDbEntity
  8
PART
100
AcDbCircle
 10
0.0
 20
0.0
 30
0.0
 40
3.9999285
  0
LINE
  5
F263
330
F261
100
AcDbEntity
  8
PART
100
AcDbLine
 10
-1.481454999998732
 20
0.4444364999995969
 30
0.0
 11
-0.4444365000028938
 21
0.4444364999995969
 31
0.0
  0
LINE
  5
F264
330
F261
100
AcDbEntity
  8
PART
100
AcDbLine
 10
-1.481454999998732
 20
-0.4444364999995969
 30
0.0
 11
-0.4444365000028938
 21
-0.4444364999995969
 31
0.0
  0
LINE
  5
F265
330
F261
100
AcDbEntity
  8
PART
100
AcDbLine
 10
0.4444365000028938
 20
1.481455000000323
 30
0.0
 11
0.4444365000028938
 21
0.4444364999995969
 31
0.0
  0
LINE
  5
F266
330
F261
100
AcDbEntity
  8
PART
100
AcDbLine
 10
-0.4444365000028938
 20
1.481455000000323
 30
0.0
 11
-0.4444365000028938
 21
0.4444364999995969
 31
0.0
  0
LINE
  5
F267
330
F261
100
AcDbEntity
  8
PART
100
AcDbLine
 10
-0.4444365000028938
 20
1.481455000000323
 30
0.0
 11
0.4444365000028938
 21
1.481455000000323
 31
0.0
  0
LINE
  5
F268
330
F261
100
AcDbEntity
  8
PART
100
AcDbLine
 10
-1.481454999998732
 20
-0.4444364999995969
 30
0.0
 11
-1.481454999998732
 21
0.4444364999995969
 31
0.0
  0
LINE
  5
F269
330
F261
100
AcDbEntity
  8
PART
100
AcDbLine
 10
0.4444365000028938
 20
-1.481455000000323
 30
0.0
 11
-0.4444365000028938
 21
-1.481455000000323
 31
0.0
  0
LINE
  5
F26A
330
F261
100
AcDbEntity
  8
PART
100
AcDbLine
 10
1.481454999998732
 20
0.4444364999995969
 30
0.0
 11
1.481454999998732
 21
-0.4444364999995969
 31
0.0
  0
LINE
  5
F26B
330
F261
100
AcDbEntity
  8
PART
100
AcDbLine
 10
0.4444365000028938
 20
-0.4444364999995969
 30
0.0
 11
0.4444365000028938
 21
-1.481455000000323
 31
0.0
  0
LINE
  5
F26C
330
F261
100
AcDbEntity
  8
PART
100
AcDbLine
 10
0.4444365000028938
 20
0.4444364999995969
 30
0.0
 11
1.481454999998732
 21
0.4444364999995969
 31
0.0
  0
LINE
  5
F26D
330
F261
100
AcDbEntity
  8
PART
100
AcDbLine
 10
-0.4444365000028938
 20
-0.4444364999995969
 30
0.0
 11
-0.4444365000028938
 21
-1.481455000000323
 31
0.0
  0
LINE
  5
F26E
330
F261
100
AcDbEntity
  8
PART
100
AcDbLine
 10
0.4444365000028938
 20
-0.4444364999995969
 30
0.0
 11
1.481454999998732
 21
-0.4444364999995969
 31
0.0
  0
ENDBLK
  5
F270
330
F261
100
AcDbEntity
  8
0
100
AcDbBlockEnd
  0
BLOCK
  5
F99A
330
F98F
100
AcDbEntity
  8
0
100
AcDbBlockBegin
  2
*D5
 70
     1
 10
0.0
 20
0.0
 30
0.0
  3
*D5
  1

  0
LINE
  5
1330E
330
F98F
100
AcDbEntity
  8
DIM
 62
     0
370
    -2
100
AcDbLine
 10
609.2196036502534
 20
209.2086158862748
 30
0.0
 11
609.2196036502534
 21
174.3242760908801
 31
0.0
  0
LINE
  5
1330F
330
F98F
100
AcDbEntity
  8
DIM
 62
     0
370
    -2
100
AcDbLine
 10
126.6196036502528
 20
209.208615886275
 30
0.0
 11
126.6196036502528
 21
174.3242760908801
 31
0.0
  0
LINE
  5
13310
330
F98F
100
AcDbEntity
  8
DIM
 62
     0
370
    -2
100
AcDbLine
 10
604.2196036502534
 20
175.9242760908801
 30
0.0
 11
378.9547332546188
 21
175.9242760908801
 31
0.0
  0
LINE
  5
13311
330
F98F
100
AcDbEntity
  8
DIM
 62
     0
370
    -2
100
AcDbLine
 10
131.6196036502528
 20
175.9242760908801
 30
0.0
 11
356.8844740458875
 21
175.9242760908801
 31
0.0
  0
SOLID
  5
13312
330
F98F
100
AcDbEntity
  8
DIM
 62
     0
100
AcDbTrace
 10
604.2196036502534
 20
176.7576094242134
 30
0.0
 11
604.2196036502534
 21
175.0909427575467
 31
0.0
 12
609.2196036502534
 22
175.9242760908801
 32
0.0
 13
609.2196036502534
 23
175.9242760908801
 33
0.0
  0
SOLID
  5
13313
330
F98F
100
AcDbEntity
  8
DIM
 62
     0
100
AcDbTrace
 10
131.6196036502528
 20
176.7576094242134
 30
0.0
 11
131.6196036502528
 21
175.0909427575467
 31
0.0
 12
126.6196036502528
 22
175.9242760908801
 32
0.0
 13
126.6196036502528
 23
175.9242760908801
 33
0.0
  0
MTEXT
  5
13314
330
F98F
100
AcDbEntity
  8
DIM
100
AcDbMText
 10
367.9196036502532
 20
175.9242760908801
 30
0.0
 40
5.0
 41
0.0
 71
     5
 72
     1
  1
\A1;482.6\P(19")
  7
ARIAL
 73
     1
 44
1.0
1001
ACAD
1000
MTEXTBEGIN
1070
    73
1070
     1
1070
    44
1040
1.0
1070
    74
1070
     0
1000
MTEXTEND
  0
POINT
  5
13315
330
F98F
100
AcDbEntity
  8
DEFPOINTS
 62
     0
100
AcDbPoint
 10
609.2196036502534
 20
210.8086158862748
 30
0.0
  0
POINT
  5
13316
330
F98F
100
AcDbEntity
  8
DEFPOINTS
 62
     0
100
AcDbPoint
 10
126.6196036502528
 20
210.808615886275
 30
0.0
  0
POINT
  5
13317
330
F98F
100
AcDbEntity
  8
DEFPOINTS
 62
     0
100
AcDbPoint
 10
126.6196036502528
 20
175.9242760908801
 30
0.0
  0
ENDBLK
  5
F99B
330
F98F
100
AcDbEntity
  8
0
100
AcDbBlockEnd
  0
BLOCK
  5
F9A8
330
F99D
100
AcDbEntity
  8
0
100
AcDbBlockBegin
  2
*D6
 70
     1
 10
0.0
 20
0.0
 30
0.0
  3
*D6
  1

  0
LINE
  5
13318
330
F99D
100
AcDbEntity
  8
DIM
 62
     0
370
    -2
100
AcDbLine
 10
143.9196036502528
 20
433.4086218862722
 30
0.0
 11
143.9196036502528
 21
473.6196685369294
 31
0.0
  0
LINE
  5
13319
330
F99D
100
AcDbEntity
  8
DIM
 62
     0
370
    -2
100
AcDbLine
 10
591.9196036502528
 20
433.4086218862722
 30
0.0
 11
591.9196036502528
 21
473.6196685369294
 31
0.0
  0
LINE
  5
1331A
330
F99D
100
AcDbEntity
  8
DIM
 62
     0
370
    -2
100
AcDbLine
 10
148.9196036502528
 20
472.0196685369294
 30
0.0
 11
356.8912953282883
 21
472.0196685369294
 31
0.0
  0
LINE
  5
1331B
330
F99D
100
AcDbEntity
  8
DIM
 62
     0
370
    -2
100
AcDbLine
 10
586.9196036502528
 20
472.0196685369294
 30
0.0
 11
378.9479119722173
 21
472.0196685369294
 31
0.0
  0
SOLID
  5
1331C
330
F99D
100
AcDbEntity
  8
DIM
 62
     0
100
AcDbTrace
 10
148.9196036502528
 20
472.8530018702627
 30
0.0
 11
148.9196036502528
 21
471.1863352035961
 31
0.0
 12
143.9196036502528
 22
472.0196685369294
 32
0.0
 13
143.9196036502528
 23
472.0196685369294
 33
0.0
  0
SOLID
  5
1331D
330
F99D
100
AcDbEntity
  8
DIM
 62
     0
100
AcDbTrace
 10
586.9196036502528
 20
472.8530018702627
 30
0.0
 11
586.9196036502528
 21
471.1863352035961
 31
0.0
 12
591.9196036502528
 22
472.0196685369294
 32
0.0
 13
591.9196036502528
 23
472.0196685369294
 33
0.0
  0
MTEXT
  5
1331E
330
F99D
100
AcDbEntity
  8
DIM
100
AcDbMText
 10
367.9196036502528
 20
472.0196685369294
 30
0.0
 40
5.0
 41
0.0
 71
     5
 72
     1
  1
\A1;448.0
  7
ARIAL
 73
     1
 44
1.0
1001
ACAD
1000
MTEXTBEGIN
1070
    73
1070
     1
1070
    44
1040
1.0
1070
    74
1070
     0
1000
MTEXTEND
  0
POINT
  5
1331F
330
F99D
100
AcDbEntity
  8
DEFPOINTS
 62
     0
100
AcDbPoint
 10
143.9196036502528
 20
431.8086218862722
 30
0.0
  0
POINT
  5
13320
330
F99D
100
AcDbEntity
  8
DEFPOINTS
 62
     0
100
AcDbPoint
 10
591.9196036502528
 20
431.8086218862722
 30
0.0
  0
POINT
  5
13321
330
F99D
100
AcDbEntity
  8
DEFPOINTS
 62
     0
100
AcDbPoint
 10
591.9196036502528
 20
472.0196685369294
 30
0.0
  0
ENDBLK
  5
F9A9
330
F99D
100
AcDbEntity
  8
0
100
AcDbBlockEnd
  0
BLOCK
  5
FA32
330
FA27
100
AcDbEntity
  8
0
100
AcDbBlockBegin
  2
*D7
 70
     1
 10
0.0
 20
0.0
 30
0.0
  3
*D7
  1

  0
LINE
  5
13457
330
FA27
100
AcDbEntity
  8
DIM
 62
     0
370
    -2
100
AcDbLine
 10
125.0196036502528
 20
210.808615886275
 30
0.0
 11
100.2500025708559
 21
210.808615886275
 31
0.0
  0
LINE
  5
13458
330
FA27
100
AcDbEntity
  8
DIM
 62
     0
370
    -2
100
AcDbLine
 10
156.894586393134
 20
452.5946158862732
 30
0.0
 11
100.2500025708559
 21
452.5946158862733
 31
0.0
  0
LINE
  5
13459
330
FA27
100
AcDbEntity
  8
DIM
 62
     0
370
    -2
100
AcDbLine
 10
101.8500025708559
 20
215.808615886275
 30
0.0
 11
101.8500025708559
 21
329.3557519476655
 31
0.0
  0
LINE
  5
1345A
330
FA27
100
AcDbEntity
  8
DIM
 62
     0
370
    -2
100
AcDbLine
 10
101.8500025708559
 20
447.5946158862733
 30
0.0
 11
101.8500025708559
 21
339.4614818248825
 31
0.0
  0
SOLID
  5
1345B
330
FA27
100
AcDbEntity
  8
DIM
 62
     0
100
AcDbTrace
 10
101.0166692375225
 20
215.808615886275
 30
0.0
 11
102.6833359041892
 21
215.808615886275
 31
0.0
 12
101.8500025708559
 22
210.808615886275
 32
0.0
 13
101.8500025708559
 23
210.808615886275
 33
0.0
  0
SOLID
  5
1345C
330
FA27
100
AcDbEntity
  8
DIM
 62
     0
100
AcDbTrace
 10
101.0166692375226
 20
447.5946158862733
 30
0.0
 11
102.6833359041892
 21
447.5946158862733
 31
0.0
 12
101.8500025708559
 22
452.5946158862733
 32
0.0
 13
101.8500025708559
 23
452.5946158862733
 33
0.0
  0
MTEXT
  5
1345D
330
FA27
100
AcDbEntity
  8
DIM
100
AcDbMText
 10
101.8500025708558
 20
334.408616886274
 30
0.0
 40
5.0
 41
0.0
 71
     5
 72
     1
  1
\A1;241.8
  7
ARIAL
 73
     1
 44
1.0
1001
ACAD
1000
MTEXTBEGIN
1070
    73
1070
     1
1070
    44
1040
1.0
1070
    74
1070
     0
1000
MTEXTEND
  0
POINT
  5
1345E
330
FA27
100
AcDbEntity
  8
DEFPOINTS
 62
     0
100
AcDbPoint
 10
126.6196036502528
 20
210.808615886275
 30
0.0
  0
POINT
  5
1345F
330
FA27
100
AcDbEntity
  8
DEFPOINTS
 62
     0
100
AcDbPoint
 10
158.494586393134
 20
452.5946158862732
 30
0.0
  0
POINT
  5
13460
330
FA27
100
AcDbEntity
  8
DEFPOINTS
 62
     0
100
AcDbPoint
 10
101.8500025708559
 20
452.5946158862733
 30
0.0
  0
ENDBLK
  5
FA33
330
FA27
100
AcDbEntity
  8
0
100
AcDbBlockEnd
  0
BLOCK
  5
FAB1
330
FAA5
100
AcDbEntity
  8
0
100
AcDbBlockBegin
  2
*D8
 70
     1
 10
0.0
 20
0.0
 30
0.0
  3
*D8
  1

  0
LINE
  5
1332C
330
FAA5
100
AcDbEntity
  8
DIM
 62
     0
370
    -2
100
AcDbLine
 10
125.0196036502528
 20
210.808615886275
 30
0.0
 11
118.4577495198307
 21
210.808615886275
 31
0.0
  0
LINE
  5
1332D
330
FAA5
100
AcDbEntity
  8
DIM
 62
     0
370
    -2
100
AcDbLine
 10
125.0196036502528
 20
213.808615886275
 30
0.0
 11
118.4577495198307
 21
213.808615886275
 31
0.0
  0
LINE
  5
1332E
330
FAA5
100
AcDbEntity
  8
DIM
 62
     0
370
    -2
100
AcDbLine
 10
120.0577495198307
 20
218.808615886275
 30
0.0
 11
120.0577495198307
 21
223.808615886275
 31
0.0
  0
LINE
  5
1332F
330
FAA5
100
AcDbEntity
  8
DIM
 62
     0
370
    -2
100
AcDbLine
 10
120.0577495198307
 20
205.808615886275
 30
0.0
 11
120.0577495198307
 21
200.808615886275
 31
0.0
  0
LINE
  5
13330
330
FAA5
100
AcDbEntity
  8
DIM
 62
     0
370
    -2
100
AcDbLine
 10
120.0577495198307
 20
200.808615886275
 30
0.0
 11
115.0577495198307
 21
200.808615886275
 31
0.0
  0
SOLID
  5
13331
330
FAA5
100
AcDbEntity
  8
DIM
 62
     0
100
AcDbTrace
 10
119.2244161864974
 20
218.808615886275
 30
0.0
 11
120.8910828531641
 21
218.808615886275
 31
0.0
 12
120.0577495198307
 22
213.808615886275
 32
0.0
 13
120.0577495198307
 23
213.808615886275
 33
0.0
  0
SOLID
  5
13332
330
FAA5
100
AcDbEntity
  8
DIM
 62
     0
100
AcDbTrace
 10
119.2244161864974
 20
205.808615886275
 30
0.0
 11
120.8910828531641
 21
205.808615886275
 31
0.0
 12
120.0577495198307
 22
210.808615886275
 32
0.0
 13
120.0577495198307
 23
210.808615886275
 33
0.0
  0
MTEXT
  5
13333
330
FAA5
100
AcDbEntity
  8
DIM
100
AcDbMText
 10
108.0164807613041
 20
200.808615886275
 30
0.0
 40
5.0
 41
0.0
 71
     5
 72
     1
  1
\A1;3.0
  7
ARIAL
 73
     1
 44
1.0
1001
ACAD
1000
MTEXTBEGIN
1070
    73
1070
     1
1070
    44
1040
1.0
1070
    74
1070
     0
1000
MTEXTEND
  0
POINT
  5
13334
330
FAA5
100
AcDbEntity
  8
DEFPOINTS
 62
     0
100
AcDbPoint
 10
126.6196036502528
 20
210.808615886275
 30
0.0
  0
POINT
  5
13335
330
FAA5
100
AcDbEntity
  8
DEFPOINTS
 62
     0
100
AcDbPoint
 10
126.6196036502528
 20
213.808615886275
 30
0.0
  0
POINT
  5
13336
330
FAA5
100
AcDbEntity
  8
DEFPOINTS
 62
     0
100
AcDbPoint
 10
120.0577495198307
 20
213.808615886275
 30
0.0
  0
ENDBLK
  5
FAB2
330
FAA5
100
AcDbEntity
  8
0
100
AcDbBlockEnd
  0
BLOCK
  5
FABF
330
FAB4
100
AcDbEntity
  8
0
100
AcDbBlockBegin
  2
*D9
 70
     1
 10
0.0
 20
0.0
 30
0.0
  3
*D9
  1

  0
LINE
  5
13337
330
FAB4
100
AcDbEntity
  8
DIM
 62
     0
370
    -2
100
AcDbLine
 10
125.0196036502528
 20
213.808615886275
 30
0.0
 11
113.5137507741728
 21
213.808615886275
 31
0.0
  0
LINE
  5
13338
330
FAB4
100
AcDbEntity
  8
DIM
 62
     0
370
    -2
100
AcDbLine
 10
143.8196036502524
 20
434.8086158862733
 30
0.0
 11
113.5137507741728
 21
434.8086158862733
 31
0.0
  0
LINE
  5
13339
330
FAB4
100
AcDbEntity
  8
DIM
 62
     0
370
    -2
100
AcDbLine
 10
115.1137507741728
 20
218.808615886275
 30
0.0
 11
115.1137507741728
 21
318.1589776819726
 31
0.0
  0
LINE
  5
1333A
330
FAB4
100
AcDbEntity
  8
DIM
 62
     0
370
    -2
100
AcDbLine
 10
115.1137507741728
 20
429.8086158862734
 30
0.0
 11
115.1137507741728
 21
328.2647075591896
 31
0.0
  0
SOLID
  5
1333B
330
FAB4
100
AcDbEntity
  8
DIM
 62
     0
100
AcDbTrace
 10
114.2804174408395
 20
218.808615886275
 30
0.0
 11
115.9470841075061
 21
218.808615886275
 31
0.0
 12
115.1137507741728
 22
213.808615886275
 32
0.0
 13
115.1137507741728
 23
213.808615886275
 33
0.0
  0
SOLID
  5
1333C
330
FAB4
100
AcDbEntity
  8
DIM
 62
     0
100
AcDbTrace
 10
114.2804174408395
 20
429.8086158862734
 30
0.0
 11
115.9470841075062
 21
429.8086158862734
 31
0.0
 12
115.1137507741728
 22
434.8086158862733
 32
0.0
 13
115.1137507741728
 23
434.8086158862733
 33
0.0
  0
MTEXT
  5
1333D
330
FAB4
100
AcDbEntity
  8
DIM
100
AcDbMText
 10
115.1137507741728
 20
323.2118426205811
 30
0.0
 40
5.0
 41
0.0
 71
     5
 72
     1
  1
\A1;221.0
  7
ARIAL
 73
     1
 44
1.0
1001
ACAD
1000
MTEXTBEGIN
1070
    73
1070
     1
1070
    44
1040
1.0
1070
    74
1070
     0
1000
MTEXTEND
  0
POINT
  5
1333E
330
FAB4
100
AcDbEntity
  8
DEFPOINTS
 62
     0
100
AcDbPoint
 10
126.6196036502528
 20
213.808615886275
 30
0.0
  0
POINT
  5
1333F
330
FAB4
100
AcDbEntity
  8
DEFPOINTS
 62
     0
100
AcDbPoint
 10
145.4196036502524
 20
434.8086158862733
 30
0.0
  0
POINT
  5
13340
330
FAB4
100
AcDbEntity
  8
DEFPOINTS
 62
     0
100
AcDbPoint
 10
115.1137507741728
 20
434.8086158862733
 30
0.0
  0
ENDBLK
  5
FAC0
330
FAB4
100
AcDbEntity
  8
0
100
AcDbBlockEnd
  0
BLOCK
  5
FB20
330
FB15
100
AcDbEntity
  8
0
100
AcDbBlockBegin
  2
*D10
 70
     1
 10
0.0
 20
0.0
 30
0.0
  3
*D10
  1

  0
LINE
  5
13341
330
FB15
100
AcDbEntity
  8
DIM
 62
     0
370
    -2
100
AcDbLine
 10
125.019603650253
 20
109.1416158862743
 30
0.0
 11
109.1961238344628
 21
109.1416158862743
 31
0.0
  0
LINE
  5
13342
330
FB15
100
AcDbEntity
  8
DIM
 62
     0
370
    -2
100
AcDbLine
 10
125.0196036502564
 20
65.49161588627217
 30
0.0
 11
109.1961238344628
 21
65.49161588627217
 31
0.0
  0
LINE
  5
13343
330
FB15
100
AcDbEntity
  8
DIM
 62
     0
370
    -2
100
AcDbLine
 10
110.7961238344628
 20
104.1416158862743
 30
0.0
 11
110.7961238344628
 21
97.27114067026597
 31
0.0
  0
LINE
  5
13344
330
FB15
100
AcDbEntity
  8
DIM
 62
     0
370
    -2
100
AcDbLine
 10
110.7961238344628
 20
70.49161588627217
 30
0.0
 11
110.7961238344628
 21
77.36209110228053
 31
0.0
  0
SOLID
  5
13345
330
FB15
100
AcDbEntity
  8
DIM
 62
     0
100
AcDbTrace
 10
109.9627905011295
 20
104.1416158862743
 30
0.0
 11
111.6294571677961
 21
104.1416158862743
 31
0.0
 12
110.7961238344628
 22
109.1416158862743
 32
0.0
 13
110.7961238344628
 23
109.1416158862743
 33
0.0
  0
SOLID
  5
13346
330
FB15
100
AcDbEntity
  8
DIM
 62
     0
100
AcDbTrace
 10
109.9627905011295
 20
70.49161588627217
 30
0.0
 11
111.6294571677961
 21
70.49161588627217
 31
0.0
 12
110.7961238344628
 22
65.49161588627217
 32
0.0
 13
110.7961238344628
 23
65.49161588627217
 33
0.0
  0
MTEXT
  5
13347
330
FB15
100
AcDbEntity
  8
DIM
100
AcDbMText
 10
110.7961238344628
 20
87.31661588627328
 30
0.0
 40
5.0
 41
0.0
 71
     5
 72
     1
  1
\A1;43.7\P(1U)
  7
ARIAL
 73
     1
 44
1.0
1001
ACAD
1000
MTEXTBEGIN
1070
    73
1070
     1
1070
    44
1040
1.0
1070
    74
1070
     0
1000
MTEXTEND
  0
POINT
  5
13348
330
FB15
100
AcDbEntity
  8
DEFPOINTS
 62
     0
100
AcDbPoint
 10
126.619603650253
 20
109.1416158862743
 30
0.0
  0
POINT
  5
13349
330
FB15
100
AcDbEntity
  8
DEFPOINTS
 62
     0
100
AcDbPoint
 10
126.6196036502564
 20
65.49161588627217
 30
0.0
  0
POINT
  5
1334A
330
FB15
100
AcDbEntity
  8
DEFPOINTS
 62
     0
100
AcDbPoint
 10
110.7961238344628
 20
65.49161588627217
 30
0.0
  0
ENDBLK
  5
FB21
330
FB15
100
AcDbEntity
  8
0
100
AcDbBlockEnd
  0
BLOCK
  5
FFF1
330
FFE6
100
AcDbEntity
  8
0
100
AcDbBlockBegin
  2
*D11
 70
     1
 10
0.0
 20
0.0
 30
0.0
  3
*D11
  1

  0
LINE
  5
1334B
330
FFE6
100
AcDbEntity
  8
CONNECT
 62
     0
370
    -2
100
AcDbLine
 10
126.6196036502564
 20
63.89161588627253
 30
0.0
 11
126.6196036502564
 21
39.99898764800232
 31
0.0
  0
LINE
  5
1334C
330
FFE6
100
AcDbEntity
  8
CONNECT
 62
     0
370
    -2
100
AcDbLine
 10
609.219603650253
 20
63.89161588627452
 30
0.0
 11
609.219603650253
 21
39.99898764800232
 31
0.0
  0
LINE
  5
1334D
330
FFE6
100
AcDbEntity
  8
CONNECT
 62
     0
370
    -2
100
AcDbLine
 10
131.6196036502564
 20
41.59898764800232
 30
0.0
 11
356.8844740458891
 21
41.59898764800232
 31
0.0
  0
LINE
  5
1334E
330
FFE6
100
AcDbEntity
  8
CONNECT
 62
     0
370
    -2
100
AcDbLine
 10
604.219603650253
 20
41.59898764800232
 30
0.0
 11
378.9547332546204
 21
41.59898764800232
 31
0.0
  0
SOLID
  5
1334F
330
FFE6
100
AcDbEntity
  8
CONNECT
 62
     0
100
AcDbTrace
 10
131.6196036502564
 20
42.43232098133566
 30
0.0
 11
131.6196036502564
 21
40.76565431466899
 31
0.0
 12
126.6196036502564
 22
41.59898764800232
 32
0.0
 13
126.6196036502564
 23
41.59898764800232
 33
0.0
  0
SOLID
  5
13350
330
FFE6
100
AcDbEntity
  8
CONNECT
 62
     0
100
AcDbTrace
 10
604.219603650253
 20
42.43232098133566
 30
0.0
 11
604.219603650253
 21
40.76565431466899
 31
0.0
 12
609.219603650253
 22
41.59898764800232
 32
0.0
 13
609.219603650253
 23
41.59898764800232
 33
0.0
  0
MTEXT
  5
13351
330
FFE6
100
AcDbEntity
  8
CONNECT
100
AcDbMText
 10
367.9196036502547
 20
41.59898764800232
 30
0.0
 40
5.0
 41
0.0
 71
     5
 72
     1
  1
\A1;482.6\P(19")
  7
ARIAL
 73
     1
 44
1.0
1001
ACAD
1000
MTEXTBEGIN
1070
    73
1070
     1
1070
    44
1040
1.0
1070
    74
1070
     0
1000
MTEXTEND
  0
POINT
  5
13352
330
FFE6
100
AcDbEntity
  8
DEFPOINTS
 62
     0
100
AcDbPoint
 10
126.6196036502564
 20
65.49161588627253
 30
0.0
  0
POINT
  5
13353
330
FFE6
100
AcDbEntity
  8
DEFPOINTS
 62
     0
100
AcDbPoint
 10
609.219603650253
 20
65.49161588627452
 30
0.0
  0
POINT
  5
13354
330
FFE6
100
AcDbEntity
  8
DEFPOINTS
 62
     0
100
AcDbPoint
 10
609.219603650253
 20
41.59898764800232
 30
0.0
  0
ENDBLK
  5
FFF2
330
FFE6
100
AcDbEntity
  8
0
100
AcDbBlockEnd
  0
BLOCK
  5
11BB4
330
11BB3
100
AcDbEntity
  8
0
100
AcDbBlockBegin
  2
m4washt
 70
     0
 10
0.0
 20
0.0
 30
0.0
  3
m4washt
  1

  0
CIRCLE
  5
11BB5
330
11BB3
100
AcDbEntity
  8
FASTENER
 48
25.4
100
AcDbCircle
 10
0.0
 20
0.0
 30
0.0
 40
4.0
  0
CIRCLE
  5
11BB6
330
11BB3
100
AcDbEntity
  8
FASTENER
 48
25.4
100
AcDbCircle
 10
0.0
 20
0.0
 30
0.0
 40
2.149999999999999
  0
ENDBLK
  5
11BB7
330
11BB3
100
AcDbEntity
  8
0
100
AcDbBlockEnd
  0
BLOCK
  5
11BBB
330
11BB8
100
AcDbEntity
  8
0
100
AcDbBlockBegin
  2
A$C5AD21B8F
 70
     0
 10
0.0
 20
0.0
 30
0.0
  3
A$C5AD21B8F
  1

  0
INSERT
  5
11BBC
330
11BB8
100
AcDbEntity
  8
CONNECT
100
AcDbBlockReference
  2
m4washt
 10
-20.3909296149607
 20
-10.67080041176565
 30
0.0
 41
0.0393700000000017
 42
0.0393699999999981
 43
0.03937
 50
270.0
  0
INSERT
  5
11BBD
330
11BB8
100
AcDbEntity
  8
CONNECT
100
AcDbBlockReference
  2
M4NUTT
 10
-20.3909296149607
 20
-10.67080041176565
 30
0.0
 41
0.0393700000000017
 42
0.0393699999999981
 43
0.03937
 50
270.0
  0
ENDBLK
  5
11BBE
330
11BB8
100
AcDbEntity
  8
0
100
AcDbBlockEnd
  0
BLOCK
  5
12C3A
330
12C2F
100
AcDbEntity
  8
0
100
AcDbBlockBegin
  2
*D14
 70
     1
 10
0.0
 20
0.0
 30
0.0
  3
*D14
  1

  0
LINE
  5
13355
330
12C2F
100
AcDbEntity
  8
DIM
 62
     0
370
    -2
100
AcDbLine
 10
80.06164176078925
 20
435.4086198862726
 30
0.0
 11
80.06164176078925
 21
472.9219227641539
 31
0.0
  0
LINE
  5
13356
330
12C2F
100
AcDbEntity
  8
DIM
 62
     0
370
    -2
100
AcDbLine
 10
37.46249971115265
 20
433.393381886272
 30
0.0
 11
37.46249971115265
 21
472.9219227641539
 31
0.0
  0
LINE
  5
13357
330
12C2F
100
AcDbEntity
  8
DIM
 62
     0
370
    -2
100
AcDbLine
 10
75.06164176078925
 20
471.3219227641538
 30
0.0
 11
67.96305695179845
 21
471.3219227641538
 31
0.0
  0
LINE
  5
13358
330
12C2F
100
AcDbEntity
  8
DIM
 62
     0
370
    -2
100
AcDbLine
 10
42.46249971115264
 20
471.3219227641538
 30
0.0
 11
49.77751807048875
 21
471.3219227641538
 31
0.0
  0
SOLID
  5
13359
330
12C2F
100
AcDbEntity
  8
DIM
 62
     0
100
AcDbTrace
 10
75.06164176078925
 20
472.1552560974871
 30
0.0
 11
75.06164176078925
 21
470.4885894308206
 31
0.0
 12
80.06164176078925
 22
471.3219227641538
 32
0.0
 13
80.06164176078925
 23
471.3219227641538
 33
0.0
  0
SOLID
  5
1335A
330
12C2F
100
AcDbEntity
  8
DIM
 62
     0
100
AcDbTrace
 10
42.46249971115264
 20
472.1552560974871
 30
0.0
 11
42.46249971115264
 21
470.4885894308206
 31
0.0
 12
37.46249971115265
 22
471.3219227641538
 32
0.0
 13
37.46249971115265
 23
471.3219227641538
 33
0.0
  0
MTEXT
  5
1335B
330
12C2F
100
AcDbEntity
  8
DIM
100
AcDbMText
 10
58.8702875111436
 20
471.3219227641538
 30
0.0
 40
5.0
 41
0.0
 71
     5
 72
     1
  1
\A1;42.6
  7
ARIAL
 73
     1
 44
1.0
1001
ACAD
1000
MTEXTBEGIN
1070
    73
1070
     1
1070
    44
1040
1.0
1070
    74
1070
     0
1000
MTEXTEND
  0
POINT
  5
1335C
330
12C2F
100
AcDbEntity
  8
DEFPOINTS
 62
     0
100
AcDbPoint
 10
80.06164176078925
 20
433.8086198862726
 30
0.0
  0
POINT
  5
1335D
330
12C2F
100
AcDbEntity
  8
DEFPOINTS
 62
     0
100
AcDbPoint
 10
37.46249971115265
 20
431.793381886272
 30
0.0
  0
POINT
  5
1335E
330
12C2F
100
AcDbEntity
  8
DEFPOINTS
 62
     0
100
AcDbPoint
 10
37.46249971115265
 20
471.3219227641538
 30
0.0
  0
ENDBLK
  5
12C3B
330
12C2F
100
AcDbEntity
  8
0
100
AcDbBlockEnd
  0
BLOCK
  5
12C47
330
12C3C
100
AcDbEntity
  8
0
100
AcDbBlockBegin
  2
*D15
 70
     1
 10
0.0
 20
0.0
 30
0.0
  3
*D15
  1

  0
LINE
  5
1335F
330
12C3C
100
AcDbEntity
  8
CONNECT
 62
     0
370
    -2
100
AcDbLine
 10
36.93749971115278
 20
209.2086158862724
 30
0.0
 11
36.93749971115278
 21
173.0
 31
0.0
  0
LINE
  5
13360
330
12C3C
100
AcDbEntity
  8
CONNECT
 62
     0
370
    -2
100
AcDbLine
 10
80.58749971115275
 20
209.2086158862748
 30
0.0
 11
80.58749971115275
 21
173.0
 31
0.0
  0
LINE
  5
13361
330
12C3C
100
AcDbEntity
  8
CONNECT
 62
     0
370
    -2
100
AcDbLine
 10
41.93749971115278
 20
174.6
 30
0.0
 11
49.33115021808848
 21
174.6
 31
0.0
  0
LINE
  5
13362
330
12C3C
100
AcDbEntity
  8
CONNECT
 62
     0
370
    -2
100
AcDbLine
 10
75.58749971115275
 20
174.6
 30
0.0
 11
67.51668909939818
 21
174.6
 31
0.0
  0
SOLID
  5
13363
330
12C3C
100
AcDbEntity
  8
CONNECT
 62
     0
100
AcDbTrace
 10
41.93749971115278
 20
175.4333333333334
 30
0.0
 11
41.93749971115278
 21
173.7666666666667
 31
0.0
 12
36.93749971115278
 22
174.6
 32
0.0
 13
36.93749971115278
 23
174.6
 33
0.0
  0
SOLID
  5
13364
330
12C3C
100
AcDbEntity
  8
CONNECT
 62
     0
100
AcDbTrace
 10
75.58749971115275
 20
175.4333333333334
 30
0.0
 11
75.58749971115275
 21
173.7666666666667
 31
0.0
 12
80.58749971115275
 22
174.6
 32
0.0
 13
80.58749971115275
 23
174.6
 33
0.0
  0
MTEXT
  5
13365
330
12C3C
100
AcDbEntity
  8
CONNECT
100
AcDbMText
 10
58.42391965874333
 20
174.6
 30
0.0
 40
5.0
 41
0.0
 71
     5
 72
     1
  1
\A1;43.6\P(1U)
  7
ARIAL
 73
     1
 44
1.0
1001
ACAD
1000
MTEXTBEGIN
1070
    73
1070
     1
1070
    44
1040
1.0
1070
    74
1070
     0
1000
MTEXTEND
  0
POINT
  5
13366
330
12C3C
100
AcDbEntity
  8
DEFPOINTS
 62
     0
100
AcDbPoint
 10
36.93749971115278
 20
210.8086158862724
 30
0.0
  0
POINT
  5
13367
330
12C3C
100
AcDbEntity
  8
DEFPOINTS
 62
     0
100
AcDbPoint
 10
80.58749971115275
 20
210.8086158862748
 30
0.0
  0
POINT
  5
13368
330
12C3C
100
AcDbEntity
  8
DEFPOINTS
 62
     0
100
AcDbPoint
 10
80.58749971115275
 20
174.6
 30
0.0
  0
ENDBLK
  5
12C48
330
12C3C
100
AcDbEntity
  8
0
100
AcDbBlockEnd
  0
BLOCK
  5
1303E
330
13030
100
AcDbEntity
  8
0
100
AcDbBlockBegin
  2
M3PANT
 70
     0
 10
0.0
 20
0.0
 30
0.0
  3
M3PANT
  1

  0
CIRCLE
  5
13031
330
13030
100
AcDbEntity
  8
FASTENER
100
AcDbCircle
 10
0.0
 20
0.0
 30
0.0
 40
3.0
  0
LINE
  5
13032
330
13030
100
AcDbEntity
  8
FASTENER
100
AcDbLine
 10
0.476250000003347
 20
-0.476250000003347
 30
0.0
 11
1.587499999998499
 21
-0.476250000003347
 31
0.0
  0
LINE
  5
13033
330
13030
100
AcDbEntity
  8
FASTENER
100
AcDbLine
 10
-0.476250000003347
 20
-0.476250000003347
 30
0.0
 11
-0.476250000003347
 21
-1.587499999998499
 31
0.0
  0
LINE
  5
13034
330
13030
100
AcDbEntity
  8
FASTENER
100
AcDbLine
 10
0.476250000003347
 20
0.476250000003347
 30
0.0
 11
1.587499999998499
 21
0.476250000003347
 31
0.0
  0
LINE
  5
13035
330
13030
100
AcDbEntity
  8
FASTENER
100
AcDbLine
 10
0.476250000003347
 20
-0.476250000003347
 30
0.0
 11
0.476250000003347
 21
-1.587499999998499
 31
0.0
  0
LINE
  5
13036
330
13030
100
AcDbEntity
  8
FASTENER
100
AcDbLine
 10
1.587499999998499
 20
0.476250000003347
 30
0.0
 11
1.587499999998499
 21
-0.476250000003347
 31
0.0
  0
LINE
  5
13037
330
13030
100
AcDbEntity
  8
FASTENER
100
AcDbLine
 10
0.476250000003347
 20
-1.587499999998499
 30
0.0
 11
-0.476250000003347
 21
-1.587499999998499
 31
0.0
  0
LINE
  5
13038
330
13030
100
AcDbEntity
  8
FASTENER
100
AcDbLine
 10
-1.587499999998499
 20
-0.476250000003347
 30
0.0
 11
-1.587499999998499
 21
0.476250000003347
 31
0.0
  0
LINE
  5
13039
330
13030
100
AcDbEntity
  8
FASTENER
100
AcDbLine
 10
-0.476250000003347
 20
1.587499999998499
 30
0.0
 11
0.476250000003347
 21
1.587499999998499
 31
0.0
  0
LINE
  5
1303A
330
13030
100
AcDbEntity
  8
FASTENER
100
AcDbLine
 10
-0.476250000003347
 20
1.587499999998499
 30
0.0
 11
-0.476250000003347
 21
0.476250000003347
 31
0.0
  0
LINE
  5
1303B
330
13030
100
AcDbEntity
  8
FASTENER
100
AcDbLine
 10
0.476250000003347
 20
1.587499999998499
 30
0.0
 11
0.476250000003347
 21
0.476250000003347
 31
0.0
  0
LINE
  5
1303C
330
13030
100
AcDbEntity
  8
FASTENER
100
AcDbLine
 10
-1.587499999998499
 20
-0.476250000003347
 30
0.0
 11
-0.476250000003347
 21
-0.476250000003347
 31
0.0
  0
LINE
  5
1303D
330
13030
100
AcDbEntity
  8
FASTENER
100
AcDbLine
 10
-1.587499999998499
 20
0.476250000003347
 30
0.0
 11
-0.476250000003347
 21
0.476250000003347
 31
0.0
  0
ENDBLK
  5
1303F
330
13030
100
AcDbEntity
  8
0
100
AcDbBlockEnd
  0
BLOCK
  5
13414
330
13408
100
AcDbEntity
  8
0
100
AcDbBlockBegin
  2
*D17
 70
     1
 10
0.0
 20
0.0
 30
0.0
  3
*D17
  1

  0
LINE
  5
13409
330
13408
100
AcDbEntity
  8
DIM
 62
     0
370
    -2
100
AcDbLine
 10
543.5096036502537
 20
200.7276336662743
 30
0.0
 11
621.6
 21
200.7276336662742
 31
0.0
  0
LINE
  5
1340A
330
13408
100
AcDbEntity
  8
DIM
 62
     0
370
    -2
100
AcDbLine
 10
610.8196036502534
 20
210.8086158862748
 30
0.0
 11
621.6
 21
210.8086158862748
 31
0.0
  0
LINE
  5
1340B
330
13408
100
AcDbEntity
  8
DIM
 62
     0
370
    -2
100
AcDbLine
 10
620.0
 20
195.7276336662742
 30
0.0
 11
620.0
 21
190.7276336662742
 31
0.0
  0
LINE
  5
1340C
330
13408
100
AcDbEntity
  8
DIM
 62
     0
370
    -2
100
AcDbLine
 10
620.0
 20
215.8086158862748
 30
0.0
 11
620.0
 21
220.8086158862748
 31
0.0
  0
LINE
  5
1340D
330
13408
100
AcDbEntity
  8
DIM
 62
     0
370
    -2
100
AcDbLine
 10
620.0
 20
220.8086158862748
 30
0.0
 11
625.0
 21
220.8086158862748
 31
0.0
  0
SOLID
  5
1340E
330
13408
100
AcDbEntity
  8
DIM
 62
     0
100
AcDbTrace
 10
619.1666666666666
 20
195.7276336662742
 30
0.0
 11
620.8333333333333
 21
195.7276336662742
 31
0.0
 12
620.0
 22
200.7276336662742
 32
0.0
 13
620.0
 23
200.7276336662742
 33
0.0
  0
SOLID
  5
1340F
330
13408
100
AcDbEntity
  8
DIM
 62
     0
100
AcDbTrace
 10
619.1666666666666
 20
215.8086158862748
 30
0.0
 11
620.8333333333333
 21
215.8086158862748
 31
0.0
 12
620.0
 22
210.8086158862748
 32
0.0
 13
620.0
 23
210.8086158862748
 33
0.0
  0
MTEXT
  5
13410
330
13408
100
AcDbEntity
  8
DIM
100
AcDbMText
 10
633.2759208731241
 20
220.8086158862749
 30
0.0
 40
5.0
 41
0.0
 71
     5
 72
     1
  1
\A1;10.1
  7
ARIAL
 73
     1
 44
1.0
1001
ACAD
1000
MTEXTBEGIN
1070
    73
1070
     1
1070
    44
1040
1.0
1070
    74
1070
     0
1000
MTEXTEND
  0
POINT
  5
13411
330
13408
100
AcDbEntity
  8
DEFPOINTS
 62
     0
100
AcDbPoint
 10
541.9096036502537
 20
200.7276336662743
 30
0.0
  0
POINT
  5
13412
330
13408
100
AcDbEntity
  8
DEFPOINTS
 62
     0
100
AcDbPoint
 10
609.2196036502534
 20
210.8086158862748
 30
0.0
  0
POINT
  5
13413
330
13408
100
AcDbEntity
  8
DEFPOINTS
 62
     0
100
AcDbPoint
 10
620.0
 20
210.8086158862748
 30
0.0
  0
ENDBLK
  5
13415
330
13408
100
AcDbEntity
  8
0
100
AcDbBlockEnd
  0
BLOCK
  5
13453
330
1344E
100
AcDbEntity
  8
0
100
AcDbBlockBegin
  2
m3washe
 70
     0
 10
0.0
 20
0.0
 30
0.0
  3
m3washe
  1

  0
LINE
  5
1344F
330
1344E
100
AcDbEntity
  8
FASTENER
100
AcDbLine
 10
0.5
 20
3.0
 30
0.0
 11
0.0
 21
3.0
 31
0.0
  0
LINE
  5
13450
330
1344E
100
AcDbEntity
  8
FASTENER
100
AcDbLine
 10
0.5
 20
-3.0
 30
0.0
 11
0.5
 21
3.0
 31
0.0
  0
LINE
  5
13451
330
1344E
100
AcDbEntity
  8
FASTENER
100
AcDbLine
 10
0.0
 20
-3.0
 30
0.0
 11
0.5
 21
-3.0
 31
0.0
  0
LINE
  5
13452
330
1344E
100
AcDbEntity
  8
FASTENER
100
AcDbLine
 10
0.0
 20
3.0
 30
0.0
 11
0.0
 21
-3.0
 31
0.0
  0
ENDBLK
  5
13454
330
1344E
100
AcDbEntity
  8
0
100
AcDbBlockEnd
  0
ENDSEC
  0
SECTION
  2
ENTITIES
  0
ARC
  5
D27E
330
1F
100
AcDbEntity
  8
Front Panel
100
AcDbCircle
 10
598.8056036502579
 20
71.4416158862746
 30
0.0
 40
3.174999999999999
100
AcDbArc
 50
90.0
 51
270.0
  0
ARC
  5
D27F
330
1F
100
AcDbEntity
  8
Front Panel
100
AcDbCircle
 10
601.853603650258
 20
71.4416158862746
 30
0.0
 40
3.174999999999999
100
AcDbArc
 50
270.0
 51
90.0
  0
ARC
  5
D280
330
1F
100
AcDbEntity
  8
Front Panel
100
AcDbCircle
 10
601.8536036502559
 20
71.44161588627046
 30
0.0
 40
3.174999999999999
100
AcDbArc
 50
270.0
 51
90.0
  0
ARC
  5
D281
330
1F
100
AcDbEntity
  8
Front Panel
100
AcDbCircle
 10
598.8056036502557
 20
71.44161588627046
 30
0.0
 40
3.174999999999999
100
AcDbArc
 50
90.0
 51
270.0
  0
LINE
  5
D282
330
1F
100
AcDbEntity
  8
Front Panel
100
AcDbLine
 10
609.2196036502556
 20
109.1416158862745
 30
0.0
 11
609.219603650253
 21
65.49161588627452
 31
0.0
  0
LINE
  5
D283
330
1F
100
AcDbEntity
  8
Front Panel
100
AcDbLine
 10
598.8056036502579
 20
68.26661588627459
 30
0.0
 11
601.853603650258
 21
68.26661588627459
 31
0.0
  0
LINE
  5
D284
330
1F
100
AcDbEntity
  8
Front Panel
100
AcDbLine
 10
598.8056036502557
 20
68.26661588627044
 30
0.0
 11
601.8536036502559
 21
68.26661588627044
 31
0.0
  0
ARC
  5
D285
330
1F
100
AcDbEntity
  8
Front Panel
100
AcDbCircle
 10
598.8056036502579
 20
103.1916158862746
 30
0.0
 40
3.174999999999999
100
AcDbArc
 50
90.0
 51
270.0
  0
ARC
  5
D286
330
1F
100
AcDbEntity
  8
Front Panel
100
AcDbCircle
 10
601.853603650258
 20
103.1916158862746
 30
0.0
 40
3.174999999999999
100
AcDbArc
 50
270.0
 51
90.0
  0
ARC
  5
D287
330
1F
100
AcDbEntity
  8
Front Panel
100
AcDbCircle
 10
601.8536036502559
 20
103.1916158862704
 30
0.0
 40
3.174999999999999
100
AcDbArc
 50
270.0
 51
90.0
  0
ARC
  5
D288
330
1F
100
AcDbEntity
  8
Front Panel
100
AcDbCircle
 10
598.8056036502557
 20
103.1916158862704
 30
0.0
 40
3.174999999999999
100
AcDbArc
 50
90.0
 51
270.0
  0
LINE
  5
D289
330
1F
100
AcDbEntity
  8
Front Panel
100
AcDbLine
 10
598.8056036502579
 20
74.61661588627461
 30
0.0
 11
601.853603650258
 21
74.61661588627461
 31
0.0
  0
LINE
  5
D28A
330
1F
100
AcDbEntity
  8
Front Panel
100
AcDbLine
 10
598.8056036502557
 20
74.61661588627046
 30
0.0
 11
601.8536036502559
 21
74.61661588627046
 31
0.0
  0
LINE
  5
D28B
330
1F
100
AcDbEntity
  8
Front Panel
100
AcDbLine
 10
598.8056036502579
 20
100.0166158862746
 30
0.0
 11
601.853603650258
 21
100.0166158862746
 31
0.0
  0
LINE
  5
D28C
330
1F
100
AcDbEntity
  8
Front Panel
100
AcDbLine
 10
598.8056036502557
 20
100.0166158862704
 30
0.0
 11
601.8536036502559
 21
100.0166158862704
 31
0.0
  0
LINE
  5
D28D
330
1F
100
AcDbEntity
  8
Front Panel
100
AcDbLine
 10
598.8056036502579
 20
106.3666158862746
 30
0.0
 11
601.853603650258
 21
106.3666158862746
 31
0.0
  0
LINE
  5
D28E
330
1F
100
AcDbEntity
  8
Front Panel
100
AcDbLine
 10
598.8056036502557
 20
106.3666158862704
 30
0.0
 11
601.8536036502559
 21
106.3666158862704
 31
0.0
  0
LINE
  5
D28F
330
1F
100
AcDbEntity
  8
Front Panel
100
AcDbLine
 10
126.6196036502528
 20
213.808615886275
 30
0.0
 11
126.6196036502528
 21
210.808615886275
 31
0.0
  0
LINE
  5
D290
330
1F
100
AcDbEntity
  8
Front Panel
100
AcDbLine
 10
609.2196036502534
 20
213.8086158862749
 30
0.0
 11
609.2196036502534
 21
210.8086158862748
 31
0.0
  0
LINE
  5
D295
330
1F
100
AcDbEntity
  8
Front Panel
100
AcDbLine
 10
126.619603650253
 20
109.1416158862743
 30
0.0
 11
609.2196036502556
 21
109.1416158862745
 31
0.0
  0
LINE
  5
D296
330
1F
100
AcDbEntity
  8
Front Panel
100
AcDbLine
 10
126.6196036502564
 20
65.49161588627253
 30
0.0
 11
609.219603650253
 21
65.49161588627452
 31
0.0
  0
ARC
  5
D297
330
1F
100
AcDbEntity
  8
Front Panel
100
AcDbCircle
 10
137.0336036502516
 20
71.44161588627435
 30
0.0
 40
3.174999999999999
100
AcDbArc
 50
270.0000000000009
 51
90.00000000000094
  0
ARC
  5
D298
330
1F
100
AcDbEntity
  8
Front Panel
100
AcDbCircle
 10
133.9856036502515
 20
71.44161588627435
 30
0.0
 40
3.174999999999999
100
AcDbArc
 50
90.00000000000094
 51
270.0000000000009
  0
ARC
  5
D299
330
1F
100
AcDbEntity
  8
Front Panel
100
AcDbCircle
 10
133.9856036502537
 20
71.44161588627017
 30
0.0
 40
3.174999999999999
100
AcDbArc
 50
90.00000000000094
 51
270.0000000000009
  0
ARC
  5
D29A
330
1F
100
AcDbEntity
  8
Front Panel
100
AcDbCircle
 10
137.0336036502538
 20
71.44161588627017
 30
0.0
 40
3.174999999999999
100
AcDbArc
 50
270.0000000000009
 51
90.00000000000094
  0
LINE
  5
D29B
330
1F
100
AcDbEntity
  8
Front Panel
100
AcDbLine
 10
137.0336036502516
 20
68.26661588627434
 30
0.0
 11
133.9856036502515
 21
68.26661588627434
 31
0.0
  0
LINE
  5
D29C
330
1F
100
AcDbEntity
  8
Front Panel
100
AcDbLine
 10
137.0336036502538
 20
68.26661588627018
 30
0.0
 11
133.9856036502537
 21
68.26661588627018
 31
0.0
  0
LINE
  5
D29D
330
1F
100
AcDbEntity
  8
Front Panel
100
AcDbLine
 10
137.0336036502516
 20
74.61661588627433
 30
0.0
 11
133.9856036502515
 21
74.61661588627433
 31
0.0
  0
LINE
  5
D29E
330
1F
100
AcDbEntity
  8
Front Panel
100
AcDbLine
 10
137.0336036502538
 20
74.61661588627018
 30
0.0
 11
133.9856036502537
 21
74.61661588627018
 31
0.0
  0
ARC
  5
D29F
330
1F
100
AcDbEntity
  8
Front Panel
100
AcDbCircle
 10
137.0336036502511
 20
103.1916158862743
 30
0.0
 40
3.174999999999999
100
AcDbArc
 50
270.0000000000009
 51
90.00000000000094
  0
ARC
  5
D2A0
330
1F
100
AcDbEntity
  8
Front Panel
100
AcDbCircle
 10
133.985603650251
 20
103.1916158862743
 30
0.0
 40
3.174999999999999
100
AcDbArc
 50
90.00000000000094
 51
270.0000000000009
  0
ARC
  5
D2A1
330
1F
100
AcDbEntity
  8
Front Panel
100
AcDbCircle
 10
133.9856036502531
 20
103.1916158862701
 30
0.0
 40
3.174999999999999
100
AcDbArc
 50
90.00000000000094
 51
270.0000000000009
  0
ARC
  5
D2A2
330
1F
100
AcDbEntity
  8
Front Panel
100
AcDbCircle
 10
137.0336036502532
 20
103.1916158862701
 30
0.0
 40
3.174999999999999
100
AcDbArc
 50
270.0000000000009
 51
90.00000000000094
  0
LINE
  5
D2A3
330
1F
100
AcDbEntity
  8
Front Panel
100
AcDbLine
 10
137.0336036502511
 20
100.0166158862743
 30
0.0
 11
133.985603650251
 21
100.0166158862743
 31
0.0
  0
LINE
  5
D2A4
330
1F
100
AcDbEntity
  8
Front Panel
100
AcDbLine
 10
137.0336036502511
 20
106.3666158862743
 30
0.0
 11
133.985603650251
 21
106.3666158862743
 31
0.0
  0
LINE
  5
D2A5
330
1F
100
AcDbEntity
  8
Front Panel
100
AcDbLine
 10
137.0336036502532
 20
106.3666158862702
 30
0.0
 11
133.9856036502531
 21
106.3666158862702
 31
0.0
  0
LINE
  5
D2A6
330
1F
100
AcDbEntity
  8
Front Panel
100
AcDbLine
 10
137.0336036502532
 20
100.0166158862702
 30
0.0
 11
133.9856036502531
 21
100.0166158862702
 31
0.0
  0
LINE
  5
D2A7
330
1F
100
AcDbEntity
  8
Front Panel
100
AcDbLine
 10
126.619603650253
 20
109.1416158862743
 30
0.0
 11
126.6196036502564
 21
65.49161588627217
 31
0.0
  0
LINE
  5
D38A
330
1F
100
AcDbEntity
  8
Base
100
AcDbLine
 10
143.9196036502528
 20
431.8086218862722
 30
0.0
 11
143.9196036502528
 21
213.808615886275
 31
0.0
  0
LINE
  5
D38E
330
1F
100
AcDbEntity
  8
Front Panel
100
AcDbLine
 10
609.2196036502534
 20
213.8086158862749
 30
0.0
 11
126.6196036502528
 21
213.808615886275
 31
0.0
  0
LINE
  5
D390
330
1F
100
AcDbEntity
  8
Front Panel
100
AcDbLine
 10
609.2196036502534
 20
210.8086158862748
 30
0.0
 11
126.6196036502528
 21
210.808615886275
 31
0.0
  0
LINE
  5
D398
330
1F
100
AcDbEntity
  8
Base
100
AcDbLine
 10
591.9196036502527
 20
431.8086218862722
 30
0.0
 11
591.9196036502527
 21
213.808615886275
 31
0.0
  0
ARC
  5
D3A7
330
1F
100
AcDbEntity
  8
Base
100
AcDbCircle
 10
589.9196076502528
 20
431.8086218862722
 30
0.0
 40
0.999998
100
AcDbArc
 50
0.000000000000007
 51
65.70494098952194
  0
ARC
  5
D3A8
330
1F
100
AcDbEntity
  8
Base
100
AcDbCircle
 10
589.9196076502528
 20
431.8086218862722
 30
0.0
 40
1.999996
100
AcDbArc
 50
0.000000000000007
 51
75.52257657647041
  0
LINE
  5
D3D3
330
1F
100
AcDbEntity
  8
Rear Panel
100
AcDbLine
 10
145.4196036502597
 20
637.3915713404995
 30
0.0
 11
145.4196036502599
 21
596.7924252908631
 31
0.0
  0
LINE
  5
D3D4
330
1F
100
AcDbEntity
  8
Rear Panel
100
AcDbLine
 10
590.4196036502599
 20
637.3915713405
 30
0.0
 11
590.4196036502599
 21
596.792425290863
 31
0.0
  0
LINE
  5
D3D5
330
1F
100
AcDbEntity
  8
Rear Panel
100
AcDbLine
 10
145.4196036502599
 20
596.7924252908631
 30
0.0
 11
590.4196036502599
 21
596.792425290863
 31
0.0
  0
LINE
  5
D3D6
330
1F
100
AcDbEntity
  8
Rear Panel
100
AcDbLine
 10
145.4196036502597
 20
637.3915713404995
 30
0.0
 11
590.4196036502599
 21
637.3915713405
 31
0.0
  0
CIRCLE
  5
D3E4
330
1F
100
AcDbEntity
  8
Front Panel
100
AcDbCircle
 10
576.7084046502559
 20
101.2891558862731
 30
0.0
 40
4.2545
  0
CIRCLE
  5
D3E5
330
1F
100
AcDbEntity
  8
Front Panel
100
AcDbCircle
 10
576.7084046502559
 20
73.34407588627314
 30
0.0
 40
4.2545
  0
LINE
  5
D3F2
330
1F
100
AcDbEntity
  8
Base
100
AcDbLine
 10
590.3875991822604
 20
431.8086203542661
 30
0.0
 11
591.9196036502527
 21
431.8086218862722
 31
0.0
  0
ARC
  5
D3F3
330
1F
100
AcDbEntity
  8
Base
100
AcDbCircle
 10
145.9195996502527
 20
431.8086218862722
 30
0.0
 40
0.999998
100
AcDbArc
 50
114.2950590104774
 51
180.0
  0
ARC
  5
D3F4
330
1F
100
AcDbEntity
  8
Base
100
AcDbCircle
 10
145.9195996502527
 20
431.8086218862722
 30
0.0
 40
1.999996
100
AcDbArc
 50
104.4774234235327
 51
180.0
  0
LINE
  5
D3F5
330
1F
100
AcDbEntity
  8
Base
100
AcDbLine
 10
145.4516061182481
 20
431.8086203542681
 30
0.0
 11
143.9196036502528
 21
431.8086218862722
 31
0.0
  0
CIRCLE
  5
D3FC
330
1F
100
AcDbEntity
  8
Front Panel
100
AcDbCircle
 10
159.1308026502497
 20
101.2891558862731
 30
0.0
 40
4.2545
  0
CIRCLE
  5
D3FD
330
1F
100
AcDbEntity
  8
Front Panel
100
AcDbCircle
 10
159.1308026502497
 20
73.34407588627314
 30
0.0
 40
4.2545
  0
LWPOLYLINE
  5
E91B
330
1F
100
AcDbEntity
  8
MOTOR
100
AcDbPolyline
 90
        8
 70
     1
 43
0.0
 10
579.6903415014476
 20
600.2659429644938
 10
579.6903415014476
 20
633.918053666869
 42
0.4142135623730951
 10
576.5156590014476
 20
637.0927361668689
 10
542.8635482990727
 20
637.0927361668689
 42
0.414213562373096
 10
539.6888657990725
 20
633.918053666869
 10
539.6888657990728
 20
600.2659429644938
 42
0.4142135623730951
 10
542.8635482990727
 20
597.0912604644939
 10
576.5156590014476
 20
597.0912604644938
 42
0.4142135623730951
  0
CIRCLE
  5
E91C
330
1F
100
AcDbEntity
  8
MOTOR
100
AcDbCircle
 10
559.6896036502601
 20
617.0919983156814
 30
0.0
 40
19.47138599999999
  0
CIRCLE
  5
E91D
330
1F
100
AcDbEntity
  8
MOTOR
100
AcDbCircle
 10
559.6896036502601
 20
617.0919983156814
 30
0.0
 40
10.96546107948468
  0
LINE
  5
E91E
330
1F
100
AcDbEntity
  8
CENTER
100
AcDbLine
 10
562.33517240026
 20
617.0919983156814
 30
0.0
 11
557.56891574026
 21
617.0919983156814
 31
0.0
  0
LINE
  5
E91F
330
1F
100
AcDbEntity
  8
CENTER
100
AcDbLine
 10
559.6896036502601
 20
614.9713104056814
 30
0.0
 11
559.6896036502601
 21
619.7375670656814
 31
0.0
  0
LINE
  5
E921
330
1F
100
AcDbEntity
  8
MOTOR
100
AcDbLine
 10
561.9228986174468
 20
606.3563693040569
 30
0.0
 11
563.4838334214997
 21
597.9938650769579
 31
0.0
  0
LINE
  5
E936
330
1F
100
AcDbEntity
  8
MOTOR
100
AcDbLine
 10
570.1035785835253
 20
613.6582739855968
 30
0.0
 11
578.1261870854743
 21
610.8288310660082
 31
0.0
  0
LINE
  5
E937
330
1F
100
AcDbEntity
  8
MOTOR
100
AcDbLine
 10
567.8702836163387
 20
624.3939029972214
 30
0.0
 11
574.3319573142348
 21
629.9269643047319
 31
0.0
  0
LINE
  5
E938
330
1F
100
AcDbEntity
  8
MOTOR
100
AcDbLine
 10
557.4563086830733
 20
627.8276273273057
 30
0.0
 11
555.8953738790205
 21
636.1901315544047
 31
0.0
  0
LINE
  5
E939
330
1F
100
AcDbEntity
  8
MOTOR
100
AcDbLine
 10
549.2756287169946
 20
620.5257226457657
 30
0.0
 11
541.2530202150458
 21
623.3551655653541
 31
0.0
  0
LINE
  5
E93A
330
1F
100
AcDbEntity
  8
MOTOR
100
AcDbLine
 10
551.5089236841815
 20
609.7900936341414
 30
0.0
 11
545.0472499862854
 21
604.2570323266309
 31
0.0
  0
INSERT
  5
E961
330
1F
100
AcDbEntity
  8
FASTENER
100
AcDbBlockReference
  2
m2.5flatt
 10
584.4196036502601
 20
604.5919983156808
 30
0.0
 41
0.999998
 42
0.999998
 43
0.999998
 50
180.0
  0
INSERT
  5
E962
330
1F
100
AcDbEntity
  8
FASTENER
100
AcDbBlockReference
  2
m2.5flatt
 10
584.4196036502601
 20
629.5919983156823
 30
0.0
 41
-0.999998
 42
0.999998
 43
0.999998
  0
INSERT
  5
E963
330
1F
100
AcDbEntity
  8
FASTENER
100
AcDbBlockReference
  2
m2.5flatt
 10
151.4196036502597
 20
604.591998315681
 30
0.0
 41
-0.999998
 42
0.999998
 43
0.999998
 50
180.0
  0
INSERT
  5
E964
330
1F
100
AcDbEntity
  8
FASTENER
100
AcDbBlockReference
  2
m2.5flatt
 10
151.4196036502597
 20
629.5919983156825
 30
0.0
 41
0.999998
 42
0.999998
 43
0.999998
  0
LINE
  5
EA32
330
1F
100
AcDbEntity
  8
Rear Panel
100
AcDbLine
 10
590.4196036502528
 20
434.8086158862733
 30
0.0
 11
590.4196036502528
 21
432.8086198862711
 31
0.0
  0
LINE
  5
EA33
330
1F
100
AcDbEntity
  8
Rear Panel
100
AcDbLine
 10
145.4196036502524
 20
434.8086158862733
 30
0.0
 11
590.4196036502529
 21
434.8086158862733
 31
0.0
  0
LINE
  5
EA35
330
1F
100
AcDbEntity
  8
Rear Panel
100
AcDbLine
 10
145.4196036502524
 20
434.8086158862733
 30
0.0
 11
145.4196036502529
 21
432.8086198862711
 31
0.0
  0
LINE
  5
EA36
330
1F
100
AcDbEntity
  8
Rear Panel
100
AcDbLine
 10
145.4196036502529
 20
432.8086198862711
 30
0.0
 11
145.9356046502519
 21
432.292618886272
 31
0.0
  0
LINE
  5
EA37
330
1F
100
AcDbEntity
  8
Rear Panel
100
AcDbLine
 10
590.4196036502526
 20
432.808619886271
 30
0.0
 11
589.903601650254
 21
432.2926178862724
 31
0.0
  0
LINE
  5
EA42
330
1F
100
AcDbEntity
  8
CONNECTOR
100
AcDbLine
 10
420.4976036502538
 20
200.7276336662742
 30
0.0
 11
427.6096036502537
 21
200.7276336662743
 31
0.0
  0
LINE
  5
EA43
330
1F
100
AcDbEntity
  8
CONNECTOR
100
AcDbLine
 10
419.8372036502538
 20
205.5536336662741
 30
0.0
 11
420.4976036502538
 21
205.5536336662742
 31
0.0
  0
LINE
  5
EA44
330
1F
100
AcDbEntity
  8
CONNECTOR
100
AcDbLine
 10
427.6096036502537
 20
205.5536336662743
 30
0.0
 11
428.2700036502538
 21
205.5536336662743
 31
0.0
  0
LINE
  5
EA45
330
1F
100
AcDbEntity
  8
CONNECTOR
100
AcDbLine
 10
419.8372036502538
 20
204.0296336662742
 30
0.0
 11
420.4976036502538
 21
204.0296336662742
 31
0.0
  0
LINE
  5
EA46
330
1F
100
AcDbEntity
  8
CONNECTOR
100
AcDbLine
 10
427.6096036502537
 20
204.0296336662742
 30
0.0
 11
428.2700036502538
 21
204.0296336662742
 31
0.0
  0
LINE
  5
EA55
330
1F
100
AcDbEntity
  8
CONNECTOR
100
AcDbLine
 10
424.8156036502538
 20
207.3316336662741
 30
0.0
 11
424.8156036502538
 21
200.7276336662743
 31
0.0
  0
LINE
  5
EA56
330
1F
100
AcDbEntity
  8
CONNECTOR
100
AcDbLine
 10
423.2916036502538
 20
207.3316336662741
 30
0.0
 11
423.2916036502538
 21
200.7276336662742
 31
0.0
  0
ARC
  5
EA57
330
1F
100
AcDbEntity
  8
CONNECTOR
100
AcDbCircle
 10
424.0536036502538
 20
207.3316336662741
 30
0.0
 40
0.7620000000000007
100
AcDbArc
 50
0.0
 51
180.0
  0
LINE
  5
EA58
330
1F
100
AcDbEntity
  8
CONNECTOR
  6
Continuous
100
AcDbLine
 10
427.6096036502539
 20
210.8086158862749
 30
0.0
 11
427.6096036502537
 21
200.7276336662743
 31
0.0
  0
LINE
  5
EA59
330
1F
100
AcDbEntity
  8
CONNECTOR
  6
Continuous
100
AcDbLine
 10
428.2700036502538
 20
205.5536336662743
 30
0.0
 11
428.2700036502538
 21
204.0296336662742
 31
0.0
  0
LINE
  5
EA5A
330
1F
100
AcDbEntity
  8
CONNECTOR
  6
Continuous
100
AcDbLine
 10
420.4976036502539
 20
210.8086158862749
 30
0.0
 11
420.4976036502538
 21
200.7276336662742
 31
0.0
  0
LINE
  5
EA5B
330
1F
100
AcDbEntity
  8
CONNECTOR
  6
Continuous
100
AcDbLine
 10
419.8372036502538
 20
205.5536336662741
 30
0.0
 11
419.8372036502538
 21
204.0296336662742
 31
0.0
  0
LINE
  5
ED03
330
1F
100
AcDbEntity
  8
Top Panel
100
AcDbLine
 10
145.4196036502529
 20
431.7766178862729
 30
0.0
 11
145.4196036502529
 21
212.8086178862749
 31
0.0
  0
LINE
  5
ED04
330
1F
100
AcDbEntity
  8
Top Panel
100
AcDbLine
 10
147.4516036502528
 20
433.8086178862729
 30
0.0
 11
145.4196036502529
 21
431.7766178862729
 31
0.0
  0
LINE
  5
ED05
330
1F
100
AcDbEntity
  8
Top Panel
100
AcDbLine
 10
590.4196016502534
 20
431.7766178862732
 30
0.0
 11
590.4196016502534
 21
213.8086158862749
 31
0.0
  0
LINE
  5
ED07
330
1F
100
AcDbEntity
  8
Top Panel
100
AcDbLine
 10
587.7409936502529
 20
263.6086178862748
 30
0.0
 11
581.4925936502528
 21
263.6086178862749
 31
0.0
  0
LINE
  5
ED08
330
1F
100
AcDbEntity
  8
Top Panel
100
AcDbLine
 10
588.4267936502527
 20
272.7526178862748
 30
0.0
 11
580.806793650253
 21
272.7526178862749
 31
0.0
  0
LINE
  5
ED09
330
1F
100
AcDbEntity
  8
Top Panel
100
AcDbLine
 10
588.3876016502533
 20
433.8086178862731
 30
0.0
 11
147.4516036502528
 21
433.8086178862729
 31
0.0
  0
LINE
  5
ED0A
330
1F
100
AcDbEntity
  8
Top Panel
100
AcDbLine
 10
590.4196016502534
 20
431.7766178862732
 30
0.0
 11
588.3876016502533
 21
433.8086178862731
 31
0.0
  0
LINE
  5
ED1D
330
1F
100
AcDbEntity
  8
Top Panel
100
AcDbLine
 10
587.7409936502529
 20
263.6086178862748
 30
0.0
 11
588.4267936502527
 21
272.7526178862748
 31
0.0
  0
LINE
  5
ED1E
330
1F
100
AcDbEntity
  8
Top Panel
100
AcDbLine
 10
581.4925936502528
 20
263.6086178862749
 30
0.0
 11
580.806793650253
 21
272.7526178862749
 31
0.0
  0
LINE
  5
ED1F
330
1F
100
AcDbEntity
  8
Top Panel
100
AcDbLine
 10
587.7409936502529
 20
383.6086178862748
 30
0.0
 11
581.4925936502528
 21
383.6086178862749
 31
0.0
  0
LINE
  5
ED20
330
1F
100
AcDbEntity
  8
Top Panel
100
AcDbLine
 10
588.4267936502527
 20
392.7526178862748
 30
0.0
 11
580.806793650253
 21
392.7526178862749
 31
0.0
  0
LINE
  5
ED21
330
1F
100
AcDbEntity
  8
Top Panel
100
AcDbLine
 10
587.7409936502529
 20
383.6086178862748
 30
0.0
 11
588.4267936502527
 21
392.7526178862748
 31
0.0
  0
LINE
  5
ED22
330
1F
100
AcDbEntity
  8
Top Panel
100
AcDbLine
 10
581.4925936502528
 20
383.6086178862749
 30
0.0
 11
580.806793650253
 21
392.7526178862749
 31
0.0
  0
LINE
  5
ED23
330
1F
100
AcDbEntity
  8
Top Panel
100
AcDbLine
 10
148.0982116502533
 20
263.6086178862748
 30
0.0
 11
154.3466116502535
 21
263.6086178862749
 31
0.0
  0
LINE
  5
ED24
330
1F
100
AcDbEntity
  8
Top Panel
100
AcDbLine
 10
147.4124116502535
 20
272.7526178862748
 30
0.0
 11
155.0324116502534
 21
272.7526178862749
 31
0.0
  0
LINE
  5
ED25
330
1F
100
AcDbEntity
  8
Top Panel
100
AcDbLine
 10
148.0982116502533
 20
263.6086178862748
 30
0.0
 11
147.4124116502535
 21
272.7526178862748
 31
0.0
  0
LINE
  5
ED26
330
1F
100
AcDbEntity
  8
Top Panel
100
AcDbLine
 10
154.3466116502535
 20
263.6086178862749
 30
0.0
 11
155.0324116502534
 21
272.7526178862749
 31
0.0
  0
LINE
  5
ED27
330
1F
100
AcDbEntity
  8
Top Panel
100
AcDbLine
 10
148.0982116502533
 20
383.6086178862748
 30
0.0
 11
154.3466116502535
 21
383.6086178862749
 31
0.0
  0
LINE
  5
ED28
330
1F
100
AcDbEntity
  8
Top Panel
100
AcDbLine
 10
147.4124116502535
 20
392.7526178862748
 30
0.0
 11
155.0324116502534
 21
392.7526178862749
 31
0.0
  0
LINE
  5
ED29
330
1F
100
AcDbEntity
  8
Top Panel
100
AcDbLine
 10
148.0982116502533
 20
383.6086178862748
 30
0.0
 11
147.4124116502535
 21
392.7526178862748
 31
0.0
  0
LINE
  5
ED2A
330
1F
100
AcDbEntity
  8
Top Panel
100
AcDbLine
 10
154.3466116502535
 20
383.6086178862749
 30
0.0
 11
155.0324116502534
 21
392.7526178862749
 31
0.0
  0
INSERT
  5
ED41
330
1F
100
AcDbEntity
  8
FASTENER
100
AcDbBlockReference
  2
m2.5flatt
 10
187.9196036502527
 20
429.108615886273
 30
0.0
 41
0.999998
 42
0.999998
 43
0.999998
  0
INSERT
  5
ED42
330
1F
100
AcDbEntity
  8
FASTENER
100
AcDbBlockReference
  2
m2.5flatt
 10
307.9196036502527
 20
429.108615886273
 30
0.0
 41
0.999998
 42
0.999998
 43
0.999998
  0
INSERT
  5
ED43
330
1F
100
AcDbEntity
  8
FASTENER
100
AcDbBlockReference
  2
m2.5flatt
 10
427.9196036502527
 20
429.108615886273
 30
0.0
 41
0.999998
 42
0.999998
 43
0.999998
  0
INSERT
  5
F271
330
1F
100
AcDbEntity
  8
FASTENER
100
AcDbBlockReference
  2
m4pant
 10
159.1308026502497
 20
101.2891558862731
 30
0.0
 41
0.999998
 42
0.999998
 43
0.999998
  0
INSERT
  5
F272
330
1F
100
AcDbEntity
  8
FASTENER
100
AcDbBlockReference
  2
m4pant
 10
159.1308026502497
 20
73.34407588627314
 30
0.0
 41
0.999998
 42
0.999998
 43
0.999998
  0
INSERT
  5
F273
330
1F
100
AcDbEntity
  8
FASTENER
100
AcDbBlockReference
  2
m4pant
 10
576.7084046502559
 20
73.34407588627314
 30
0.0
 41
0.999998
 42
0.999998
 43
0.999998
  0
INSERT
  5
F274
330
1F
100
AcDbEntity
  8
FASTENER
100
AcDbBlockReference
  2
m4pant
 10
576.7084046502559
 20
101.2891558862731
 30
0.0
 41
0.999998
 42
0.999998
 43
0.999998
  0
LINE
  5
F276
330
1F
100
AcDbEntity
  8
Base
100
AcDbLine
 10
145.4196036502599
 20
595.7924272908633
 30
0.0
 11
590.4196036502599
 21
595.7924272908628
 31
0.0
  0
LINE
  5
F277
330
1F
100
AcDbEntity
  8
Top Panel
100
AcDbLine
 10
145.4196036502597
 20
638.3915693404997
 30
0.0
 11
590.4196036502599
 21
638.3915693405002
 31
0.0
  0
LINE
  5
F279
330
1F
100
AcDbEntity
  8
Base
100
AcDbLine
 10
143.91960365026
 20
637.3915713404995
 30
0.0
 11
143.91960365026
 21
597.7289158655779
 31
0.0
  0
ARC
  5
F27A
330
1F
100
AcDbEntity
  8
Base
100
AcDbCircle
 10
145.9195996502598
 20
597.7289158655779
 30
0.0
 40
0.999998
100
AcDbArc
 50
180.0
 51
245.7049409895219
  0
ARC
  5
F27B
330
1F
100
AcDbEntity
  8
Base
100
AcDbCircle
 10
145.9195996502598
 20
597.7289158655779
 30
0.0
 40
1.999996
100
AcDbArc
 50
180.0
 51
255.5225765764704
  0
LINE
  5
F27C
330
1F
100
AcDbEntity
  8
Base
100
AcDbLine
 10
145.4516081182523
 20
597.7289173975839
 30
0.0
 11
143.91960365026
 21
597.7289158655779
 31
0.0
  0
LINE
  5
F27D
330
1F
100
AcDbEntity
  8
Rear Panel
100
AcDbLine
 10
145.41960365026
 20
596.7924252908637
 30
0.0
 11
145.4196036502599
 21
597.7924232908655
 31
0.0
  0
LINE
  5
F27F
330
1F
100
AcDbEntity
  8
Base
100
AcDbLine
 10
145.4196036502597
 20
637.3915713404995
 30
0.0
 11
143.91960365026
 21
637.3915713404995
 31
0.0
  0
LINE
  5
F280
330
1F
100
AcDbEntity
  8
Top Panel
100
AcDbLine
 10
145.4196036502597
 20
637.3915713404995
 30
0.0
 11
145.4196036502597
 21
638.3915693404997
 31
0.0
  0
LINE
  5
F281
330
1F
100
AcDbEntity
  8
Base
100
AcDbLine
 10
591.9196036502598
 20
637.3915713404993
 30
0.0
 11
591.9196036502598
 21
597.7289158655776
 31
0.0
  0
ARC
  5
F282
330
1F
100
AcDbEntity
  8
Base
100
AcDbCircle
 10
589.9196076502599
 20
597.7289158655776
 30
0.0
 40
0.999998
100
AcDbArc
 50
294.295059010478
 51
0.0
  0
ARC
  5
F283
330
1F
100
AcDbEntity
  8
Base
100
AcDbCircle
 10
589.9196076502599
 20
597.7289158655776
 30
0.0
 40
1.999996
100
AcDbArc
 50
284.4774234235296
 51
0.0
  0
LINE
  5
F284
330
1F
100
AcDbEntity
  8
Base
100
AcDbLine
 10
590.3875991822675
 20
597.7289173975837
 30
0.0
 11
591.9196036502598
 21
597.7289158655776
 31
0.0
  0
LINE
  5
F285
330
1F
100
AcDbEntity
  8
Rear Panel
100
AcDbLine
 10
590.4196036502598
 20
596.7924252908634
 30
0.0
 11
590.4196036502599
 21
597.7924232908653
 31
0.0
  0
LINE
  5
F286
330
1F
100
AcDbEntity
  8
Base
100
AcDbLine
 10
590.4196036502601
 20
637.3915713404993
 30
0.0
 11
591.9196036502598
 21
637.3915713404993
 31
0.0
  0
LINE
  5
F287
330
1F
100
AcDbEntity
  8
Top Panel
100
AcDbLine
 10
590.4196036502601
 20
637.3915713404993
 30
0.0
 11
590.4196036502601
 21
638.3915693404994
 31
0.0
  0
ARC
  5
F30F
330
1F
100
AcDbEntity
  8
Front Panel
100
AcDbCircle
 10
137.0336036502549
 20
601.2174272908637
 30
0.0
 40
3.174999999999999
100
AcDbArc
 50
270.0
 51
90.0
  0
ARC
  5
F310
330
1F
100
AcDbEntity
  8
Front Panel
100
AcDbCircle
 10
133.9856036502548
 20
601.2174272908637
 30
0.0
 40
3.174999999999999
100
AcDbArc
 50
90.0
 51
270.0
  0
ARC
  5
F311
330
1F
100
AcDbEntity
  8
Front Panel
100
AcDbCircle
 10
133.9856036502569
 20
601.2174272908594
 30
0.0
 40
3.174999999999999
100
AcDbArc
 50
90.0
 51
270.0
  0
ARC
  5
F312
330
1F
100
AcDbEntity
  8
Front Panel
100
AcDbCircle
 10
137.033603650257
 20
601.2174272908594
 30
0.0
 40
3.174999999999999
100
AcDbArc
 50
270.0
 51
90.0
  0
LINE
  5
F313
330
1F
100
AcDbEntity
  8
Front Panel
100
AcDbLine
 10
126.6196036502572
 20
638.9174272908634
 30
0.0
 11
126.6196036502598
 21
595.2674272908636
 31
0.0
  0
LINE
  5
F314
330
1F
100
AcDbEntity
  8
Front Panel
100
AcDbLine
 10
137.0336036502549
 20
598.0424272908636
 30
0.0
 11
133.9856036502548
 21
598.0424272908636
 31
0.0
  0
LINE
  5
F315
330
1F
100
AcDbEntity
  8
Front Panel
100
AcDbLine
 10
137.033603650257
 20
598.0424272908593
 30
0.0
 11
133.9856036502569
 21
598.0424272908593
 31
0.0
  0
ARC
  5
F316
330
1F
100
AcDbEntity
  8
Front Panel
100
AcDbCircle
 10
137.0336036502549
 20
632.9674272908637
 30
0.0
 40
3.174999999999999
100
AcDbArc
 50
270.0
 51
90.0
  0
ARC
  5
F317
330
1F
100
AcDbEntity
  8
Front Panel
100
AcDbCircle
 10
133.9856036502548
 20
632.9674272908637
 30
0.0
 40
3.174999999999999
100
AcDbArc
 50
90.0
 51
270.0
  0
ARC
  5
F318
330
1F
100
AcDbEntity
  8
Front Panel
100
AcDbCircle
 10
133.9856036502569
 20
632.9674272908594
 30
0.0
 40
3.174999999999999
100
AcDbArc
 50
90.0
 51
270.0
  0
ARC
  5
F319
330
1F
100
AcDbEntity
  8
Front Panel
100
AcDbCircle
 10
137.033603650257
 20
632.9674272908594
 30
0.0
 40
3.174999999999999
100
AcDbArc
 50
270.0
 51
90.0
  0
LINE
  5
F31A
330
1F
100
AcDbEntity
  8
Front Panel
100
AcDbLine
 10
137.0336036502549
 20
604.3924272908636
 30
0.0
 11
133.9856036502548
 21
604.3924272908636
 31
0.0
  0
LINE
  5
F31B
330
1F
100
AcDbEntity
  8
Front Panel
100
AcDbLine
 10
137.033603650257
 20
604.3924272908594
 30
0.0
 11
133.9856036502569
 21
604.3924272908594
 31
0.0
  0
LINE
  5
F31C
330
1F
100
AcDbEntity
  8
Front Panel
100
AcDbLine
 10
137.0336036502549
 20
629.7924272908637
 30
0.0
 11
133.9856036502548
 21
629.7924272908637
 31
0.0
  0
LINE
  5
F31D
330
1F
100
AcDbEntity
  8
Front Panel
100
AcDbLine
 10
137.033603650257
 20
629.7924272908593
 30
0.0
 11
133.9856036502569
 21
629.7924272908593
 31
0.0
  0
LINE
  5
F31E
330
1F
100
AcDbEntity
  8
Front Panel
100
AcDbLine
 10
137.0336036502549
 20
636.1424272908636
 30
0.0
 11
133.9856036502548
 21
636.1424272908636
 31
0.0
  0
LINE
  5
F31F
330
1F
100
AcDbEntity
  8
Front Panel
100
AcDbLine
 10
137.033603650257
 20
636.1424272908593
 30
0.0
 11
133.9856036502569
 21
636.1424272908593
 31
0.0
  0
LINE
  5
F320
330
1F
100
AcDbEntity
  8
Front Panel
100
AcDbLine
 10
609.2196036502598
 20
638.9174272908632
 30
0.0
 11
126.6196036502572
 21
638.9174272908634
 31
0.0
  0
LINE
  5
F321
330
1F
100
AcDbEntity
  8
Front Panel
100
AcDbLine
 10
609.2196036502564
 20
595.2674272908612
 30
0.0
 11
126.6196036502598
 21
595.2674272908636
 31
0.0
  0
ARC
  5
F322
330
1F
100
AcDbEntity
  8
Front Panel
100
AcDbCircle
 10
598.8056036502612
 20
601.217427290863
 30
0.0
 40
3.174999999999999
100
AcDbArc
 50
89.99999999999912
 51
269.9999999999992
  0
ARC
  5
F323
330
1F
100
AcDbEntity
  8
Front Panel
100
AcDbCircle
 10
601.8536036502613
 20
601.217427290863
 30
0.0
 40
3.174999999999999
100
AcDbArc
 50
269.9999999999992
 51
89.99999999999912
  0
ARC
  5
F324
330
1F
100
AcDbEntity
  8
Front Panel
100
AcDbCircle
 10
601.8536036502592
 20
601.2174272908589
 30
0.0
 40
3.174999999999999
100
AcDbArc
 50
269.9999999999992
 51
89.99999999999912
  0
ARC
  5
F325
330
1F
100
AcDbEntity
  8
Front Panel
100
AcDbCircle
 10
598.805603650259
 20
601.2174272908589
 30
0.0
 40
3.174999999999999
100
AcDbArc
 50
89.99999999999912
 51
269.9999999999992
  0
LINE
  5
F326
330
1F
100
AcDbEntity
  8
Front Panel
100
AcDbLine
 10
598.8056036502612
 20
598.042427290863
 30
0.0
 11
601.8536036502613
 21
598.042427290863
 31
0.0
  0
LINE
  5
F327
330
1F
100
AcDbEntity
  8
Front Panel
100
AcDbLine
 10
598.805603650259
 20
598.042427290859
 30
0.0
 11
601.8536036502592
 21
598.042427290859
 31
0.0
  0
LINE
  5
F328
330
1F
100
AcDbEntity
  8
Front Panel
100
AcDbLine
 10
598.8056036502612
 20
604.3924272908631
 30
0.0
 11
601.8536036502613
 21
604.3924272908631
 31
0.0
  0
LINE
  5
F329
330
1F
100
AcDbEntity
  8
Front Panel
100
AcDbLine
 10
598.805603650259
 20
604.3924272908589
 30
0.0
 11
601.8536036502592
 21
604.3924272908589
 31
0.0
  0
ARC
  5
F32A
330
1F
100
AcDbEntity
  8
Front Panel
100
AcDbCircle
 10
598.8056036502617
 20
632.967427290863
 30
0.0
 40
3.174999999999999
100
AcDbArc
 50
89.99999999999912
 51
269.9999999999992
  0
ARC
  5
F32B
330
1F
100
AcDbEntity
  8
Front Panel
100
AcDbCircle
 10
601.8536036502618
 20
632.967427290863
 30
0.0
 40
3.174999999999999
100
AcDbArc
 50
269.9999999999992
 51
89.99999999999912
  0
ARC
  5
F32C
330
1F
100
AcDbEntity
  8
Front Panel
100
AcDbCircle
 10
601.8536036502596
 20
632.9674272908589
 30
0.0
 40
3.174999999999999
100
AcDbArc
 50
269.9999999999992
 51
89.99999999999912
  0
ARC
  5
F32D
330
1F
100
AcDbEntity
  8
Front Panel
100
AcDbCircle
 10
598.8056036502596
 20
632.9674272908589
 30
0.0
 40
3.174999999999999
100
AcDbArc
 50
89.99999999999912
 51
269.9999999999992
  0
LINE
  5
F32E
330
1F
100
AcDbEntity
  8
Front Panel
100
AcDbLine
 10
598.8056036502617
 20
629.792427290863
 30
0.0
 11
601.8536036502618
 21
629.792427290863
 31
0.0
  0
LINE
  5
F32F
330
1F
100
AcDbEntity
  8
Front Panel
100
AcDbLine
 10
598.8056036502617
 20
636.1424272908631
 30
0.0
 11
601.8536036502618
 21
636.1424272908631
 31
0.0
  0
LINE
  5
F330
330
1F
100
AcDbEntity
  8
Front Panel
100
AcDbLine
 10
598.8056036502596
 20
636.1424272908589
 30
0.0
 11
601.8536036502596
 21
636.1424272908589
 31
0.0
  0
LINE
  5
F331
330
1F
100
AcDbEntity
  8
Front Panel
100
AcDbLine
 10
598.8056036502596
 20
629.792427290859
 30
0.0
 11
601.8536036502596
 21
629.792427290859
 31
0.0
  0
LINE
  5
F332
330
1F
100
AcDbEntity
  8
Front Panel
100
AcDbLine
 10
609.2196036502598
 20
638.9174272908632
 30
0.0
 11
609.2196036502564
 21
595.2674272908608
 31
0.0
  0
LINE
  5
F4F1
330
1F
100
AcDbEntity
  8
MOTOR
100
AcDbLine
 10
156.1488657990673
 20
434.8086158862732
 30
0.0
 11
196.1503415014422
 21
434.8086158862734
 31
0.0
  0
LINE
  5
F4F2
330
1F
100
AcDbEntity
  8
MOTOR
100
AcDbLine
 10
156.1488657990672
 20
449.7946158862733
 30
0.0
 11
196.1503415014422
 21
449.7946158862733
 31
0.0
  0
LINE
  5
F4F4
330
1F
100
AcDbEntity
  8
MOTOR
100
AcDbLine
 10
156.1488657990672
 20
449.7946158862733
 30
0.0
 11
156.1488657990673
 21
434.8086158862732
 31
0.0
  0
LINE
  5
F4F5
330
1F
100
AcDbEntity
  8
MOTOR
100
AcDbLine
 10
196.1503415014422
 20
434.8086158862734
 30
0.0
 11
196.1503415014422
 21
449.7946158862733
 31
0.0
  0
DIMENSION
  5
F98E
330
1F
100
AcDbEntity
  8
DIM
100
AcDbDimension
  2
*D5
 10
126.6196036502528
 20
175.9242760908801
 30
0.0
 11
367.9196036502532
 21
175.9242760908801
 31
0.0
 70
    32
  1
<>\P(19")
 71
     5
 42
482.6000000000006
  3
METRIC
100
AcDbAlignedDimension
 13
609.2196036502534
 23
210.8086158862748
 33
0.0
 14
126.6196036502528
 24
210.808615886275
 34
0.0
100
AcDbRotatedDimension
1001
ACAD
1000
DSTYLE
1002
{
1070
   141
1040
0.0
1002
}
  0
DIMENSION
  5
F99C
330
1F
100
AcDbEntity
  8
DIM
100
AcDbDimension
  2
*D6
 10
591.9196036502528
 20
472.0196685369294
 30
0.0
 11
367.9196036502528
 21
472.0196685369294
 31
0.0
 70
   160
 71
     5
 42
448.0
  3
METRIC
100
AcDbAlignedDimension
 13
143.9196036502528
 23
431.8086218862722
 33
0.0
 14
591.9196036502528
 24
431.8086218862722
 34
0.0
100
AcDbRotatedDimension
1001
ACAD
1000
DSTYLE
1002
{
1070
   141
1040
0.0
1002
}
  0
DIMENSION
  5
FA26
330
1F
100
AcDbEntity
  8
DIM
100
AcDbDimension
  2
*D7
 10
101.8500025708559
 20
452.5946158862733
 30
0.0
 11
101.8500025708558
 21
334.408616886274
 31
0.0
 70
   160
 71
     5
 42
241.7859999999983
  3
METRIC
100
AcDbAlignedDimension
 13
126.6196036502528
 23
210.808615886275
 33
0.0
 14
158.494586393134
 24
452.5946158862732
 34
0.0
 50
90.0
100
AcDbRotatedDimension
1001
ACAD
1000
DSTYLE
1002
{
1070
   141
1040
0.0
1070
   179
1070
     1
1002
}
  0
DIMENSION
  5
FAA4
330
1F
100
AcDbEntity
  8
DIM
100
AcDbDimension
  2
*D8
 10
120.0577495198307
 20
213.808615886275
 30
0.0
 11
108.0164807613041
 21
200.808615886275
 31
0.0
 70
   160
 71
     5
 42
3.0
  3
METRIC
100
AcDbAlignedDimension
 13
126.6196036502528
 23
210.808615886275
 33
0.0
 14
126.6196036502528
 24
213.808615886275
 34
0.0
 50
90.0
100
AcDbRotatedDimension
1001
ACAD
1000
DSTYLE
1002
{
1070
   141
1040
0.0
1070
   179
1070
     1
1002
}
  0
DIMENSION
  5
FAB3
330
1F
100
AcDbEntity
  8
DIM
100
AcDbDimension
  2
*D9
 10
115.1137507741728
 20
434.8086158862733
 30
0.0
 11
115.1137507741728
 21
323.2118426205811
 31
0.0
 70
   160
 71
     5
 42
220.9999999999984
  3
METRIC
100
AcDbAlignedDimension
 13
126.6196036502528
 23
213.808615886275
 33
0.0
 14
145.4196036502524
 24
434.8086158862733
 34
0.0
 50
90.0
100
AcDbRotatedDimension
1001
ACAD
1000
DSTYLE
1002
{
1070
   141
1040
0.0
1070
   179
1070
     1
1002
}
  0
DIMENSION
  5
FB14
330
1F
100
AcDbEntity
  8
DIM
100
AcDbDimension
  2
*D10
 10
110.7961238344628
 20
65.49161588627217
 30
0.0
 11
110.7961238344628
 21
87.31661588627328
 31
0.0
 70
    32
  1
<>\P(1U)
 71
     5
 42
43.65000000000216
  3
METRIC
100
AcDbAlignedDimension
 13
126.619603650253
 23
109.1416158862743
 33
0.0
 14
126.6196036502564
 24
65.49161588627217
 34
0.0
 50
90.0
100
AcDbRotatedDimension
1001
ACAD
1000
DSTYLE
1002
{
1070
   141
1040
0.0
1070
   179
1070
     1
1002
}
  0
DIMENSION
  5
FFE5
330
1F
100
AcDbEntity
  8
CONNECT
100
AcDbDimension
  2
*D11
 10
609.219603650253
 20
41.59898764800232
 30
0.0
 11
367.9196036502547
 21
41.59898764800232
 31
0.0
 70
    32
  1
<>\P(19")
 71
     5
 42
482.5999999999965
  3
METRIC
100
AcDbAlignedDimension
 13
126.6196036502564
 23
65.49161588627253
 33
0.0
 14
609.219603650253
 24
65.49161588627452
 34
0.0
100
AcDbRotatedDimension
1001
ACAD
1000
DSTYLE
1002
{
1070
   141
1040
0.0
1070
   179
1070
     1
1002
}
  0
MTEXT
  5
10074
330
1F
100
AcDbEntity
  8
CONNECT
100
AcDbMText
 10
355.3110760560626
 20
332.2831113370642
 30
0.0
 40
8.0
 41
99.8044490030054
 71
     1
 72
     5
  1
{\fArial|b0|i0|c0|p34;TOP}
 73
     1
 44
1.0
1001
ACAD
1000
MTEXTBEGIN
1070
    73
1070
     1
1070
    44
1040
1.0
1070
    74
1070
     0
1000
MTEXTEND
  0
LINE
  5
10430
330
1F
100
AcDbEntity
  8
DIM
100
AcDbLine
 10
180.9803784303752
 20
608.3848650817245
 30
0.0
 11
179.4803814303751
 21
608.3848650817245
 31
0.0
1001
PHOENIX7010
1002
{
1070
    62
1070
     1
1070
    41
1040
1.0
1002
}
  0
LINE
  5
10431
330
1F
100
AcDbEntity
  8
DIM
100
AcDbLine
 10
178.7303829303751
 20
609.5098628317247
 30
0.0
 11
181.7303769303751
 21
609.5098628317243
 31
0.0
1001
PHOENIX7010
1002
{
1070
    62
1070
     1
1070
    41
1040
1.0
1002
}
  0
LINE
  5
10432
330
1F
100
AcDbEntity
  8
DIM
100
AcDbLine
 10
182.4803754303751
 20
610.6348605817246
 30
0.0
 11
177.9803844303751
 21
610.6348605817246
 31
0.0
1001
PHOENIX7010
1002
{
1070
    62
1070
     1
1070
    41
1040
1.0
1002
}
  0
LINE
  5
10433
330
1F
100
AcDbEntity
  8
DIM
100
AcDbLine
 10
180.2303799303752
 20
610.6348605817246
 30
0.0
 11
180.2303799303752
 21
613.6348545817246
 31
0.0
1001
PHOENIX7010
1002
{
1070
    62
1070
     1
1070
    41
1040
1.0
1002
}
  0
CIRCLE
  5
106A8
330
1F
100
AcDbEntity
  8
PANEL
100
AcDbCircle
 10
424.0536087302548
 20
74.94861386227694
 30
0.0
 40
4.673600000000006
  0
LINE
  5
106A9
330
1F
100
AcDbEntity
  8
CENTER
100
AcDbLine
 10
421.7676087302548
 20
74.94861386227694
 30
0.0
 11
426.3396087302549
 21
74.94861386227694
 31
0.0
  0
LINE
  5
106AA
330
1F
100
AcDbEntity
  8
CENTER
100
AcDbLine
 10
424.0536087302548
 20
72.662613862277
 30
0.0
 11
424.0536087302548
 21
77.23461386227689
 31
0.0
  0
CIRCLE
  5
106AB
330
1F
100
AcDbEntity
  8
PANEL
100
AcDbCircle
 10
436.7536087302548
 20
74.94861386227694
 30
0.0
 40
4.673600000000006
  0
LINE
  5
106AC
330
1F
100
AcDbEntity
  8
CENTER
100
AcDbLine
 10
434.4676087302548
 20
74.94861386227694
 30
0.0
 11
439.0396087302549
 21
74.94861386227694
 31
0.0
  0
LINE
  5
106AD
330
1F
100
AcDbEntity
  8
CENTER
100
AcDbLine
 10
436.7536087302548
 20
72.662613862277
 30
0.0
 11
436.7536087302548
 21
77.23461386227689
 31
0.0
  0
CIRCLE
  5
106AE
330
1F
100
AcDbEntity
  8
PANEL
100
AcDbCircle
 10
449.4536087302549
 20
74.94861386227694
 30
0.0
 40
4.673600000000006
  0
LINE
  5
106AF
330
1F
100
AcDbEntity
  8
CENTER
100
AcDbLine
 10
447.1676087302548
 20
74.94861386227694
 30
0.0
 11
451.7396087302548
 21
74.94861386227694
 31
0.0
  0
LINE
  5
106B0
330
1F
100
AcDbEntity
  8
CENTER
100
AcDbLine
 10
449.4536087302549
 20
72.662613862277
 30
0.0
 11
449.4536087302549
 21
77.23461386227689
 31
0.0
  0
CIRCLE
  5
106B1
330
1F
100
AcDbEntity
  8
PANEL
100
AcDbCircle
 10
462.1536087302549
 20
74.94861386227694
 30
0.0
 40
4.673600000000006
  0
LINE
  5
106B2
330
1F
100
AcDbEntity
  8
CENTER
100
AcDbLine
 10
459.8676087302549
 20
74.94861386227694
 30
0.0
 11
464.4396087302549
 21
74.94861386227694
 31
0.0
  0
LINE
  5
106B3
330
1F
100
AcDbEntity
  8
CENTER
100
AcDbLine
 10
462.1536087302549
 20
72.662613862277
 30
0.0
 11
462.1536087302549
 21
77.23461386227689
 31
0.0
  0
CIRCLE
  5
106B4
330
1F
100
AcDbEntity
  8
PANEL
100
AcDbCircle
 10
474.8536087302548
 20
74.94861386227694
 30
0.0
 40
4.673600000000006
  0
LINE
  5
106B5
330
1F
100
AcDbEntity
  8
CENTER
100
AcDbLine
 10
472.567608730255
 20
74.94861386227694
 30
0.0
 11
477.1396087302549
 21
74.94861386227694
 31
0.0
  0
LINE
  5
106B6
330
1F
100
AcDbEntity
  8
CENTER
100
AcDbLine
 10
474.8536087302548
 20
72.662613862277
 30
0.0
 11
474.8536087302548
 21
77.23461386227689
 31
0.0
  0
CIRCLE
  5
106B7
330
1F
100
AcDbEntity
  8
PANEL
100
AcDbCircle
 10
487.5536087302549
 20
74.94861386227694
 30
0.0
 40
4.673600000000006
  0
LINE
  5
106B8
330
1F
100
AcDbEntity
  8
CENTER
100
AcDbLine
 10
485.2676087302549
 20
74.94861386227694
 30
0.0
 11
489.8396087302549
 21
74.94861386227694
 31
0.0
  0
LINE
  5
106B9
330
1F
100
AcDbEntity
  8
CENTER
100
AcDbLine
 10
487.5536087302549
 20
72.662613862277
 30
0.0
 11
487.5536087302549
 21
77.23461386227689
 31
0.0
  0
CIRCLE
  5
106BA
330
1F
100
AcDbEntity
  8
PANEL
100
AcDbCircle
 10
500.253608730255
 20
74.94861386227694
 30
0.0
 40
4.673600000000006
  0
LINE
  5
106BB
330
1F
100
AcDbEntity
  8
CENTER
100
AcDbLine
 10
497.9676087302549
 20
74.94861386227694
 30
0.0
 11
502.5396087302549
 21
74.94861386227694
 31
0.0
  0
LINE
  5
106BC
330
1F
100
AcDbEntity
  8
CENTER
100
AcDbLine
 10
500.253608730255
 20
72.662613862277
 30
0.0
 11
500.253608730255
 21
77.23461386227689
 31
0.0
  0
CIRCLE
  5
106BD
330
1F
100
AcDbEntity
  8
PANEL
100
AcDbCircle
 10
512.9536087302549
 20
74.94861386227694
 30
0.0
 40
4.673600000000006
  0
LINE
  5
106BE
330
1F
100
AcDbEntity
  8
CENTER
100
AcDbLine
 10
510.667608730255
 20
74.94861386227694
 30
0.0
 11
515.2396087302549
 21
74.94861386227694
 31
0.0
  0
LINE
  5
106BF
330
1F
100
AcDbEntity
  8
CENTER
100
AcDbLine
 10
512.9536087302549
 20
72.662613862277
 30
0.0
 11
512.9536087302549
 21
77.23461386227689
 31
0.0
  0
CIRCLE
  5
106C0
330
1F
100
AcDbEntity
  8
PANEL
100
AcDbCircle
 10
525.6536087302549
 20
74.94861386227694
 30
0.0
 40
4.673600000000006
  0
LINE
  5
106C1
330
1F
100
AcDbEntity
  8
CENTER
100
AcDbLine
 10
523.367608730255
 20
74.94861386227694
 30
0.0
 11
527.939608730255
 21
74.94861386227694
 31
0.0
  0
LINE
  5
106C2
330
1F
100
AcDbEntity
  8
CENTER
100
AcDbLine
 10
525.6536087302549
 20
72.662613862277
 30
0.0
 11
525.6536087302549
 21
77.23461386227689
 31
0.0
  0
CIRCLE
  5
106C3
330
1F
100
AcDbEntity
  8
PANEL
100
AcDbCircle
 10
538.353608730255
 20
74.94861386227694
 30
0.0
 40
4.673600000000006
  0
LINE
  5
106C4
330
1F
100
AcDbEntity
  8
CENTER
100
AcDbLine
 10
536.0676087302549
 20
74.94861386227694
 30
0.0
 11
540.639608730255
 21
74.94861386227694
 31
0.0
  0
LINE
  5
106C5
330
1F
100
AcDbEntity
  8
CENTER
100
AcDbLine
 10
538.353608730255
 20
72.662613862277
 30
0.0
 11
538.353608730255
 21
77.23461386227689
 31
0.0
  0
CIRCLE
  5
106C6
330
1F
100
AcDbEntity
  8
CONN
100
AcDbCircle
 10
424.0536087302541
 20
74.94861386227672
 30
0.0
 40
1.895462085378659
  0
CIRCLE
  5
106C7
330
1F
100
AcDbEntity
  8
CONN
  6
Continuous
100
AcDbCircle
 10
424.0536087302541
 20
74.94861386227672
 30
0.0
 40
3.556007620000014
  0
CIRCLE
  5
106C8
330
1F
100
AcDbEntity
  8
CONN
  6
Continuous
100
AcDbCircle
 10
424.0536087302541
 20
74.94861386227672
 30
0.0
 40
2.895607620000012
  0
LINE
  5
106C9
330
1F
100
AcDbEntity
  8
CONN
100
AcDbLine
 10
419.8372011102541
 20
74.18661386227677
 30
0.0
 11
420.5802031689213
 21
74.18661386227666
 31
0.0
  0
LINE
  5
106CA
330
1F
100
AcDbEntity
  8
CONN
100
AcDbLine
 10
419.8372011102541
 20
75.71061386227666
 30
0.0
 11
420.5802031689213
 21
75.71061386227666
 31
0.0
  0
LINE
  5
106CB
330
1F
100
AcDbEntity
  8
CONN
  6
Continuous
100
AcDbLine
 10
419.8372011102541
 20
74.18661386227677
 30
0.0
 11
419.8372011102541
 21
75.71061386227666
 31
0.0
  0
LINE
  5
106CC
330
1F
100
AcDbEntity
  8
CONN
100
AcDbLine
 10
428.2700163502542
 20
74.18661386227677
 30
0.0
 11
427.5270142915871
 21
74.18661386227666
 31
0.0
  0
LINE
  5
106CD
330
1F
100
AcDbEntity
  8
CONN
100
AcDbLine
 10
428.2700163502542
 20
75.71061386227666
 30
0.0
 11
427.5270142915871
 21
75.71061386227666
 31
0.0
  0
LINE
  5
106CE
330
1F
100
AcDbEntity
  8
CONN
  6
Continuous
100
AcDbLine
 10
428.2700163502542
 20
74.18661386227677
 30
0.0
 11
428.2700163502542
 21
75.71061386227666
 31
0.0
  0
LINE
  5
106CF
330
1F
100
AcDbEntity
  8
CONN
100
AcDbLine
 10
424.8156011102541
 20
71.47520662926763
 30
0.0
 11
424.8156011102541
 21
72.15506574172753
 31
0.0
  0
LINE
  5
106D0
330
1F
100
AcDbEntity
  8
CONN
100
AcDbLine
 10
423.2916011102542
 20
71.47520997263757
 30
0.0
 11
423.2916011102542
 21
72.15506989876655
 31
0.0
  0
CIRCLE
  5
106D1
330
1F
100
AcDbEntity
  8
Hidden
100
AcDbCircle
 10
424.0536087302543
 20
90.42413615956309
 30
0.0
 40
1.895462085378659
  0
CIRCLE
  5
106D2
330
1F
100
AcDbEntity
  8
Hidden
100
AcDbCircle
 10
424.0536087302543
 20
90.42413615956309
 30
0.0
 40
3.556007620000014
  0
CIRCLE
  5
106D3
330
1F
100
AcDbEntity
  8
Hidden
100
AcDbCircle
 10
424.0536087302543
 20
90.42413615956309
 30
0.0
 40
2.895607620000012
  0
LINE
  5
106D4
330
1F
100
AcDbEntity
  8
Hidden
100
AcDbLine
 10
419.8372011102544
 20
89.66213615956315
 30
0.0
 11
420.5802031689215
 21
89.66213615956304
 31
0.0
  0
LINE
  5
106D5
330
1F
100
AcDbEntity
  8
Hidden
100
AcDbLine
 10
419.8372011102544
 20
91.18613615956304
 30
0.0
 11
420.5802031689215
 21
91.18613615956304
 31
0.0
  0
LINE
  5
106D6
330
1F
100
AcDbEntity
  8
Hidden
100
AcDbLine
 10
419.8372011102544
 20
89.66213615956315
 30
0.0
 11
419.8372011102544
 21
91.18613615956304
 31
0.0
  0
LINE
  5
106D7
330
1F
100
AcDbEntity
  8
Hidden
100
AcDbLine
 10
428.2700163502544
 20
89.66213615956315
 30
0.0
 11
427.5270142915872
 21
89.66213615956304
 31
0.0
  0
LINE
  5
106D8
330
1F
100
AcDbEntity
  8
Hidden
100
AcDbLine
 10
428.2700163502544
 20
91.18613615956304
 30
0.0
 11
427.5270142915872
 21
91.18613615956304
 31
0.0
  0
LINE
  5
106D9
330
1F
100
AcDbEntity
  8
Hidden
100
AcDbLine
 10
428.2700163502544
 20
89.66213615956315
 30
0.0
 11
428.2700163502544
 21
91.18613615956304
 31
0.0
  0
LINE
  5
106DA
330
1F
100
AcDbEntity
  8
Hidden
100
AcDbLine
 10
424.8156011102544
 20
86.95072892655401
 30
0.0
 11
424.8156011102544
 21
87.6305880390139
 31
0.0
  0
LINE
  5
106DB
330
1F
100
AcDbEntity
  8
Hidden
100
AcDbLine
 10
423.2916011102544
 20
86.95073226992395
 30
0.0
 11
423.2916011102544
 21
87.63059219605294
 31
0.0
  0
CIRCLE
  5
106DC
330
1F
100
AcDbEntity
  8
CONN
100
AcDbCircle
 10
436.7536087302542
 20
74.94861386227672
 30
0.0
 40
1.895462085378659
  0
CIRCLE
  5
106DD
330
1F
100
AcDbEntity
  8
CONN
  6
Continuous
100
AcDbCircle
 10
436.7536087302542
 20
74.94861386227672
 30
0.0
 40
3.556007620000014
  0
CIRCLE
  5
106DE
330
1F
100
AcDbEntity
  8
CONN
  6
Continuous
100
AcDbCircle
 10
436.7536087302542
 20
74.94861386227672
 30
0.0
 40
2.895607620000012
  0
LINE
  5
106DF
330
1F
100
AcDbEntity
  8
CONN
100
AcDbLine
 10
432.5372011102541
 20
74.18661386227677
 30
0.0
 11
433.2802031689213
 21
74.18661386227666
 31
0.0
  0
LINE
  5
106E0
330
1F
100
AcDbEntity
  8
CONN
100
AcDbLine
 10
432.5372011102541
 20
75.71061386227666
 30
0.0
 11
433.2802031689213
 21
75.71061386227666
 31
0.0
  0
LINE
  5
106E1
330
1F
100
AcDbEntity
  8
CONN
  6
Continuous
100
AcDbLine
 10
432.5372011102541
 20
74.18661386227677
 30
0.0
 11
432.5372011102541
 21
75.71061386227666
 31
0.0
  0
LINE
  5
106E2
330
1F
100
AcDbEntity
  8
CONN
100
AcDbLine
 10
440.9700163502542
 20
74.18661386227677
 30
0.0
 11
440.2270142915869
 21
74.18661386227666
 31
0.0
  0
LINE
  5
106E3
330
1F
100
AcDbEntity
  8
CONN
100
AcDbLine
 10
440.9700163502542
 20
75.71061386227666
 30
0.0
 11
440.2270142915871
 21
75.71061386227666
 31
0.0
  0
LINE
  5
106E4
330
1F
100
AcDbEntity
  8
CONN
  6
Continuous
100
AcDbLine
 10
440.9700163502542
 20
74.18661386227677
 30
0.0
 11
440.9700163502542
 21
75.71061386227666
 31
0.0
  0
LINE
  5
106E5
330
1F
100
AcDbEntity
  8
CONN
100
AcDbLine
 10
437.5156011102542
 20
71.47520662926763
 30
0.0
 11
437.5156011102542
 21
72.15506574172753
 31
0.0
  0
LINE
  5
106E6
330
1F
100
AcDbEntity
  8
CONN
100
AcDbLine
 10
435.9916011102541
 20
71.47520997263757
 30
0.0
 11
435.9916011102542
 21
72.15506989876655
 31
0.0
  0
CIRCLE
  5
106E7
330
1F
100
AcDbEntity
  8
CONN
100
AcDbCircle
 10
449.4536087302542
 20
74.94861386227672
 30
0.0
 40
1.895462085378659
  0
CIRCLE
  5
106E8
330
1F
100
AcDbEntity
  8
CONN
  6
Continuous
100
AcDbCircle
 10
449.4536087302542
 20
74.94861386227672
 30
0.0
 40
3.556007620000014
  0
CIRCLE
  5
106E9
330
1F
100
AcDbEntity
  8
CONN
  6
Continuous
100
AcDbCircle
 10
449.4536087302542
 20
74.94861386227672
 30
0.0
 40
2.895607620000012
  0
LINE
  5
106EA
330
1F
100
AcDbEntity
  8
CONN
100
AcDbLine
 10
445.2372011102542
 20
74.18661386227677
 30
0.0
 11
445.9802031689213
 21
74.18661386227666
 31
0.0
  0
LINE
  5
106EB
330
1F
100
AcDbEntity
  8
CONN
100
AcDbLine
 10
445.2372011102542
 20
75.71061386227666
 30
0.0
 11
445.9802031689213
 21
75.71061386227666
 31
0.0
  0
LINE
  5
106EC
330
1F
100
AcDbEntity
  8
CONN
  6
Continuous
100
AcDbLine
 10
445.2372011102542
 20
74.18661386227677
 30
0.0
 11
445.2372011102542
 21
75.71061386227666
 31
0.0
  0
LINE
  5
106ED
330
1F
100
AcDbEntity
  8
CONN
100
AcDbLine
 10
453.6700163502541
 20
74.18661386227677
 30
0.0
 11
452.927014291587
 21
74.18661386227666
 31
0.0
  0
LINE
  5
106EE
330
1F
100
AcDbEntity
  8
CONN
100
AcDbLine
 10
453.6700163502541
 20
75.71061386227666
 30
0.0
 11
452.927014291587
 21
75.71061386227666
 31
0.0
  0
LINE
  5
106EF
330
1F
100
AcDbEntity
  8
CONN
  6
Continuous
100
AcDbLine
 10
453.6700163502541
 20
74.18661386227677
 30
0.0
 11
453.6700163502541
 21
75.71061386227666
 31
0.0
  0
LINE
  5
106F0
330
1F
100
AcDbEntity
  8
CONN
100
AcDbLine
 10
450.2156011102541
 20
71.47520662926763
 30
0.0
 11
450.2156011102541
 21
72.15506574172753
 31
0.0
  0
LINE
  5
106F1
330
1F
100
AcDbEntity
  8
CONN
100
AcDbLine
 10
448.6916011102541
 20
71.47520997263757
 30
0.0
 11
448.6916011102541
 21
72.15506989876655
 31
0.0
  0
CIRCLE
  5
106F2
330
1F
100
AcDbEntity
  8
CONN
100
AcDbCircle
 10
462.1536087302541
 20
74.94861386227672
 30
0.0
 40
1.895462085378659
  0
CIRCLE
  5
106F3
330
1F
100
AcDbEntity
  8
CONN
  6
Continuous
100
AcDbCircle
 10
462.1536087302541
 20
74.94861386227672
 30
0.0
 40
3.556007620000014
  0
CIRCLE
  5
106F4
330
1F
100
AcDbEntity
  8
CONN
  6
Continuous
100
AcDbCircle
 10
462.1536087302541
 20
74.94861386227672
 30
0.0
 40
2.895607620000012
  0
LINE
  5
106F5
330
1F
100
AcDbEntity
  8
CONN
100
AcDbLine
 10
457.9372011102541
 20
74.18661386227677
 30
0.0
 11
458.6802031689212
 21
74.18661386227666
 31
0.0
  0
LINE
  5
106F6
330
1F
100
AcDbEntity
  8
CONN
100
AcDbLine
 10
457.9372011102541
 20
75.71061386227666
 30
0.0
 11
458.6802031689212
 21
75.71061386227666
 31
0.0
  0
LINE
  5
106F7
330
1F
100
AcDbEntity
  8
CONN
  6
Continuous
100
AcDbLine
 10
457.9372011102541
 20
74.18661386227677
 30
0.0
 11
457.9372011102541
 21
75.71061386227666
 31
0.0
  0
LINE
  5
106F8
330
1F
100
AcDbEntity
  8
CONN
100
AcDbLine
 10
466.3700163502542
 20
74.18661386227677
 30
0.0
 11
465.6270142915871
 21
74.18661386227666
 31
0.0
  0
LINE
  5
106F9
330
1F
100
AcDbEntity
  8
CONN
100
AcDbLine
 10
466.3700163502542
 20
75.71061386227666
 30
0.0
 11
465.6270142915871
 21
75.71061386227666
 31
0.0
  0
LINE
  5
106FA
330
1F
100
AcDbEntity
  8
CONN
  6
Continuous
100
AcDbLine
 10
466.3700163502542
 20
74.18661386227677
 30
0.0
 11
466.3700163502542
 21
75.71061386227666
 31
0.0
  0
LINE
  5
106FB
330
1F
100
AcDbEntity
  8
CONN
100
AcDbLine
 10
462.9156011102542
 20
71.47520662926763
 30
0.0
 11
462.9156011102542
 21
72.15506574172753
 31
0.0
  0
LINE
  5
106FC
330
1F
100
AcDbEntity
  8
CONN
100
AcDbLine
 10
461.3916011102542
 20
71.47520997263757
 30
0.0
 11
461.3916011102542
 21
72.15506989876655
 31
0.0
  0
CIRCLE
  5
106FD
330
1F
100
AcDbEntity
  8
CONN
100
AcDbCircle
 10
474.8536087302542
 20
74.94861386227672
 30
0.0
 40
1.895462085378659
  0
CIRCLE
  5
106FE
330
1F
100
AcDbEntity
  8
CONN
  6
Continuous
100
AcDbCircle
 10
474.8536087302542
 20
74.94861386227672
 30
0.0
 40
3.556007620000014
  0
CIRCLE
  5
106FF
330
1F
100
AcDbEntity
  8
CONN
  6
Continuous
100
AcDbCircle
 10
474.8536087302542
 20
74.94861386227672
 30
0.0
 40
2.895607620000012
  0
LINE
  5
10700
330
1F
100
AcDbEntity
  8
CONN
100
AcDbLine
 10
470.6372011102541
 20
74.18661386227677
 30
0.0
 11
471.3802031689213
 21
74.18661386227666
 31
0.0
  0
LINE
  5
10701
330
1F
100
AcDbEntity
  8
CONN
100
AcDbLine
 10
470.6372011102541
 20
75.71061386227666
 30
0.0
 11
471.3802031689213
 21
75.71061386227666
 31
0.0
  0
LINE
  5
10702
330
1F
100
AcDbEntity
  8
CONN
  6
Continuous
100
AcDbLine
 10
470.6372011102541
 20
74.18661386227677
 30
0.0
 11
470.6372011102541
 21
75.71061386227666
 31
0.0
  0
LINE
  5
10703
330
1F
100
AcDbEntity
  8
CONN
100
AcDbLine
 10
479.0700163502542
 20
74.18661386227677
 30
0.0
 11
478.3270142915871
 21
74.18661386227666
 31
0.0
  0
LINE
  5
10704
330
1F
100
AcDbEntity
  8
CONN
100
AcDbLine
 10
479.0700163502542
 20
75.71061386227666
 30
0.0
 11
478.3270142915871
 21
75.71061386227666
 31
0.0
  0
LINE
  5
10705
330
1F
100
AcDbEntity
  8
CONN
  6
Continuous
100
AcDbLine
 10
479.0700163502542
 20
74.18661386227677
 30
0.0
 11
479.0700163502542
 21
75.71061386227666
 31
0.0
  0
LINE
  5
10706
330
1F
100
AcDbEntity
  8
CONN
100
AcDbLine
 10
475.6156011102541
 20
71.47520662926763
 30
0.0
 11
475.6156011102541
 21
72.15506574172753
 31
0.0
  0
LINE
  5
10707
330
1F
100
AcDbEntity
  8
CONN
100
AcDbLine
 10
474.0916011102542
 20
71.47520997263757
 30
0.0
 11
474.0916011102542
 21
72.15506989876655
 31
0.0
  0
CIRCLE
  5
10708
330
1F
100
AcDbEntity
  8
CONN
100
AcDbCircle
 10
487.5536087302541
 20
74.94861386227672
 30
0.0
 40
1.895462085378659
  0
CIRCLE
  5
10709
330
1F
100
AcDbEntity
  8
CONN
  6
Continuous
100
AcDbCircle
 10
487.5536087302541
 20
74.94861386227672
 30
0.0
 40
3.556007620000014
  0
CIRCLE
  5
1070A
330
1F
100
AcDbEntity
  8
CONN
  6
Continuous
100
AcDbCircle
 10
487.5536087302541
 20
74.94861386227672
 30
0.0
 40
2.895607620000012
  0
LINE
  5
1070B
330
1F
100
AcDbEntity
  8
CONN
100
AcDbLine
 10
483.3372011102542
 20
74.18661386227677
 30
0.0
 11
484.0802031689213
 21
74.18661386227666
 31
0.0
  0
LINE
  5
1070C
330
1F
100
AcDbEntity
  8
CONN
100
AcDbLine
 10
483.3372011102542
 20
75.71061386227666
 30
0.0
 11
484.0802031689213
 21
75.71061386227666
 31
0.0
  0
LINE
  5
1070D
330
1F
100
AcDbEntity
  8
CONN
  6
Continuous
100
AcDbLine
 10
483.3372011102542
 20
74.18661386227677
 30
0.0
 11
483.3372011102542
 21
75.71061386227666
 31
0.0
  0
LINE
  5
1070E
330
1F
100
AcDbEntity
  8
CONN
100
AcDbLine
 10
491.7700163502542
 20
74.18661386227677
 30
0.0
 11
491.027014291587
 21
74.18661386227666
 31
0.0
  0
LINE
  5
1070F
330
1F
100
AcDbEntity
  8
CONN
100
AcDbLine
 10
491.7700163502542
 20
75.71061386227666
 30
0.0
 11
491.027014291587
 21
75.71061386227666
 31
0.0
  0
LINE
  5
10710
330
1F
100
AcDbEntity
  8
CONN
  6
Continuous
100
AcDbLine
 10
491.7700163502542
 20
74.18661386227677
 30
0.0
 11
491.7700163502542
 21
75.71061386227666
 31
0.0
  0
LINE
  5
10711
330
1F
100
AcDbEntity
  8
CONN
100
AcDbLine
 10
488.3156011102541
 20
71.47520662926763
 30
0.0
 11
488.3156011102541
 21
72.15506574172753
 31
0.0
  0
LINE
  5
10712
330
1F
100
AcDbEntity
  8
CONN
100
AcDbLine
 10
486.7916011102542
 20
71.47520997263757
 30
0.0
 11
486.7916011102542
 21
72.15506989876655
 31
0.0
  0
CIRCLE
  5
10713
330
1F
100
AcDbEntity
  8
CONN
100
AcDbCircle
 10
500.2536087302542
 20
74.94861386227672
 30
0.0
 40
1.895462085378659
  0
CIRCLE
  5
10714
330
1F
100
AcDbEntity
  8
CONN
  6
Continuous
100
AcDbCircle
 10
500.2536087302542
 20
74.94861386227672
 30
0.0
 40
3.556007620000014
  0
CIRCLE
  5
10715
330
1F
100
AcDbEntity
  8
CONN
  6
Continuous
100
AcDbCircle
 10
500.2536087302542
 20
74.94861386227672
 30
0.0
 40
2.895607620000012
  0
LINE
  5
10716
330
1F
100
AcDbEntity
  8
CONN
100
AcDbLine
 10
496.0372011102541
 20
74.18661386227677
 30
0.0
 11
496.7802031689213
 21
74.18661386227666
 31
0.0
  0
LINE
  5
10717
330
1F
100
AcDbEntity
  8
CONN
100
AcDbLine
 10
496.0372011102541
 20
75.71061386227666
 30
0.0
 11
496.7802031689212
 21
75.71061386227666
 31
0.0
  0
LINE
  5
10718
330
1F
100
AcDbEntity
  8
CONN
  6
Continuous
100
AcDbLine
 10
496.0372011102541
 20
74.18661386227677
 30
0.0
 11
496.0372011102541
 21
75.71061386227666
 31
0.0
  0
LINE
  5
10719
330
1F
100
AcDbEntity
  8
CONN
100
AcDbLine
 10
504.4700163502542
 20
74.18661386227677
 30
0.0
 11
503.727014291587
 21
74.18661386227666
 31
0.0
  0
LINE
  5
1071A
330
1F
100
AcDbEntity
  8
CONN
100
AcDbLine
 10
504.4700163502542
 20
75.71061386227666
 30
0.0
 11
503.727014291587
 21
75.71061386227666
 31
0.0
  0
LINE
  5
1071B
330
1F
100
AcDbEntity
  8
CONN
  6
Continuous
100
AcDbLine
 10
504.4700163502542
 20
74.18661386227677
 30
0.0
 11
504.4700163502542
 21
75.71061386227666
 31
0.0
  0
LINE
  5
1071C
330
1F
100
AcDbEntity
  8
CONN
100
AcDbLine
 10
501.0156011102542
 20
71.47520662926763
 30
0.0
 11
501.0156011102542
 21
72.15506574172753
 31
0.0
  0
LINE
  5
1071D
330
1F
100
AcDbEntity
  8
CONN
100
AcDbLine
 10
499.4916011102541
 20
71.47520997263757
 30
0.0
 11
499.4916011102541
 21
72.15506989876655
 31
0.0
  0
CIRCLE
  5
1071E
330
1F
100
AcDbEntity
  8
CONN
100
AcDbCircle
 10
512.9536087302542
 20
74.94861386227672
 30
0.0
 40
1.895462085378659
  0
CIRCLE
  5
1071F
330
1F
100
AcDbEntity
  8
CONN
  6
Continuous
100
AcDbCircle
 10
512.9536087302542
 20
74.94861386227672
 30
0.0
 40
3.556007620000014
  0
CIRCLE
  5
10720
330
1F
100
AcDbEntity
  8
CONN
  6
Continuous
100
AcDbCircle
 10
512.9536087302542
 20
74.94861386227672
 30
0.0
 40
2.895607620000012
  0
LINE
  5
10721
330
1F
100
AcDbEntity
  8
CONN
100
AcDbLine
 10
508.7372011102542
 20
74.18661386227677
 30
0.0
 11
509.4802031689213
 21
74.18661386227666
 31
0.0
  0
LINE
  5
10722
330
1F
100
AcDbEntity
  8
CONN
100
AcDbLine
 10
508.7372011102542
 20
75.71061386227666
 30
0.0
 11
509.4802031689213
 21
75.71061386227666
 31
0.0
  0
LINE
  5
10723
330
1F
100
AcDbEntity
  8
CONN
  6
Continuous
100
AcDbLine
 10
508.7372011102542
 20
74.18661386227677
 30
0.0
 11
508.7372011102542
 21
75.71061386227666
 31
0.0
  0
LINE
  5
10724
330
1F
100
AcDbEntity
  8
CONN
100
AcDbLine
 10
517.1700163502541
 20
74.18661386227677
 30
0.0
 11
516.427014291587
 21
74.18661386227666
 31
0.0
  0
LINE
  5
10725
330
1F
100
AcDbEntity
  8
CONN
100
AcDbLine
 10
517.1700163502541
 20
75.71061386227666
 30
0.0
 11
516.427014291587
 21
75.71061386227666
 31
0.0
  0
LINE
  5
10726
330
1F
100
AcDbEntity
  8
CONN
  6
Continuous
100
AcDbLine
 10
517.1700163502541
 20
74.18661386227677
 30
0.0
 11
517.1700163502541
 21
75.71061386227666
 31
0.0
  0
LINE
  5
10727
330
1F
100
AcDbEntity
  8
CONN
100
AcDbLine
 10
513.7156011102542
 20
71.47520662926763
 30
0.0
 11
513.7156011102542
 21
72.15506574172753
 31
0.0
  0
LINE
  5
10728
330
1F
100
AcDbEntity
  8
CONN
100
AcDbLine
 10
512.1916011102541
 20
71.47520997263757
 30
0.0
 11
512.1916011102541
 21
72.15506989876655
 31
0.0
  0
CIRCLE
  5
10729
330
1F
100
AcDbEntity
  8
CONN
100
AcDbCircle
 10
525.6536087302541
 20
74.94861386227672
 30
0.0
 40
1.895462085378659
  0
CIRCLE
  5
1072A
330
1F
100
AcDbEntity
  8
CONN
  6
Continuous
100
AcDbCircle
 10
525.6536087302541
 20
74.94861386227672
 30
0.0
 40
3.556007620000014
  0
CIRCLE
  5
1072B
330
1F
100
AcDbEntity
  8
CONN
  6
Continuous
100
AcDbCircle
 10
525.6536087302541
 20
74.94861386227672
 30
0.0
 40
2.895607620000012
  0
LINE
  5
1072C
330
1F
100
AcDbEntity
  8
CONN
100
AcDbLine
 10
521.4372011102541
 20
74.18661386227677
 30
0.0
 11
522.1802031689212
 21
74.18661386227666
 31
0.0
  0
LINE
  5
1072D
330
1F
100
AcDbEntity
  8
CONN
100
AcDbLine
 10
521.4372011102541
 20
75.71061386227666
 30
0.0
 11
522.1802031689212
 21
75.71061386227666
 31
0.0
  0
LINE
  5
1072E
330
1F
100
AcDbEntity
  8
CONN
  6
Continuous
100
AcDbLine
 10
521.4372011102541
 20
74.18661386227677
 30
0.0
 11
521.4372011102541
 21
75.71061386227666
 31
0.0
  0
LINE
  5
1072F
330
1F
100
AcDbEntity
  8
CONN
100
AcDbLine
 10
529.8700163502542
 20
74.18661386227677
 30
0.0
 11
529.1270142915871
 21
74.18661386227666
 31
0.0
  0
LINE
  5
10730
330
1F
100
AcDbEntity
  8
CONN
100
AcDbLine
 10
529.8700163502542
 20
75.71061386227666
 30
0.0
 11
529.1270142915871
 21
75.71061386227666
 31
0.0
  0
LINE
  5
10731
330
1F
100
AcDbEntity
  8
CONN
  6
Continuous
100
AcDbLine
 10
529.8700163502542
 20
74.18661386227677
 30
0.0
 11
529.8700163502542
 21
75.71061386227666
 31
0.0
  0
LINE
  5
10732
330
1F
100
AcDbEntity
  8
CONN
100
AcDbLine
 10
526.4156011102541
 20
71.47520662926763
 30
0.0
 11
526.4156011102541
 21
72.15506574172753
 31
0.0
  0
LINE
  5
10733
330
1F
100
AcDbEntity
  8
CONN
100
AcDbLine
 10
524.8916011102542
 20
71.47520997263757
 30
0.0
 11
524.8916011102542
 21
72.15506989876655
 31
0.0
  0
CIRCLE
  5
10734
330
1F
100
AcDbEntity
  8
CONN
100
AcDbCircle
 10
538.3536087302542
 20
74.94861386227672
 30
0.0
 40
1.895462085378659
  0
CIRCLE
  5
10735
330
1F
100
AcDbEntity
  8
CONN
  6
Continuous
100
AcDbCircle
 10
538.3536087302542
 20
74.94861386227672
 30
0.0
 40
3.556007620000014
  0
CIRCLE
  5
10736
330
1F
100
AcDbEntity
  8
CONN
  6
Continuous
100
AcDbCircle
 10
538.3536087302542
 20
74.94861386227672
 30
0.0
 40
2.895607620000012
  0
LINE
  5
10737
330
1F
100
AcDbEntity
  8
CONN
100
AcDbLine
 10
534.1372011102541
 20
74.18661386227677
 30
0.0
 11
534.8802031689213
 21
74.18661386227666
 31
0.0
  0
LINE
  5
10738
330
1F
100
AcDbEntity
  8
CONN
100
AcDbLine
 10
534.1372011102541
 20
75.71061386227666
 30
0.0
 11
534.8802031689213
 21
75.71061386227666
 31
0.0
  0
LINE
  5
10739
330
1F
100
AcDbEntity
  8
CONN
  6
Continuous
100
AcDbLine
 10
534.1372011102541
 20
74.18661386227677
 30
0.0
 11
534.1372011102541
 21
75.71061386227666
 31
0.0
  0
LINE
  5
1073A
330
1F
100
AcDbEntity
  8
CONN
100
AcDbLine
 10
542.5700163502543
 20
74.18661386227677
 30
0.0
 11
541.8270142915871
 21
74.18661386227666
 31
0.0
  0
LINE
  5
1073B
330
1F
100
AcDbEntity
  8
CONN
100
AcDbLine
 10
542.5700163502543
 20
75.71061386227666
 30
0.0
 11
541.8270142915871
 21
75.71061386227666
 31
0.0
  0
LINE
  5
1073C
330
1F
100
AcDbEntity
  8
CONN
  6
Continuous
100
AcDbLine
 10
542.5700163502543
 20
74.18661386227677
 30
0.0
 11
542.5700163502543
 21
75.71061386227666
 31
0.0
  0
LINE
  5
1073D
330
1F
100
AcDbEntity
  8
CONN
100
AcDbLine
 10
539.1156011102541
 20
71.47520662926763
 30
0.0
 11
539.1156011102541
 21
72.15506574172753
 31
0.0
  0
LINE
  5
1073E
330
1F
100
AcDbEntity
  8
CONN
100
AcDbLine
 10
537.5916011102543
 20
71.47520997263757
 30
0.0
 11
537.5916011102543
 21
72.15506989876655
 31
0.0
  0
CIRCLE
  5
1073F
330
1F
100
AcDbEntity
  8
Hidden
100
AcDbCircle
 10
424.053608730255
 20
90.42413615956332
 30
0.0
 40
4.673600000000006
  0
LINE
  5
10740
330
1F
100
AcDbEntity
  8
CENTER
100
AcDbLine
 10
421.767608730255
 20
90.42413615956332
 30
0.0
 11
426.3396087302551
 21
90.42413615956332
 31
0.0
  0
LINE
  5
10741
330
1F
100
AcDbEntity
  8
CENTER
100
AcDbLine
 10
424.053608730255
 20
88.13813615956338
 30
0.0
 11
424.053608730255
 21
92.71013615956325
 31
0.0
  0
CIRCLE
  5
10742
330
1F
100
AcDbEntity
  8
Hidden
100
AcDbCircle
 10
436.7536087302544
 20
90.42413615956309
 30
0.0
 40
1.895462085378659
  0
CIRCLE
  5
10743
330
1F
100
AcDbEntity
  8
Hidden
100
AcDbCircle
 10
436.7536087302544
 20
90.42413615956309
 30
0.0
 40
3.556007620000014
  0
CIRCLE
  5
10744
330
1F
100
AcDbEntity
  8
Hidden
100
AcDbCircle
 10
436.7536087302544
 20
90.42413615956309
 30
0.0
 40
2.895607620000012
  0
LINE
  5
10745
330
1F
100
AcDbEntity
  8
Hidden
100
AcDbLine
 10
432.5372011102543
 20
89.66213615956315
 30
0.0
 11
433.2802031689216
 21
89.66213615956304
 31
0.0
  0
LINE
  5
10746
330
1F
100
AcDbEntity
  8
Hidden
100
AcDbLine
 10
432.5372011102543
 20
91.18613615956304
 30
0.0
 11
433.2802031689214
 21
91.18613615956304
 31
0.0
  0
LINE
  5
10747
330
1F
100
AcDbEntity
  8
Hidden
100
AcDbLine
 10
432.5372011102543
 20
89.66213615956315
 30
0.0
 11
432.5372011102543
 21
91.18613615956304
 31
0.0
  0
LINE
  5
10748
330
1F
100
AcDbEntity
  8
Hidden
100
AcDbLine
 10
440.9700163502544
 20
89.66213615956315
 30
0.0
 11
440.2270142915872
 21
89.66213615956304
 31
0.0
  0
LINE
  5
10749
330
1F
100
AcDbEntity
  8
Hidden
100
AcDbLine
 10
440.9700163502544
 20
91.18613615956304
 30
0.0
 11
440.2270142915873
 21
91.18613615956304
 31
0.0
  0
LINE
  5
1074A
330
1F
100
AcDbEntity
  8
Hidden
100
AcDbLine
 10
440.9700163502544
 20
89.66213615956315
 30
0.0
 11
440.9700163502544
 21
91.18613615956304
 31
0.0
  0
LINE
  5
1074B
330
1F
100
AcDbEntity
  8
Hidden
100
AcDbLine
 10
437.5156011102545
 20
86.95072892655401
 30
0.0
 11
437.5156011102545
 21
87.6305880390139
 31
0.0
  0
LINE
  5
1074C
330
1F
100
AcDbEntity
  8
Hidden
100
AcDbLine
 10
435.9916011102543
 20
86.95073226992395
 30
0.0
 11
435.9916011102544
 21
87.63059219605294
 31
0.0
  0
CIRCLE
  5
1074D
330
1F
100
AcDbEntity
  8
Hidden
100
AcDbCircle
 10
436.7536087302551
 20
90.42413615956332
 30
0.0
 40
4.673600000000006
  0
LINE
  5
1074E
330
1F
100
AcDbEntity
  8
CENTER
100
AcDbLine
 10
434.467608730255
 20
90.42413615956332
 30
0.0
 11
439.039608730255
 21
90.42413615956332
 31
0.0
  0
LINE
  5
1074F
330
1F
100
AcDbEntity
  8
CENTER
100
AcDbLine
 10
436.7536087302551
 20
88.13813615956338
 30
0.0
 11
436.7536087302551
 21
92.71013615956325
 31
0.0
  0
CIRCLE
  5
10750
330
1F
100
AcDbEntity
  8
Hidden
100
AcDbCircle
 10
449.4536087302544
 20
90.42413615956309
 30
0.0
 40
1.895462085378659
  0
CIRCLE
  5
10751
330
1F
100
AcDbEntity
  8
Hidden
100
AcDbCircle
 10
449.4536087302544
 20
90.42413615956309
 30
0.0
 40
3.556007620000014
  0
CIRCLE
  5
10752
330
1F
100
AcDbEntity
  8
Hidden
100
AcDbCircle
 10
449.4536087302544
 20
90.42413615956309
 30
0.0
 40
2.895607620000012
  0
LINE
  5
10753
330
1F
100
AcDbEntity
  8
Hidden
100
AcDbLine
 10
445.2372011102544
 20
89.66213615956315
 30
0.0
 11
445.9802031689215
 21
89.66213615956304
 31
0.0
  0
LINE
  5
10754
330
1F
100
AcDbEntity
  8
Hidden
100
AcDbLine
 10
445.2372011102544
 20
91.18613615956304
 30
0.0
 11
445.9802031689215
 21
91.18613615956304
 31
0.0
  0
LINE
  5
10755
330
1F
100
AcDbEntity
  8
Hidden
100
AcDbLine
 10
445.2372011102544
 20
89.66213615956315
 30
0.0
 11
445.2372011102544
 21
91.18613615956304
 31
0.0
  0
LINE
  5
10756
330
1F
100
AcDbEntity
  8
Hidden
100
AcDbLine
 10
453.6700163502543
 20
89.66213615956315
 30
0.0
 11
452.9270142915873
 21
89.66213615956304
 31
0.0
  0
LINE
  5
10757
330
1F
100
AcDbEntity
  8
Hidden
100
AcDbLine
 10
453.6700163502543
 20
91.18613615956304
 30
0.0
 11
452.9270142915873
 21
91.18613615956304
 31
0.0
  0
LINE
  5
10758
330
1F
100
AcDbEntity
  8
Hidden
100
AcDbLine
 10
453.6700163502543
 20
89.66213615956315
 30
0.0
 11
453.6700163502543
 21
91.18613615956304
 31
0.0
  0
LINE
  5
10759
330
1F
100
AcDbEntity
  8
Hidden
100
AcDbLine
 10
450.2156011102544
 20
86.95072892655401
 30
0.0
 11
450.2156011102544
 21
87.6305880390139
 31
0.0
  0
LINE
  5
1075A
330
1F
100
AcDbEntity
  8
Hidden
100
AcDbLine
 10
448.6916011102543
 20
86.95073226992395
 30
0.0
 11
448.6916011102543
 21
87.63059219605294
 31
0.0
  0
CIRCLE
  5
1075B
330
1F
100
AcDbEntity
  8
Hidden
100
AcDbCircle
 10
449.453608730255
 20
90.42413615956332
 30
0.0
 40
4.673600000000006
  0
LINE
  5
1075C
330
1F
100
AcDbEntity
  8
CENTER
100
AcDbLine
 10
447.1676087302551
 20
90.42413615956332
 30
0.0
 11
451.739608730255
 21
90.42413615956332
 31
0.0
  0
LINE
  5
1075D
330
1F
100
AcDbEntity
  8
CENTER
100
AcDbLine
 10
449.453608730255
 20
88.13813615956338
 30
0.0
 11
449.453608730255
 21
92.71013615956325
 31
0.0
  0
CIRCLE
  5
1075E
330
1F
100
AcDbEntity
  8
Hidden
100
AcDbCircle
 10
462.1536087302543
 20
90.42413615956309
 30
0.0
 40
1.895462085378659
  0
CIRCLE
  5
1075F
330
1F
100
AcDbEntity
  8
Hidden
100
AcDbCircle
 10
462.1536087302543
 20
90.42413615956309
 30
0.0
 40
3.556007620000014
  0
CIRCLE
  5
10760
330
1F
100
AcDbEntity
  8
Hidden
100
AcDbCircle
 10
462.1536087302543
 20
90.42413615956309
 30
0.0
 40
2.895607620000012
  0
LINE
  5
10761
330
1F
100
AcDbEntity
  8
Hidden
100
AcDbLine
 10
457.9372011102543
 20
89.66213615956315
 30
0.0
 11
458.6802031689215
 21
89.66213615956304
 31
0.0
  0
LINE
  5
10762
330
1F
100
AcDbEntity
  8
Hidden
100
AcDbLine
 10
457.9372011102543
 20
91.18613615956304
 30
0.0
 11
458.6802031689215
 21
91.18613615956304
 31
0.0
  0
LINE
  5
10763
330
1F
100
AcDbEntity
  8
Hidden
100
AcDbLine
 10
457.9372011102543
 20
89.66213615956315
 30
0.0
 11
457.9372011102543
 21
91.18613615956304
 31
0.0
  0
LINE
  5
10764
330
1F
100
AcDbEntity
  8
Hidden
100
AcDbLine
 10
466.3700163502544
 20
89.66213615956315
 30
0.0
 11
465.6270142915873
 21
89.66213615956304
 31
0.0
  0
LINE
  5
10765
330
1F
100
AcDbEntity
  8
Hidden
100
AcDbLine
 10
466.3700163502544
 20
91.18613615956304
 30
0.0
 11
465.6270142915873
 21
91.18613615956304
 31
0.0
  0
LINE
  5
10766
330
1F
100
AcDbEntity
  8
Hidden
100
AcDbLine
 10
466.3700163502544
 20
89.66213615956315
 30
0.0
 11
466.3700163502544
 21
91.18613615956304
 31
0.0
  0
LINE
  5
10767
330
1F
100
AcDbEntity
  8
Hidden
100
AcDbLine
 10
462.9156011102544
 20
86.95072892655401
 30
0.0
 11
462.9156011102544
 21
87.6305880390139
 31
0.0
  0
LINE
  5
10768
330
1F
100
AcDbEntity
  8
Hidden
100
AcDbLine
 10
461.3916011102544
 20
86.95073226992395
 30
0.0
 11
461.3916011102544
 21
87.63059219605294
 31
0.0
  0
CIRCLE
  5
10769
330
1F
100
AcDbEntity
  8
Hidden
100
AcDbCircle
 10
462.153608730255
 20
90.42413615956332
 30
0.0
 40
4.673600000000006
  0
LINE
  5
1076A
330
1F
100
AcDbEntity
  8
CENTER
100
AcDbLine
 10
459.867608730255
 20
90.42413615956332
 30
0.0
 11
464.439608730255
 21
90.42413615956332
 31
0.0
  0
LINE
  5
1076B
330
1F
100
AcDbEntity
  8
CENTER
100
AcDbLine
 10
462.153608730255
 20
88.13813615956338
 30
0.0
 11
462.153608730255
 21
92.71013615956325
 31
0.0
  0
CIRCLE
  5
1076C
330
1F
100
AcDbEntity
  8
Hidden
100
AcDbCircle
 10
474.8536087302544
 20
90.42413615956309
 30
0.0
 40
1.895462085378659
  0
CIRCLE
  5
1076D
330
1F
100
AcDbEntity
  8
Hidden
100
AcDbCircle
 10
474.8536087302544
 20
90.42413615956309
 30
0.0
 40
3.556007620000014
  0
CIRCLE
  5
1076E
330
1F
100
AcDbEntity
  8
Hidden
100
AcDbCircle
 10
474.8536087302544
 20
90.42413615956309
 30
0.0
 40
2.895607620000012
  0
LINE
  5
1076F
330
1F
100
AcDbEntity
  8
Hidden
100
AcDbLine
 10
470.6372011102543
 20
89.66213615956315
 30
0.0
 11
471.3802031689215
 21
89.66213615956304
 31
0.0
  0
LINE
  5
10770
330
1F
100
AcDbEntity
  8
Hidden
100
AcDbLine
 10
470.6372011102543
 20
91.18613615956304
 30
0.0
 11
471.3802031689215
 21
91.18613615956304
 31
0.0
  0
LINE
  5
10771
330
1F
100
AcDbEntity
  8
Hidden
100
AcDbLine
 10
470.6372011102543
 20
89.66213615956315
 30
0.0
 11
470.6372011102543
 21
91.18613615956304
 31
0.0
  0
LINE
  5
10772
330
1F
100
AcDbEntity
  8
Hidden
100
AcDbLine
 10
479.0700163502545
 20
89.66213615956315
 30
0.0
 11
478.3270142915873
 21
89.66213615956304
 31
0.0
  0
LINE
  5
10773
330
1F
100
AcDbEntity
  8
Hidden
100
AcDbLine
 10
479.0700163502545
 20
91.18613615956304
 30
0.0
 11
478.3270142915873
 21
91.18613615956304
 31
0.0
  0
LINE
  5
10774
330
1F
100
AcDbEntity
  8
Hidden
100
AcDbLine
 10
479.0700163502545
 20
89.66213615956315
 30
0.0
 11
479.0700163502545
 21
91.18613615956304
 31
0.0
  0
LINE
  5
10775
330
1F
100
AcDbEntity
  8
Hidden
100
AcDbLine
 10
475.6156011102543
 20
86.95072892655401
 30
0.0
 11
475.6156011102543
 21
87.6305880390139
 31
0.0
  0
LINE
  5
10776
330
1F
100
AcDbEntity
  8
Hidden
100
AcDbLine
 10
474.0916011102545
 20
86.95073226992395
 30
0.0
 11
474.0916011102545
 21
87.63059219605294
 31
0.0
  0
CIRCLE
  5
10777
330
1F
100
AcDbEntity
  8
Hidden
100
AcDbCircle
 10
474.853608730255
 20
90.42413615956332
 30
0.0
 40
4.673600000000006
  0
LINE
  5
10778
330
1F
100
AcDbEntity
  8
CENTER
100
AcDbLine
 10
472.567608730255
 20
90.42413615956332
 30
0.0
 11
477.1396087302551
 21
90.42413615956332
 31
0.0
  0
LINE
  5
10779
330
1F
100
AcDbEntity
  8
CENTER
100
AcDbLine
 10
474.853608730255
 20
88.13813615956338
 30
0.0
 11
474.853608730255
 21
92.71013615956325
 31
0.0
  0
CIRCLE
  5
1077A
330
1F
100
AcDbEntity
  8
Hidden
100
AcDbCircle
 10
487.5536087302544
 20
90.42413615956309
 30
0.0
 40
1.895462085378659
  0
CIRCLE
  5
1077B
330
1F
100
AcDbEntity
  8
Hidden
100
AcDbCircle
 10
487.5536087302544
 20
90.42413615956309
 30
0.0
 40
3.556007620000014
  0
CIRCLE
  5
1077C
330
1F
100
AcDbEntity
  8
Hidden
100
AcDbCircle
 10
487.5536087302544
 20
90.42413615956309
 30
0.0
 40
2.895607620000012
  0
LINE
  5
1077D
330
1F
100
AcDbEntity
  8
Hidden
100
AcDbLine
 10
483.3372011102544
 20
89.66213615956315
 30
0.0
 11
484.0802031689215
 21
89.66213615956304
 31
0.0
  0
LINE
  5
1077E
330
1F
100
AcDbEntity
  8
Hidden
100
AcDbLine
 10
483.3372011102544
 20
91.18613615956304
 30
0.0
 11
484.0802031689215
 21
91.18613615956304
 31
0.0
  0
LINE
  5
1077F
330
1F
100
AcDbEntity
  8
Hidden
100
AcDbLine
 10
483.3372011102544
 20
89.66213615956315
 30
0.0
 11
483.3372011102544
 21
91.18613615956304
 31
0.0
  0
LINE
  5
10780
330
1F
100
AcDbEntity
  8
Hidden
100
AcDbLine
 10
491.7700163502543
 20
89.66213615956315
 30
0.0
 11
491.0270142915873
 21
89.66213615956304
 31
0.0
  0
LINE
  5
10781
330
1F
100
AcDbEntity
  8
Hidden
100
AcDbLine
 10
491.7700163502543
 20
91.18613615956304
 30
0.0
 11
491.0270142915873
 21
91.18613615956304
 31
0.0
  0
LINE
  5
10782
330
1F
100
AcDbEntity
  8
Hidden
100
AcDbLine
 10
491.7700163502543
 20
89.66213615956315
 30
0.0
 11
491.7700163502543
 21
91.18613615956304
 31
0.0
  0
LINE
  5
10783
330
1F
100
AcDbEntity
  8
Hidden
100
AcDbLine
 10
488.3156011102544
 20
86.95072892655401
 30
0.0
 11
488.3156011102544
 21
87.6305880390139
 31
0.0
  0
LINE
  5
10784
330
1F
100
AcDbEntity
  8
Hidden
100
AcDbLine
 10
486.7916011102543
 20
86.95073226992395
 30
0.0
 11
486.7916011102543
 21
87.63059219605294
 31
0.0
  0
CIRCLE
  5
10785
330
1F
100
AcDbEntity
  8
Hidden
100
AcDbCircle
 10
487.553608730255
 20
90.42413615956332
 30
0.0
 40
4.673600000000006
  0
LINE
  5
10786
330
1F
100
AcDbEntity
  8
CENTER
100
AcDbLine
 10
485.2676087302549
 20
90.42413615956332
 30
0.0
 11
489.839608730255
 21
90.42413615956332
 31
0.0
  0
LINE
  5
10787
330
1F
100
AcDbEntity
  8
CENTER
100
AcDbLine
 10
487.553608730255
 20
88.13813615956338
 30
0.0
 11
487.553608730255
 21
92.71013615956325
 31
0.0
  0
CIRCLE
  5
10788
330
1F
100
AcDbEntity
  8
Hidden
100
AcDbCircle
 10
500.2536087302543
 20
90.42413615956309
 30
0.0
 40
1.895462085378659
  0
CIRCLE
  5
10789
330
1F
100
AcDbEntity
  8
Hidden
100
AcDbCircle
 10
500.2536087302543
 20
90.42413615956309
 30
0.0
 40
3.556007620000014
  0
CIRCLE
  5
1078A
330
1F
100
AcDbEntity
  8
Hidden
100
AcDbCircle
 10
500.2536087302543
 20
90.42413615956309
 30
0.0
 40
2.895607620000012
  0
LINE
  5
1078B
330
1F
100
AcDbEntity
  8
Hidden
100
AcDbLine
 10
496.0372011102544
 20
89.66213615956315
 30
0.0
 11
496.7802031689216
 21
89.66213615956304
 31
0.0
  0
LINE
  5
1078C
330
1F
100
AcDbEntity
  8
Hidden
100
AcDbLine
 10
496.0372011102544
 20
91.18613615956304
 30
0.0
 11
496.7802031689215
 21
91.18613615956304
 31
0.0
  0
LINE
  5
1078D
330
1F
100
AcDbEntity
  8
Hidden
100
AcDbLine
 10
496.0372011102544
 20
89.66213615956315
 30
0.0
 11
496.0372011102544
 21
91.18613615956304
 31
0.0
  0
LINE
  5
1078E
330
1F
100
AcDbEntity
  8
Hidden
100
AcDbLine
 10
504.4700163502544
 20
89.66213615956315
 30
0.0
 11
503.7270142915872
 21
89.66213615956304
 31
0.0
  0
LINE
  5
1078F
330
1F
100
AcDbEntity
  8
Hidden
100
AcDbLine
 10
504.4700163502544
 20
91.18613615956304
 30
0.0
 11
503.7270142915872
 21
91.18613615956304
 31
0.0
  0
LINE
  5
10790
330
1F
100
AcDbEntity
  8
Hidden
100
AcDbLine
 10
504.4700163502544
 20
89.66213615956315
 30
0.0
 11
504.4700163502544
 21
91.18613615956304
 31
0.0
  0
LINE
  5
10791
330
1F
100
AcDbEntity
  8
Hidden
100
AcDbLine
 10
501.0156011102544
 20
86.95072892655401
 30
0.0
 11
501.0156011102544
 21
87.6305880390139
 31
0.0
  0
LINE
  5
10792
330
1F
100
AcDbEntity
  8
Hidden
100
AcDbLine
 10
499.4916011102543
 20
86.95073226992395
 30
0.0
 11
499.4916011102543
 21
87.63059219605294
 31
0.0
  0
CIRCLE
  5
10793
330
1F
100
AcDbEntity
  8
Hidden
100
AcDbCircle
 10
500.2536087302551
 20
90.42413615956332
 30
0.0
 40
4.673600000000006
  0
LINE
  5
10794
330
1F
100
AcDbEntity
  8
CENTER
100
AcDbLine
 10
497.967608730255
 20
90.42413615956332
 30
0.0
 11
502.539608730255
 21
90.42413615956332
 31
0.0
  0
LINE
  5
10795
330
1F
100
AcDbEntity
  8
CENTER
100
AcDbLine
 10
500.2536087302551
 20
88.13813615956338
 30
0.0
 11
500.2536087302551
 21
92.71013615956325
 31
0.0
  0
CIRCLE
  5
10796
330
1F
100
AcDbEntity
  8
Hidden
100
AcDbCircle
 10
512.9536087302544
 20
90.42413615956309
 30
0.0
 40
1.895462085378659
  0
CIRCLE
  5
10797
330
1F
100
AcDbEntity
  8
Hidden
100
AcDbCircle
 10
512.9536087302544
 20
90.42413615956309
 30
0.0
 40
3.556007620000014
  0
CIRCLE
  5
10798
330
1F
100
AcDbEntity
  8
Hidden
100
AcDbCircle
 10
512.9536087302544
 20
90.42413615956309
 30
0.0
 40
2.895607620000012
  0
LINE
  5
10799
330
1F
100
AcDbEntity
  8
Hidden
100
AcDbLine
 10
508.7372011102544
 20
89.66213615956315
 30
0.0
 11
509.4802031689215
 21
89.66213615956304
 31
0.0
  0
LINE
  5
1079A
330
1F
100
AcDbEntity
  8
Hidden
100
AcDbLine
 10
508.7372011102544
 20
91.18613615956304
 30
0.0
 11
509.4802031689215
 21
91.18613615956304
 31
0.0
  0
LINE
  5
1079B
330
1F
100
AcDbEntity
  8
Hidden
100
AcDbLine
 10
508.7372011102544
 20
89.66213615956315
 30
0.0
 11
508.7372011102544
 21
91.18613615956304
 31
0.0
  0
LINE
  5
1079C
330
1F
100
AcDbEntity
  8
Hidden
100
AcDbLine
 10
517.1700163502544
 20
89.66213615956315
 30
0.0
 11
516.4270142915873
 21
89.66213615956304
 31
0.0
  0
LINE
  5
1079D
330
1F
100
AcDbEntity
  8
Hidden
100
AcDbLine
 10
517.1700163502544
 20
91.18613615956304
 30
0.0
 11
516.4270142915873
 21
91.18613615956304
 31
0.0
  0
LINE
  5
1079E
330
1F
100
AcDbEntity
  8
Hidden
100
AcDbLine
 10
517.1700163502544
 20
89.66213615956315
 30
0.0
 11
517.1700163502544
 21
91.18613615956304
 31
0.0
  0
LINE
  5
1079F
330
1F
100
AcDbEntity
  8
Hidden
100
AcDbLine
 10
513.7156011102543
 20
86.95072892655401
 30
0.0
 11
513.7156011102543
 21
87.6305880390139
 31
0.0
  0
LINE
  5
107A0
330
1F
100
AcDbEntity
  8
Hidden
100
AcDbLine
 10
512.1916011102544
 20
86.95073226992395
 30
0.0
 11
512.1916011102544
 21
87.63059219605294
 31
0.0
  0
CIRCLE
  5
107A1
330
1F
100
AcDbEntity
  8
Hidden
100
AcDbCircle
 10
512.953608730255
 20
90.42413615956332
 30
0.0
 40
4.673600000000006
  0
LINE
  5
107A2
330
1F
100
AcDbEntity
  8
CENTER
100
AcDbLine
 10
510.6676087302551
 20
90.42413615956332
 30
0.0
 11
515.2396087302549
 21
90.42413615956332
 31
0.0
  0
LINE
  5
107A3
330
1F
100
AcDbEntity
  8
CENTER
100
AcDbLine
 10
512.953608730255
 20
88.13813615956338
 30
0.0
 11
512.953608730255
 21
92.71013615956325
 31
0.0
  0
CIRCLE
  5
107A4
330
1F
100
AcDbEntity
  8
Hidden
100
AcDbCircle
 10
525.6536087302544
 20
90.42413615956309
 30
0.0
 40
1.895462085378659
  0
CIRCLE
  5
107A5
330
1F
100
AcDbEntity
  8
Hidden
100
AcDbCircle
 10
525.6536087302544
 20
90.42413615956309
 30
0.0
 40
3.556007620000014
  0
CIRCLE
  5
107A6
330
1F
100
AcDbEntity
  8
Hidden
100
AcDbCircle
 10
525.6536087302544
 20
90.42413615956309
 30
0.0
 40
2.895607620000012
  0
LINE
  5
107A7
330
1F
100
AcDbEntity
  8
Hidden
100
AcDbLine
 10
521.4372011102543
 20
89.66213615956315
 30
0.0
 11
522.1802031689215
 21
89.66213615956304
 31
0.0
  0
LINE
  5
107A8
330
1F
100
AcDbEntity
  8
Hidden
100
AcDbLine
 10
521.4372011102543
 20
91.18613615956304
 30
0.0
 11
522.1802031689215
 21
91.18613615956304
 31
0.0
  0
LINE
  5
107A9
330
1F
100
AcDbEntity
  8
Hidden
100
AcDbLine
 10
521.4372011102543
 20
89.66213615956315
 30
0.0
 11
521.4372011102543
 21
91.18613615956304
 31
0.0
  0
LINE
  5
107AA
330
1F
100
AcDbEntity
  8
Hidden
100
AcDbLine
 10
529.8700163502544
 20
89.66213615956315
 30
0.0
 11
529.1270142915873
 21
89.66213615956304
 31
0.0
  0
LINE
  5
107AB
330
1F
100
AcDbEntity
  8
Hidden
100
AcDbLine
 10
529.8700163502544
 20
91.18613615956304
 30
0.0
 11
529.1270142915873
 21
91.18613615956304
 31
0.0
  0
LINE
  5
107AC
330
1F
100
AcDbEntity
  8
Hidden
100
AcDbLine
 10
529.8700163502544
 20
89.66213615956315
 30
0.0
 11
529.8700163502544
 21
91.18613615956304
 31
0.0
  0
LINE
  5
107AD
330
1F
100
AcDbEntity
  8
Hidden
100
AcDbLine
 10
526.4156011102544
 20
86.95072892655401
 30
0.0
 11
526.4156011102544
 21
87.6305880390139
 31
0.0
  0
LINE
  5
107AE
330
1F
100
AcDbEntity
  8
Hidden
100
AcDbLine
 10
524.8916011102544
 20
86.95073226992395
 30
0.0
 11
524.8916011102544
 21
87.63059219605294
 31
0.0
  0
CIRCLE
  5
107AF
330
1F
100
AcDbEntity
  8
Hidden
100
AcDbCircle
 10
525.653608730255
 20
90.42413615956332
 30
0.0
 40
4.673600000000006
  0
LINE
  5
107B0
330
1F
100
AcDbEntity
  8
CENTER
100
AcDbLine
 10
523.367608730255
 20
90.42413615956332
 30
0.0
 11
527.939608730255
 21
90.42413615956332
 31
0.0
  0
LINE
  5
107B1
330
1F
100
AcDbEntity
  8
CENTER
100
AcDbLine
 10
525.653608730255
 20
88.13813615956338
 30
0.0
 11
525.653608730255
 21
92.71013615956325
 31
0.0
  0
CIRCLE
  5
107B2
330
1F
100
AcDbEntity
  8
Hidden
100
AcDbCircle
 10
538.3536087302544
 20
90.42413615956309
 30
0.0
 40
1.895462085378659
  0
CIRCLE
  5
107B3
330
1F
100
AcDbEntity
  8
Hidden
100
AcDbCircle
 10
538.3536087302544
 20
90.42413615956309
 30
0.0
 40
3.556007620000014
  0
CIRCLE
  5
107B4
330
1F
100
AcDbEntity
  8
Hidden
100
AcDbCircle
 10
538.3536087302544
 20
90.42413615956309
 30
0.0
 40
2.895607620000012
  0
LINE
  5
107B5
330
1F
100
AcDbEntity
  8
Hidden
100
AcDbLine
 10
534.1372011102544
 20
89.66213615956315
 30
0.0
 11
534.8802031689215
 21
89.66213615956304
 31
0.0
  0
LINE
  5
107B6
330
1F
100
AcDbEntity
  8
Hidden
100
AcDbLine
 10
534.1372011102544
 20
91.18613615956304
 30
0.0
 11
534.8802031689215
 21
91.18613615956304
 31
0.0
  0
LINE
  5
107B7
330
1F
100
AcDbEntity
  8
Hidden
100
AcDbLine
 10
534.1372011102544
 20
89.66213615956315
 30
0.0
 11
534.1372011102544
 21
91.18613615956304
 31
0.0
  0
LINE
  5
107B8
330
1F
100
AcDbEntity
  8
Hidden
100
AcDbLine
 10
542.5700163502544
 20
89.66213615956315
 30
0.0
 11
541.8270142915873
 21
89.66213615956304
 31
0.0
  0
LINE
  5
107B9
330
1F
100
AcDbEntity
  8
Hidden
100
AcDbLine
 10
542.5700163502544
 20
91.18613615956304
 30
0.0
 11
541.8270142915873
 21
91.18613615956304
 31
0.0
  0
LINE
  5
107BA
330
1F
100
AcDbEntity
  8
Hidden
100
AcDbLine
 10
542.5700163502544
 20
89.66213615956315
 30
0.0
 11
542.5700163502544
 21
91.18613615956304
 31
0.0
  0
LINE
  5
107BB
330
1F
100
AcDbEntity
  8
Hidden
100
AcDbLine
 10
539.1156011102544
 20
86.95072892655401
 30
0.0
 11
539.1156011102544
 21
87.6305880390139
 31
0.0
  0
LINE
  5
107BC
330
1F
100
AcDbEntity
  8
Hidden
100
AcDbLine
 10
537.5916011102544
 20
86.95073226992395
 30
0.0
 11
537.5916011102544
 21
87.63059219605294
 31
0.0
  0
CIRCLE
  5
107BD
330
1F
100
AcDbEntity
  8
Hidden
100
AcDbCircle
 10
538.353608730255
 20
90.42413615956332
 30
0.0
 40
4.673600000000006
  0
LINE
  5
107BE
330
1F
100
AcDbEntity
  8
CENTER
100
AcDbLine
 10
536.067608730255
 20
90.42413615956332
 30
0.0
 11
540.639608730255
 21
90.42413615956332
 31
0.0
  0
LINE
  5
107BF
330
1F
100
AcDbEntity
  8
CENTER
100
AcDbLine
 10
538.353608730255
 20
88.13813615956338
 30
0.0
 11
538.353608730255
 21
92.71013615956325
 31
0.0
  0
LEADER
  5
107C7
330
1F
100
AcDbEntity
  8
DIM
100
AcDbLeader
  3
METRIC
 73
     0
 40
5.256725784447476
 41
55.36021828103684
 76
     3
 10
426.8525908397018
 20
71.20585604069731
 30
0.0
 10
449.9306693824185
 20
46.78051594144804
 30
0.0
 10
454.7166693824184
 20
46.78051594144804
 30
0.0
213
0.0
223
2.539999999999998
233
0.0
  0
MTEXT
  5
107C8
102
{ACAD_REACTORS
330
107C7
102
}
330
1F
100
AcDbEntity
  8
DIM
100
AcDbMText
 10
457.2166693824184
 20
44.24051594144808
 30
0.0
 40
5.08
 41
0.0
 71
     7
 72
     1
  1
FIBER-OPTIC TX
  7
ARIAL
 73
     1
 44
1.0
1001
ACAD
1000
MTEXTBEGIN
1070
    73
1070
     1
1070
    44
1040
1.0
1070
    74
1070
     0
1000
MTEXTEND
  0
LEADER
  5
107C9
330
1F
100
AcDbEntity
  8
DIM
100
AcDbLeader
  3
METRIC
 73
     0
 40
5.256725784447476
 41
56.15028649386085
 76
     3
 10
439.3089114495518
 20
71.03543549006417
 30
0.0
 10
454.6423831955515
 20
55.78051594144804
 30
0.0
 10
459.4283831955514
 20
55.78051594144804
 30
0.0
213
0.0
223
2.539999999999998
233
0.0
  0
MTEXT
  5
107CA
102
{ACAD_REACTORS
330
107C9
102
}
330
1F
100
AcDbEntity
  8
DIM
100
AcDbMText
 10
461.9283831955514
 20
53.24051594144808
 30
0.0
 40
5.08
 41
0.0
 71
     7
 72
     1
  1
FIBER-OPTIC RX
  7
ARIAL
 73
     1
 44
1.0
1001
ACAD
1000
MTEXTBEGIN
1070
    73
1070
     1
1070
    44
1040
1.0
1070
    74
1070
     0
1000
MTEXTEND
  0
LEADER
  5
107CB
330
1F
100
AcDbEntity
  8
DIM
100
AcDbLeader
  3
METRIC
 73
     0
 40
13.59595270577535
 41
67.51023192360164
 76
     3
 10
438.2957779285995
 20
94.83596697269275
 30
0.0
 10
458.9370995049677
 20
130.0706568982753
 30
0.0
 10
466.9370995049677
 20
130.0706568982753
 30
0.0
340
107CC
213
0.0
223
-2.5
233
0.0
  0
MTEXT
  5
107CC
102
{ACAD_XDICTIONARY
360
13492
102
}
102
{ACAD_REACTORS
330
107CB
102
}
330
1F
100
AcDbEntity
  8
DIM
100
AcDbMText
 10
469.4370995049677
 20
132.5706568982752
 30
0.0
 40
5.0
 41
0.0
 71
     1
 72
     1
  1
OPTIONAL 2nd ROW\PFIBER-OPTIC TX/RX
  7
ARIAL
 73
     1
 44
1.0
1001
ACAD
1000
MTEXTBEGIN
1070
    73
1070
     1
1070
    44
1040
1.0
1070
    74
1070
     0
1000
MTEXTEND
  0
LWPOLYLINE
  5
108EA
330
1F
100
AcDbEntity
  8
Front Panel
100
AcDbPolyline
 90
        8
 70
     1
 43
0.0
 10
202.2697571502564
 20
95.05059838627351
 42
-0.4142135623730951
 10
203.2857571502563
 20
96.06659838627349
 10
354.7534501502493
 20
96.06659838627349
 42
-0.4142135623730951
 10
355.7694501502494
 20
95.05059838627346
 10
355.7694501502494
 20
79.58263338627353
 42
-0.4142135623730951
 10
354.7534501502493
 20
78.56663338627351
 10
203.2857571502568
 20
78.56663338627345
 42
-0.4142135623730931
 10
202.2697571502568
 20
79.58263338627347
  0
LEADER
  5
108EB
330
1F
100
AcDbEntity
  8
DIM
100
AcDbLeader
  3
METRIC
 73
     0
 40
5.170532060027285
 41
44.85334242837654
 76
     3
 10
274.9500000000001
 20
96.06659838627349
 30
0.0
 10
294.3913215763682
 20
129.851288311856
 30
0.0
 10
302.3913215763682
 20
129.851288311856
 30
0.0
340
108EC
213
0.0
223
-2.5
233
0.0
  0
MTEXT
  5
108EC
102
{ACAD_REACTORS
330
108EB
102
}
330
1F
100
AcDbEntity
  8
DIM
100
AcDbMText
 10
304.8913215763682
 20
132.351288311856
 30
0.0
 40
5.0
 41
0.0
 71
     1
 72
     1
  1
LCD DISPLAY
  7
ARIAL
 73
     1
 44
1.0
1001
ACAD
1000
MTEXTBEGIN
1070
    73
1070
     1
1070
    44
1040
1.0
1070
    74
1070
     0
1000
MTEXTEND
  0
LINE
  5
10B43
330
1F
100
AcDbEntity
  8
Hidden
100
AcDbLine
 10
557.2537182077541
 20
448.3659648063781
 30
0.0
 11
557.253718207754
 21
444.4813617894006
 31
0.0
  0
LINE
  5
10B44
330
1F
100
AcDbEntity
  8
Hidden
100
AcDbLine
 10
553.8537250927539
 20
448.3659648063781
 30
0.0
 11
553.8537250927537
 21
444.4813617894006
 31
0.0
  0
LINE
  5
10B45
330
1F
100
AcDbEntity
  8
0
100
AcDbLine
 10
553.5537257002537
 20
439.6086140862751
 30
0.0
 11
553.5537257002538
 21
440.4813635893988
 31
0.0
  0
LINE
  5
10B46
330
1F
100
AcDbEntity
  8
0
100
AcDbLine
 10
557.553717600254
 20
439.6086140862751
 30
0.0
 11
557.5537176002541
 21
440.4813635893988
 31
0.0
  0
LINE
  5
10B4E
330
1F
100
AcDbEntity
  8
Hidden
100
AcDbLine
 10
557.553717600254
 20
448.0659654138777
 30
0.0
 11
553.5537257002527
 21
448.0659654138764
 31
0.0
  0
LINE
  5
10B4F
330
1F
100
AcDbEntity
  8
0
100
AcDbLine
 10
557.2537182077541
 20
448.3659648063781
 30
0.0
 11
553.8537250927539
 21
448.365964806377
 31
0.0
  0
LINE
  5
10B50
330
1F
100
AcDbEntity
  8
0
100
AcDbLine
 10
553.5537257002538
 20
448.0659654138777
 30
0.0
 11
553.8537250927539
 21
448.3659648063781
 31
0.0
  0
LINE
  5
10B51
330
1F
100
AcDbEntity
  8
0
100
AcDbLine
 10
557.553717600254
 20
448.0659654138777
 30
0.0
 11
557.2537182077541
 21
448.3659648063781
 31
0.0
  0
LINE
  5
10B56
330
1F
100
AcDbEntity
  8
0
100
AcDbLine
 10
553.5537257002538
 20
444.4813617894006
 30
0.0
 11
553.5537257002538
 21
448.0659654138777
 31
0.0
  0
LINE
  5
10B57
330
1F
100
AcDbEntity
  8
Hidden
100
AcDbLine
 10
553.8537250927537
 20
440.4813635893988
 30
0.0
 11
553.8537250927536
 21
439.6086140862751
 31
0.0
  0
LINE
  5
10B58
330
1F
100
AcDbEntity
  8
Hidden
100
AcDbLine
 10
557.253718207754
 20
440.4813635893988
 30
0.0
 11
557.2537182077542
 21
439.6086140862751
 31
0.0
  0
LINE
  5
10B59
330
1F
100
AcDbEntity
  8
0
100
AcDbLine
 10
557.553717600254
 20
444.4813617894006
 30
0.0
 11
557.553717600254
 21
448.0659654138777
 31
0.0
  0
LINE
  5
10BB1
330
1F
100
AcDbEntity
  8
CENTER
100
AcDbLine
 10
180.2854856502586
 20
619.2172879271403
 30
0.0
 11
180.2854856502586
 21
621.5032879271404
 31
0.0
  0
LINE
  5
10BB2
330
1F
100
AcDbEntity
  8
CENTER
100
AcDbLine
 10
181.4284856502587
 20
620.3602879271403
 30
0.0
 11
179.1424856502586
 21
620.3602879271403
 31
0.0
  0
CIRCLE
  5
10BE1
330
1F
100
AcDbEntity
  8
CONNECT
100
AcDbCircle
 10
222.3776036502595
 20
619.7619931396827
 30
0.0
 40
3.968750000000022
  0
CIRCLE
  5
10BE2
330
1F
100
AcDbEntity
  8
CONNECT
100
AcDbCircle
 10
222.3776036502595
 20
619.7619931396827
 30
0.0
 40
3.460750000000016
  0
CIRCLE
  5
10BE3
330
1F
100
AcDbEntity
  8
CONNECT
100
AcDbCircle
 10
222.3776036502595
 20
619.7619931396827
 30
0.0
 40
1.27
  0
ARC
  5
10BE4
330
1F
100
AcDbEntity
  8
CONNECT
100
AcDbCircle
 10
222.3776036502595
 20
619.7619931396827
 30
0.0
 40
1.27
100
AcDbArc
 50
0.0
 51
90.0
  0
LINE
  5
10BE5
330
1F
100
AcDbEntity
  8
CENTER
100
AcDbLine
 10
220.0916036502595
 20
619.7619931396827
 30
0.0
 11
224.6636036502594
 21
619.7619931396827
 31
0.0
  0
LINE
  5
10BE6
330
1F
100
AcDbEntity
  8
CENTER
100
AcDbLine
 10
222.3776036502595
 20
617.4759931396827
 30
0.0
 11
222.3776036502595
 21
622.0479931396827
 31
0.0
  0
LWPOLYLINE
  5
10BE7
330
1F
100
AcDbEntity
  8
FASTENER
100
AcDbPolyline
 90
        6
 70
     1
 43
0.0
 10
217.6151036502594
 20
617.0123624826672
 10
222.3776036502595
 20
614.2627318256516
 10
227.1401036502595
 20
617.012362482667
 10
227.1401036502595
 20
622.5116237966984
 10
222.3776036502595
 20
625.2612544537138
 10
217.6151036502594
 20
622.5116237966986
  0
CIRCLE
  5
10BE8
330
1F
100
AcDbEntity
  8
FASTENER
100
AcDbCircle
 10
222.3776036502595
 20
619.7619931396827
 30
0.0
 40
4.762499999999999
  0
LEADER
  5
10BE9
330
1F
100
AcDbEntity
  8
DIM
100
AcDbLeader
  3
METRIC
 73
     0
 40
13.810022737608
 41
34.74914051841746
 76
     3
 10
220.9654674632225
 20
623.4710156459182
 30
0.0
 10
202.7036703196407
 20
658.9853996536156
 30
0.0
 10
195.9176703196407
 20
658.9853996536156
 30
0.0
211
1.0
221
-0.0000000000000002
231
0.0
213
0.0000000000000006
223
2.54
233
0.0
  0
MTEXT
  5
10BEA
102
{ACAD_REACTORS
330
10BE9
102
}
330
1F
100
AcDbEntity
  8
DIM
100
AcDbMText
 10
193.4176703196407
 20
656.4453996536157
 30
0.0
 40
5.08
 41
0.0
 71
     6
 72
     1
  1
+24VDC\PPOWER IN
  7
ARIAL
 73
     1
 44
1.0
1001
ACAD
1000
MTEXTBEGIN
1070
    73
1070
     1
1070
    44
1040
1.0
1070
    74
1070
     0
1000
MTEXTEND
  0
LEADER
  5
10BEB
330
1F
100
AcDbEntity
  8
DIM
100
AcDbLeader
  3
METRIC
 73
     0
 40
5.08
 41
37.54210095497953
 76
     3
 10
274.0412036502582
 20
633.1729931396822
 30
0.0
 10
290.5010766408909
 20
656.2004396355441
 30
0.0
 10
295.2870766408908
 20
656.2004396355441
 30
0.0
211
1.0
221
-0.0000000000000002
231
0.0
213
-0.0000000000000006
223
-2.54
233
0.0
  0
MTEXT
  5
10BEC
102
{ACAD_REACTORS
330
10BEB
102
}
330
1F
100
AcDbEntity
  8
DIM
100
AcDbMText
 10
297.7870766408908
 20
658.7404396355441
 30
0.0
 40
5.08
 41
0.0
 71
     1
 72
     1
  1
ETHERNET
  7
ARIAL
 73
     1
 44
1.0
1001
ACAD
1000
MTEXTBEGIN
1070
    73
1070
     1
1070
    44
1040
1.0
1070
    74
1070
     0
1000
MTEXTEND
  0
LEADER
  5
10BED
330
1F
100
AcDbEntity
  8
DIM
100
AcDbLeader
  3
METRIC
 73
     0
 40
5.253260572987721
 41
46.72837653478854
 76
     3
 10
210.5798013359302
 20
615.1768615206938
 30
0.0
 10
228.7518618454101
 20
563.3467374350204
 30
0.0
 10
234.5378618454101
 20
563.3467374350204
 30
0.0
211
1.0
221
-0.0000000000000002
231
0.0
213
-0.0000000000000006
223
-2.54
233
0.0
  0
MTEXT
  5
10BEE
102
{ACAD_REACTORS
330
10BED
102
}
330
1F
100
AcDbEntity
  8
DIM
100
AcDbMText
 10
237.0378618454101
 20
565.8867374350204
 30
0.0
 40
5.08
 41
0.0
 71
     1
 72
     1
  1
STATUS LEDs
  7
ARIAL
 73
     1
 44
1.0
1001
ACAD
1000
MTEXTBEGIN
1070
    73
1070
     1
1070
    44
1040
1.0
1070
    74
1070
     0
1000
MTEXTEND
  0
LEADER
  5
10BEF
330
1F
100
AcDbEntity
  8
DIM
100
AcDbLeader
  3
METRIC
 73
     0
 40
5.173942701227831
 41
58.03547066848569
 76
     3
 10
182.034980309361
 20
617.3300742900047
 30
0.0
 10
206.1220654629449
 20
553.3270462797595
 30
0.0
 10
214.5446574078869
 20
553.3270462797594
 30
0.0
340
10BF0
213
0.1208506602829396
223
-2.5
233
0.0
  0
MTEXT
  5
10BF0
102
{ACAD_REACTORS
330
10BEF
102
}
330
1F
100
AcDbEntity
  8
DIM
100
AcDbMText
 10
216.923806747604
 20
555.8270462797594
 30
0.0
 40
5.0
 41
0.0
 71
     1
 72
     1
  1
M4 GROUND LUG
  7
ARIAL
 73
     1
 44
1.0
1001
ACAD
1000
MTEXTBEGIN
1070
    73
1070
     1
1070
    44
1040
1.0
1070
    74
1070
     0
1000
MTEXTEND
  0
LINE
  5
10BF3
330
1F
100
AcDbEntity
  8
CENTER
100
AcDbLine
 10
240.1576036502595
 20
616.8409931396848
 30
0.0
 11
240.1576036502595
 21
612.2689931396847
 31
0.0
  0
LINE
  5
10BF4
330
1F
100
AcDbEntity
  8
CENTER
100
AcDbLine
 10
237.8716036502596
 20
614.5549931396848
 30
0.0
 11
242.4436036502595
 21
614.5549931396848
 31
0.0
  0
CIRCLE
  5
10BF5
330
1F
100
AcDbEntity
  8
SWITCH
100
AcDbCircle
 10
240.1576036502596
 20
614.5549931396848
 30
0.0
 40
2.374900000000003
  0
CIRCLE
  5
10BF6
330
1F
100
AcDbEntity
  8
SWITCH
100
AcDbCircle
 10
240.1576036502596
 20
614.5549931396848
 30
0.0
 40
1.270000000000001
  0
LINE
  5
10BF7
330
1F
100
AcDbEntity
  8
0
  6
Continuous
 62
     7
370
    15
100
AcDbLine
 10
258.6582036502585
 20
632.2999931396816
 30
0.0
 11
258.6582036502585
 21
620.3299931396816
 31
0.0
  0
LINE
  5
10BF8
330
1F
100
AcDbEntity
  8
0
  6
Continuous
 62
     7
370
    15
100
AcDbLine
 10
258.6582036502585
 20
620.3299931396816
 30
0.0
 11
274.1842036502585
 21
620.3299931396816
 31
0.0
  0
LINE
  5
10BF9
330
1F
100
AcDbEntity
  8
0
  6
Continuous
 62
     7
370
    15
100
AcDbLine
 10
274.1842036502585
 20
620.3299931396816
 30
0.0
 11
274.1842036502585
 21
632.2999931396816
 31
0.0
  0
LINE
  5
10BFA
330
1F
100
AcDbEntity
  8
0
  6
Continuous
 62
     7
370
    15
100
AcDbLine
 10
274.1842036502585
 20
632.2999931396816
 30
0.0
 11
258.6582036502585
 21
632.2999931396816
 31
0.0
  0
CIRCLE
  5
10BFB
330
1F
100
AcDbEntity
  8
LED
100
AcDbCircle
 10
196.4696036502592
 20
616.4599931396826
 30
0.0
 40
1.523999999999992
  0
LINE
  5
10BFC
330
1F
100
AcDbEntity
  8
CENTER
100
AcDbLine
 10
196.4696036502592
 20
615.3169931396827
 30
0.0
 11
196.4696036502592
 21
617.6029931396827
 31
0.0
  0
LINE
  5
10BFD
330
1F
100
AcDbEntity
  8
CENTER
100
AcDbLine
 10
195.3266036502593
 20
616.4599931396828
 30
0.0
 11
197.6126036502592
 21
616.4599931396828
 31
0.0
  0
CIRCLE
  5
10BFE
330
1F
100
AcDbEntity
  8
LED
100
AcDbCircle
 10
200.7876036502592
 20
616.4599931396826
 30
0.0
 40
1.523999999999992
  0
LINE
  5
10BFF
330
1F
100
AcDbEntity
  8
CENTER
100
AcDbLine
 10
200.7876036502592
 20
615.3169931396827
 30
0.0
 11
200.7876036502592
 21
617.6029931396827
 31
0.0
  0
LINE
  5
10C00
330
1F
100
AcDbEntity
  8
CENTER
100
AcDbLine
 10
199.6446036502593
 20
616.4599931396828
 30
0.0
 11
201.9306036502592
 21
616.4599931396828
 31
0.0
  0
CIRCLE
  5
10C01
330
1F
100
AcDbEntity
  8
LED
100
AcDbCircle
 10
205.1056036502593
 20
616.4599931396826
 30
0.0
 40
1.523999999999992
  0
LINE
  5
10C02
330
1F
100
AcDbEntity
  8
CENTER
100
AcDbLine
 10
205.1056036502593
 20
615.3169931396827
 30
0.0
 11
205.1056036502593
 21
617.6029931396827
 31
0.0
  0
LINE
  5
10C03
330
1F
100
AcDbEntity
  8
CENTER
100
AcDbLine
 10
203.9626036502593
 20
616.4599931396828
 30
0.0
 11
206.2486036502592
 21
616.4599931396828
 31
0.0
  0
CIRCLE
  5
10C04
330
1F
100
AcDbEntity
  8
LED
100
AcDbCircle
 10
209.4236036502593
 20
616.4599931396826
 30
0.0
 40
1.523999999999992
  0
LINE
  5
10C05
330
1F
100
AcDbEntity
  8
CENTER
100
AcDbLine
 10
209.4236036502593
 20
615.3169931396827
 30
0.0
 11
209.4236036502593
 21
617.6029931396827
 31
0.0
  0
LINE
  5
10C06
330
1F
100
AcDbEntity
  8
CENTER
100
AcDbLine
 10
208.2806036502593
 20
616.4599931396828
 30
0.0
 11
210.5666036502593
 21
616.4599931396828
 31
0.0
  0
CIRCLE
  5
10C07
330
1F
100
AcDbEntity
  8
PANEL
100
AcDbCircle
 10
240.1576036502595
 20
614.5549931396847
 30
0.0
 40
2.654300000000003
  0
LWPOLYLINE
  5
10C08
330
1F
100
AcDbEntity
  8
PANEL
100
AcDbPolyline
 90
        8
 70
     1
 43
0.0
 10
258.8012036502584
 20
619.4569931396819
 10
274.0412036502583
 20
619.456993139682
 42
0.4142135623730969
 10
275.0572036502583
 20
620.4729931396819
 10
275.0572036502581
 20
632.1569931396822
 42
0.4142135623731021
 10
274.0412036502582
 20
633.1729931396822
 10
258.8012036502584
 20
633.172993139682
 42
0.4142135623730927
 10
257.7852036502584
 20
632.1569931396819
 10
257.7852036502584
 20
620.4729931396818
 42
0.4142135623731019
  0
LINE
  5
10C09
330
1F
100
AcDbEntity
  8
DIM
100
AcDbLine
 10
263.4212036502585
 20
622.3149931396816
 30
0.0
 11
269.4212036502585
 21
622.3149931396817
 31
0.0
  0
LINE
  5
10C0A
330
1F
100
AcDbEntity
  8
DIM
100
AcDbLine
 10
260.4212036502585
 20
623.3149931396816
 30
0.0
 11
263.4212036502585
 21
623.3149931396816
 31
0.0
  0
LINE
  5
10C0B
330
1F
100
AcDbEntity
  8
DIM
100
AcDbLine
 10
269.4212036502583
 20
623.3149931396817
 30
0.0
 11
272.4212036502585
 21
623.3149931396816
 31
0.0
  0
LINE
  5
10C0C
330
1F
100
AcDbEntity
  8
DIM
100
AcDbLine
 10
260.4212036502584
 20
629.3149931396816
 30
0.0
 11
272.4212036502585
 21
629.3149931396816
 31
0.0
  0
LINE
  5
10C0D
330
1F
100
AcDbEntity
  8
DIM
100
AcDbLine
 10
263.4212036502585
 20
623.3149931396817
 30
0.0
 11
263.4212036502585
 21
622.3149931396816
 31
0.0
  0
LINE
  5
10C0E
330
1F
100
AcDbEntity
  8
DIM
100
AcDbLine
 10
269.4212036502584
 20
623.3149931396816
 30
0.0
 11
269.4212036502585
 21
622.3149931396817
 31
0.0
  0
LINE
  5
10C0F
330
1F
100
AcDbEntity
  8
DIM
100
AcDbLine
 10
260.4212036502584
 20
629.3149931396816
 30
0.0
 11
260.4212036502585
 21
623.3149931396816
 31
0.0
  0
LINE
  5
10C10
330
1F
100
AcDbEntity
  8
DIM
100
AcDbLine
 10
272.4212036502585
 20
629.3149931396816
 30
0.0
 11
272.4212036502585
 21
623.3149931396816
 31
0.0
  0
LEADER
  5
10C11
330
1F
100
AcDbEntity
  8
DIM
100
AcDbLeader
  3
METRIC
 73
     0
 40
5.170532060027285
 41
22.59890859481583
 76
     3
 10
241.1808068352079
 20
612.1058374214194
 30
0.0
 10
252.173443684901
 20
574.3439106994628
 30
0.0
 10
257.8233896969968
 20
574.3439106994628
 30
0.0
340
10C12
211
1.0
221
-0.0000000000000002
231
0.0
213
-0.0000000000000006
223
-2.5
233
0.0
  0
MTEXT
  5
10C12
102
{ACAD_REACTORS
330
10C11
102
}
330
1F
100
AcDbEntity
  8
DIM
100
AcDbMText
 10
260.3233896969968
 20
576.8439106994629
 30
0.0
 40
5.0
 41
0.0
 71
     1
 72
     1
  1
\A1;RESET
  7
ARIAL
 73
     1
 44
1.0
1001
ACAD
1000
MTEXTBEGIN
1070
    73
1070
     1
1070
    44
1040
1.0
1070
    74
1070
     0
1000
MTEXTEND
  0
LINE
  5
10C14
330
1F
100
AcDbEntity
  8
CENTER
100
AcDbLine
 10
266.4212036502583
 20
628.6009931396821
 30
0.0
 11
266.4212036502583
 21
624.0289931396821
 31
0.0
  0
LINE
  5
10C15
330
1F
100
AcDbEntity
  8
CENTER
100
AcDbLine
 10
264.1352036502583
 20
626.3149931396822
 30
0.0
 11
268.7072036502582
 21
626.3149931396822
 31
0.0
  0
LINE
  5
112EC
330
1F
100
AcDbEntity
  8
CONNECTOR
100
AcDbLine
 10
433.1976036502537
 20
200.7276336662742
 30
0.0
 11
440.3096036502538
 21
200.7276336662743
 31
0.0
  0
LINE
  5
112ED
330
1F
100
AcDbEntity
  8
CONNECTOR
100
AcDbLine
 10
432.5372036502538
 20
205.5536336662741
 30
0.0
 11
433.1976036502537
 21
205.5536336662742
 31
0.0
  0
LINE
  5
112EE
330
1F
100
AcDbEntity
  8
CONNECTOR
100
AcDbLine
 10
440.3096036502538
 20
205.5536336662743
 30
0.0
 11
440.9700036502538
 21
205.5536336662743
 31
0.0
  0
LINE
  5
112EF
330
1F
100
AcDbEntity
  8
CONNECTOR
100
AcDbLine
 10
432.5372036502538
 20
204.0296336662742
 30
0.0
 11
433.1976036502537
 21
204.0296336662742
 31
0.0
  0
LINE
  5
112F0
330
1F
100
AcDbEntity
  8
CONNECTOR
100
AcDbLine
 10
440.3096036502538
 20
204.0296336662742
 30
0.0
 11
440.9700036502538
 21
204.0296336662742
 31
0.0
  0
LINE
  5
112F1
330
1F
100
AcDbEntity
  8
CONNECTOR
100
AcDbLine
 10
437.5156036502538
 20
207.3316336662741
 30
0.0
 11
437.5156036502538
 21
200.7276336662743
 31
0.0
  0
LINE
  5
112F2
330
1F
100
AcDbEntity
  8
CONNECTOR
100
AcDbLine
 10
435.9916036502538
 20
207.3316336662741
 30
0.0
 11
435.9916036502538
 21
200.7276336662742
 31
0.0
  0
ARC
  5
112F3
330
1F
100
AcDbEntity
  8
CONNECTOR
100
AcDbCircle
 10
436.7536036502539
 20
207.3316336662741
 30
0.0
 40
0.7620000000000007
100
AcDbArc
 50
0.0
 51
180.0
  0
LINE
  5
112F4
330
1F
100
AcDbEntity
  8
CONNECTOR
  6
Continuous
100
AcDbLine
 10
440.3096036502538
 20
210.8086158862749
 30
0.0
 11
440.3096036502538
 21
200.7276336662743
 31
0.0
  0
LINE
  5
112F5
330
1F
100
AcDbEntity
  8
CONNECTOR
  6
Continuous
100
AcDbLine
 10
440.9700036502538
 20
205.5536336662743
 30
0.0
 11
440.9700036502538
 21
204.0296336662742
 31
0.0
  0
LINE
  5
112F6
330
1F
100
AcDbEntity
  8
CONNECTOR
  6
Continuous
100
AcDbLine
 10
433.1976036502538
 20
210.8086158862749
 30
0.0
 11
433.1976036502537
 21
200.7276336662742
 31
0.0
  0
LINE
  5
112F7
330
1F
100
AcDbEntity
  8
CONNECTOR
  6
Continuous
100
AcDbLine
 10
432.5372036502538
 20
205.5536336662741
 30
0.0
 11
432.5372036502538
 21
204.0296336662742
 31
0.0
  0
LINE
  5
112F8
330
1F
100
AcDbEntity
  8
CONNECTOR
100
AcDbLine
 10
445.8976036502538
 20
200.7276336662742
 30
0.0
 11
453.0096036502538
 21
200.7276336662743
 31
0.0
  0
LINE
  5
112F9
330
1F
100
AcDbEntity
  8
CONNECTOR
100
AcDbLine
 10
445.2372036502538
 20
205.5536336662741
 30
0.0
 11
445.8976036502538
 21
205.5536336662742
 31
0.0
  0
LINE
  5
112FA
330
1F
100
AcDbEntity
  8
CONNECTOR
100
AcDbLine
 10
453.0096036502538
 20
205.5536336662743
 30
0.0
 11
453.6700036502538
 21
205.5536336662743
 31
0.0
  0
LINE
  5
112FB
330
1F
100
AcDbEntity
  8
CONNECTOR
100
AcDbLine
 10
445.2372036502538
 20
204.0296336662742
 30
0.0
 11
445.8976036502538
 21
204.0296336662742
 31
0.0
  0
LINE
  5
112FC
330
1F
100
AcDbEntity
  8
CONNECTOR
100
AcDbLine
 10
453.0096036502538
 20
204.0296336662742
 30
0.0
 11
453.6700036502538
 21
204.0296336662742
 31
0.0
  0
LINE
  5
112FD
330
1F
100
AcDbEntity
  8
CONNECTOR
100
AcDbLine
 10
450.2156036502538
 20
207.3316336662741
 30
0.0
 11
450.2156036502538
 21
200.7276336662743
 31
0.0
  0
LINE
  5
112FE
330
1F
100
AcDbEntity
  8
CONNECTOR
100
AcDbLine
 10
448.6916036502537
 20
207.3316336662741
 30
0.0
 11
448.6916036502537
 21
200.7276336662742
 31
0.0
  0
ARC
  5
112FF
330
1F
100
AcDbEntity
  8
CONNECTOR
100
AcDbCircle
 10
449.4536036502538
 20
207.3316336662741
 30
0.0
 40
0.7620000000000007
100
AcDbArc
 50
0.0
 51
180.0
  0
LINE
  5
11300
330
1F
100
AcDbEntity
  8
CONNECTOR
  6
Continuous
100
AcDbLine
 10
453.0096036502539
 20
210.8086158862749
 30
0.0
 11
453.0096036502538
 21
200.7276336662743
 31
0.0
  0
LINE
  5
11301
330
1F
100
AcDbEntity
  8
CONNECTOR
  6
Continuous
100
AcDbLine
 10
453.6700036502538
 20
205.5536336662743
 30
0.0
 11
453.6700036502538
 21
204.0296336662742
 31
0.0
  0
LINE
  5
11302
330
1F
100
AcDbEntity
  8
CONNECTOR
  6
Continuous
100
AcDbLine
 10
445.8976036502538
 20
210.8086158862749
 30
0.0
 11
445.8976036502538
 21
200.7276336662742
 31
0.0
  0
LINE
  5
11303
330
1F
100
AcDbEntity
  8
CONNECTOR
  6
Continuous
100
AcDbLine
 10
445.2372036502538
 20
205.5536336662741
 30
0.0
 11
445.2372036502538
 21
204.0296336662742
 31
0.0
  0
LINE
  5
11304
330
1F
100
AcDbEntity
  8
CONNECTOR
100
AcDbLine
 10
458.5976036502538
 20
200.7276336662742
 30
0.0
 11
465.7096036502538
 21
200.7276336662743
 31
0.0
  0
LINE
  5
11305
330
1F
100
AcDbEntity
  8
CONNECTOR
100
AcDbLine
 10
457.9372036502538
 20
205.5536336662741
 30
0.0
 11
458.5976036502538
 21
205.5536336662742
 31
0.0
  0
LINE
  5
11306
330
1F
100
AcDbEntity
  8
CONNECTOR
100
AcDbLine
 10
465.7096036502538
 20
205.5536336662743
 30
0.0
 11
466.3700036502539
 21
205.5536336662743
 31
0.0
  0
LINE
  5
11307
330
1F
100
AcDbEntity
  8
CONNECTOR
100
AcDbLine
 10
457.9372036502538
 20
204.0296336662742
 30
0.0
 11
458.5976036502538
 21
204.0296336662742
 31
0.0
  0
LINE
  5
11308
330
1F
100
AcDbEntity
  8
CONNECTOR
100
AcDbLine
 10
465.7096036502538
 20
204.0296336662742
 30
0.0
 11
466.3700036502539
 21
204.0296336662742
 31
0.0
  0
LINE
  5
11309
330
1F
100
AcDbEntity
  8
CONNECTOR
100
AcDbLine
 10
462.9156036502537
 20
207.3316336662741
 30
0.0
 11
462.9156036502537
 21
200.7276336662743
 31
0.0
  0
LINE
  5
1130A
330
1F
100
AcDbEntity
  8
CONNECTOR
100
AcDbLine
 10
461.3916036502537
 20
207.3316336662741
 30
0.0
 11
461.3916036502537
 21
200.7276336662742
 31
0.0
  0
ARC
  5
1130B
330
1F
100
AcDbEntity
  8
CONNECTOR
100
AcDbCircle
 10
462.1536036502538
 20
207.3316336662741
 30
0.0
 40
0.7620000000000007
100
AcDbArc
 50
0.0
 51
180.0
  0
LINE
  5
1130C
330
1F
100
AcDbEntity
  8
CONNECTOR
  6
Continuous
100
AcDbLine
 10
465.7096036502538
 20
210.8086158862749
 30
0.0
 11
465.7096036502538
 21
200.7276336662743
 31
0.0
  0
LINE
  5
1130D
330
1F
100
AcDbEntity
  8
CONNECTOR
  6
Continuous
100
AcDbLine
 10
466.3700036502539
 20
205.5536336662743
 30
0.0
 11
466.3700036502539
 21
204.0296336662742
 31
0.0
  0
LINE
  5
1130E
330
1F
100
AcDbEntity
  8
CONNECTOR
  6
Continuous
100
AcDbLine
 10
458.5976036502538
 20
210.8086158862749
 30
0.0
 11
458.5976036502538
 21
200.7276336662742
 31
0.0
  0
LINE
  5
1130F
330
1F
100
AcDbEntity
  8
CONNECTOR
  6
Continuous
100
AcDbLine
 10
457.9372036502538
 20
205.5536336662741
 30
0.0
 11
457.9372036502538
 21
204.0296336662742
 31
0.0
  0
LINE
  5
11310
330
1F
100
AcDbEntity
  8
CONNECTOR
100
AcDbLine
 10
471.2976036502538
 20
200.7276336662742
 30
0.0
 11
478.4096036502538
 21
200.7276336662743
 31
0.0
  0
LINE
  5
11311
330
1F
100
AcDbEntity
  8
CONNECTOR
100
AcDbLine
 10
470.6372036502538
 20
205.5536336662741
 30
0.0
 11
471.2976036502538
 21
205.5536336662742
 31
0.0
  0
LINE
  5
11312
330
1F
100
AcDbEntity
  8
CONNECTOR
100
AcDbLine
 10
478.4096036502538
 20
205.5536336662743
 30
0.0
 11
479.0700036502538
 21
205.5536336662743
 31
0.0
  0
LINE
  5
11313
330
1F
100
AcDbEntity
  8
CONNECTOR
100
AcDbLine
 10
470.6372036502538
 20
204.0296336662742
 30
0.0
 11
471.2976036502538
 21
204.0296336662742
 31
0.0
  0
LINE
  5
11314
330
1F
100
AcDbEntity
  8
CONNECTOR
100
AcDbLine
 10
478.4096036502538
 20
204.0296336662742
 30
0.0
 11
479.0700036502538
 21
204.0296336662742
 31
0.0
  0
LINE
  5
11315
330
1F
100
AcDbEntity
  8
CONNECTOR
100
AcDbLine
 10
475.6156036502538
 20
207.3316336662741
 30
0.0
 11
475.6156036502538
 21
200.7276336662743
 31
0.0
  0
LINE
  5
11316
330
1F
100
AcDbEntity
  8
CONNECTOR
100
AcDbLine
 10
474.0916036502538
 20
207.3316336662741
 30
0.0
 11
474.0916036502538
 21
200.7276336662742
 31
0.0
  0
ARC
  5
11317
330
1F
100
AcDbEntity
  8
CONNECTOR
100
AcDbCircle
 10
474.8536036502539
 20
207.3316336662741
 30
0.0
 40
0.7620000000000007
100
AcDbArc
 50
0.0
 51
180.0
  0
LINE
  5
11318
330
1F
100
AcDbEntity
  8
CONNECTOR
  6
Continuous
100
AcDbLine
 10
478.409603650254
 20
210.8086158862749
 30
0.0
 11
478.4096036502538
 21
200.7276336662743
 31
0.0
  0
LINE
  5
11319
330
1F
100
AcDbEntity
  8
CONNECTOR
  6
Continuous
100
AcDbLine
 10
479.0700036502538
 20
205.5536336662743
 30
0.0
 11
479.0700036502538
 21
204.0296336662742
 31
0.0
  0
LINE
  5
1131A
330
1F
100
AcDbEntity
  8
CONNECTOR
  6
Continuous
100
AcDbLine
 10
471.2976036502538
 20
210.8086158862749
 30
0.0
 11
471.2976036502538
 21
200.7276336662742
 31
0.0
  0
LINE
  5
1131B
330
1F
100
AcDbEntity
  8
CONNECTOR
  6
Continuous
100
AcDbLine
 10
470.6372036502538
 20
205.5536336662741
 30
0.0
 11
470.6372036502538
 21
204.0296336662742
 31
0.0
  0
LINE
  5
1131C
330
1F
100
AcDbEntity
  8
CONNECTOR
100
AcDbLine
 10
483.9976036502538
 20
200.7276336662742
 30
0.0
 11
491.1096036502538
 21
200.7276336662743
 31
0.0
  0
LINE
  5
1131D
330
1F
100
AcDbEntity
  8
CONNECTOR
100
AcDbLine
 10
483.3372036502538
 20
205.5536336662741
 30
0.0
 11
483.9976036502538
 21
205.5536336662742
 31
0.0
  0
LINE
  5
1131E
330
1F
100
AcDbEntity
  8
CONNECTOR
100
AcDbLine
 10
491.1096036502538
 20
205.5536336662743
 30
0.0
 11
491.7700036502538
 21
205.5536336662743
 31
0.0
  0
LINE
  5
1131F
330
1F
100
AcDbEntity
  8
CONNECTOR
100
AcDbLine
 10
483.3372036502538
 20
204.0296336662742
 30
0.0
 11
483.9976036502538
 21
204.0296336662742
 31
0.0
  0
LINE
  5
11320
330
1F
100
AcDbEntity
  8
CONNECTOR
100
AcDbLine
 10
491.1096036502538
 20
204.0296336662742
 30
0.0
 11
491.7700036502538
 21
204.0296336662742
 31
0.0
  0
LINE
  5
11321
330
1F
100
AcDbEntity
  8
CONNECTOR
100
AcDbLine
 10
488.3156036502538
 20
207.3316336662741
 30
0.0
 11
488.3156036502538
 21
200.7276336662743
 31
0.0
  0
LINE
  5
11322
330
1F
100
AcDbEntity
  8
CONNECTOR
100
AcDbLine
 10
486.7916036502538
 20
207.3316336662741
 30
0.0
 11
486.7916036502538
 21
200.7276336662742
 31
0.0
  0
ARC
  5
11323
330
1F
100
AcDbEntity
  8
CONNECTOR
100
AcDbCircle
 10
487.5536036502539
 20
207.3316336662741
 30
0.0
 40
0.7620000000000007
100
AcDbArc
 50
0.0
 51
180.0
  0
LINE
  5
11324
330
1F
100
AcDbEntity
  8
CONNECTOR
  6
Continuous
100
AcDbLine
 10
491.1096036502539
 20
210.8086158862749
 30
0.0
 11
491.1096036502538
 21
200.7276336662743
 31
0.0
  0
LINE
  5
11325
330
1F
100
AcDbEntity
  8
CONNECTOR
  6
Continuous
100
AcDbLine
 10
491.7700036502538
 20
205.5536336662743
 30
0.0
 11
491.7700036502538
 21
204.0296336662742
 31
0.0
  0
LINE
  5
11326
330
1F
100
AcDbEntity
  8
CONNECTOR
  6
Continuous
100
AcDbLine
 10
483.9976036502539
 20
210.8086158862749
 30
0.0
 11
483.9976036502538
 21
200.7276336662742
 31
0.0
  0
LINE
  5
11327
330
1F
100
AcDbEntity
  8
CONNECTOR
  6
Continuous
100
AcDbLine
 10
483.3372036502538
 20
205.5536336662741
 30
0.0
 11
483.3372036502538
 21
204.0296336662742
 31
0.0
  0
LINE
  5
11328
330
1F
100
AcDbEntity
  8
CONNECTOR
100
AcDbLine
 10
496.6976036502538
 20
200.7276336662742
 30
0.0
 11
503.8096036502538
 21
200.7276336662743
 31
0.0
  0
LINE
  5
11329
330
1F
100
AcDbEntity
  8
CONNECTOR
100
AcDbLine
 10
496.0372036502538
 20
205.5536336662741
 30
0.0
 11
496.6976036502538
 21
205.5536336662742
 31
0.0
  0
LINE
  5
1132A
330
1F
100
AcDbEntity
  8
CONNECTOR
100
AcDbLine
 10
503.8096036502538
 20
205.5536336662743
 30
0.0
 11
504.4700036502538
 21
205.5536336662743
 31
0.0
  0
LINE
  5
1132B
330
1F
100
AcDbEntity
  8
CONNECTOR
100
AcDbLine
 10
496.0372036502538
 20
204.0296336662742
 30
0.0
 11
496.6976036502538
 21
204.0296336662742
 31
0.0
  0
LINE
  5
1132C
330
1F
100
AcDbEntity
  8
CONNECTOR
100
AcDbLine
 10
503.8096036502538
 20
204.0296336662742
 30
0.0
 11
504.4700036502538
 21
204.0296336662742
 31
0.0
  0
LINE
  5
1132D
330
1F
100
AcDbEntity
  8
CONNECTOR
100
AcDbLine
 10
501.0156036502538
 20
207.3316336662741
 30
0.0
 11
501.0156036502538
 21
200.7276336662743
 31
0.0
  0
LINE
  5
1132E
330
1F
100
AcDbEntity
  8
CONNECTOR
100
AcDbLine
 10
499.4916036502537
 20
207.3316336662741
 30
0.0
 11
499.4916036502537
 21
200.7276336662742
 31
0.0
  0
ARC
  5
1132F
330
1F
100
AcDbEntity
  8
CONNECTOR
100
AcDbCircle
 10
500.2536036502538
 20
207.3316336662741
 30
0.0
 40
0.7620000000000007
100
AcDbArc
 50
0.0
 51
180.0
  0
LINE
  5
11330
330
1F
100
AcDbEntity
  8
CONNECTOR
  6
Continuous
100
AcDbLine
 10
503.8096036502538
 20
210.8086158862749
 30
0.0
 11
503.8096036502538
 21
200.7276336662743
 31
0.0
  0
LINE
  5
11331
330
1F
100
AcDbEntity
  8
CONNECTOR
  6
Continuous
100
AcDbLine
 10
504.4700036502538
 20
205.5536336662743
 30
0.0
 11
504.4700036502538
 21
204.0296336662742
 31
0.0
  0
LINE
  5
11332
330
1F
100
AcDbEntity
  8
CONNECTOR
  6
Continuous
100
AcDbLine
 10
496.6976036502538
 20
210.8086158862749
 30
0.0
 11
496.6976036502538
 21
200.7276336662742
 31
0.0
  0
LINE
  5
11333
330
1F
100
AcDbEntity
  8
CONNECTOR
  6
Continuous
100
AcDbLine
 10
496.0372036502538
 20
205.5536336662741
 30
0.0
 11
496.0372036502538
 21
204.0296336662742
 31
0.0
  0
LINE
  5
11334
330
1F
100
AcDbEntity
  8
CONNECTOR
100
AcDbLine
 10
509.3976036502538
 20
200.7276336662742
 30
0.0
 11
516.5096036502538
 21
200.7276336662743
 31
0.0
  0
LINE
  5
11335
330
1F
100
AcDbEntity
  8
CONNECTOR
100
AcDbLine
 10
508.7372036502538
 20
205.5536336662741
 30
0.0
 11
509.3976036502538
 21
205.5536336662742
 31
0.0
  0
LINE
  5
11336
330
1F
100
AcDbEntity
  8
CONNECTOR
100
AcDbLine
 10
516.5096036502538
 20
205.5536336662743
 30
0.0
 11
517.1700036502539
 21
205.5536336662743
 31
0.0
  0
LINE
  5
11337
330
1F
100
AcDbEntity
  8
CONNECTOR
100
AcDbLine
 10
508.7372036502538
 20
204.0296336662742
 30
0.0
 11
509.3976036502538
 21
204.0296336662742
 31
0.0
  0
LINE
  5
11338
330
1F
100
AcDbEntity
  8
CONNECTOR
100
AcDbLine
 10
516.5096036502538
 20
204.0296336662742
 30
0.0
 11
517.1700036502539
 21
204.0296336662742
 31
0.0
  0
LINE
  5
11339
330
1F
100
AcDbEntity
  8
CONNECTOR
100
AcDbLine
 10
513.7156036502537
 20
207.3316336662741
 30
0.0
 11
513.7156036502537
 21
200.7276336662743
 31
0.0
  0
LINE
  5
1133A
330
1F
100
AcDbEntity
  8
CONNECTOR
100
AcDbLine
 10
512.1916036502538
 20
207.3316336662741
 30
0.0
 11
512.1916036502538
 21
200.7276336662742
 31
0.0
  0
ARC
  5
1133B
330
1F
100
AcDbEntity
  8
CONNECTOR
100
AcDbCircle
 10
512.9536036502538
 20
207.3316336662741
 30
0.0
 40
0.7620000000000007
100
AcDbArc
 50
0.0
 51
180.0
  0
LINE
  5
1133C
330
1F
100
AcDbEntity
  8
CONNECTOR
  6
Continuous
100
AcDbLine
 10
516.5096036502538
 20
210.8086158862749
 30
0.0
 11
516.5096036502538
 21
200.7276336662743
 31
0.0
  0
LINE
  5
1133D
330
1F
100
AcDbEntity
  8
CONNECTOR
  6
Continuous
100
AcDbLine
 10
517.1700036502539
 20
205.5536336662743
 30
0.0
 11
517.1700036502539
 21
204.0296336662742
 31
0.0
  0
LINE
  5
1133E
330
1F
100
AcDbEntity
  8
CONNECTOR
  6
Continuous
100
AcDbLine
 10
509.3976036502538
 20
210.8086158862749
 30
0.0
 11
509.3976036502538
 21
200.7276336662742
 31
0.0
  0
LINE
  5
1133F
330
1F
100
AcDbEntity
  8
CONNECTOR
  6
Continuous
100
AcDbLine
 10
508.7372036502538
 20
205.5536336662741
 30
0.0
 11
508.7372036502538
 21
204.0296336662742
 31
0.0
  0
LINE
  5
11340
330
1F
100
AcDbEntity
  8
CONNECTOR
100
AcDbLine
 10
522.0976036502539
 20
200.7276336662742
 30
0.0
 11
529.2096036502536
 21
200.7276336662743
 31
0.0
  0
LINE
  5
11341
330
1F
100
AcDbEntity
  8
CONNECTOR
100
AcDbLine
 10
521.4372036502538
 20
205.5536336662741
 30
0.0
 11
522.0976036502539
 21
205.5536336662742
 31
0.0
  0
LINE
  5
11342
330
1F
100
AcDbEntity
  8
CONNECTOR
100
AcDbLine
 10
529.2096036502536
 20
205.5536336662743
 30
0.0
 11
529.8700036502538
 21
205.5536336662743
 31
0.0
  0
LINE
  5
11343
330
1F
100
AcDbEntity
  8
CONNECTOR
100
AcDbLine
 10
521.4372036502538
 20
204.0296336662742
 30
0.0
 11
522.0976036502539
 21
204.0296336662742
 31
0.0
  0
LINE
  5
11344
330
1F
100
AcDbEntity
  8
CONNECTOR
100
AcDbLine
 10
529.2096036502536
 20
204.0296336662742
 30
0.0
 11
529.8700036502538
 21
204.0296336662742
 31
0.0
  0
LINE
  5
11345
330
1F
100
AcDbEntity
  8
CONNECTOR
100
AcDbLine
 10
526.4156036502538
 20
207.3316336662741
 30
0.0
 11
526.4156036502538
 21
200.7276336662743
 31
0.0
  0
LINE
  5
11346
330
1F
100
AcDbEntity
  8
CONNECTOR
100
AcDbLine
 10
524.8916036502537
 20
207.3316336662741
 30
0.0
 11
524.8916036502537
 21
200.7276336662742
 31
0.0
  0
ARC
  5
11347
330
1F
100
AcDbEntity
  8
CONNECTOR
100
AcDbCircle
 10
525.6536036502539
 20
207.3316336662741
 30
0.0
 40
0.7620000000000007
100
AcDbArc
 50
0.0
 51
180.0
  0
LINE
  5
11348
330
1F
100
AcDbEntity
  8
CONNECTOR
  6
Continuous
100
AcDbLine
 10
529.2096036502539
 20
210.8086158862749
 30
0.0
 11
529.2096036502536
 21
200.7276336662743
 31
0.0
  0
LINE
  5
11349
330
1F
100
AcDbEntity
  8
CONNECTOR
  6
Continuous
100
AcDbLine
 10
529.8700036502538
 20
205.5536336662743
 30
0.0
 11
529.8700036502538
 21
204.0296336662742
 31
0.0
  0
LINE
  5
1134A
330
1F
100
AcDbEntity
  8
CONNECTOR
  6
Continuous
100
AcDbLine
 10
522.0976036502539
 20
210.8086158862749
 30
0.0
 11
522.0976036502539
 21
200.7276336662742
 31
0.0
  0
LINE
  5
1134B
330
1F
100
AcDbEntity
  8
CONNECTOR
  6
Continuous
100
AcDbLine
 10
521.4372036502538
 20
205.5536336662741
 30
0.0
 11
521.4372036502538
 21
204.0296336662742
 31
0.0
  0
LINE
  5
1134C
330
1F
100
AcDbEntity
  8
CONNECTOR
100
AcDbLine
 10
534.7976036502538
 20
200.7276336662742
 30
0.0
 11
541.9096036502537
 21
200.7276336662743
 31
0.0
  0
LINE
  5
1134D
330
1F
100
AcDbEntity
  8
CONNECTOR
100
AcDbLine
 10
534.1372036502539
 20
205.5536336662741
 30
0.0
 11
534.7976036502538
 21
205.5536336662742
 31
0.0
  0
LINE
  5
1134E
330
1F
100
AcDbEntity
  8
CONNECTOR
100
AcDbLine
 10
541.9096036502537
 20
205.5536336662743
 30
0.0
 11
542.5700036502538
 21
205.5536336662743
 31
0.0
  0
LINE
  5
1134F
330
1F
100
AcDbEntity
  8
CONNECTOR
100
AcDbLine
 10
534.1372036502539
 20
204.0296336662742
 30
0.0
 11
534.7976036502538
 21
204.0296336662742
 31
0.0
  0
LINE
  5
11350
330
1F
100
AcDbEntity
  8
CONNECTOR
100
AcDbLine
 10
541.9096036502537
 20
204.0296336662742
 30
0.0
 11
542.5700036502538
 21
204.0296336662742
 31
0.0
  0
LINE
  5
11351
330
1F
100
AcDbEntity
  8
CONNECTOR
100
AcDbLine
 10
539.1156036502539
 20
207.3316336662741
 30
0.0
 11
539.1156036502539
 21
200.7276336662743
 31
0.0
  0
LINE
  5
11352
330
1F
100
AcDbEntity
  8
CONNECTOR
100
AcDbLine
 10
537.5916036502538
 20
207.3316336662741
 30
0.0
 11
537.5916036502538
 21
200.7276336662742
 31
0.0
  0
ARC
  5
11353
330
1F
100
AcDbEntity
  8
CONNECTOR
100
AcDbCircle
 10
538.3536036502539
 20
207.3316336662741
 30
0.0
 40
0.7620000000000007
100
AcDbArc
 50
0.0
 51
180.0
  0
LINE
  5
11354
330
1F
100
AcDbEntity
  8
CONNECTOR
  6
Continuous
100
AcDbLine
 10
541.909603650254
 20
210.8086158862749
 30
0.0
 11
541.9096036502537
 21
200.7276336662743
 31
0.0
  0
LINE
  5
11355
330
1F
100
AcDbEntity
  8
CONNECTOR
  6
Continuous
100
AcDbLine
 10
542.5700036502538
 20
205.5536336662743
 30
0.0
 11
542.5700036502538
 21
204.0296336662742
 31
0.0
  0
LINE
  5
11356
330
1F
100
AcDbEntity
  8
CONNECTOR
  6
Continuous
100
AcDbLine
 10
534.7976036502538
 20
210.8086158862749
 30
0.0
 11
534.7976036502538
 21
200.7276336662742
 31
0.0
  0
LINE
  5
11357
330
1F
100
AcDbEntity
  8
CONNECTOR
  6
Continuous
100
AcDbLine
 10
534.1372036502539
 20
205.5536336662741
 30
0.0
 11
534.1372036502539
 21
204.0296336662742
 31
0.0
  0
CIRCLE
  5
11943
330
1F
100
AcDbEntity
  8
Rear Panel
100
AcDbCircle
 10
180.2854856502585
 20
620.3602879271395
 30
0.0
 40
2.108199999999999
  0
CIRCLE
  5
11950
330
1F
100
AcDbEntity
  8
Rear Panel
100
AcDbCircle
 10
355.7276036502616
 20
614.8862084129697
 30
0.0
 40
3.968749999999998
  0
CIRCLE
  5
11951
330
1F
100
AcDbEntity
  8
Rear Panel
100
AcDbCircle
 10
368.9356036502614
 20
614.8862084129697
 30
0.0
 40
3.968749999999998
  0
CIRCLE
  5
11952
330
1F
100
AcDbEntity
  8
Rear Panel
100
AcDbCircle
 10
382.1436036502617
 20
614.8862084129697
 30
0.0
 40
3.968749999999998
  0
CIRCLE
  5
11953
330
1F
100
AcDbEntity
  8
Rear Panel
100
AcDbCircle
 10
395.3516036502616
 20
614.8862084129697
 30
0.0
 40
3.968749999999998
  0
LWPOLYLINE
  5
11954
330
1F
100
AcDbEntity
  8
Rear Panel
100
AcDbPolyline
 90
        4
 70
     1
 43
0.0
 10
412.5283536502614
 20
615.2862076129697
 10
412.5283536502614
 20
622.7861926129697
 42
0.9999999999999998
 10
404.5908536502614
 20
622.7861926129697
 10
404.5908536502614
 20
615.2862076129697
 42
0.9999999999999998
  0
LWPOLYLINE
  5
11955
330
1F
100
AcDbEntity
  8
Rear Panel
100
AcDbPolyline
 90
        4
 70
     1
 43
0.0
 10
425.7363536502613
 20
615.2862076129697
 10
425.7363536502613
 20
622.7861926129697
 42
0.9999999999999998
 10
417.7988536502613
 20
622.7861926129697
 10
417.7988536502613
 20
615.2862076129697
 42
0.9999999999999998
  0
LWPOLYLINE
  5
11956
330
1F
100
AcDbEntity
  8
Rear Panel
100
AcDbPolyline
 90
        4
 70
     1
 43
0.0
 10
438.9443536502616
 20
615.2862076129697
 10
438.9443536502616
 20
622.7861926129697
 42
0.9999999999999998
 10
431.0068536502616
 20
622.7861926129697
 10
431.0068536502616
 20
615.2862076129697
 42
0.9999999999999998
  0
LWPOLYLINE
  5
11957
330
1F
100
AcDbEntity
  8
Rear Panel
100
AcDbPolyline
 90
        4
 70
     1
 43
0.0
 10
452.1523536502615
 20
615.2862076129697
 10
452.1523536502615
 20
622.7861926129697
 42
0.9999999999999998
 10
444.2148536502615
 20
622.7861926129697
 10
444.2148536502615
 20
615.2862076129697
 42
0.9999999999999998
  0
CIRCLE
  5
11958
330
1F
100
AcDbEntity
  8
Rear Panel
100
AcDbCircle
 10
250.3176036502593
 20
604.2864185889696
 30
0.0
 40
2.108199999999999
  0
CIRCLE
  5
11959
330
1F
100
AcDbEntity
  8
Rear Panel
100
AcDbCircle
 10
262.0016036502591
 20
604.2864185889696
 30
0.0
 40
2.108199999999999
  0
CIRCLE
  5
1195A
330
1F
100
AcDbEntity
  8
Rear Panel
100
AcDbCircle
 10
273.6856036502593
 20
604.2864185889696
 30
0.0
 40
2.108199999999999
  0
CIRCLE
  5
1195B
330
1F
100
AcDbEntity
  8
VENT
100
AcDbCircle
 10
167.0096036502599
 20
631.0824223100084
 30
0.0
 40
2.381249999999999
  0
CIRCLE
  5
1195C
330
1F
100
AcDbEntity
  8
VENT
100
AcDbCircle
 10
174.6296036502598
 20
631.0824223100084
 30
0.0
 40
2.381249999999999
  0
CIRCLE
  5
1195D
330
1F
100
AcDbEntity
  8
VENT
100
AcDbCircle
 10
182.2496036502598
 20
631.0824223100084
 30
0.0
 40
2.381249999999999
  0
CIRCLE
  5
1195E
330
1F
100
AcDbEntity
  8
VENT
100
AcDbCircle
 10
189.8696036502598
 20
631.0824223100084
 30
0.0
 40
2.381249999999999
  0
CIRCLE
  5
1195F
330
1F
100
AcDbEntity
  8
VENT
100
AcDbCircle
 10
197.4896036502598
 20
631.0824223100084
 30
0.0
 40
2.381249999999999
  0
CIRCLE
  5
11960
330
1F
100
AcDbEntity
  8
VENT
100
AcDbCircle
 10
205.1096036502598
 20
631.0824223100084
 30
0.0
 40
2.381249999999999
  0
CIRCLE
  5
11961
330
1F
100
AcDbEntity
  8
VENT
100
AcDbCircle
 10
212.7296036502599
 20
631.0824223100084
 30
0.0
 40
2.381249999999999
  0
CIRCLE
  5
11962
330
1F
100
AcDbEntity
  8
VENT
100
AcDbCircle
 10
220.3496036502599
 20
631.0824223100084
 30
0.0
 40
2.381249999999999
  0
CIRCLE
  5
11963
330
1F
100
AcDbEntity
  8
VENT
100
AcDbCircle
 10
227.9696036502599
 20
631.0824223100084
 30
0.0
 40
2.381249999999999
  0
CIRCLE
  5
11964
330
1F
100
AcDbEntity
  8
VENT
100
AcDbCircle
 10
235.5896036502598
 20
631.0824223100084
 30
0.0
 40
2.381249999999999
  0
CIRCLE
  5
11965
330
1F
100
AcDbEntity
  8
VENT
100
AcDbCircle
 10
243.2096036502598
 20
631.0824223100084
 30
0.0
 40
2.381249999999999
  0
CIRCLE
  5
11966
330
1F
100
AcDbEntity
  8
VENT
100
AcDbCircle
 10
288.9296036502598
 20
631.0824223100084
 30
0.0
 40
2.381249999999999
  0
CIRCLE
  5
11967
330
1F
100
AcDbEntity
  8
VENT
100
AcDbCircle
 10
296.5496036502598
 20
631.0824223100084
 30
0.0
 40
2.381249999999999
  0
CIRCLE
  5
11968
330
1F
100
AcDbEntity
  8
VENT
100
AcDbCircle
 10
304.1696036502598
 20
631.0824223100084
 30
0.0
 40
2.381249999999999
  0
CIRCLE
  5
11969
330
1F
100
AcDbEntity
  8
VENT
100
AcDbCircle
 10
311.7896036502598
 20
631.0824223100084
 30
0.0
 40
2.381249999999999
  0
CIRCLE
  5
1196A
330
1F
100
AcDbEntity
  8
VENT
100
AcDbCircle
 10
319.4096036502598
 20
631.0824223100084
 30
0.0
 40
2.381249999999999
  0
CIRCLE
  5
1196B
330
1F
100
AcDbEntity
  8
VENT
100
AcDbCircle
 10
327.0296036502598
 20
631.0824223100084
 30
0.0
 40
2.381249999999999
  0
CIRCLE
  5
1196C
330
1F
100
AcDbEntity
  8
VENT
100
AcDbCircle
 10
334.6496036502598
 20
631.0824223100084
 30
0.0
 40
2.381249999999999
  0
CIRCLE
  5
1196D
330
1F
100
AcDbEntity
  8
VENT
100
AcDbCircle
 10
342.2696036502598
 20
631.0824223100084
 30
0.0
 40
2.381249999999999
  0
CIRCLE
  5
1196E
330
1F
100
AcDbEntity
  8
VENT
100
AcDbCircle
 10
349.8896036502598
 20
631.0824223100084
 30
0.0
 40
2.381249999999999
  0
CIRCLE
  5
1196F
330
1F
100
AcDbEntity
  8
VENT
100
AcDbCircle
 10
357.5096036502598
 20
631.0824223100084
 30
0.0
 40
2.381249999999999
  0
CIRCLE
  5
11970
330
1F
100
AcDbEntity
  8
VENT
100
AcDbCircle
 10
365.1296036502598
 20
631.0824223100084
 30
0.0
 40
2.381249999999999
  0
CIRCLE
  5
11971
330
1F
100
AcDbEntity
  8
VENT
100
AcDbCircle
 10
372.7496036502598
 20
631.0824223100084
 30
0.0
 40
2.381249999999999
  0
CIRCLE
  5
11972
330
1F
100
AcDbEntity
  8
VENT
100
AcDbCircle
 10
380.3696036502598
 20
631.0824223100084
 30
0.0
 40
2.381249999999999
  0
CIRCLE
  5
11973
330
1F
100
AcDbEntity
  8
VENT
100
AcDbCircle
 10
387.9896036502597
 20
631.0824223100084
 30
0.0
 40
2.381249999999999
  0
CIRCLE
  5
11974
330
1F
100
AcDbEntity
  8
VENT
100
AcDbCircle
 10
395.6096036502597
 20
631.0824223100084
 30
0.0
 40
2.381249999999999
  0
CIRCLE
  5
11975
330
1F
100
AcDbEntity
  8
VENT
100
AcDbCircle
 10
403.2296036502597
 20
631.0824223100084
 30
0.0
 40
2.381249999999999
  0
CIRCLE
  5
11976
330
1F
100
AcDbEntity
  8
VENT
100
AcDbCircle
 10
410.8496036502597
 20
631.0824223100084
 30
0.0
 40
2.381249999999999
  0
CIRCLE
  5
11977
330
1F
100
AcDbEntity
  8
VENT
100
AcDbCircle
 10
418.4696036502598
 20
631.0824223100084
 30
0.0
 40
2.381249999999999
  0
CIRCLE
  5
11978
330
1F
100
AcDbEntity
  8
VENT
100
AcDbCircle
 10
426.0896036502597
 20
631.0824223100084
 30
0.0
 40
2.381249999999999
  0
CIRCLE
  5
11979
330
1F
100
AcDbEntity
  8
VENT
100
AcDbCircle
 10
433.7096036502597
 20
631.0824223100084
 30
0.0
 40
2.381249999999999
  0
CIRCLE
  5
1197A
330
1F
100
AcDbEntity
  8
VENT
100
AcDbCircle
 10
441.3296036502597
 20
631.0824223100084
 30
0.0
 40
2.381249999999999
  0
CIRCLE
  5
1197B
330
1F
100
AcDbEntity
  8
VENT
100
AcDbCircle
 10
448.9496036502597
 20
631.0824223100084
 30
0.0
 40
2.381249999999999
  0
CIRCLE
  5
1197C
330
1F
100
AcDbEntity
  8
VENT
100
AcDbCircle
 10
456.5696036502597
 20
631.0824223100084
 30
0.0
 40
2.381249999999999
  0
CIRCLE
  5
1197D
330
1F
100
AcDbEntity
  8
VENT
100
AcDbCircle
 10
464.1896036502597
 20
631.0824223100084
 30
0.0
 40
2.381249999999999
  0
CIRCLE
  5
1197E
330
1F
100
AcDbEntity
  8
VENT
100
AcDbCircle
 10
471.8096036502597
 20
631.0824223100084
 30
0.0
 40
2.381249999999999
  0
CIRCLE
  5
1197F
330
1F
100
AcDbEntity
  8
VENT
100
AcDbCircle
 10
479.4296036502597
 20
631.0824223100084
 30
0.0
 40
2.381249999999999
  0
CIRCLE
  5
11980
330
1F
100
AcDbEntity
  8
VENT
100
AcDbCircle
 10
487.0496036502597
 20
631.0824223100084
 30
0.0
 40
2.381249999999999
  0
CIRCLE
  5
11981
330
1F
100
AcDbEntity
  8
VENT
100
AcDbCircle
 10
494.6696036502596
 20
631.0824223100084
 30
0.0
 40
2.381249999999999
  0
CIRCLE
  5
11982
330
1F
100
AcDbEntity
  8
VENT
100
AcDbCircle
 10
502.2896036502597
 20
631.0824223100084
 30
0.0
 40
2.381249999999999
  0
CIRCLE
  5
11983
330
1F
100
AcDbEntity
  8
VENT
100
AcDbCircle
 10
509.9096036502597
 20
631.0824223100084
 30
0.0
 40
2.381249999999999
  0
CIRCLE
  5
11984
330
1F
100
AcDbEntity
  8
VENT
100
AcDbCircle
 10
517.5296036502595
 20
631.0824223100084
 30
0.0
 40
2.381249999999999
  0
CIRCLE
  5
11985
330
1F
100
AcDbEntity
  8
VENT
100
AcDbCircle
 10
525.1496036502596
 20
631.0824223100084
 30
0.0
 40
2.381249999999999
  0
LWPOLYLINE
  5
11986
330
1F
100
AcDbEntity
  8
Rear Panel
100
AcDbPolyline
 90
        4
 70
     1
 43
0.0
 10
465.3603536502614
 20
615.2862076129697
 10
465.3603536502614
 20
622.7861926129697
 42
0.9999999999999998
 10
457.4228536502614
 20
622.7861926129697
 10
457.4228536502614
 20
615.2862076129697
 42
0.9999999999999998
  0
INSERT
  5
11DC3
330
1F
100
AcDbEntity
  8
Rear Panel
100
AcDbBlockReference
  2
A$C5AD21B8F
 10
-337.6441265697437
 20
349.3219574682917
 30
0.0
 41
25.40000000000004
 42
25.40000000000009
 43
25.40000000000004
 50
180.0
  0
LINE
  5
11DC4
330
1F
100
AcDbEntity
  8
CENTER
100
AcDbLine
 10
354.6476058102618
 20
614.8862084129703
 30
0.0
 11
356.8076014902621
 21
614.8862084129703
 31
0.0
  0
LINE
  5
11DC7
330
1F
100
AcDbEntity
  8
CENTER
100
AcDbLine
 10
355.7276036502619
 20
613.8062105729702
 30
0.0
 11
355.7276036502619
 21
615.9662062529703
 31
0.0
  0
CIRCLE
  5
11DCA
330
1F
100
AcDbEntity
  8
CONNECT
100
AcDbCircle
 10
355.7276036502619
 20
614.8862084129703
 30
0.0
 40
3.399993200000403
  0
CIRCLE
  5
11DCB
330
1F
100
AcDbEntity
  8
CONNECT
100
AcDbCircle
 10
355.7276036502619
 20
614.8862084129703
 30
0.0
 40
2.549994900000302
  0
CIRCLE
  5
11DCC
330
1F
100
AcDbEntity
  8
CONNECT
100
AcDbCircle
 10
355.7276036502619
 20
614.8862084129703
 30
0.0
 40
1.09999780000013
  0
CIRCLE
  5
11DCD
330
1F
100
AcDbEntity
  8
CONNECT
100
AcDbCircle
 10
355.7276036502619
 20
614.8862084129703
 30
0.0
 40
0.4999990000000594
  0
LINE
  5
11DDA
330
1F
100
AcDbEntity
  8
CENTER
100
AcDbLine
 10
367.8556058102617
 20
614.8862084129703
 30
0.0
 11
370.0156014902619
 21
614.8862084129703
 31
0.0
  0
LINE
  5
11DDD
330
1F
100
AcDbEntity
  8
CENTER
100
AcDbLine
 10
368.9356036502618
 20
613.8062105729702
 30
0.0
 11
368.9356036502618
 21
615.9662062529703
 31
0.0
  0
CIRCLE
  5
11DE0
330
1F
100
AcDbEntity
  8
CONNECT
100
AcDbCircle
 10
368.9356036502618
 20
614.8862084129703
 30
0.0
 40
3.399993200000403
  0
CIRCLE
  5
11DE1
330
1F
100
AcDbEntity
  8
CONNECT
100
AcDbCircle
 10
368.9356036502618
 20
614.8862084129703
 30
0.0
 40
2.549994900000302
  0
CIRCLE
  5
11DE2
330
1F
100
AcDbEntity
  8
CONNECT
100
AcDbCircle
 10
368.9356036502618
 20
614.8862084129703
 30
0.0
 40
1.09999780000013
  0
CIRCLE
  5
11DE3
330
1F
100
AcDbEntity
  8
CONNECT
100
AcDbCircle
 10
368.9356036502618
 20
614.8862084129703
 30
0.0
 40
0.4999990000000594
  0
LINE
  5
11DF0
330
1F
100
AcDbEntity
  8
CENTER
100
AcDbLine
 10
381.063605810262
 20
614.8862084129703
 30
0.0
 11
383.2236014902623
 21
614.8862084129703
 31
0.0
  0
LINE
  5
11DF3
330
1F
100
AcDbEntity
  8
CENTER
100
AcDbLine
 10
382.1436036502621
 20
613.8062105729702
 30
0.0
 11
382.1436036502621
 21
615.9662062529703
 31
0.0
  0
CIRCLE
  5
11DF6
330
1F
100
AcDbEntity
  8
CONNECT
100
AcDbCircle
 10
382.1436036502621
 20
614.8862084129703
 30
0.0
 40
3.399993200000403
  0
CIRCLE
  5
11DF7
330
1F
100
AcDbEntity
  8
CONNECT
100
AcDbCircle
 10
382.1436036502621
 20
614.8862084129703
 30
0.0
 40
2.549994900000302
  0
CIRCLE
  5
11DF8
330
1F
100
AcDbEntity
  8
CONNECT
100
AcDbCircle
 10
382.1436036502621
 20
614.8862084129703
 30
0.0
 40
1.09999780000013
  0
CIRCLE
  5
11DF9
330
1F
100
AcDbEntity
  8
CONNECT
100
AcDbCircle
 10
382.1436036502621
 20
614.8862084129703
 30
0.0
 40
0.4999990000000594
  0
LINE
  5
11E06
330
1F
100
AcDbEntity
  8
CENTER
100
AcDbLine
 10
394.2716058102618
 20
614.8862084129703
 30
0.0
 11
396.4316014902621
 21
614.8862084129703
 31
0.0
  0
LINE
  5
11E09
330
1F
100
AcDbEntity
  8
CENTER
100
AcDbLine
 10
395.351603650262
 20
613.8062105729702
 30
0.0
 11
395.351603650262
 21
615.9662062529703
 31
0.0
  0
CIRCLE
  5
11E0C
330
1F
100
AcDbEntity
  8
CONNECT
100
AcDbCircle
 10
395.351603650262
 20
614.8862084129703
 30
0.0
 40
3.399993200000403
  0
CIRCLE
  5
11E0D
330
1F
100
AcDbEntity
  8
CONNECT
100
AcDbCircle
 10
395.351603650262
 20
614.8862084129703
 30
0.0
 40
2.549994900000302
  0
CIRCLE
  5
11E0E
330
1F
100
AcDbEntity
  8
CONNECT
100
AcDbCircle
 10
395.351603650262
 20
614.8862084129703
 30
0.0
 40
1.09999780000013
  0
CIRCLE
  5
11E0F
330
1F
100
AcDbEntity
  8
CONNECT
100
AcDbCircle
 10
395.351603650262
 20
614.8862084129703
 30
0.0
 40
0.4999990000000594
  0
LINE
  5
11E1C
330
1F
100
AcDbEntity
  8
CENTER
100
AcDbLine
 10
407.4796058102617
 20
615.2862076129703
 30
0.0
 11
409.6396014902619
 21
615.2862076129703
 31
0.0
  0
LINE
  5
11E1D
330
1F
100
AcDbEntity
  8
CENTER
100
AcDbLine
 10
408.5596036502618
 20
614.2062097729701
 30
0.0
 11
408.5596036502618
 21
616.3662054529704
 31
0.0
  0
CIRCLE
  5
11E20
330
1F
100
AcDbEntity
  8
CONNECT
100
AcDbCircle
 10
408.5596036502618
 20
615.2862076129703
 30
0.0
 40
3.399993200000403
  0
CIRCLE
  5
11E21
330
1F
100
AcDbEntity
  8
CONNECT
100
AcDbCircle
 10
408.5596036502618
 20
615.2862076129703
 30
0.0
 40
2.549994900000302
  0
CIRCLE
  5
11E22
330
1F
100
AcDbEntity
  8
CONNECT
100
AcDbCircle
 10
408.5596036502618
 20
615.2862076129703
 30
0.0
 40
1.09999780000013
  0
CIRCLE
  5
11E23
330
1F
100
AcDbEntity
  8
CONNECT
100
AcDbCircle
 10
408.5596036502618
 20
615.2862076129703
 30
0.0
 40
0.4999990000000594
  0
LINE
  5
11E30
330
1F
100
AcDbEntity
  8
CENTER
100
AcDbLine
 10
407.4796058102617
 20
622.7861926129711
 30
0.0
 11
409.6396014902619
 21
622.7861926129711
 31
0.0
  0
LINE
  5
11E31
330
1F
100
AcDbEntity
  8
CENTER
100
AcDbLine
 10
408.5596036502618
 20
621.7061947729709
 30
0.0
 11
408.5596036502618
 21
623.8661904529712
 31
0.0
  0
CIRCLE
  5
11E32
330
1F
100
AcDbEntity
  8
CONNECT
100
AcDbCircle
 10
408.5596036502618
 20
622.7861926129711
 30
0.0
 40
3.399993200000403
  0
CIRCLE
  5
11E33
330
1F
100
AcDbEntity
  8
CONNECT
100
AcDbCircle
 10
408.5596036502618
 20
622.7861926129711
 30
0.0
 40
2.549994900000302
  0
CIRCLE
  5
11E34
330
1F
100
AcDbEntity
  8
CONNECT
100
AcDbCircle
 10
408.5596036502618
 20
622.7861926129711
 30
0.0
 40
1.09999780000013
  0
CIRCLE
  5
11E35
330
1F
100
AcDbEntity
  8
CONNECT
100
AcDbCircle
 10
408.5596036502618
 20
622.7861926129711
 30
0.0
 40
0.4999990000000594
  0
LINE
  5
11E3E
330
1F
100
AcDbEntity
  8
CENTER
100
AcDbLine
 10
420.6876058102615
 20
615.2862076129703
 30
0.0
 11
422.8476014902618
 21
615.2862076129703
 31
0.0
  0
LINE
  5
11E3F
330
1F
100
AcDbEntity
  8
CENTER
100
AcDbLine
 10
421.7676036502616
 20
614.2062097729701
 30
0.0
 11
421.7676036502616
 21
616.3662054529704
 31
0.0
  0
CIRCLE
  5
11E42
330
1F
100
AcDbEntity
  8
CONNECT
100
AcDbCircle
 10
421.7676036502616
 20
615.2862076129703
 30
0.0
 40
3.399993200000403
  0
CIRCLE
  5
11E43
330
1F
100
AcDbEntity
  8
CONNECT
100
AcDbCircle
 10
421.7676036502616
 20
615.2862076129703
 30
0.0
 40
2.549994900000302
  0
CIRCLE
  5
11E44
330
1F
100
AcDbEntity
  8
CONNECT
100
AcDbCircle
 10
421.7676036502616
 20
615.2862076129703
 30
0.0
 40
1.09999780000013
  0
CIRCLE
  5
11E45
330
1F
100
AcDbEntity
  8
CONNECT
100
AcDbCircle
 10
421.7676036502616
 20
615.2862076129703
 30
0.0
 40
0.4999990000000594
  0
LINE
  5
11E52
330
1F
100
AcDbEntity
  8
CENTER
100
AcDbLine
 10
420.6876058102615
 20
622.7861926129711
 30
0.0
 11
422.8476014902618
 21
622.7861926129711
 31
0.0
  0
LINE
  5
11E53
330
1F
100
AcDbEntity
  8
CENTER
100
AcDbLine
 10
421.7676036502616
 20
621.7061947729709
 30
0.0
 11
421.7676036502616
 21
623.8661904529712
 31
0.0
  0
CIRCLE
  5
11E54
330
1F
100
AcDbEntity
  8
CONNECT
100
AcDbCircle
 10
421.7676036502616
 20
622.7861926129711
 30
0.0
 40
3.399993200000403
  0
CIRCLE
  5
11E55
330
1F
100
AcDbEntity
  8
CONNECT
100
AcDbCircle
 10
421.7676036502616
 20
622.7861926129711
 30
0.0
 40
2.549994900000302
  0
CIRCLE
  5
11E56
330
1F
100
AcDbEntity
  8
CONNECT
100
AcDbCircle
 10
421.7676036502616
 20
622.7861926129711
 30
0.0
 40
1.09999780000013
  0
CIRCLE
  5
11E57
330
1F
100
AcDbEntity
  8
CONNECT
100
AcDbCircle
 10
421.7676036502616
 20
622.7861926129711
 30
0.0
 40
0.4999990000000594
  0
LINE
  5
11E60
330
1F
100
AcDbEntity
  8
CENTER
100
AcDbLine
 10
433.8956058102619
 20
615.2862076129703
 30
0.0
 11
436.0556014902621
 21
615.2862076129703
 31
0.0
  0
LINE
  5
11E61
330
1F
100
AcDbEntity
  8
CENTER
100
AcDbLine
 10
434.9756036502619
 20
614.2062097729701
 30
0.0
 11
434.9756036502619
 21
616.3662054529704
 31
0.0
  0
CIRCLE
  5
11E64
330
1F
100
AcDbEntity
  8
CONNECT
100
AcDbCircle
 10
434.9756036502619
 20
615.2862076129703
 30
0.0
 40
3.399993200000403
  0
CIRCLE
  5
11E65
330
1F
100
AcDbEntity
  8
CONNECT
100
AcDbCircle
 10
434.9756036502619
 20
615.2862076129703
 30
0.0
 40
2.549994900000302
  0
CIRCLE
  5
11E66
330
1F
100
AcDbEntity
  8
CONNECT
100
AcDbCircle
 10
434.9756036502619
 20
615.2862076129703
 30
0.0
 40
1.09999780000013
  0
CIRCLE
  5
11E67
330
1F
100
AcDbEntity
  8
CONNECT
100
AcDbCircle
 10
434.9756036502619
 20
615.2862076129703
 30
0.0
 40
0.4999990000000594
  0
LINE
  5
11E74
330
1F
100
AcDbEntity
  8
CENTER
100
AcDbLine
 10
433.8956058102619
 20
622.7861926129711
 30
0.0
 11
436.0556014902621
 21
622.7861926129711
 31
0.0
  0
LINE
  5
11E75
330
1F
100
AcDbEntity
  8
CENTER
100
AcDbLine
 10
434.9756036502619
 20
621.7061947729709
 30
0.0
 11
434.9756036502619
 21
623.8661904529712
 31
0.0
  0
CIRCLE
  5
11E76
330
1F
100
AcDbEntity
  8
CONNECT
100
AcDbCircle
 10
434.9756036502619
 20
622.7861926129711
 30
0.0
 40
3.399993200000403
  0
CIRCLE
  5
11E77
330
1F
100
AcDbEntity
  8
CONNECT
100
AcDbCircle
 10
434.9756036502619
 20
622.7861926129711
 30
0.0
 40
2.549994900000302
  0
CIRCLE
  5
11E78
330
1F
100
AcDbEntity
  8
CONNECT
100
AcDbCircle
 10
434.9756036502619
 20
622.7861926129711
 30
0.0
 40
1.09999780000013
  0
CIRCLE
  5
11E79
330
1F
100
AcDbEntity
  8
CONNECT
100
AcDbCircle
 10
434.9756036502619
 20
622.7861926129711
 30
0.0
 40
0.4999990000000594
  0
LINE
  5
11E82
330
1F
100
AcDbEntity
  8
CENTER
100
AcDbLine
 10
447.1036058102617
 20
615.2862076129703
 30
0.0
 11
449.2636014902619
 21
615.2862076129703
 31
0.0
  0
LINE
  5
11E83
330
1F
100
AcDbEntity
  8
CENTER
100
AcDbLine
 10
448.1836036502618
 20
614.2062097729701
 30
0.0
 11
448.1836036502618
 21
616.3662054529704
 31
0.0
  0
CIRCLE
  5
11E86
330
1F
100
AcDbEntity
  8
CONNECT
100
AcDbCircle
 10
448.1836036502618
 20
615.2862076129703
 30
0.0
 40
3.399993200000403
  0
CIRCLE
  5
11E87
330
1F
100
AcDbEntity
  8
CONNECT
100
AcDbCircle
 10
448.1836036502618
 20
615.2862076129703
 30
0.0
 40
2.549994900000302
  0
CIRCLE
  5
11E88
330
1F
100
AcDbEntity
  8
CONNECT
100
AcDbCircle
 10
448.1836036502618
 20
615.2862076129703
 30
0.0
 40
1.09999780000013
  0
CIRCLE
  5
11E89
330
1F
100
AcDbEntity
  8
CONNECT
100
AcDbCircle
 10
448.1836036502618
 20
615.2862076129703
 30
0.0
 40
0.4999990000000594
  0
LINE
  5
11E96
330
1F
100
AcDbEntity
  8
CENTER
100
AcDbLine
 10
447.1036058102617
 20
622.7861926129711
 30
0.0
 11
449.2636014902619
 21
622.7861926129711
 31
0.0
  0
LINE
  5
11E97
330
1F
100
AcDbEntity
  8
CENTER
100
AcDbLine
 10
448.1836036502618
 20
621.7061947729709
 30
0.0
 11
448.1836036502618
 21
623.8661904529712
 31
0.0
  0
CIRCLE
  5
11E98
330
1F
100
AcDbEntity
  8
CONNECT
100
AcDbCircle
 10
448.1836036502618
 20
622.7861926129711
 30
0.0
 40
3.399993200000403
  0
CIRCLE
  5
11E99
330
1F
100
AcDbEntity
  8
CONNECT
100
AcDbCircle
 10
448.1836036502618
 20
622.7861926129711
 30
0.0
 40
2.549994900000302
  0
CIRCLE
  5
11E9A
330
1F
100
AcDbEntity
  8
CONNECT
100
AcDbCircle
 10
448.1836036502618
 20
622.7861926129711
 30
0.0
 40
1.09999780000013
  0
CIRCLE
  5
11E9B
330
1F
100
AcDbEntity
  8
CONNECT
100
AcDbCircle
 10
448.1836036502618
 20
622.7861926129711
 30
0.0
 40
0.4999990000000594
  0
LINE
  5
11EA4
330
1F
100
AcDbEntity
  8
CENTER
100
AcDbLine
 10
460.3116058102618
 20
615.2862076129703
 30
0.0
 11
462.471601490262
 21
615.2862076129703
 31
0.0
  0
LINE
  5
11EA5
330
1F
100
AcDbEntity
  8
CENTER
100
AcDbLine
 10
461.3916036502619
 20
614.2062097729701
 30
0.0
 11
461.3916036502619
 21
616.3662054529704
 31
0.0
  0
CIRCLE
  5
11EA8
330
1F
100
AcDbEntity
  8
CONNECT
100
AcDbCircle
 10
461.3916036502619
 20
615.2862076129703
 30
0.0
 40
3.399993200000403
  0
CIRCLE
  5
11EA9
330
1F
100
AcDbEntity
  8
CONNECT
100
AcDbCircle
 10
461.3916036502619
 20
615.2862076129703
 30
0.0
 40
2.549994900000302
  0
CIRCLE
  5
11EAA
330
1F
100
AcDbEntity
  8
CONNECT
100
AcDbCircle
 10
461.3916036502619
 20
615.2862076129703
 30
0.0
 40
1.09999780000013
  0
CIRCLE
  5
11EAB
330
1F
100
AcDbEntity
  8
CONNECT
100
AcDbCircle
 10
461.3916036502619
 20
615.2862076129703
 30
0.0
 40
0.4999990000000594
  0
LINE
  5
11EB8
330
1F
100
AcDbEntity
  8
CENTER
100
AcDbLine
 10
460.3116058102618
 20
622.7861926129711
 30
0.0
 11
462.471601490262
 21
622.7861926129711
 31
0.0
  0
LINE
  5
11EB9
330
1F
100
AcDbEntity
  8
CENTER
100
AcDbLine
 10
461.3916036502619
 20
621.7061947729709
 30
0.0
 11
461.3916036502619
 21
623.8661904529712
 31
0.0
  0
CIRCLE
  5
11EBA
330
1F
100
AcDbEntity
  8
CONNECT
100
AcDbCircle
 10
461.3916036502619
 20
622.7861926129711
 30
0.0
 40
3.399993200000403
  0
CIRCLE
  5
11EBB
330
1F
100
AcDbEntity
  8
CONNECT
100
AcDbCircle
 10
461.3916036502619
 20
622.7861926129711
 30
0.0
 40
2.549994900000302
  0
CIRCLE
  5
11EBC
330
1F
100
AcDbEntity
  8
CONNECT
100
AcDbCircle
 10
461.3916036502619
 20
622.7861926129711
 30
0.0
 40
1.09999780000013
  0
CIRCLE
  5
11EBD
330
1F
100
AcDbEntity
  8
CONNECT
100
AcDbCircle
 10
461.3916036502619
 20
622.7861926129711
 30
0.0
 40
0.4999990000000594
  0
CIRCLE
  5
11ED3
330
1F
100
AcDbEntity
  8
SWITCH
100
AcDbCircle
 10
262.0016036502591
 20
604.2801963156822
 30
0.0
 40
1.778000000000004
  0
ARC
  5
11ED4
330
1F
100
AcDbEntity
  8
SWITCH
100
AcDbCircle
 10
262.0016036502591
 20
604.2801963156822
 30
0.0
 40
1.524000000000003
100
AcDbArc
 50
279.5940682268587
 51
80.40593177313473
  0
ARC
  5
11ED5
330
1F
100
AcDbEntity
  8
SWITCH
100
AcDbCircle
 10
262.0016036502591
 20
604.2801963156822
 30
0.0
 40
1.524000000000003
100
AcDbArc
 50
99.59406822685867
 51
260.4059317731413
  0
LINE
  5
11ED6
330
1F
100
AcDbEntity
  8
SWITCH
100
AcDbLine
 10
263.4875036502592
 20
604.2801963156822
 30
0.0
 11
262.3967312275458
 21
603.1894238929688
 31
0.0
  0
LINE
  5
11ED7
330
1F
100
AcDbEntity
  8
SWITCH
100
AcDbLine
 10
263.4875036502592
 20
604.2801963156822
 30
0.0
 11
262.3967312275458
 21
605.3709687383956
 31
0.0
  0
LINE
  5
11ED8
330
1F
100
AcDbEntity
  8
SWITCH
100
AcDbLine
 10
262.3967312275458
 20
603.1894238929688
 30
0.0
 11
262.3967312275458
 21
604.2801963156821
 31
0.0
  0
LINE
  5
11ED9
330
1F
100
AcDbEntity
  8
SWITCH
100
AcDbLine
 10
262.3967312275458
 20
604.2801963156822
 30
0.0
 11
262.3967312275458
 21
605.3709687383956
 31
0.0
  0
MTEXT
  5
11EDA
330
1F
100
AcDbEntity
  8
SWITCH
100
AcDbMText
 10
265.2667445495708
 20
604.3503350881151
 30
0.0
 40
0.8890000000000021
 41
2.185161856660005
 71
     2
 72
     5
  1
0
  7
ROMANS
 11
-0.0000000000000002
 21
-1.0
 31
0.0
 73
     1
 44
1.0
1001
ACAD
1000
MTEXTBEGIN
1070
    73
1070
     1
1070
    44
1040
1.0
1070
    74
1070
     0
1000
MTEXTEND
  0
LINE
  5
11EDB
330
1F
100
AcDbEntity
  8
CENTER
100
AcDbLine
 10
263.1446036502592
 20
604.2801963156822
 30
0.0
 11
260.8586036502591
 21
604.2801963156822
 31
0.0
  0
LINE
  5
11EDC
330
1F
100
AcDbEntity
  8
CENTER
100
AcDbLine
 10
262.0016036502591
 20
605.4231963156821
 30
0.0
 11
262.0016036502591
 21
603.1371963156821
 31
0.0
  0
LINE
  5
11EDD
330
1F
100
AcDbEntity
  8
SWITCH
100
AcDbLine
 10
261.7476036502592
 20
606.0399599361722
 30
0.0
 11
261.7476036502592
 21
602.5204326951921
 31
0.0
  0
LINE
  5
11EDE
330
1F
100
AcDbEntity
  8
SWITCH
100
AcDbLine
 10
262.2556036502593
 20
606.0399599361722
 30
0.0
 11
262.2556036502591
 21
602.5204326951921
 31
0.0
  0
MTEXT
  5
11EE9
330
1F
100
AcDbEntity
  8
SWITCH
100
AcDbMText
 10
264.6019315907811
 20
606.2561414418174
 30
0.0
 40
0.8890000000000021
 41
2.185161856660005
 71
     2
 72
     5
  1
9
  7
ROMANS
 11
0.587785252292473
 21
-0.8090169943749476
 31
0.0
 73
     1
 44
1.0
1001
ACAD
1000
MTEXTBEGIN
1070
    73
1070
     1
1070
    44
1040
1.0
1070
    74
1070
     0
1000
MTEXTEND
  0
MTEXT
  5
11EEA
330
1F
100
AcDbEntity
  8
SWITCH
100
AcDbMText
 10
262.9438817406078
 20
607.4072039172408
 30
0.0
 40
0.8890000000000021
 41
2.185161856660004
 71
     2
 72
     5
  1
8
  7
ROMANS
 11
0.9510565162951536
 21
-0.3090169943749477
 31
0.0
 73
     1
 44
1.0
1001
ACAD
1000
MTEXTBEGIN
1070
    73
1070
     1
1070
    44
1040
1.0
1070
    74
1070
     0
1000
MTEXTEND
  0
MTEXT
  5
11EEB
330
1F
100
AcDbEntity
  8
SWITCH
100
AcDbMText
 10
260.9259136867758
 20
607.3638557719479
 30
0.0
 40
0.8890000000000021
 41
2.185161856660005
 71
     2
 72
     5
  1
7
  7
ROMANS
 11
0.9510565162951536
 21
0.3090169943749472
 31
0.0
 73
     1
 44
1.0
1001
ACAD
1000
MTEXTBEGIN
1070
    73
1070
     1
1070
    44
1040
1.0
1070
    74
1070
     0
1000
MTEXTEND
  0
MTEXT
  5
11EEC
330
1F
100
AcDbEntity
  8
SWITCH
100
AcDbMText
 10
259.3188226376374
 20
606.1426545240919
 30
0.0
 40
0.8890000000000021
 41
2.185161856660005
 71
     2
 72
     5
  1
6
  7
ROMANS
 11
0.5877852522924735
 21
0.8090169943749472
 31
0.0
 73
     1
 44
1.0
1001
ACAD
1000
MTEXTBEGIN
1070
    73
1070
     1
1070
    44
1040
1.0
1070
    74
1070
     0
1000
MTEXTEND
  0
MTEXT
  5
11EED
330
1F
100
AcDbEntity
  8
SWITCH
100
AcDbMText
 10
258.7364627509475
 20
604.2100575432492
 30
0.0
 40
0.8890000000000021
 41
2.185161856660005
 71
     2
 72
     5
  1
5
  7
ROMANS
 11
0.0000000000000003
 21
1.0
 31
0.0
 73
     1
 44
1.0
1001
ACAD
1000
MTEXTBEGIN
1070
    73
1070
     1
1070
    44
1040
1.0
1070
    74
1070
     0
1000
MTEXTEND
  0
MTEXT
  5
11EEE
330
1F
100
AcDbEntity
  8
SWITCH
100
AcDbMText
 10
259.401275709737
 20
602.304251189547
 30
0.0
 40
0.8890000000000021
 41
2.185161856660005
 71
     2
 72
     5
  1
4
  7
ROMANS
 11
-0.5877852522924729
 21
0.8090169943749478
 31
0.0
 73
     1
 44
1.0
1001
ACAD
1000
MTEXTBEGIN
1070
    73
1070
     1
1070
    44
1040
1.0
1070
    74
1070
     0
1000
MTEXTEND
  0
MTEXT
  5
11EEF
330
1F
100
AcDbEntity
  8
SWITCH
100
AcDbMText
 10
261.0593255599105
 20
601.1531887141235
 30
0.0
 40
0.8890000000000021
 41
2.185161856660005
 71
     2
 72
     5
  1
3
  7
ROMANS
 11
-0.9510565162951534
 21
0.3090169943749477
 31
0.0
 73
     1
 44
1.0
1001
ACAD
1000
MTEXTBEGIN
1070
    73
1070
     1
1070
    44
1040
1.0
1070
    74
1070
     0
1000
MTEXTEND
  0
MTEXT
  5
11EF0
330
1F
100
AcDbEntity
  8
SWITCH
100
AcDbMText
 10
263.0772936137425
 20
601.1965368594165
 30
0.0
 40
0.8890000000000021
 41
2.185161856660005
 71
     2
 72
     5
  1
2
  7
ROMANS
 11
-0.9510565162951538
 21
-0.3090169943749471
 31
0.0
 73
     1
 44
1.0
1001
ACAD
1000
MTEXTBEGIN
1070
    73
1070
     1
1070
    44
1040
1.0
1070
    74
1070
     0
1000
MTEXTEND
  0
MTEXT
  5
11EF1
330
1F
100
AcDbEntity
  8
SWITCH
100
AcDbMText
 10
264.6843846628809
 20
602.4177381072727
 30
0.0
 40
0.8890000000000021
 41
2.185161856660005
 71
     2
 72
     5
  1
1
  7
ROMANS
 11
-0.5877852522924735
 21
-0.8090169943749472
 31
0.0
 73
     1
 44
1.0
1001
ACAD
1000
MTEXTBEGIN
1070
    73
1070
     1
1070
    44
1040
1.0
1070
    74
1070
     0
1000
MTEXTEND
  0
CIRCLE
  5
11EFE
330
1F
100
AcDbEntity
  8
SWITCH
100
AcDbCircle
 10
250.3176036502593
 20
604.2801963156822
 30
0.0
 40
1.778000000000004
  0
ARC
  5
11EFF
330
1F
100
AcDbEntity
  8
SWITCH
100
AcDbCircle
 10
250.3176036502593
 20
604.2801963156822
 30
0.0
 40
1.524000000000003
100
AcDbArc
 50
279.5940682268587
 51
80.40593177313473
  0
ARC
  5
11F00
330
1F
100
AcDbEntity
  8
SWITCH
100
AcDbCircle
 10
250.3176036502593
 20
604.2801963156822
 30
0.0
 40
1.524000000000003
100
AcDbArc
 50
99.59406822685867
 51
260.4059317731413
  0
LINE
  5
11F01
330
1F
100
AcDbEntity
  8
SWITCH
100
AcDbLine
 10
251.8035036502594
 20
604.2801963156822
 30
0.0
 11
250.712731227546
 21
603.1894238929688
 31
0.0
  0
LINE
  5
11F02
330
1F
100
AcDbEntity
  8
SWITCH
100
AcDbLine
 10
251.8035036502594
 20
604.2801963156822
 30
0.0
 11
250.712731227546
 21
605.3709687383956
 31
0.0
  0
LINE
  5
11F03
330
1F
100
AcDbEntity
  8
SWITCH
100
AcDbLine
 10
250.712731227546
 20
603.1894238929688
 30
0.0
 11
250.712731227546
 21
604.2801963156821
 31
0.0
  0
LINE
  5
11F04
330
1F
100
AcDbEntity
  8
SWITCH
100
AcDbLine
 10
250.712731227546
 20
604.2801963156822
 30
0.0
 11
250.712731227546
 21
605.3709687383956
 31
0.0
  0
MTEXT
  5
11F05
330
1F
100
AcDbEntity
  8
SWITCH
100
AcDbMText
 10
253.582744549571
 20
604.3503350881151
 30
0.0
 40
0.8890000000000021
 41
2.185161856660005
 71
     2
 72
     5
  1
0
  7
ROMANS
 11
-0.0000000000000002
 21
-1.0
 31
0.0
 73
     1
 44
1.0
1001
ACAD
1000
MTEXTBEGIN
1070
    73
1070
     1
1070
    44
1040
1.0
1070
    74
1070
     0
1000
MTEXTEND
  0
LINE
  5
11F06
330
1F
100
AcDbEntity
  8
CENTER
100
AcDbLine
 10
251.4606036502593
 20
604.2801963156822
 30
0.0
 11
249.1746036502592
 21
604.2801963156822
 31
0.0
  0
LINE
  5
11F07
330
1F
100
AcDbEntity
  8
CENTER
100
AcDbLine
 10
250.3176036502593
 20
605.4231963156821
 30
0.0
 11
250.3176036502593
 21
603.1371963156821
 31
0.0
  0
LINE
  5
11F08
330
1F
100
AcDbEntity
  8
SWITCH
100
AcDbLine
 10
250.0636036502593
 20
606.0399599361722
 30
0.0
 11
250.0636036502593
 21
602.5204326951921
 31
0.0
  0
LINE
  5
11F09
330
1F
100
AcDbEntity
  8
SWITCH
100
AcDbLine
 10
250.5716036502594
 20
606.0399599361722
 30
0.0
 11
250.5716036502593
 21
602.5204326951921
 31
0.0
  0
MTEXT
  5
11F14
330
1F
100
AcDbEntity
  8
SWITCH
100
AcDbMText
 10
252.9179315907812
 20
606.2561414418174
 30
0.0
 40
0.8890000000000021
 41
2.185161856660005
 71
     2
 72
     5
  1
9
  7
ROMANS
 11
0.587785252292473
 21
-0.8090169943749476
 31
0.0
 73
     1
 44
1.0
1001
ACAD
1000
MTEXTBEGIN
1070
    73
1070
     1
1070
    44
1040
1.0
1070
    74
1070
     0
1000
MTEXTEND
  0
MTEXT
  5
11F15
330
1F
100
AcDbEntity
  8
SWITCH
100
AcDbMText
 10
251.259881740608
 20
607.4072039172408
 30
0.0
 40
0.8890000000000021
 41
2.185161856660004
 71
     2
 72
     5
  1
8
  7
ROMANS
 11
0.9510565162951536
 21
-0.3090169943749477
 31
0.0
 73
     1
 44
1.0
1001
ACAD
1000
MTEXTBEGIN
1070
    73
1070
     1
1070
    44
1040
1.0
1070
    74
1070
     0
1000
MTEXTEND
  0
MTEXT
  5
11F16
330
1F
100
AcDbEntity
  8
SWITCH
100
AcDbMText
 10
249.2419136867759
 20
607.3638557719479
 30
0.0
 40
0.8890000000000021
 41
2.185161856660005
 71
     2
 72
     5
  1
7
  7
ROMANS
 11
0.9510565162951536
 21
0.3090169943749472
 31
0.0
 73
     1
 44
1.0
1001
ACAD
1000
MTEXTBEGIN
1070
    73
1070
     1
1070
    44
1040
1.0
1070
    74
1070
     0
1000
MTEXTEND
  0
MTEXT
  5
11F17
330
1F
100
AcDbEntity
  8
SWITCH
100
AcDbMText
 10
247.6348226376375
 20
606.1426545240919
 30
0.0
 40
0.8890000000000021
 41
2.185161856660005
 71
     2
 72
     5
  1
6
  7
ROMANS
 11
0.5877852522924735
 21
0.8090169943749472
 31
0.0
 73
     1
 44
1.0
1001
ACAD
1000
MTEXTBEGIN
1070
    73
1070
     1
1070
    44
1040
1.0
1070
    74
1070
     0
1000
MTEXTEND
  0
MTEXT
  5
11F18
330
1F
100
AcDbEntity
  8
SWITCH
100
AcDbMText
 10
247.0524627509476
 20
604.2100575432492
 30
0.0
 40
0.8890000000000021
 41
2.185161856660005
 71
     2
 72
     5
  1
5
  7
ROMANS
 11
0.0000000000000003
 21
1.0
 31
0.0
 73
     1
 44
1.0
1001
ACAD
1000
MTEXTBEGIN
1070
    73
1070
     1
1070
    44
1040
1.0
1070
    74
1070
     0
1000
MTEXTEND
  0
MTEXT
  5
11F19
330
1F
100
AcDbEntity
  8
SWITCH
100
AcDbMText
 10
247.7172757097371
 20
602.304251189547
 30
0.0
 40
0.8890000000000021
 41
2.185161856660005
 71
     2
 72
     5
  1
4
  7
ROMANS
 11
-0.5877852522924729
 21
0.8090169943749478
 31
0.0
 73
     1
 44
1.0
1001
ACAD
1000
MTEXTBEGIN
1070
    73
1070
     1
1070
    44
1040
1.0
1070
    74
1070
     0
1000
MTEXTEND
  0
MTEXT
  5
11F1A
330
1F
100
AcDbEntity
  8
SWITCH
100
AcDbMText
 10
249.3753255599106
 20
601.1531887141235
 30
0.0
 40
0.8890000000000021
 41
2.185161856660005
 71
     2
 72
     5
  1
3
  7
ROMANS
 11
-0.9510565162951534
 21
0.3090169943749477
 31
0.0
 73
     1
 44
1.0
1001
ACAD
1000
MTEXTBEGIN
1070
    73
1070
     1
1070
    44
1040
1.0
1070
    74
1070
     0
1000
MTEXTEND
  0
MTEXT
  5
11F1B
330
1F
100
AcDbEntity
  8
SWITCH
100
AcDbMText
 10
251.3932936137426
 20
601.1965368594165
 30
0.0
 40
0.8890000000000021
 41
2.185161856660005
 71
     2
 72
     5
  1
2
  7
ROMANS
 11
-0.9510565162951538
 21
-0.3090169943749471
 31
0.0
 73
     1
 44
1.0
1001
ACAD
1000
MTEXTBEGIN
1070
    73
1070
     1
1070
    44
1040
1.0
1070
    74
1070
     0
1000
MTEXTEND
  0
MTEXT
  5
11F1C
330
1F
100
AcDbEntity
  8
SWITCH
100
AcDbMText
 10
253.0003846628811
 20
602.4177381072727
 30
0.0
 40
0.8890000000000021
 41
2.185161856660005
 71
     2
 72
     5
  1
1
  7
ROMANS
 11
-0.5877852522924735
 21
-0.8090169943749472
 31
0.0
 73
     1
 44
1.0
1001
ACAD
1000
MTEXTBEGIN
1070
    73
1070
     1
1070
    44
1040
1.0
1070
    74
1070
     0
1000
MTEXTEND
  0
CIRCLE
  5
11F29
330
1F
100
AcDbEntity
  8
SWITCH
100
AcDbCircle
 10
273.6856036502593
 20
604.2801963156822
 30
0.0
 40
1.778000000000004
  0
ARC
  5
11F2A
330
1F
100
AcDbEntity
  8
SWITCH
100
AcDbCircle
 10
273.6856036502593
 20
604.2801963156822
 30
0.0
 40
1.524000000000003
100
AcDbArc
 50
279.5940682268587
 51
80.40593177313473
  0
ARC
  5
11F2B
330
1F
100
AcDbEntity
  8
SWITCH
100
AcDbCircle
 10
273.6856036502593
 20
604.2801963156822
 30
0.0
 40
1.524000000000003
100
AcDbArc
 50
99.59406822685867
 51
260.4059317731413
  0
LINE
  5
11F2C
330
1F
100
AcDbEntity
  8
SWITCH
100
AcDbLine
 10
275.1715036502594
 20
604.2801963156822
 30
0.0
 11
274.080731227546
 21
603.1894238929688
 31
0.0
  0
LINE
  5
11F2D
330
1F
100
AcDbEntity
  8
SWITCH
100
AcDbLine
 10
275.1715036502594
 20
604.2801963156822
 30
0.0
 11
274.080731227546
 21
605.3709687383956
 31
0.0
  0
LINE
  5
11F2E
330
1F
100
AcDbEntity
  8
SWITCH
100
AcDbLine
 10
274.080731227546
 20
603.1894238929688
 30
0.0
 11
274.080731227546
 21
604.2801963156821
 31
0.0
  0
LINE
  5
11F2F
330
1F
100
AcDbEntity
  8
SWITCH
100
AcDbLine
 10
274.080731227546
 20
604.2801963156822
 30
0.0
 11
274.080731227546
 21
605.3709687383956
 31
0.0
  0
MTEXT
  5
11F30
330
1F
100
AcDbEntity
  8
SWITCH
100
AcDbMText
 10
276.950744549571
 20
604.3503350881151
 30
0.0
 40
0.8890000000000021
 41
2.185161856660005
 71
     2
 72
     5
  1
0
  7
ROMANS
 11
-0.0000000000000002
 21
-1.0
 31
0.0
 73
     1
 44
1.0
1001
ACAD
1000
MTEXTBEGIN
1070
    73
1070
     1
1070
    44
1040
1.0
1070
    74
1070
     0
1000
MTEXTEND
  0
LINE
  5
11F31
330
1F
100
AcDbEntity
  8
CENTER
100
AcDbLine
 10
274.8286036502594
 20
604.2801963156822
 30
0.0
 11
272.5426036502593
 21
604.2801963156822
 31
0.0
  0
LINE
  5
11F32
330
1F
100
AcDbEntity
  8
CENTER
100
AcDbLine
 10
273.6856036502593
 20
605.4231963156821
 30
0.0
 11
273.6856036502593
 21
603.1371963156821
 31
0.0
  0
LINE
  5
11F33
330
1F
100
AcDbEntity
  8
SWITCH
100
AcDbLine
 10
273.4316036502594
 20
606.0399599361722
 30
0.0
 11
273.4316036502594
 21
602.5204326951921
 31
0.0
  0
LINE
  5
11F34
330
1F
100
AcDbEntity
  8
SWITCH
100
AcDbLine
 10
273.9396036502595
 20
606.0399599361722
 30
0.0
 11
273.9396036502593
 21
602.5204326951921
 31
0.0
  0
MTEXT
  5
11F3F
330
1F
100
AcDbEntity
  8
SWITCH
100
AcDbMText
 10
276.2859315907813
 20
606.2561414418174
 30
0.0
 40
0.8890000000000021
 41
2.185161856660005
 71
     2
 72
     5
  1
9
  7
ROMANS
 11
0.587785252292473
 21
-0.8090169943749476
 31
0.0
 73
     1
 44
1.0
1001
ACAD
1000
MTEXTBEGIN
1070
    73
1070
     1
1070
    44
1040
1.0
1070
    74
1070
     0
1000
MTEXTEND
  0
MTEXT
  5
11F40
330
1F
100
AcDbEntity
  8
SWITCH
100
AcDbMText
 10
274.627881740608
 20
607.4072039172408
 30
0.0
 40
0.8890000000000021
 41
2.185161856660004
 71
     2
 72
     5
  1
8
  7
ROMANS
 11
0.9510565162951536
 21
-0.3090169943749477
 31
0.0
 73
     1
 44
1.0
1001
ACAD
1000
MTEXTBEGIN
1070
    73
1070
     1
1070
    44
1040
1.0
1070
    74
1070
     0
1000
MTEXTEND
  0
MTEXT
  5
11F41
330
1F
100
AcDbEntity
  8
SWITCH
100
AcDbMText
 10
272.609913686776
 20
607.3638557719479
 30
0.0
 40
0.8890000000000021
 41
2.185161856660005
 71
     2
 72
     5
  1
7
  7
ROMANS
 11
0.9510565162951536
 21
0.3090169943749472
 31
0.0
 73
     1
 44
1.0
1001
ACAD
1000
MTEXTBEGIN
1070
    73
1070
     1
1070
    44
1040
1.0
1070
    74
1070
     0
1000
MTEXTEND
  0
MTEXT
  5
11F42
330
1F
100
AcDbEntity
  8
SWITCH
100
AcDbMText
 10
271.0028226376376
 20
606.1426545240919
 30
0.0
 40
0.8890000000000021
 41
2.185161856660005
 71
     2
 72
     5
  1
6
  7
ROMANS
 11
0.5877852522924735
 21
0.8090169943749472
 31
0.0
 73
     1
 44
1.0
1001
ACAD
1000
MTEXTBEGIN
1070
    73
1070
     1
1070
    44
1040
1.0
1070
    74
1070
     0
1000
MTEXTEND
  0
MTEXT
  5
11F43
330
1F
100
AcDbEntity
  8
SWITCH
100
AcDbMText
 10
270.4204627509477
 20
604.2100575432492
 30
0.0
 40
0.8890000000000021
 41
2.185161856660005
 71
     2
 72
     5
  1
5
  7
ROMANS
 11
0.0000000000000003
 21
1.0
 31
0.0
 73
     1
 44
1.0
1001
ACAD
1000
MTEXTBEGIN
1070
    73
1070
     1
1070
    44
1040
1.0
1070
    74
1070
     0
1000
MTEXTEND
  0
MTEXT
  5
11F44
330
1F
100
AcDbEntity
  8
SWITCH
100
AcDbMText
 10
271.0852757097372
 20
602.304251189547
 30
0.0
 40
0.8890000000000021
 41
2.185161856660005
 71
     2
 72
     5
  1
4
  7
ROMANS
 11
-0.5877852522924729
 21
0.8090169943749478
 31
0.0
 73
     1
 44
1.0
1001
ACAD
1000
MTEXTBEGIN
1070
    73
1070
     1
1070
    44
1040
1.0
1070
    74
1070
     0
1000
MTEXTEND
  0
MTEXT
  5
11F45
330
1F
100
AcDbEntity
  8
SWITCH
100
AcDbMText
 10
272.7433255599107
 20
601.1531887141235
 30
0.0
 40
0.8890000000000021
 41
2.185161856660005
 71
     2
 72
     5
  1
3
  7
ROMANS
 11
-0.9510565162951534
 21
0.3090169943749477
 31
0.0
 73
     1
 44
1.0
1001
ACAD
1000
MTEXTBEGIN
1070
    73
1070
     1
1070
    44
1040
1.0
1070
    74
1070
     0
1000
MTEXTEND
  0
MTEXT
  5
11F46
330
1F
100
AcDbEntity
  8
SWITCH
100
AcDbMText
 10
274.7612936137427
 20
601.1965368594165
 30
0.0
 40
0.8890000000000021
 41
2.185161856660005
 71
     2
 72
     5
  1
2
  7
ROMANS
 11
-0.9510565162951538
 21
-0.3090169943749471
 31
0.0
 73
     1
 44
1.0
1001
ACAD
1000
MTEXTBEGIN
1070
    73
1070
     1
1070
    44
1040
1.0
1070
    74
1070
     0
1000
MTEXTEND
  0
MTEXT
  5
11F47
330
1F
100
AcDbEntity
  8
SWITCH
100
AcDbMText
 10
276.3683846628811
 20
602.4177381072727
 30
0.0
 40
0.8890000000000021
 41
2.185161856660005
 71
     2
 72
     5
  1
1
  7
ROMANS
 11
-0.5877852522924735
 21
-0.8090169943749472
 31
0.0
 73
     1
 44
1.0
1001
ACAD
1000
MTEXTBEGIN
1070
    73
1070
     1
1070
    44
1040
1.0
1070
    74
1070
     0
1000
MTEXTEND
  0
LEADER
  5
11F48
330
1F
100
AcDbEntity
  8
DIM
100
AcDbLeader
  3
METRIC
 73
     0
 40
5.173942701227831
 41
75.77762619372442
 76
     3
 10
275.0381419984236
 20
602.6692768955038
 30
0.0
 10
280.5626715794836
 20
582.4995681241046
 30
0.0
 10
286.2126175915795
 20
582.4995681241046
 30
0.0
340
11F49
213
-0.0000000000000006
223
-2.5
233
0.0
  0
MTEXT
  5
11F49
102
{ACAD_REACTORS
330
11F48
102
}
330
1F
100
AcDbEntity
  8
DIM
100
AcDbMText
 10
288.7126175915795
 20
584.9995681241046
 30
0.0
 40
5.0
 41
0.0
 71
     1
 72
     1
  1
SELECTOR SWITCHES
  7
ARIAL
 73
     1
 44
1.0
1001
ACAD
1000
MTEXTBEGIN
1070
    73
1070
     1
1070
    44
1040
1.0
1070
    74
1070
     0
1000
MTEXTEND
  0
LEADER
  5
11F4A
330
1F
100
AcDbEntity
  8
DIM
100
AcDbLeader
  3
METRIC
 73
     0
 40
5.173942701227831
 41
107.1896316507503
 76
     3
 10
396.7236762837683
 20
611.1621792440611
 30
0.0
 10
409.305403268649
 20
568.2377522568546
 30
0.0
 10
414.9553492807448
 20
568.2377522568546
 30
0.0
340
11F4B
213
-0.0000000000000006
223
-2.5
233
0.0
  0
MTEXT
  5
11F4B
102
{ACAD_REACTORS
330
11F4A
102
}
330
1F
100
AcDbEntity
  8
DIM
100
AcDbMText
 10
417.4553492807448
 20
570.7377522568545
 30
0.0
 40
5.0
 41
0.0
 71
     1
 72
     1
  1
OPTIONAL GATE CONNECTORS
  7
ARIAL
 73
     1
 44
1.0
1001
ACAD
1000
MTEXTBEGIN
1070
    73
1070
     1
1070
    44
1040
1.0
1070
    74
1070
     0
1000
MTEXTEND
  0
LEADER
  5
11F4C
330
1F
100
AcDbEntity
  8
DIM
100
AcDbLeader
  3
METRIC
 73
     0
 40
5.173942701227831
 41
122.7080491132333
 76
     3
 10
450.035880717226
 20
611.7762152725654
 30
0.0
 10
458.2856310594523
 20
582.6140227112754
 30
0.0
 10
463.9355770715481
 20
582.6140227112754
 30
0.0
340
11F4D
213
-0.0000000000000006
223
-2.5
233
0.0
  0
MTEXT
  5
11F4D
102
{ACAD_REACTORS
330
11F4C
102
}
330
1F
100
AcDbEntity
  8
DIM
100
AcDbMText
 10
466.4355770715481
 20
585.1140227112754
 30
0.0
 40
5.0
 41
0.0
 71
     1
 72
     1
  1
OPTIONAL COUNTER CONNECTORS
  7
ARIAL
 73
     1
 44
1.0
1001
ACAD
1000
MTEXTBEGIN
1070
    73
1070
     1
1070
    44
1040
1.0
1070
    74
1070
     0
1000
MTEXTEND
  0
LINE
  5
12862
330
1F
100
AcDbEntity
  8
FASTENER
100
AcDbLine
 10
518.9608169374212
 20
436.0278114497417
 30
0.0
 11
518.9608169374212
 21
437.0438203228043
 31
0.0
  0
LINE
  5
12863
330
1F
100
AcDbEntity
  8
FASTENER
100
AcDbLine
 10
516.2112102938372
 20
436.0278114497417
 30
0.0
 11
516.2112102938372
 21
437.0438203228043
 31
0.0
  0
LINE
  5
12864
330
1F
100
AcDbEntity
  8
FASTENER
100
AcDbLine
 10
510.7119970066691
 20
436.0278114497417
 30
0.0
 11
510.7119970066691
 21
437.0438203228043
 31
0.0
  0
LINE
  5
12865
330
1F
100
AcDbEntity
  8
FASTENER
100
AcDbLine
 10
507.9623903630851
 20
436.0278114497417
 30
0.0
 11
507.9623903630851
 21
437.0438203228043
 31
0.0
  0
LINE
  5
12866
330
1F
100
AcDbEntity
  8
FASTENER
100
AcDbLine
 10
509.3371936848802
 20
435.5198158862733
 30
0.0
 11
517.5860136156264
 21
435.5198158862733
 31
0.0
  0
ARC
  5
12867
330
1F
100
AcDbEntity
  8
FASTENER
100
AcDbCircle
 10
509.3371936848802
 20
437.6341489834442
 30
0.0
 40
2.114333097169735
100
AcDbArc
 50
229.4410366046661
 51
310.5589633953338
  0
ARC
  5
12868
330
1F
100
AcDbEntity
  8
FASTENER
100
AcDbCircle
 10
513.4616036502531
 20
443.2151549297491
 30
0.0
 40
7.695339043474938
100
AcDbArc
 50
249.0650336481286
 51
290.9349663518582
  0
ARC
  5
12869
330
1F
100
AcDbEntity
  8
FASTENER
100
AcDbCircle
 10
517.5860136156264
 20
437.6341489834442
 30
0.0
 40
2.114333097169922
100
AcDbArc
 50
229.4410366046782
 51
310.5589633953218
  0
ARC
  5
1286A
330
1F
100
AcDbEntity
  8
FASTENER
100
AcDbCircle
 10
509.3371936848802
 20
435.4374827891033
 30
0.0
 40
2.114333097169735
100
AcDbArc
 50
49.44103660466616
 51
130.5589633953338
  0
ARC
  5
1286B
330
1F
100
AcDbEntity
  8
FASTENER
100
AcDbCircle
 10
513.4616036502531
 20
429.8564768427985
 30
0.0
 40
7.695339043474938
100
AcDbArc
 50
69.06503364814179
 51
110.9349663518714
  0
ARC
  5
1286C
330
1F
100
AcDbEntity
  8
FASTENER
100
AcDbCircle
 10
517.5860136156264
 20
435.4374827891033
 30
0.0
 40
2.114333097169922
100
AcDbArc
 50
49.44103660467821
 51
130.5589633953218
  0
LINE
  5
1286D
330
1F
100
AcDbEntity
  8
FASTENER
100
AcDbLine
 10
509.3371936848802
 20
437.5518158862726
 30
0.0
 11
517.5860136156264
 21
437.5518158862726
 31
0.0
  0
LINE
  5
128FA
330
1F
100
AcDbEntity
  8
CONNECT
100
AcDbLine
 10
284.2556104502508
 20
434.8086158862733
 30
0.0
 11
284.2556104502509
 21
439.5985884862758
 31
0.0
  0
LINE
  5
128FB
330
1F
100
AcDbEntity
  8
CONNECT
100
AcDbLine
 10
284.5556098502509
 20
439.8985878862759
 30
0.0
 11
284.2556104502509
 21
439.5985884862758
 31
0.0
  0
LINE
  5
128FC
330
1F
100
AcDbEntity
  8
CONNECT
100
AcDbLine
 10
291.0555968502513
 20
434.8086158862733
 30
0.0
 11
291.0555968502513
 21
439.5985884862758
 31
0.0
  0
LINE
  5
128FD
330
1F
100
AcDbEntity
  8
CONNECT
100
AcDbLine
 10
290.7555974502514
 20
439.8985878862759
 30
0.0
 11
291.0555968502513
 21
439.5985884862758
 31
0.0
  0
LINE
  5
12906
330
1F
100
AcDbEntity
  8
CONNECT
100
AcDbLine
 10
284.5556098502509
 20
439.8985878862759
 30
0.0
 11
290.7555974502514
 21
439.8985878862759
 31
0.0
  0
LINE
  5
1290A
330
1F
100
AcDbEntity
  8
CONNECT
100
AcDbLine
 10
284.2556104502509
 20
439.5985884862758
 30
0.0
 11
291.0555968502513
 21
439.5985884862758
 31
0.0
  0
LINE
  5
12925
330
1F
100
AcDbEntity
  8
CONNECT
100
AcDbLine
 10
297.4636104502507
 20
434.8086158862733
 30
0.0
 11
297.4636104502508
 21
439.5985884862758
 31
0.0
  0
LINE
  5
12926
330
1F
100
AcDbEntity
  8
CONNECT
100
AcDbLine
 10
297.7636098502507
 20
439.8985878862759
 30
0.0
 11
297.4636104502508
 21
439.5985884862758
 31
0.0
  0
LINE
  5
12927
330
1F
100
AcDbEntity
  8
CONNECT
100
AcDbLine
 10
304.2635968502512
 20
434.8086158862733
 30
0.0
 11
304.2635968502512
 21
439.5985884862758
 31
0.0
  0
LINE
  5
12928
330
1F
100
AcDbEntity
  8
CONNECT
100
AcDbLine
 10
303.9635974502512
 20
439.8985878862759
 30
0.0
 11
304.2635968502512
 21
439.5985884862758
 31
0.0
  0
LINE
  5
12931
330
1F
100
AcDbEntity
  8
CONNECT
100
AcDbLine
 10
297.7636098502507
 20
439.8985878862759
 30
0.0
 11
303.9635974502512
 21
439.8985878862759
 31
0.0
  0
LINE
  5
12935
330
1F
100
AcDbEntity
  8
CONNECT
100
AcDbLine
 10
297.4636104502508
 20
439.5985884862758
 30
0.0
 11
304.2635968502512
 21
439.5985884862758
 31
0.0
  0
LINE
  5
12950
330
1F
100
AcDbEntity
  8
CONNECT
100
AcDbLine
 10
310.6716104502511
 20
434.8086158862733
 30
0.0
 11
310.6716104502511
 21
439.5985884862758
 31
0.0
  0
LINE
  5
12951
330
1F
100
AcDbEntity
  8
CONNECT
100
AcDbLine
 10
310.9716098502511
 20
439.8985878862759
 30
0.0
 11
310.6716104502511
 21
439.5985884862758
 31
0.0
  0
LINE
  5
12952
330
1F
100
AcDbEntity
  8
CONNECT
100
AcDbLine
 10
317.4715968502515
 20
434.8086158862733
 30
0.0
 11
317.4715968502515
 21
439.5985884862758
 31
0.0
  0
LINE
  5
12953
330
1F
100
AcDbEntity
  8
CONNECT
100
AcDbLine
 10
317.1715974502514
 20
439.8985878862759
 30
0.0
 11
317.4715968502515
 21
439.5985884862758
 31
0.0
  0
LINE
  5
1295C
330
1F
100
AcDbEntity
  8
CONNECT
100
AcDbLine
 10
310.9716098502511
 20
439.8985878862759
 30
0.0
 11
317.1715974502514
 21
439.8985878862759
 31
0.0
  0
LINE
  5
12960
330
1F
100
AcDbEntity
  8
CONNECT
100
AcDbLine
 10
310.6716104502511
 20
439.5985884862758
 30
0.0
 11
317.4715968502515
 21
439.5985884862758
 31
0.0
  0
LINE
  5
1297B
330
1F
100
AcDbEntity
  8
CONNECT
100
AcDbLine
 10
323.8796104502509
 20
434.8086158862733
 30
0.0
 11
323.8796104502509
 21
439.5985884862758
 31
0.0
  0
LINE
  5
1297C
330
1F
100
AcDbEntity
  8
CONNECT
100
AcDbLine
 10
324.1796098502509
 20
439.8985878862759
 30
0.0
 11
323.8796104502509
 21
439.5985884862758
 31
0.0
  0
LINE
  5
1297D
330
1F
100
AcDbEntity
  8
CONNECT
100
AcDbLine
 10
330.6795968502513
 20
434.8086158862733
 30
0.0
 11
330.6795968502513
 21
439.5985884862758
 31
0.0
  0
LINE
  5
1297E
330
1F
100
AcDbEntity
  8
CONNECT
100
AcDbLine
 10
330.3795974502513
 20
439.8985878862759
 30
0.0
 11
330.6795968502513
 21
439.5985884862758
 31
0.0
  0
LINE
  5
12987
330
1F
100
AcDbEntity
  8
CONNECT
100
AcDbLine
 10
324.1796098502509
 20
439.8985878862759
 30
0.0
 11
330.3795974502513
 21
439.8985878862759
 31
0.0
  0
LINE
  5
1298B
330
1F
100
AcDbEntity
  8
CONNECT
100
AcDbLine
 10
323.8796104502509
 20
439.5985884862758
 30
0.0
 11
330.6795968502513
 21
439.5985884862758
 31
0.0
  0
LINE
  5
129A6
330
1F
100
AcDbEntity
  8
CONNECT
100
AcDbLine
 10
337.0876104502508
 20
434.8086158862733
 30
0.0
 11
337.0876104502508
 21
439.5985884862758
 31
0.0
  0
LINE
  5
129A7
330
1F
100
AcDbEntity
  8
CONNECT
100
AcDbLine
 10
337.3876098502508
 20
439.8985878862759
 30
0.0
 11
337.0876104502508
 21
439.5985884862758
 31
0.0
  0
LINE
  5
129A8
330
1F
100
AcDbEntity
  8
CONNECT
100
AcDbLine
 10
343.8875968502512
 20
434.8086158862733
 30
0.0
 11
343.8875968502512
 21
439.5985884862758
 31
0.0
  0
LINE
  5
129A9
330
1F
100
AcDbEntity
  8
CONNECT
100
AcDbLine
 10
343.5875974502512
 20
439.8985878862759
 30
0.0
 11
343.8875968502512
 21
439.5985884862758
 31
0.0
  0
LINE
  5
129B2
330
1F
100
AcDbEntity
  8
CONNECT
100
AcDbLine
 10
337.3876098502508
 20
439.8985878862759
 30
0.0
 11
343.5875974502512
 21
439.8985878862759
 31
0.0
  0
LINE
  5
129B6
330
1F
100
AcDbEntity
  8
CONNECT
100
AcDbLine
 10
337.0876104502508
 20
439.5985884862758
 30
0.0
 11
343.8875968502512
 21
439.5985884862758
 31
0.0
  0
LINE
  5
129C9
330
1F
100
AcDbEntity
  8
CONNECT
100
AcDbLine
 10
350.2956104502509
 20
434.8086158862733
 30
0.0
 11
350.2956104502509
 21
439.5985884862758
 31
0.0
  0
LINE
  5
129CA
330
1F
100
AcDbEntity
  8
CONNECT
100
AcDbLine
 10
350.5956098502509
 20
439.8985878862759
 30
0.0
 11
350.2956104502509
 21
439.5985884862758
 31
0.0
  0
LINE
  5
129CB
330
1F
100
AcDbEntity
  8
CONNECT
100
AcDbLine
 10
357.0955968502513
 20
434.8086158862733
 30
0.0
 11
357.0955968502513
 21
439.5985884862758
 31
0.0
  0
LINE
  5
129CC
330
1F
100
AcDbEntity
  8
CONNECT
100
AcDbLine
 10
356.7955974502512
 20
439.8985878862759
 30
0.0
 11
357.0955968502513
 21
439.5985884862758
 31
0.0
  0
LINE
  5
129D5
330
1F
100
AcDbEntity
  8
CONNECT
100
AcDbLine
 10
350.5956098502509
 20
439.8985878862759
 30
0.0
 11
356.7955974502512
 21
439.8985878862759
 31
0.0
  0
LINE
  5
129D9
330
1F
100
AcDbEntity
  8
CONNECT
100
AcDbLine
 10
350.2956104502509
 20
439.5985884862758
 30
0.0
 11
357.0955968502513
 21
439.5985884862758
 31
0.0
  0
LINE
  5
129EC
330
1F
100
AcDbEntity
  8
CONNECT
100
AcDbLine
 10
363.503610450251
 20
434.8086158862733
 30
0.0
 11
363.503610450251
 21
439.5985884862758
 31
0.0
  0
LINE
  5
129ED
330
1F
100
AcDbEntity
  8
CONNECT
100
AcDbLine
 10
363.803609850251
 20
439.8985878862759
 30
0.0
 11
363.503610450251
 21
439.5985884862758
 31
0.0
  0
LINE
  5
129EE
330
1F
100
AcDbEntity
  8
CONNECT
100
AcDbLine
 10
370.3035968502514
 20
434.8086158862733
 30
0.0
 11
370.3035968502514
 21
439.5985884862758
 31
0.0
  0
LINE
  5
129EF
330
1F
100
AcDbEntity
  8
CONNECT
100
AcDbLine
 10
370.0035974502513
 20
439.8985878862759
 30
0.0
 11
370.3035968502514
 21
439.5985884862758
 31
0.0
  0
LINE
  5
129F8
330
1F
100
AcDbEntity
  8
CONNECT
100
AcDbLine
 10
363.803609850251
 20
439.8985878862759
 30
0.0
 11
370.0035974502513
 21
439.8985878862759
 31
0.0
  0
LINE
  5
129FC
330
1F
100
AcDbEntity
  8
CONNECT
100
AcDbLine
 10
363.503610450251
 20
439.5985884862758
 30
0.0
 11
370.3035968502514
 21
439.5985884862758
 31
0.0
  0
LINE
  5
12A0F
330
1F
100
AcDbEntity
  8
CONNECT
100
AcDbLine
 10
376.711610450251
 20
434.8086158862733
 30
0.0
 11
376.711610450251
 21
439.5985884862758
 31
0.0
  0
LINE
  5
12A10
330
1F
100
AcDbEntity
  8
CONNECT
100
AcDbLine
 10
377.0116098502511
 20
439.8985878862759
 30
0.0
 11
376.711610450251
 21
439.5985884862758
 31
0.0
  0
LINE
  5
12A11
330
1F
100
AcDbEntity
  8
CONNECT
100
AcDbLine
 10
383.5115968502515
 20
434.8086158862733
 30
0.0
 11
383.5115968502515
 21
439.5985884862758
 31
0.0
  0
LINE
  5
12A12
330
1F
100
AcDbEntity
  8
CONNECT
100
AcDbLine
 10
383.2115974502514
 20
439.8985878862759
 30
0.0
 11
383.5115968502515
 21
439.5985884862758
 31
0.0
  0
LINE
  5
12A1B
330
1F
100
AcDbEntity
  8
CONNECT
100
AcDbLine
 10
377.0116098502511
 20
439.8985878862759
 30
0.0
 11
383.2115974502514
 21
439.8985878862759
 31
0.0
  0
LINE
  5
12A1F
330
1F
100
AcDbEntity
  8
CONNECT
100
AcDbLine
 10
376.711610450251
 20
439.5985884862758
 30
0.0
 11
383.5115968502515
 21
439.5985884862758
 31
0.0
  0
LINE
  5
12A32
330
1F
100
AcDbEntity
  8
CONNECT
100
AcDbLine
 10
271.047610450251
 20
434.8086158862733
 30
0.0
 11
271.047610450251
 21
439.5985884862758
 31
0.0
  0
LINE
  5
12A33
330
1F
100
AcDbEntity
  8
CONNECT
100
AcDbLine
 10
271.3476098502511
 20
439.8985878862759
 30
0.0
 11
271.047610450251
 21
439.5985884862758
 31
0.0
  0
LINE
  5
12A34
330
1F
100
AcDbEntity
  8
CONNECT
100
AcDbLine
 10
277.8475968502514
 20
434.8086158862733
 30
0.0
 11
277.8475968502515
 21
439.5985884862758
 31
0.0
  0
LINE
  5
12A35
330
1F
100
AcDbEntity
  8
CONNECT
100
AcDbLine
 10
277.5475974502515
 20
439.8985878862759
 30
0.0
 11
277.8475968502515
 21
439.5985884862758
 31
0.0
  0
LINE
  5
12A3E
330
1F
100
AcDbEntity
  8
CONNECT
100
AcDbLine
 10
271.3476098502511
 20
439.8985878862759
 30
0.0
 11
277.5475974502515
 21
439.8985878862759
 31
0.0
  0
LINE
  5
12A42
330
1F
100
AcDbEntity
  8
CONNECT
100
AcDbLine
 10
271.047610450251
 20
439.5985884862758
 30
0.0
 11
277.8475968502515
 21
439.5985884862758
 31
0.0
  0
LINE
  5
12A5F
330
1F
100
AcDbEntity
  8
0
  6
Continuous
 62
     7
370
    15
100
AcDbLine
 10
478.1810036502534
 20
435.9062158862751
 30
0.0
 11
478.1810036502533
 21
434.8086158862733
 31
0.0
  0
LINE
  5
12A60
330
1F
100
AcDbEntity
  8
0
  6
Continuous
 62
     7
370
    15
100
AcDbLine
 10
460.6550036502534
 20
435.906215886275
 30
0.0
 11
460.6550036502533
 21
434.8086158862733
 31
0.0
  0
LINE
  5
12A65
330
1F
100
AcDbEntity
  8
0
  6
Continuous
 62
     7
370
    15
100
AcDbLine
 10
460.6550036502534
 20
435.906215886275
 30
0.0
 11
478.1810036502534
 21
435.9062158862751
 31
0.0
  0
LINE
  5
12ABF
330
1F
100
AcDbEntity
  8
SWITCH
100
AcDbLine
 10
463.9316036502534
 20
438.2430158862754
 30
0.0
 11
462.4076036502533
 21
438.2430158862754
 31
0.0
  0
LINE
  5
12AC0
330
1F
100
AcDbEntity
  8
SWITCH
100
AcDbLine
 10
461.8996036502535
 20
438.2430158862755
 30
0.0
 11
460.3756036502532
 21
438.2430158862755
 31
0.0
  0
LINE
  5
12AC4
330
1F
100
AcDbEntity
  8
SWITCH
100
AcDbLine
 10
462.4076036502533
 20
438.2430158862754
 30
0.0
 11
462.4076036502533
 21
436.9685606068077
 31
0.0
  0
LINE
  5
12AC5
330
1F
100
AcDbEntity
  8
SWITCH
100
AcDbLine
 10
461.8996036502533
 20
438.2430158862755
 30
0.0
 11
461.8996036502535
 21
436.9685606068077
 31
0.0
  0
LINE
  5
12AC6
330
1F
100
AcDbEntity
  8
SWITCH
100
AcDbLine
 10
463.9316036502534
 20
438.2430158862754
 30
0.0
 11
463.9316036502532
 21
435.906215886275
 31
0.0
  0
LINE
  5
12AC7
330
1F
100
AcDbEntity
  8
SWITCH
100
AcDbLine
 10
460.3756036502532
 20
438.2430158862755
 30
0.0
 11
460.3756036502534
 21
434.8086158862733
 31
0.0
  0
LINE
  5
12AF4
330
1F
100
AcDbEntity
  8
SWITCH
100
AcDbLine
 10
462.4076036502533
 20
436.9685606068077
 30
0.0
 11
461.8996036502535
 21
436.9685606068077
 31
0.0
  0
LINE
  5
12AF8
330
1F
100
AcDbEntity
  8
SWITCH
100
AcDbLine
 10
475.6156036502537
 20
438.2430158862754
 30
0.0
 11
474.0916036502536
 21
438.2430158862754
 31
0.0
  0
LINE
  5
12AF9
330
1F
100
AcDbEntity
  8
SWITCH
100
AcDbLine
 10
473.5836036502537
 20
438.2430158862755
 30
0.0
 11
472.0596036502534
 21
438.2430158862755
 31
0.0
  0
LINE
  5
12AFD
330
1F
100
AcDbEntity
  8
SWITCH
100
AcDbLine
 10
474.0916036502536
 20
438.2430158862754
 30
0.0
 11
474.0916036502536
 21
436.9685606068077
 31
0.0
  0
LINE
  5
12AFE
330
1F
100
AcDbEntity
  8
SWITCH
100
AcDbLine
 10
473.5836036502536
 20
438.2430158862755
 30
0.0
 11
473.5836036502537
 21
436.9685606068077
 31
0.0
  0
LINE
  5
12AFF
330
1F
100
AcDbEntity
  8
SWITCH
100
AcDbLine
 10
475.6156036502537
 20
438.2430158862754
 30
0.0
 11
475.6156036502535
 21
435.9062158862751
 31
0.0
  0
LINE
  5
12B00
330
1F
100
AcDbEntity
  8
SWITCH
100
AcDbLine
 10
472.0596036502534
 20
438.2430158862755
 30
0.0
 11
472.0596036502535
 21
435.9062158862751
 31
0.0
  0
LINE
  5
12B2D
330
1F
100
AcDbEntity
  8
SWITCH
100
AcDbLine
 10
474.0916036502536
 20
436.9685606068077
 30
0.0
 11
473.5836036502537
 21
436.9685606068077
 31
0.0
  0
LINE
  5
12B31
330
1F
100
AcDbEntity
  8
SWITCH
100
AcDbLine
 10
487.2996036502535
 20
438.2430158862754
 30
0.0
 11
485.7756036502535
 21
438.2430158862754
 31
0.0
  0
LINE
  5
12B32
330
1F
100
AcDbEntity
  8
SWITCH
100
AcDbLine
 10
485.2676036502535
 20
438.2430158862755
 30
0.0
 11
483.7436036502533
 21
438.2430158862755
 31
0.0
  0
LINE
  5
12B36
330
1F
100
AcDbEntity
  8
SWITCH
100
AcDbLine
 10
485.7756036502535
 20
438.2430158862754
 30
0.0
 11
485.7756036502535
 21
436.9685606068077
 31
0.0
  0
LINE
  5
12B37
330
1F
100
AcDbEntity
  8
SWITCH
100
AcDbLine
 10
485.2676036502534
 20
438.2430158862755
 30
0.0
 11
485.2676036502535
 21
436.9685606068077
 31
0.0
  0
LINE
  5
12B38
330
1F
100
AcDbEntity
  8
SWITCH
100
AcDbLine
 10
487.2996036502535
 20
438.2430158862754
 30
0.0
 11
487.2996036502533
 21
434.8086158862733
 31
0.0
  0
LINE
  5
12B39
330
1F
100
AcDbEntity
  8
SWITCH
100
AcDbLine
 10
483.7436036502533
 20
438.2430158862755
 30
0.0
 11
483.7436036502535
 21
434.8086158862733
 31
0.0
  0
LINE
  5
12B66
330
1F
100
AcDbEntity
  8
SWITCH
100
AcDbLine
 10
485.7756036502535
 20
436.9685606068077
 30
0.0
 11
485.2676036502535
 21
436.9685606068077
 31
0.0
  0
LINE
  5
12B69
330
1F
100
AcDbEntity
  8
SWITCH
100
AcDbLine
 10
494.411603650253
 20
435.9824158862756
 30
0.0
 11
496.9516036502531
 21
435.9824158862756
 31
0.0
  0
LINE
  5
12B73
330
1F
100
AcDbEntity
  8
SWITCH
100
AcDbLine
 10
494.411603650253
 20
434.8086158862733
 30
0.0
 11
494.411603650253
 21
435.9824158862756
 31
0.0
  0
LINE
  5
12B74
330
1F
100
AcDbEntity
  8
SWITCH
100
AcDbLine
 10
496.951603650253
 20
434.8086158862733
 30
0.0
 11
496.9516036502531
 21
435.9824158862756
 31
0.0
  0
LINE
  5
12B87
330
1F
100
AcDbEntity
  8
CONNECT
100
AcDbLine
 10
517.4303536502529
 20
437.5518158862727
 30
0.0
 11
517.4303536502529
 21
440.5086418862504
 31
0.0
  0
LINE
  5
12B88
330
1F
100
AcDbEntity
  8
CONNECT
100
AcDbLine
 10
516.9223536502529
 20
441.0166418862504
 30
0.0
 11
517.4303536502529
 21
440.5086418862504
 31
0.0
  0
LINE
  5
12B89
330
1F
100
AcDbEntity
  8
CONNECT
100
AcDbLine
 10
516.9223536502529
 20
441.0166418862504
 30
0.0
 11
510.0008536502529
 21
441.0166418862504
 31
0.0
  0
LINE
  5
12B90
330
1F
100
AcDbEntity
  8
CONNECT
100
AcDbLine
 10
509.4928536502528
 20
437.5518158862726
 30
0.0
 11
509.4928536502528
 21
440.5086418862504
 31
0.0
  0
LINE
  5
12B91
330
1F
100
AcDbEntity
  8
CONNECT
100
AcDbLine
 10
510.0008536502529
 20
441.0166418862504
 30
0.0
 11
509.4928536502528
 21
440.5086418862504
 31
0.0
  0
LINE
  5
12BA4
330
1F
100
AcDbEntity
  8
Hidden
100
AcDbLine
 10
510.0008536502529
 20
441.0166418862504
 30
0.0
 11
510.0008536502529
 21
437.5518158862726
 31
0.0
  0
LINE
  5
12BA5
330
1F
100
AcDbEntity
  8
Hidden
100
AcDbLine
 10
516.9223536502529
 20
441.0166418862504
 30
0.0
 11
516.9223536502529
 21
437.5518158862726
 31
0.0
  0
LINE
  5
12BA6
330
1F
100
AcDbEntity
  8
Hidden
100
AcDbLine
 10
517.4303536502529
 20
440.5086418862504
 30
0.0
 11
509.4928536502528
 21
440.5086418862504
 31
0.0
  0
LINE
  5
12BB3
330
1F
100
AcDbEntity
  8
FASTENER
100
AcDbLine
 10
520.6053536502531
 20
434.8086158862733
 30
0.0
 11
506.3178536502531
 21
434.8086158862733
 31
0.0
  0
LINE
  5
12BB4
330
1F
100
AcDbEntity
  8
FASTENER
100
AcDbLine
 10
506.3178536502531
 20
434.8086158862733
 30
0.0
 11
506.3178536502531
 21
435.5198158862733
 31
0.0
  0
LINE
  5
12BB5
330
1F
100
AcDbEntity
  8
FASTENER
100
AcDbLine
 10
506.3178536502531
 20
435.5198158862733
 30
0.0
 11
520.6053536502531
 21
435.5198158862733
 31
0.0
  0
LINE
  5
12BB6
330
1F
100
AcDbEntity
  8
FASTENER
100
AcDbLine
 10
520.6053536502531
 20
434.8086158862733
 30
0.0
 11
520.6053536502531
 21
435.5198158862733
 31
0.0
  0
LINE
  5
12BB9
330
1F
100
AcDbEntity
  8
Rear Panel
100
AcDbLine
 10
77.41064376078918
 20
434.808615886273
 30
0.0
 11
40.11349771115294
 21
434.8086158862724
 31
0.0
  0
ARC
  5
12BBA
330
1F
100
AcDbEntity
  8
Rear Panel
100
AcDbCircle
 10
40.11349771115294
 20
433.1576158862729
 30
0.0
 40
1.650999999999999
100
AcDbArc
 50
90.0
 51
180.0
  0
LINE
  5
12BBB
330
1F
100
AcDbEntity
  8
Rear Panel
100
AcDbLine
 10
79.06164376078914
 20
424.608615886273
 30
0.0
 11
79.06164376078902
 21
433.1576158862731
 31
0.0
  0
ARC
  5
12BBC
330
1F
100
AcDbEntity
  8
Rear Panel
100
AcDbCircle
 10
77.41064376078907
 20
433.1576158862731
 30
0.0
 40
1.650999999999999
100
AcDbArc
 50
0.000000000000007
 51
90.0
  0
LINE
  5
12BBD
330
1F
100
AcDbEntity
  8
MOTOR
100
AcDbLine
 10
78.76323756233967
 20
434.8086158862725
 30
0.0
 11
38.76176185996485
 21
434.8086158862725
 31
0.0
  0
LINE
  5
12BBE
330
1F
100
AcDbEntity
  8
MOTOR
100
AcDbLine
 10
78.76323756233978
 20
449.7946158862724
 30
0.0
 11
38.76176185996485
 21
449.7946158862728
 31
0.0
  0
LINE
  5
12BBF
330
1F
100
AcDbEntity
  8
MOTOR
100
AcDbLine
 10
78.76323756233978
 20
449.7946158862724
 30
0.0
 11
78.76323756233967
 21
434.8086158862725
 31
0.0
  0
LINE
  5
12BC0
330
1F
100
AcDbEntity
  8
MOTOR
100
AcDbLine
 10
38.76176185996485
 20
434.8086158862725
 30
0.0
 11
38.76176185996485
 21
449.7946158862728
 31
0.0
  0
LWPOLYLINE
  5
12BC2
330
1F
100
AcDbEntity
  8
Front Panel
100
AcDbPolyline
 90
       18
 70
     1
 43
0.0
 10
40.78249771115304
 20
213.8086158862747
 10
76.74250171115261
 20
213.8086158862747
 10
77.0827971855399
 20
212.5386158862747
 10
77.67220623676497
 20
212.5386158862747
 10
78.0125017111527
 20
213.8086158862747
 10
78.0125017111527
 20
220.3086158862746
 10
79.51250171115271
 20
220.3086158862748
 10
79.51250171115282
 20
213.8086158862748
 10
80.58749971115275
 20
213.8086158862748
 10
80.58749971115275
 20
210.8086158862748
 10
36.93749971115278
 20
210.8086158862724
 10
36.93749971115267
 20
213.8086158862723
 10
38.01249771115283
 20
213.8086158862724
 10
38.01249771115283
 20
220.3086158862748
 10
39.51249771115283
 20
220.3086158862746
 10
39.51249771115272
 20
213.8086158862747
 10
39.85279318554047
 20
212.5386158862747
 10
40.44220223676552
 20
212.5386158862747
  0
LINE
  5
12BC3
330
1F
100
AcDbEntity
  8
Base
100
AcDbLine
 10
37.46249971115276
 20
225.5233758862745
 30
0.0
 11
37.46249971115265
 21
431.793381886272
 31
0.0
  0
LINE
  5
12BC4
330
1F
100
AcDbEntity
  8
Base
100
AcDbLine
 10
41.01849971115257
 20
213.7933738862748
 30
0.0
 11
41.01849971115257
 21
226.7633758862748
 31
0.0
  0
LINE
  5
12BC5
330
1F
100
AcDbEntity
  8
Base
100
AcDbLine
 10
38.46249771115277
 20
431.793381886272
 30
0.0
 11
38.46249771115277
 21
433.7933778862719
 31
0.0
  0
LINE
  5
12BC6
330
1F
100
AcDbEntity
  8
Base
100
AcDbLine
 10
79.06250171115266
 20
233.7933338862748
 30
0.0
 11
79.06250171115266
 21
431.793381886272
 31
0.0
  0
LINE
  5
12BC7
330
1F
100
AcDbEntity
  8
Base
100
AcDbLine
 10
77.46230171115269
 20
222.5563738862748
 30
0.0
 11
77.46230171115269
 21
233.7933338862748
 31
0.0
  0
LINE
  5
12BC8
330
1F
100
AcDbEntity
  8
Base
100
AcDbLine
 10
76.44630171115295
 20
213.7933738862748
 30
0.0
 11
76.44630171115307
 21
222.5563738862748
 31
0.0
  0
LINE
  5
12BC9
330
1F
100
AcDbEntity
  8
Base
100
AcDbLine
 10
39.51249771115283
 20
213.8086158862744
 30
0.0
 11
39.51249771115272
 21
220.5233758862748
 31
0.0
  0
LINE
  5
12BCA
330
1F
100
AcDbEntity
  8
Base
100
AcDbLine
 10
40.51249571115284
 20
212.7933758862748
 30
0.0
 11
40.51249571115284
 21
220.9375886202205
 31
0.0
  0
LINE
  5
12BCB
330
1F
100
AcDbEntity
  8
Base
100
AcDbLine
 10
40.51249571115284
 20
212.7933758862748
 30
0.0
 11
39.78453044927653
 21
212.7933758862748
 31
0.0
  0
LINE
  5
12BCC
330
1F
100
AcDbEntity
  8
Base
100
AcDbLine
 10
37.46249971115242
 20
225.5233758862749
 30
0.0
 11
39.51249771115283
 21
220.5233758862747
 31
0.0
  0
LINE
  5
12BCD
330
1F
100
AcDbEntity
  8
Base
100
AcDbLine
 10
38.64462475438518
 20
225.4933758862747
 30
0.0
 11
40.51249571115294
 21
220.9375886202203
 31
0.0
  0
LINE
  5
12BCE
330
1F
100
AcDbEntity
  8
Base
100
AcDbLine
 10
79.06250171115266
 20
233.7933338862748
 30
0.0
 11
77.46230171115269
 21
233.7933338862748
 31
0.0
  0
LINE
  5
12BCF
330
1F
100
AcDbEntity
  8
Base
100
AcDbLine
 10
37.47479969915253
 20
226.7633758862747
 30
0.0
 11
41.01849971115257
 21
226.7633758862748
 31
0.0
  0
LINE
  5
12BD0
330
1F
100
AcDbEntity
  8
Base
100
AcDbLine
 10
77.46230171115269
 20
222.5563738862748
 30
0.0
 11
76.44630171115318
 21
222.5563738862748
 31
0.0
  0
LINE
  5
12BD1
330
1F
100
AcDbEntity
  8
Base
100
AcDbLine
 10
78.06250371115232
 20
431.7933818862718
 30
0.0
 11
78.06250371115232
 21
433.7933778862719
 31
0.0
  0
LINE
  5
12BD2
330
1F
100
AcDbEntity
  8
Base
100
AcDbLine
 10
78.06250371115232
 20
433.7933778862719
 30
0.0
 11
38.46249771115277
 21
433.7933778862719
 31
0.0
  0
LINE
  5
12BD3
330
1F
100
AcDbEntity
  8
Base
100
AcDbLine
 10
79.06250171115278
 20
431.793381886272
 30
0.0
 11
78.06250371115232
 21
431.7933818862718
 31
0.0
  0
LINE
  5
12BD4
330
1F
100
AcDbEntity
  8
Base
100
AcDbLine
 10
38.46249771115288
 20
431.793381886272
 30
0.0
 11
37.46249971115265
 21
431.793381886272
 31
0.0
  0
LINE
  5
12BD5
330
1F
100
AcDbEntity
  8
Top Panel
100
AcDbLine
 10
80.06164176078925
 20
433.8086198862726
 30
0.0
 11
79.06164376078902
 21
433.8086198862726
 31
0.0
  0
LINE
  5
12BD6
330
1F
100
AcDbEntity
  8
Top Panel
100
AcDbLine
 10
77.68664376078925
 20
212.808619886274
 30
0.0
 11
77.68664376078937
 21
220.5233758862747
 31
0.0
  0
LINE
  5
12BD7
330
1F
100
AcDbEntity
  8
Top Panel
100
AcDbLine
 10
80.06164176078925
 20
225.523375886275
 30
0.0
 11
80.06164176078925
 21
433.8086198862726
 31
0.0
  0
LINE
  5
12BD8
330
1F
100
AcDbEntity
  8
Top Panel
100
AcDbLine
 10
76.68664576078936
 20
213.8086158862747
 30
0.0
 11
76.68664576078924
 21
220.9375886202202
 31
0.0
  0
LINE
  5
12BD9
330
1F
100
AcDbEntity
  8
Top Panel
100
AcDbLine
 10
79.06164376078902
 20
225.9375886202203
 30
0.0
 11
79.06164376078902
 21
433.8086198862723
 31
0.0
  0
LINE
  5
12BDA
330
1F
100
AcDbEntity
  8
Top Panel
100
AcDbLine
 10
77.01044983178701
 20
212.808619886274
 30
0.0
 11
77.68664376078925
 21
212.808619886274
 31
0.0
  0
LINE
  5
12BDB
330
1F
100
AcDbEntity
  8
Top Panel
100
AcDbLine
 10
80.06164176078915
 20
225.5233758862749
 30
0.0
 11
77.68664376078925
 21
220.5233758862747
 31
0.0
  0
LINE
  5
12BDC
330
1F
100
AcDbEntity
  8
Top Panel
100
AcDbLine
 10
79.06164376078902
 20
225.9375886202205
 30
0.0
 11
76.68664576078914
 21
220.9375886202203
 31
0.0
  0
LINE
  5
12BF0
330
1F
100
AcDbEntity
  8
Base
100
AcDbLine
 10
38.64462475438518
 20
225.4933758862747
 30
0.0
 11
38.64462475438518
 21
226.7633758862747
 31
0.0
  0
DIMENSION
  5
12BF1
330
1F
100
AcDbEntity
  8
DIM
100
AcDbDimension
  2
*D14
 10
37.46249971115265
 20
471.3219227641538
 30
0.0
 11
58.8702875111436
 21
471.3219227641538
 31
0.0
 70
   160
 71
     5
 42
42.59914204963661
  3
METRIC
100
AcDbAlignedDimension
 13
80.06164176078925
 23
433.8086198862726
 33
0.0
 14
37.46249971115265
 24
431.793381886272
 34
0.0
 50
180.0
100
AcDbRotatedDimension
1001
ACAD
1000
DSTYLE
1002
{
1070
   141
1040
0.0
1070
   179
1070
     1
1002
}
  0
DIMENSION
  5
12BF2
330
1F
100
AcDbEntity
  8
CONNECT
100
AcDbDimension
  2
*D15
 10
80.58749971115275
 20
174.6
 30
0.0
 11
58.42391965874333
 21
174.6
 31
0.0
 70
   160
  1
<>\P(1U)
 71
     5
 42
43.64999999999997
  3
METRIC
100
AcDbAlignedDimension
 13
36.93749971115278
 23
210.8086158862724
 33
0.0
 14
80.58749971115275
 24
210.8086158862748
 34
0.0
 50
180.0
100
AcDbRotatedDimension
1001
ACAD
1000
DSTYLE
1002
{
1070
   141
1040
0.0
1070
   179
1070
     1
1002
}
  0
LINE
  5
12C27
330
1F
100
AcDbEntity
  8
CONNECTOR
100
AcDbLine
 10
49.95049768715523
 20
200.7276336662742
 30
0.0
 11
42.83849768715515
 21
200.7276336662743
 31
0.0
  0
LINE
  5
12C28
330
1F
100
AcDbEntity
  8
CONNECTOR
  6
Continuous
100
AcDbLine
 10
42.83849768715515
 20
210.8086158862727
 30
0.0
 11
42.83849768715515
 21
200.7276336662743
 31
0.0
  0
LINE
  5
12C29
330
1F
100
AcDbEntity
  8
CONNECTOR
  6
Continuous
100
AcDbLine
 10
49.95049768715523
 20
210.8086158862731
 30
0.0
 11
49.95049768715523
 21
200.7276336662742
 31
0.0
  0
LINE
  5
12C2A
330
1F
100
AcDbEntity
  8
Hidden
100
AcDbLine
 10
65.42601998444138
 20
200.7276336662742
 30
0.0
 11
58.3140199844413
 21
200.7276336662743
 31
0.0
  0
LINE
  5
12C2B
330
1F
100
AcDbEntity
  8
Hidden
100
AcDbLine
 10
58.3140199844413
 20
210.8086158862735
 30
0.0
 11
58.3140199844413
 21
200.7276336662743
 31
0.0
  0
LINE
  5
12C2C
330
1F
100
AcDbEntity
  8
Hidden
100
AcDbLine
 10
65.42601998444138
 20
210.8086158862739
 30
0.0
 11
65.42601998444138
 21
200.7276336662742
 31
0.0
  0
CIRCLE
  5
12C2D
330
1F
100
AcDbEntity
  8
CONNECTOR
100
AcDbCircle
 10
46.39449768715519
 20
204.7916336662743
 30
0.0
 40
0.7620000000000005
  0
CIRCLE
  5
12C2E
330
1F
100
AcDbEntity
  8
Hidden
100
AcDbCircle
 10
61.87001998444134
 20
204.7916336662743
 30
0.0
 40
0.7620000000000005
  0
INSERT
  5
12C72
330
1F
100
AcDbEntity
  8
CONNECTOR
100
AcDbBlockReference
  2
m4washe
 10
555.5537216502539
 20
434.8086158862733
 30
0.0
 50
270.0
  0
INSERT
  5
12C73
330
1F
100
AcDbEntity
  8
CONNECTOR
100
AcDbBlockReference
  2
m4nute
 10
555.5537216502539
 20
435.6086158862733
 30
0.0
 50
180.0
  0
INSERT
  5
12C74
330
1F
100
AcDbEntity
  8
CONNECTOR
100
AcDbBlockReference
  2
m4washe
 10
555.5537216502539
 20
438.8086140862752
 30
0.0
 50
270.0
  0
INSERT
  5
12C75
330
1F
100
AcDbEntity
  8
CONNECTOR
100
AcDbBlockReference
  2
m4washe
 10
555.5537216502539
 20
440.4813635893987
 30
0.0
 50
270.0
  0
INSERT
  5
12C76
330
1F
100
AcDbEntity
  8
CONNECTOR
100
AcDbBlockReference
  2
m4nute
 10
555.5537216502539
 20
441.2813635893988
 30
0.0
 50
180.0
  0
MTEXT
  5
12FD2
330
1F
100
AcDbEntity
  8
CONNECT
100
AcDbMText
 10
338.3198893246886
 20
561.3380100774939
 30
0.0
 40
8.0
 41
99.8044490030054
 71
     1
 72
     5
  1
{\fArial|b0|i0|c0|p34;BACK VIEW (ROTATED)}
 73
     1
 44
1.0
1001
ACAD
1000
MTEXTBEGIN
1070
    73
1070
     1
1070
    44
1040
1.0
1070
    74
1070
     0
1000
MTEXTEND
  0
MTEXT
  5
12FD3
330
1F
100
AcDbEntity
  8
CONNECT
100
AcDbMText
 10
338.3198893246886
 20
22.48801007749397
 30
0.0
 40
8.0
 41
99.8044490030054
 71
     1
 72
     5
  1
{\fArial|b0|i0|c0|p34;FRONT VIEW}
 73
     1
 44
1.0
1001
ACAD
1000
MTEXTBEGIN
1070
    73
1070
     1
1070
    44
1040
1.0
1070
    74
1070
     0
1000
MTEXTEND
  0
LINE
  5
12FF9
330
1F
100
AcDbEntity
  8
0
100
AcDbLine
 10
158.4445830931336
 20
452.5946158862732
 30
0.0
 11
161.8445830931336
 21
452.5946158862732
 31
0.0
  0
LINE
  5
13000
330
1F
100
AcDbEntity
  8
0
100
AcDbLine
 10
163.1445830931336
 20
450.2946158862733
 30
0.0
 11
163.1445830931336
 21
451.2946158862733
 31
0.0
  0
ARC
  5
13001
330
1F
100
AcDbEntity
  8
0
100
AcDbCircle
 10
161.8445830931336
 20
451.2946158862733
 30
0.0
 40
1.3
100
AcDbArc
 50
0.0
 51
90.0
  0
LINE
  5
13002
330
1F
100
AcDbEntity
  8
0
100
AcDbLine
 10
157.1445830931336
 20
450.2946158862733
 30
0.0
 11
157.1445830931336
 21
451.2946158862733
 31
0.0
  0
ARC
  5
13003
330
1F
100
AcDbEntity
  8
0
100
AcDbCircle
 10
158.4445830931336
 20
451.2946158862733
 30
0.0
 40
1.3
100
AcDbArc
 50
90.0
 51
180.0
  0
LINE
  5
13007
330
1F
100
AcDbEntity
  8
0
100
AcDbLine
 10
190.4546242073756
 20
452.5946158862732
 30
0.0
 11
193.8546242073757
 21
452.5946158862732
 31
0.0
  0
LINE
  5
1300E
330
1F
100
AcDbEntity
  8
0
100
AcDbLine
 10
195.1546242073756
 20
450.2946158862733
 30
0.0
 11
195.1546242073756
 21
451.2946158862733
 31
0.0
  0
ARC
  5
1300F
330
1F
100
AcDbEntity
  8
0
100
AcDbCircle
 10
193.8546242073757
 20
451.2946158862733
 30
0.0
 40
1.3
100
AcDbArc
 50
0.0
 51
90.0
  0
LINE
  5
13010
330
1F
100
AcDbEntity
  8
0
100
AcDbLine
 10
189.1546242073756
 20
450.2946158862733
 30
0.0
 11
189.1546242073756
 21
451.2946158862733
 31
0.0
  0
ARC
  5
13011
330
1F
100
AcDbEntity
  8
0
100
AcDbCircle
 10
190.4546242073756
 20
451.2946158862733
 30
0.0
 40
1.3
100
AcDbArc
 50
90.0
 51
180.0
  0
LINE
  5
13015
330
1F
100
AcDbEntity
  8
0
100
AcDbLine
 10
41.05747915403124
 20
452.0946158862725
 30
0.0
 11
44.45747915403124
 21
452.0946158862725
 31
0.0
  0
LINE
  5
1301C
330
1F
100
AcDbEntity
  8
0
100
AcDbLine
 10
45.75747915403124
 20
449.7946158862726
 30
0.0
 11
45.75747915403124
 21
450.7946158862726
 31
0.0
  0
ARC
  5
1301D
330
1F
100
AcDbEntity
  8
0
100
AcDbCircle
 10
44.45747915403124
 20
450.7946158862726
 30
0.0
 40
1.3
100
AcDbArc
 50
0.0
 51
90.0
  0
LINE
  5
1301E
330
1F
100
AcDbEntity
  8
0
100
AcDbLine
 10
39.75747915403124
 20
449.7946158862726
 30
0.0
 11
39.75747915403124
 21
450.7946158862726
 31
0.0
  0
ARC
  5
1301F
330
1F
100
AcDbEntity
  8
0
100
AcDbCircle
 10
41.05747915403124
 20
450.7946158862726
 30
0.0
 40
1.3
100
AcDbArc
 50
90.0
 51
180.0
  0
LINE
  5
13023
330
1F
100
AcDbEntity
  8
0
100
AcDbLine
 10
73.06752026827324
 20
452.0946158862725
 30
0.0
 11
76.46752026827325
 21
452.0946158862725
 31
0.0
  0
LINE
  5
1302A
330
1F
100
AcDbEntity
  8
0
100
AcDbLine
 10
77.76752026827324
 20
449.7946158862726
 30
0.0
 11
77.76752026827324
 21
450.7946158862726
 31
0.0
  0
ARC
  5
1302B
330
1F
100
AcDbEntity
  8
0
100
AcDbCircle
 10
76.46752026827325
 20
450.7946158862726
 30
0.0
 40
1.3
100
AcDbArc
 50
0.0
 51
90.0
  0
LINE
  5
1302C
330
1F
100
AcDbEntity
  8
0
100
AcDbLine
 10
71.76752026827324
 20
449.7946158862726
 30
0.0
 11
71.76752026827324
 21
450.7946158862726
 31
0.0
  0
ARC
  5
1302D
330
1F
100
AcDbEntity
  8
0
100
AcDbCircle
 10
73.06752026827324
 20
450.7946158862726
 30
0.0
 40
1.3
100
AcDbArc
 50
90.0
 51
180.0
  0
INSERT
  5
13040
330
1F
100
AcDbEntity
  8
FASTENER
100
AcDbBlockReference
  2
M3PANT
 10
543.68960365026
 20
633.0919983156815
 30
0.0
  0
INSERT
  5
13045
330
1F
100
AcDbEntity
  8
FASTENER
100
AcDbBlockReference
  2
M3PANT
 10
575.6896036502602
 20
633.0919983156814
 30
0.0
  0
INSERT
  5
13046
330
1F
100
AcDbEntity
  8
FASTENER
100
AcDbBlockReference
  2
M3PANT
 10
575.6896036502601
 20
601.0919983156811
 30
0.0
  0
INSERT
  5
13047
330
1F
100
AcDbEntity
  8
FASTENER
100
AcDbBlockReference
  2
M3PANT
 10
543.6896036502599
 20
601.0919983156814
 30
0.0
  0
DIMENSION
  5
13407
330
1F
100
AcDbEntity
  8
DIM
100
AcDbDimension
  2
*D17
 10
620.0
 20
210.8086158862748
 30
0.0
 11
633.2759208731241
 21
220.8086158862749
 31
0.0
 70
    32
 71
     5
 42
10.0809822200006
  3
METRIC
100
AcDbAlignedDimension
 13
541.9096036502537
 23
200.7276336662743
 33
0.0
 14
609.2196036502534
 24
210.8086158862748
 34
0.0
 50
90.0
100
AcDbRotatedDimension
1001
ACAD
1000
DSTYLE
1002
{
1070
   179
1070
     1
1002
}
  0
INSERT
  5
13455
330
1F
100
AcDbEntity
  8
FASTENER
100
AcDbBlockReference
  2
m3washe
 10
160.1445830931336
 20
449.7946158862733
 30
0.0
 50
90.0
  0
INSERT
  5
13456
330
1F
100
AcDbEntity
  8
FASTENER
100
AcDbBlockReference
  2
m3washe
 10
192.1546242073756
 20
449.7946158862733
 30
0.0
 50
90.0
  0
INSERT
  5
1346F
330
1F
100
AcDbEntity
  8
FASTENER
100
AcDbBlockReference
  2
m2.5flatt
 10
547.9196016502533
 20
429.108615886273
 30
0.0
 41
-0.999998
 42
0.999998
 43
0.999998
  0
ENDSEC
  0
SECTION
  2
OBJECTS
  0
DICTIONARY
  5
C
330
0
100
AcDbDictionary
281
     1
  3
ACAD_COLOR
350
5029
  3
ACAD_GROUP
350
D
  3
ACAD_LAYOUT
350
1A
  3
ACAD_MATERIAL
350
5028
  3
ACAD_MLINESTYLE
350
17
  3
ACAD_PLOTSETTINGS
350
19
  3
ACAD_PLOTSTYLENAME
350
E
  3
ACAD_TABLESTYLE
350
502A
  3
AcadDim
350
10419
  3
ACDBHEADERROUNDTRIPXREC
350
1348D
  3
AcDbVariableDictionary
350
5039
  3
ASE_INDEX_DICTIONARY
350
117F3
  3
DWGPROPS
350
1348C
  0
DICTIONARY
  5
5031
330
2
100
AcDbDictionary
280
     1
281
     1
  3
ACAD_LAYERFILTERS
360
11825
  3
ACAD_LAYERSTATES
360
5032
  3
ACLYDICTIONARY
360
11824
  0
DICTIONARY
  5
54D8
330
1F
100
AcDbDictionary
280
     1
281
     1
  3
ACAD_SORTENTS
360
54D9
  0
DICTIONARY
  5
11BB9
330
11BB8
100
AcDbDictionary
280
     1
281
     1
  3
ACAD_SORTENTS
360
11BBA
  0
DICTIONARY
  5
13492
330
107CC
100
AcDbDictionary
280
     1
281
     1
  3
ACAD_MTEXT_RT
360
13493
  0
DICTIONARY
  5
5029
102
{ACAD_REACTORS
330
C
102
}
330
C
100
AcDbDictionary
281
     1
  0
DICTIONARY
  5
D
102
{ACAD_REACTORS
330
C
102
}
330
C
100
AcDbDictionary
281
     1
  0
DICTIONARY
  5
1A
102
{ACAD_REACTORS
330
C
102
}
330
C
100
AcDbDictionary
281
     1
  3
Layout1
350
F8D7
  3
Model
350
22
  0
DICTIONARY
  5
5028
102
{ACAD_REACTORS
330
C
102
}
330
C
100
AcDbDictionary
281
     1
  0
DICTIONARY
  5
17
102
{ACAD_REACTORS
330
C
102
}
330
C
100
AcDbDictionary
281
     1
  3
Standard
350
18
  0
DICTIONARY
  5
19
102
{ACAD_REACTORS
330
C
102
}
330
C
100
AcDbDictionary
281
     1
  0
ACDBDICTIONARYWDFLT
  5
E
102
{ACAD_REACTORS
330
C
102
}
330
C
100
AcDbDictionary
281
     1
  3
Normal
350
F
100
AcDbDictionaryWithDefault
340
F
  0
DICTIONARY
  5
502A
102
{ACAD_REACTORS
330
C
102
}
330
C
100
AcDbDictionary
281
     1
  3
Standard
350
502B
  0
XRECORD
  5
10419
102
{ACAD_REACTORS
330
C
102
}
330
C
100
AcDbXrecord
280
     1
 90
   990106
  3

 60
     0
 61
     0
 62
     1
 63
     3
 64
     0
 65
     0
 66
     0
 67
     3
 68
     1
 69
     0
 70
     0
 71
     0
 72
     0
 40
0.0
170
     0
  0
DICTIONARY
  5
1348D
102
{ACAD_REACTORS
330
C
102
}
330
C
100
AcDbDictionary
281
     1
  0
DICTIONARY
  5
5039
102
{ACAD_REACTORS
330
C
102
}
330
C
100
AcDbDictionary
281
     1
  3
CTABLESTYLE
350
503A
  3
DIMASSOC
350
505A
  3
PROJECTNAME
350
505B
  0
DICTIONARY
  5
117F3
102
{ACAD_REACTORS
330
C
102
}
330
C
100
AcDbDictionary
281
     1
  3
ASEBlockHierarchyIndexRecord
350
117F4
1001
DCO15
1040
1591031170.359
  0
XRECORD
  5
1348C
102
{ACAD_REACTORS
330
C
102
}
330
C
100
AcDbXrecord
280
     1
  1
DWGPROPS COOKIE
  2

  3

  4

  6

  7

  8

  9

300
=
301
=
302
=
303
=
304
=
305
=
306
=
307
=
308
=
309
=
 40
6.805517349537036
 41
2451534.924419676
 42
2454656.618938253
  1

 90
        0
  0
DICTIONARY
  5
11825
102
{ACAD_REACTORS
330
5031
102
}
330
5031
100
AcDbDictionary
281
     1
  0
DICTIONARY
  5
5032
102
{ACAD_REACTORS
330
5031
102
}
330
5031
100
AcDbDictionary
281
     1
  0
DICTIONARY
  5
11824
102
{ACAD_REACTORS
330
5031
102
}
330
5031
100
AcDbDictionary
281
     1
1001
ACAD
1000
<All
  0
SORTENTSTABLE
  5
54D9
102
{ACAD_REACTORS
330
54D8
102
}
330
54D8
100
AcDbSortentsTable
330
1F
331
11F32
  5
11F32
331
11EBD
  5
11EBD
331
11E96
  5
11E96
331
11E77
  5
11E77
331
11E21
  5
11E21
331
11DCB
  5
11DCB
331
12B00
  5
12BA1
331
11985
  5
11985
331
11966
  5
11966
331
1072D
  5
1072D
331
1070E
  5
1070E
331
106EF
  5
106EF
331
F31C
  5
F4A3
331
106BD
  5
106BD
331
106D0
  5
106D0
331
12862
  5
12868
331
11F33
  5
11F33
331
11E97
  5
11E97
331
11E78
  5
11E78
331
11E22
  5
11E22
331
11DCC
  5
11DCC
331
12B38
  5
12BA7
331
11986
  5
11986
331
11967
  5
11967
331
1072E
  5
1072E
331
106F0
  5
106F0
331
106D1
  5
106D1
331
F4F4
  5
EBC7
331
F31D
  5
F4A4
331
106BE
  5
106BE
331
1070F
  5
1070F
331
12931
  5
12BB7
331
12863
  5
12869
331
11F34
  5
11F34
331
11E98
  5
11E98
331
11E79
  5
11E79
331
11E52
  5
11E52
331
11E23
  5
11E23
331
11DCD
  5
11DCD
331
1290A
  5
12BB2
331
12B39
  5
12BA8
331
1072F
  5
1072F
331
10710
  5
10710
331
106F1
  5
106F1
331
106D2
  5
106D2
331
F99C
  5
F9E5
331
F4F5
  5
EBC8
331
F31E
  5
F4A5
331
106BF
  5
106BF
331
12864
  5
1286A
331
11E99
  5
11E99
331
11E53
  5
11E53
331
129A8
  5
1294C
331
10730
  5
10730
331
10711
  5
10711
331
106F2
  5
106F2
331
106D3
  5
106D3
331
F31F
  5
F4A6
331
129A9
  5
1294D
331
12865
  5
1286B
331
12BD0
  5
12BD0
331
12A3E
  5
129A5
331
11E9A
  5
11E9A
331
11E54
  5
11E54
331
12A0F
  5
1289C
331
10731
  5
10731
331
10712
  5
10712
331
106F3
  5
106F3
331
106D4
  5
106D4
331
129D9
  5
12937
331
1297B
  5
128E1
331
12866
  5
1286C
331
11E55
  5
11E55
331
11E9B
  5
11E9B
331
12A10
  5
1289D
331
12BD1
  5
12BD1
331
10732
  5
10732
331
10713
  5
10713
331
106F4
  5
106F4
331
106D5
  5
106D5
331
12BD2
  5
12BD2
331
1297C
  5
128E2
331
12935
  5
12BB8
331
12867
  5
1286D
331
12ABF
  5
12B95
331
11E56
  5
11E56
331
11ED3
  5
11ED3
331
12A11
  5
128B5
331
12BB3
  5
12862
331
10733
  5
10733
331
10714
  5
10714
331
106F5
  5
106F5
331
106D6
  5
106D6
331
13000
  5
12FFD
331
12BD3
  5
12BD3
331
1297D
  5
128E3
331
12868
  5
1286E
331
12AC0
  5
12B96
331
11ED4
  5
11ED4
331
11E57
  5
11E57
331
11E30
  5
11E30
331
11DDA
  5
11DDA
331
12A12
  5
128B6
331
12BB4
  5
12863
331
10734
  5
10734
331
10715
  5
10715
331
106F6
  5
106F6
331
106D7
  5
106D7
331
13001
  5
12FFE
331
1297E
  5
128E4
331
12869
  5
12870
331
12BB5
  5
12864
331
11ED5
  5
11ED5
331
11E60
  5
11E60
331
11E31
  5
11E31
331
12A42
  5
129A6
331
12BD4
  5
12BD4
331
10735
  5
10735
331
10716
  5
10716
331
106F7
  5
106F7
331
106D8
  5
106D8
331
12BD5
  5
12BD5
331
12BB6
  5
12865
331
1286A
  5
12871
331
11F14
  5
11F14
331
11ED6
  5
11ED6
331
11E61
  5
11E61
331
11E32
  5
11E32
331
12950
  5
12976
331
12B87
  5
12A39
331
13002
  5
12FFF
331
10736
  5
10736
331
106F8
  5
106F8
331
106D9
  5
106D9
331
10717
  5
10717
331
12BD6
  5
12BD6
331
1286B
  5
12872
331
11F15
  5
11F15
331
11EFE
  5
11EFE
331
11ED7
  5
11ED7
331
11E33
  5
11E33
331
11DDD
  5
11DDD
331
12951
  5
12977
331
12B88
  5
12A50
331
13003
  5
13000
331
10737
  5
10737
331
10718
  5
10718
331
106F9
  5
106F9
331
106DA
  5
106DA
331
D288
  5
E5B1
331
12BD7
  5
12BD7
331
12952
  5
12978
331
12B89
  5
12A51
331
1286C
  5
12873
331
11F16
  5
11F16
331
11EFF
  5
11EFF
331
11ED8
  5
11ED8
331
11E82
  5
11E82
331
11E34
  5
11E34
331
12AC4
  5
12B97
331
13023
  5
13023
331
10719
  5
10719
331
106FA
  5
106FA
331
106DB
  5
106DB
331
D289
  5
E5B2
331
12C27
  5
12C27
331
12BD8
  5
12BD8
331
12953
  5
12979
331
12BB9
  5
12BB9
331
1286D
  5
12876
331
11F17
  5
11F17
331
11F00
  5
11F00
331
11ED9
  5
11ED9
331
11E83
  5
11E83
331
11E35
  5
11E35
331
11E06
  5
11E06
331
11E64
  5
11E64
331
12AC5
  5
12B98
331
1071A
  5
1071A
331
106FB
  5
106FB
331
106DC
  5
106DC
331
D28A
  5
E5B3
331
12C28
  5
12C28
331
12BD9
  5
12BD9
331
129B2
  5
12956
331
12BBA
  5
12BBA
331
12925
  5
12BB3
331
12B2D
  5
12BA2
331
11F3F
  5
11F3F
331
11F18
  5
11F18
331
11F01
  5
11F01
331
11E65
  5
11E65
331
11DE0
  5
11DE0
331
11EDA
  5
11EDA
331
12AC6
  5
12B99
331
1071B
  5
1071B
331
106FC
  5
106FC
331
106DD
  5
106DD
331
D38A
  5
EBD0
331
D28B
  5
E5B4
331
12C29
  5
12C29
331
12BDA
  5
12BDA
331
12926
  5
12BB4
331
11F40
  5
11F40
331
11F19
  5
11F19
331
11EDB
  5
11EDB
331
11EA4
  5
11EA4
331
11E66
  5
11E66
331
11DE1
  5
11DE1
331
11F02
  5
11F02
331
12AC7
  5
12B9A
331
12BBB
  5
12BBB
331
13007
  5
13005
331
1071C
  5
1071C
331
106FD
  5
106FD
331
106DE
  5
106DE
331
D28C
  5
E5B5
331
12C2A
  5
12C2A
331
12BDB
  5
12BDB
331
12927
  5
12BB5
331
11F41
  5
11F41
331
11F03
  5
11F03
331
11EDC
  5
11EDC
331
11EA5
  5
11EA5
331
11E86
  5
11E86
331
11E67
  5
11E67
331
11E09
  5
11E09
331
11DE2
  5
11DE2
331
11F1A
  5
11F1A
331
12B66
  5
12BA9
331
12BBC
  5
12BBC
331
1071D
  5
1071D
331
106FE
  5
106FE
331
106DF
  5
106DF
331
D28D
  5
E5B6
331
D3F2
  5
EC1D
331
12C2B
  5
12C2B
331
129EC
  5
12904
331
11F42
  5
11F42
331
12928
  5
12BB6
331
12BBD
  5
12BBD
331
11F1B
  5
11F1B
331
11F04
  5
11F04
331
11EDD
  5
11EDD
331
11E87
  5
11E87
331
11DE3
  5
11DE3
331
12A1B
  5
128C2
331
12BDC
  5
12BDC
331
12C72
  5
12C72
331
1071E
  5
1071E
331
106FF
  5
106FF
331
D28E
  5
E5BD
331
D3F3
  5
EC21
331
12C2C
  5
12C2C
331
12C73
  5
12C73
331
12BBE
  5
12BBE
331
129ED
  5
12905
331
129B6
  5
1295A
331
12B31
  5
12BA3
331
12987
  5
128ED
331
11F43
  5
11F43
331
11F1C
  5
11F1C
331
11F05
  5
11F05
331
11EDE
  5
11EDE
331
11E88
  5
11E88
331
128FA
  5
12BAD
331
1071F
  5
1071F
331
D38E
  5
EBD1
331
D28F
  5
E5BE
331
D3F4
  5
EC22
331
E91B
  5
EBC9
331
12C2D
  5
12C2D
331
12C74
  5
12C74
331
1302A
  5
1302A
331
12BBF
  5
12BBF
331
12B90
  5
12A64
331
12B69
  5
12B83
331
12B32
  5
12BA4
331
128FB
  5
12BAE
331
11F44
  5
11F44
331
11F06
  5
11F06
331
11EA8
  5
11EA8
331
11E89
  5
11E89
331
11E0C
  5
11E0C
331
129EE
  5
12906
331
ED28
  5
EE02
331
D290
  5
E5BF
331
D3F5
  5
EC23
331
E91C
  5
EBCB
331
EA32
  5
ED1D
331
12C2E
  5
12C2E
331
12C75
  5
12C75
331
1302B
  5
1302B
331
12BC0
  5
12BC0
331
12B91
  5
12A69
331
12AF4
  5
12B9B
331
128FC
  5
12BAF
331
11F45
  5
11F45
331
11F07
  5
11F07
331
11EA9
  5
11EA9
331
11E0D
  5
11E0D
331
129EF
  5
12907
331
ED29
  5
EE03
331
D390
  5
EBD2
331
D3A7
  5
EBD4
331
E91D
  5
EBCC
331
EA33
  5
ED1E
331
12C76
  5
12C76
331
12BF0
  5
12BF0
331
1302C
  5
1302C
331
129C9
  5
12927
331
128FD
  5
12BB0
331
12A1F
  5
128C6
331
11F46
  5
11F46
331
11EE9
  5
11EE9
331
11E0E
  5
11E0E
331
11EAA
  5
11EAA
331
129F8
  5
12910
331
10738
  5
10738
331
ED2A
  5
EE04
331
D3A8
  5
EBD5
331
E91E
  5
EBCD
331
ED03
  5
EDE6
331
1302D
  5
1302D
331
12BF1
  5
12BF1
331
12BC2
  5
12BC2
331
1300E
  5
1300C
331
129CA
  5
12928
331
1298B
  5
128F1
331
12A5F
  5
12BAA
331
1295C
  5
12982
331
11F47
  5
11F47
331
11EEA
  5
11EEA
331
11E3E
  5
11E3E
331
11E0F
  5
11E0F
331
11EAB
  5
11EAB
331
10758
  5
10758
331
10739
  5
10739
331
E91F
  5
EBCE
331
EA35
  5
EDAF
331
ED04
  5
EDE7
331
12BF2
  5
12BF2
331
12BC3
  5
12BC3
331
1300F
  5
1300D
331
12A60
  5
12BAB
331
12B36
  5
12BA5
331
129CB
  5
12929
331
11F48
  5
11F48
331
11EEB
  5
11EEB
331
11E3F
  5
11E3F
331
11F29
  5
11F29
331
10778
  5
10778
331
10759
  5
10759
331
1073A
  5
1073A
331
ED05
  5
EDE8
331
EA36
  5
EDB0
331
13010
  5
1300E
331
12BC4
  5
12BC4
331
12B37
  5
12BA6
331
12AF8
  5
12B9C
331
129CC
  5
1292A
331
12A32
  5
129A1
331
11F2A
  5
11F2A
331
11EEC
  5
11EEC
331
11F49
  5
11F49
331
10798
  5
10798
331
10779
  5
10779
331
1075A
  5
1075A
331
1073B
  5
1073B
331
D295
  5
E5C3
331
E921
  5
EBCF
331
EA37
  5
EDB1
331
13011
  5
1300F
331
12FD2
  5
12FD2
331
12BC5
  5
12BC5
331
12AF9
  5
12B9D
331
12A33
  5
129A2
331
11F4A
  5
11F4A
331
11F2B
  5
11F2B
331
11EED
  5
11EED
331
129FC
  5
12914
331
107B0
  5
107B0
331
10799
  5
10799
331
1077A
  5
1077A
331
1075B
  5
1075B
331
1073C
  5
1073C
331
ED07
  5
EDEB
331
D296
  5
E5C4
331
12BC6
  5
12BC6
331
12FD3
  5
12FD3
331
12A34
  5
129A3
331
11F4B
  5
11F4B
331
11F2C
  5
11F2C
331
11EEE
  5
11EEE
331
12960
  5
12986
331
107B1
  5
107B1
331
1079A
  5
1079A
331
1077B
  5
1077B
331
1075C
  5
1075C
331
1073D
  5
1073D
331
ED08
  5
EDEE
331
D297
  5
E5C5
331
D3FC
  5
EC24
331
12BC7
  5
12BC7
331
12A35
  5
129A4
331
11F4C
  5
11F4C
331
11F2D
  5
11F2D
331
11EEF
  5
11EEF
331
10B50
  5
10C14
331
107B2
  5
107B2
331
1079B
  5
1079B
331
1077C
  5
1077C
331
1075D
  5
1075D
331
1073E
  5
1073E
331
ED09
  5
EDF1
331
D298
  5
E5C6
331
D3FD
  5
EC25
331
EA42
  5
EB0A
331
12BC8
  5
12BC8
331
12A65
  5
12BAC
331
11F4D
  5
11F4D
331
11F2E
  5
11F2E
331
10BE8
  5
10BE8
331
10B51
  5
10C15
331
108EA
  5
108D9
331
107B3
  5
107B3
331
1079C
  5
1079C
331
1077D
  5
1077D
331
1073F
  5
1073F
331
1075E
  5
1075E
331
ED41
  5
F0C1
331
ED0A
  5
EDF3
331
D398
  5
EBD3
331
D299
  5
E5C7
331
EA43
  5
EB0B
331
12BC9
  5
12BC9
331
12B73
  5
12B84
331
12AFD
  5
12B9E
331
13015
  5
13014
331
11F2F
  5
11F2F
331
10C00
  5
10B8F
331
10BE9
  5
10BE9
331
108EB
  5
108EB
331
107B4
  5
107B4
331
1077E
  5
1077E
331
1075F
  5
1075F
331
10740
  5
10740
331
1079D
  5
1079D
331
F271
  5
F483
331
ED42
  5
F0C2
331
D29A
  5
E5C8
331
EA44
  5
EB0C
331
12BCA
  5
12BCA
331
12B74
  5
12B85
331
12AFE
  5
12B9F
331
12906
  5
12BB1
331
112F0
  5
112F0
331
10C01
  5
10B90
331
10BEA
  5
10BEA
331
107B5
  5
107B5
331
1079E
  5
1079E
331
1077F
  5
1077F
331
10760
  5
10760
331
10741
  5
10741
331
108EC
  5
108EC
331
F272
  5
F484
331
D29B
  5
E5C9
331
EA45
  5
EB0D
331
ED43
  5
F0C3
331
12BCB
  5
12BCB
331
12AFF
  5
12BA0
331
12BA4
  5
12A6D
331
11310
  5
11310
331
112F1
  5
112F1
331
10BEB
  5
10BEB
331
107B6
  5
107B6
331
1079F
  5
1079F
331
10780
  5
10780
331
10761
  5
10761
331
10742
  5
10742
331
10C02
  5
10B91
331
D29C
  5
E5CA
331
EA46
  5
EB0E
331
F273
  5
F485
331
12FF9
  5
12FF6
331
12BCC
  5
12BCC
331
12BA5
  5
12A6E
331
11330
  5
11330
331
112F2
  5
112F2
331
10C03
  5
10B92
331
10BEC
  5
10BEC
331
107B7
  5
107B7
331
107A0
  5
107A0
331
10781
  5
10781
331
10762
  5
10762
331
10743
  5
10743
331
11311
  5
11311
331
D3D3
  5
EC10
331
D29D
  5
E5CC
331
D27E
  5
E5A7
331
F274
  5
F486
331
12BCD
  5
12BCD
331
12BA6
  5
12A6F
331
129D5
  5
12933
331
129A6
  5
1294A
331
11331
  5
11331
331
11312
  5
11312
331
112F3
  5
112F3
331
10C04
  5
10B93
331
10BED
  5
10B76
331
10B56
  5
10C0F
331
107B8
  5
107B8
331
107A1
  5
107A1
331
10782
  5
10782
331
10763
  5
10763
331
10744
  5
10744
331
11348
  5
11348
331
D3D4
  5
EC13
331
D29E
  5
E5CD
331
D27F
  5
E5A8
331
E961
  5
F0B7
331
12BCE
  5
12BCE
331
129A7
  5
1294B
331
11349
  5
11349
331
11332
  5
11332
331
11313
  5
11313
331
112F4
  5
112F4
331
10C05
  5
10B94
331
10BEE
  5
10B77
331
10B57
  5
10C0D
331
107B9
  5
107B9
331
107A2
  5
107A2
331
10783
  5
10783
331
10764
  5
10764
331
10745
  5
10745
331
D3D5
  5
EC14
331
D29F
  5
E5CE
331
D280
  5
E5A9
331
E962
  5
F0B8
331
F276
  5
EC15
331
12BCF
  5
12BCF
331
11968
  5
11968
331
1134A
  5
1134A
331
11333
  5
11333
331
11314
  5
11314
331
112F5
  5
112F5
331
10C06
  5
10B95
331
10BEF
  5
10B78
331
10B58
  5
10B58
331
107BA
  5
107BA
331
107A3
  5
107A3
331
10784
  5
10784
331
10765
  5
10765
331
10746
  5
10746
331
D2A0
  5
E5CF
331
D281
  5
E5AA
331
D3D6
  5
EC16
331
E963
  5
F0B9
331
F277
  5
EC17
331
1301C
  5
1301B
331
11969
  5
11969
331
1134B
  5
1134B
331
11334
  5
11334
331
11315
  5
11315
331
112F6
  5
112F6
331
10C07
  5
10B96
331
10BF0
  5
10BF0
331
10B59
  5
10C11
331
107BB
  5
107BB
331
107A4
  5
107A4
331
10785
  5
10785
331
10747
  5
10747
331
10766
  5
10766
331
D2A1
  5
E5D0
331
D282
  5
E5AB
331
E964
  5
F0BB
331
1301D
  5
1301C
331
F280
  5
F48E
331
1196A
  5
1196A
331
11943
  5
11943
331
1134C
  5
1134C
331
11335
  5
11335
331
11316
  5
11316
331
112F7
  5
112F7
331
107A5
  5
107A5
331
10786
  5
10786
331
10767
  5
10767
331
10748
  5
10748
331
107BC
  5
107BC
331
10C08
  5
10B97
331
E936
  5
EE72
331
D2A2
  5
E5D1
331
D283
  5
E5AC
331
F279
  5
F488
331
1301E
  5
1301D
331
F320
  5
F4A7
331
F281
  5
F48F
331
1196B
  5
1196B
331
1134D
  5
1134D
331
11336
  5
11336
331
11317
  5
11317
331
112F8
  5
112F8
331
107BD
  5
107BD
331
107A6
  5
107A6
331
10787
  5
10787
331
10768
  5
10768
331
10749
  5
10749
331
10C09
  5
10C09
331
EA55
  5
EB10
331
E937
  5
EE73
331
D2A3
  5
E5D2
331
D284
  5
E5AD
331
F27A
  5
F489
331
1301F
  5
1301E
331
F321
  5
F4A8
331
F282
  5
F490
331
1196C
  5
1196C
331
1134E
  5
1134E
331
11337
  5
11337
331
11318
  5
11318
331
112F9
  5
112F9
331
10BF3
  5
10BF3
331
107BE
  5
107BE
331
107A7
  5
107A7
331
10788
  5
10788
331
10769
  5
10769
331
1074A
  5
1074A
331
10C0A
  5
10C0A
331
ED1D
  5
EDF7
331
EA56
  5
EB11
331
E938
  5
EE74
331
D2A4
  5
E5D3
331
D285
  5
E5AE
331
F27B
  5
F48A
331
F322
  5
F4A9
331
F283
  5
F491
331
1196D
  5
1196D
331
1134F
  5
1134F
331
11338
  5
11338
331
112FA
  5
112FA
331
10C0B
  5
10C0B
331
10BF4
  5
10B82
331
107BF
  5
107BF
331
107A8
  5
107A8
331
10789
  5
10789
331
1076A
  5
1076A
331
1074B
  5
1074B
331
11319
  5
11319
331
ED1E
  5
EDF8
331
EA57
  5
EB12
331
E939
  5
EE75
331
D2A5
  5
E5D4
331
D286
  5
E5AF
331
F27C
  5
F48B
331
F323
  5
F4AA
331
F284
  5
F492
331
1196E
  5
1196E
331
11339
  5
11339
331
1131A
  5
1131A
331
112FB
  5
112FB
331
10C0C
  5
10B9B
331
10BF5
  5
10B83
331
107A9
  5
107A9
331
1078A
  5
1078A
331
1076B
  5
1076B
331
1074C
  5
1074C
331
11350
  5
11350
331
ED1F
  5
EDF9
331
E93A
  5
F006
331
D3E4
  5
EC18
331
D2A6
  5
E5D5
331
D287
  5
E5B0
331
EA58
  5
EB13
331
F27D
  5
F48C
331
F324
  5
F4AB
331
F285
  5
F493
331
11950
  5
11950
331
11351
  5
11351
331
1133A
  5
1133A
331
1131B
  5
1131B
331
112FC
  5
112FC
331
10C0D
  5
10B9C
331
10BF6
  5
10B84
331
107AA
  5
107AA
331
1078B
  5
1078B
331
1076C
  5
1076C
331
1074D
  5
1074D
331
1196F
  5
1196F
331
ED20
  5
EDFA
331
D3E5
  5
EC19
331
D2A7
  5
E5D6
331
EA59
  5
EB14
331
F325
  5
F4AC
331
F286
  5
F494
331
11970
  5
11970
331
11951
  5
11951
331
11352
  5
11352
331
1133B
  5
1133B
331
1131C
  5
1131C
331
112FD
  5
112FD
331
10C0E
  5
10B9D
331
10BF7
  5
10B85
331
107AB
  5
107AB
331
1078C
  5
1078C
331
1076D
  5
1076D
331
1074E
  5
1074E
331
ED21
  5
EDFB
331
EA5A
  5
EB15
331
F27F
  5
F48D
331
106A8
  5
106A8
331
F326
  5
F4AD
331
F287
  5
F495
331
11971
  5
11971
331
11952
  5
11952
331
11353
  5
11353
331
1133C
  5
1133C
331
1131D
  5
1131D
331
112FE
  5
112FE
331
10C0F
  5
10B9E
331
10BF8
  5
10B87
331
10BB1
  5
10BB1
331
107AC
  5
107AC
331
1076E
  5
1076E
331
1074F
  5
1074F
331
1078D
  5
1078D
331
ED22
  5
EDFC
331
EA5B
  5
EB16
331
FAA4
  5
FAA4
331
F327
  5
F4AE
331
106A9
  5
106A9
331
11972
  5
11972
331
11953
  5
11953
331
11354
  5
11354
331
1133D
  5
1133D
331
1131E
  5
1131E
331
112FF
  5
112FF
331
10BF9
  5
10B88
331
10BB2
  5
10BB2
331
107AD
  5
107AD
331
1078E
  5
1078E
331
1076F
  5
1076F
331
10750
  5
10750
331
10B43
  5
10B43
331
10C10
  5
10B9F
331
ED23
  5
EDFD
331
F328
  5
F4AF
331
FB14
  5
FB14
331
106AA
  5
106AA
331
11973
  5
11973
331
11954
  5
11954
331
11355
  5
11355
331
1133E
  5
1133E
331
1131F
  5
1131F
331
11300
  5
11300
331
10B44
  5
10C0C
331
107AE
  5
107AE
331
1078F
  5
1078F
331
10770
  5
10770
331
10751
  5
10751
331
10BFA
  5
10B89
331
10C11
  5
10BA0
331
ED24
  5
EDFE
331
10074
  5
10074
331
F329
  5
F4B0
331
106AB
  5
106AB
331
11974
  5
11974
331
11955
  5
11955
331
11356
  5
11356
331
1133F
  5
1133F
331
11301
  5
11301
331
10BFB
  5
10B8A
331
10B45
  5
10C0E
331
107AF
  5
107AF
331
10790
  5
10790
331
10771
  5
10771
331
10752
  5
10752
331
10C12
  5
10BA1
331
11320
  5
11320
331
ED25
  5
EDFF
331
106AC
  5
106AC
331
F32A
  5
F4B1
331
11975
  5
11975
331
11956
  5
11956
331
11357
  5
11357
331
11302
  5
11302
331
10BFC
  5
10B8B
331
10B46
  5
10C10
331
107C7
  5
107C7
331
10791
  5
10791
331
10772
  5
10772
331
10753
  5
10753
331
11321
  5
11321
331
11340
  5
11340
331
ED26
  5
EE00
331
106AD
  5
106AD
331
F32B
  5
F4B2
331
106C0
  5
106C0
331
11976
  5
11976
331
11341
  5
11341
331
11303
  5
11303
331
10C14
  5
10BA3
331
10BFD
  5
10B8C
331
107C8
  5
107C8
331
10792
  5
10792
331
10773
  5
10773
331
10754
  5
10754
331
11322
  5
11322
331
11957
  5
11957
331
ED27
  5
EE01
331
106C1
  5
106C1
331
106AE
  5
106AE
331
F32C
  5
F4B3
331
106E0
  5
106E0
331
11958
  5
11958
331
11342
  5
11342
331
11304
  5
11304
331
10C15
  5
10BA4
331
10BFE
  5
10B8D
331
107C9
  5
107C9
331
10793
  5
10793
331
10774
  5
10774
331
10755
  5
10755
331
11323
  5
11323
331
11977
  5
11977
331
10700
  5
10700
331
106E1
  5
106E1
331
106C2
  5
106C2
331
106AF
  5
106AF
331
F32D
  5
F4B6
331
11978
  5
11978
331
11959
  5
11959
331
11343
  5
11343
331
11305
  5
11305
331
10BFF
  5
10B8E
331
107CA
  5
107CA
331
10794
  5
10794
331
10775
  5
10775
331
10756
  5
10756
331
11324
  5
11324
331
10720
  5
10720
331
10701
  5
10701
331
106E2
  5
106E2
331
106C3
  5
106C3
331
FAB3
  5
FAB3
331
F32E
  5
F4B7
331
F30F
  5
F496
331
106B0
  5
106B0
331
11979
  5
11979
331
1195A
  5
1195A
331
11344
  5
11344
331
11306
  5
11306
331
10BE1
  5
10BE1
331
107CB
  5
107CB
331
10776
  5
10776
331
10757
  5
10757
331
10795
  5
10795
331
11325
  5
11325
331
10721
  5
10721
331
10702
  5
10702
331
106E3
  5
106E3
331
106B1
  5
106B1
331
F32F
  5
F4B8
331
F310
  5
F497
331
106C4
  5
106C4
331
1197A
  5
1197A
331
1195B
  5
1195B
331
11345
  5
11345
331
11307
  5
11307
331
10BE2
  5
10BE2
331
10796
  5
10796
331
10777
  5
10777
331
107CC
  5
107CC
331
11326
  5
11326
331
10722
  5
10722
331
10703
  5
10703
331
106E4
  5
106E4
331
106B2
  5
106B2
331
F330
  5
F4B9
331
F311
  5
F498
331
FA26
  5
FA26
331
106C5
  5
106C5
331
1197B
  5
1197B
331
1195C
  5
1195C
331
11346
  5
11346
331
11327
  5
11327
331
10BE3
  5
10BE3
331
10797
  5
10797
331
11308
  5
11308
331
11DF0
  5
11DF0
331
10723
  5
10723
331
10704
  5
10704
331
106E5
  5
106E5
331
F331
  5
F4BA
331
F312
  5
F499
331
106B3
  5
106B3
331
106C6
  5
106C6
331
1197C
  5
1197C
331
1195D
  5
1195D
331
11347
  5
11347
331
11328
  5
11328
331
10BE4
  5
10BE4
331
11309
  5
11309
331
10724
  5
10724
331
10705
  5
10705
331
106E6
  5
106E6
331
F332
  5
F4BB
331
F313
  5
F49A
331
106B4
  5
106B4
331
106C7
  5
106C7
331
1197D
  5
1197D
331
11329
  5
11329
331
1130A
  5
1130A
331
10BE5
  5
10BE5
331
10B4E
  5
10C12
331
1195E
  5
1195E
331
11DC3
  5
11DC3
331
10725
  5
10725
331
10706
  5
10706
331
106E7
  5
106E7
331
F314
  5
F49B
331
106B5
  5
106B5
331
106C8
  5
106C8
331
11DF3
  5
11DF3
331
11DC4
  5
11DC4
331
1197E
  5
1197E
331
1132A
  5
1132A
331
1130B
  5
1130B
331
112EC
  5
112EC
331
10BE6
  5
10BE6
331
10B4F
  5
10C13
331
1195F
  5
1195F
331
10726
  5
10726
331
10707
  5
10707
331
106C9
  5
106C9
331
F315
  5
F49C
331
106B6
  5
106B6
331
106E8
  5
106E8
331
11E42
  5
11E42
331
1197F
  5
1197F
331
11960
  5
11960
331
1132B
  5
1132B
331
1130C
  5
1130C
331
112ED
  5
112ED
331
10BE7
  5
10B70
331
10708
  5
10708
331
106E9
  5
106E9
331
106CA
  5
106CA
331
10430
  5
10430
331
F316
  5
F49D
331
106B7
  5
106B7
331
10727
  5
10727
331
11EB8
  5
11EB8
331
11E43
  5
11E43
331
11E1C
  5
11E1C
331
11980
  5
11980
331
11961
  5
11961
331
1132C
  5
1132C
331
1130D
  5
1130D
331
112EE
  5
112EE
331
10728
  5
10728
331
10709
  5
10709
331
106EA
  5
106EA
331
106CB
  5
106CB
331
10431
  5
10431
331
F317
  5
F49E
331
106B8
  5
106B8
331
11EF0
  5
11EF0
331
11EB9
  5
11EB9
331
11E44
  5
11E44
331
11DF6
  5
11DF6
331
11DC7
  5
11DC7
331
11E1D
  5
11E1D
331
11981
  5
11981
331
11962
  5
11962
331
1132D
  5
1132D
331
1130E
  5
1130E
331
112EF
  5
112EF
331
10729
  5
10729
331
1070A
  5
1070A
331
106EB
  5
106EB
331
106B9
  5
106B9
331
10432
  5
10432
331
F98E
  5
F9E4
331
F318
  5
F49F
331
106CC
  5
106CC
331
11F08
  5
11F08
331
11EF1
  5
11EF1
331
11EBA
  5
11EBA
331
11E45
  5
11E45
331
11DF7
  5
11DF7
331
11E74
  5
11E74
331
11982
  5
11982
331
11963
  5
11963
331
1132E
  5
1132E
331
1130F
  5
1130F
331
1072A
  5
1072A
331
1070B
  5
1070B
331
106EC
  5
106EC
331
106BA
  5
106BA
331
F319
  5
F4A0
331
10433
  5
10433
331
106CD
  5
106CD
331
11F30
  5
11F30
331
11F09
  5
11F09
331
11E75
  5
11E75
331
11DF8
  5
11DF8
331
11EBB
  5
11EBB
331
11983
  5
11983
331
11964
  5
11964
331
1132F
  5
1132F
331
1072B
  5
1072B
331
1070C
  5
1070C
331
106ED
  5
106ED
331
FFE5
  5
FFE5
331
F4F1
  5
EBC4
331
F31A
  5
F4A1
331
106BB
  5
106BB
331
106CE
  5
106CE
331
11EBC
  5
11EBC
331
11E76
  5
11E76
331
11E20
  5
11E20
331
11DF9
  5
11DF9
331
11DCA
  5
11DCA
331
11F31
  5
11F31
331
11984
  5
11984
331
11965
  5
11965
331
1072C
  5
1072C
331
1070D
  5
1070D
331
106EE
  5
106EE
331
F4F2
  5
EBC5
331
F31B
  5
F4A2
331
106BC
  5
106BC
331
106CF
  5
106CF
  0
SORTENTSTABLE
  5
11BBA
102
{ACAD_REACTORS
330
11BB9
102
}
330
11BB9
100
AcDbSortentsTable
330
11BB8
  0
XRECORD
  5
13493
102
{ACAD_REACTORS
330
13492
102
}
330
13492
100
AcDbXrecord
280
     1
 40
45821.0
  1
OPTIONAL 2nd ROW^JFIBER-OPTIC TX/RX
  0
LAYOUT
  5
F8D7
102
{ACAD_XDICTIONARY
360
13490
102
}
102
{ACAD_REACTORS
330
1A
102
}
330
1A
100
AcDbPlotSettings
  1

  2
hp LaserJet 1010 Series Driver
  4

  6

 40
0.0
 41
0.0
 42
0.0
 43
0.0
 44
0.0
 45
0.0
 46
0.0
 47
0.0
 48
0.0
 49
0.0
140
0.0
141
0.0
142
1.0
143
1.0
 70
   688
 72
     0
 73
     0
 74
     5
  7
Dart1.ctb
 75
    16
147
1.0
148
0.0
149
0.0
100
AcDbLayout
  1
Layout1
 70
     1
 71
     1
 10
0.0
 20
0.0
 11
12.0
 21
9.0
 12
0.0
 22
0.0
 32
0.0
 14
0.0
 24
0.0
 34
0.0
 15
0.0
 25
0.0
 35
0.0
146
0.0
 13
0.0
 23
0.0
 33
0.0
 16
1.0
 26
0.0
 36
0.0
 17
0.0
 27
1.0
 37
0.0
 76
     0
330
F8D6
  0
LAYOUT
  5
22
102
{ACAD_XDICTIONARY
360
1348E
102
}
102
{ACAD_REACTORS
330
1A
102
}
330
1A
100
AcDbPlotSettings
  1

  2
PDF995
  4
Letter
  6

 40
3.174999952316284
 41
3.174999952316284
 42
3.175003051757812
 43
3.17498779296875
 44
215.8999938964844
 45
279.3999938964844
 46
0.0
 47
0.0
 48
1.570809578957408
 49
3.657146664025759
140
32.90297866818838
141
26.37105672299524
142
1.0
143
2.914620314733771
 70
 11952
 72
     0
 73
     1
 74
     4
  7
Dart1.ctb
 75
     0
147
0.3430978625054093
148
-39.89856330551818
149
-92.89152526625429
100
AcDbLayout
  1
Model
 70
     1
 71
     0
 10
0.0
 20
0.0
 11
12.0
 21
9.0
 12
0.0
 22
0.0
 32
0.0
 14
0.0
 24
0.0
 34
0.0
 15
0.0
 25
0.0
 35
0.0
146
0.0
 13
0.0
 23
0.0
 33
0.0
 16
1.0
 26
0.0
 36
0.0
 17
0.0
 27
1.0
 37
0.0
 76
     0
330
1F
1001
ACAD_PSEXT
1000
PDF995
1000
PDF995 Printer Driver
1000
PDF995PORT
1000

1070
     0
  0
MLINESTYLE
  5
18
102
{ACAD_REACTORS
330
17
102
}
330
17
100
AcDbMlineStyle
  2
STANDARD
 70
     0
  3

 62
   256
 51
90.0
 52
90.0
 71
     2
 49
0.5
 62
   256
  6
BYLAYER
 49
-0.5
 62
   256
  6
BYLAYER
  0
ACDBPLACEHOLDER
  5
F
102
{ACAD_REACTORS
330
E
102
}
330
E
  0
TABLESTYLE
  5
502B
102
{ACAD_REACTORS
330
502A
102
}
330
502A
100
AcDbTableStyle
  3
Standard
 70
     0
 71
     0
 40
0.06
 41
0.06
280
     0
281
     0
  7
Standard
140
0.18
170
     2
 62
     0
 63
     7
283
     0
274
    -2
284
     1
 64
     0
275
    -2
285
     1
 65
     0
276
    -2
286
     1
 66
     0
277
    -2
287
     1
 67
     0
278
    -2
288
     1
 68
     0
279
    -2
289
     1
 69
     0
  7
Standard
140
0.25
170
     5
 62
     0
 63
     7
283
     0
274
    -2
284
     1
 64
     0
275
    -2
285
     1
 65
     0
276
    -2
286
     1
 66
     0
277
    -2
287
     1
 67
     0
278
    -2
288
     1
 68
     0
279
    -2
289
     1
 69
     0
  7
Standard
140
0.18
170
     5
 62
     0
 63
     7
283
     0
274
    -2
284
     1
 64
     0
275
    -2
285
     1
 65
     0
276
    -2
286
     1
 66
     0
277
    -2
287
     1
 67
     0
278
    -2
288
     1
 68
     0
279
    -2
289
     1
 69
     0
  0
DICTIONARYVAR
  5
503A
102
{ACAD_REACTORS
330
5039
102
}
330
5039
100
DictionaryVariables
280
     0
  1
STANDARD
  0
DICTIONARYVAR
  5
505A
102
{ACAD_REACTORS
330
5039
102
}
330
5039
100
DictionaryVariables
280
     0
  1
1
  0
DICTIONARYVAR
  5
505B
102
{ACAD_REACTORS
330
5039
102
}
330
5039
100
DictionaryVariables
280
     0
  1

  0
XRECORD
  5
117F4
102
{ACAD_REACTORS
330
117F3
102
}
330
117F3
100
AcDbXrecord
280
     1
330
0
330
0
330
0
330
0
330
0
330
0
330
E961
330
E962
330
E963
330
E964
330
ED41
330
ED42
330
ED43
330
0
330
0
330
0
330
0
330
0
330
0
330
0
330
0
330
F271
330
F272
330
F273
330
F274
330
0
330
0
330
0
330
0
330
0
330
0
330
0
330
0
330
0
330
0
330
0
330
0
330
0
330
0
330
0
330
0
330
0
330
0
330
0
330
0
330
0
  0
DICTIONARY
  5
13490
330
F8D7
100
AcDbDictionary
280
     1
281
     1
  3
ACAD_XREC_ROUNDTRIP
360
13491
  0
DICTIONARY
  5
1348E
330
22
100
AcDbDictionary
280
     1
281
     1
  3
ACAD_XREC_ROUNDTRIP
360
1348F
  0
XRECORD
  5
13491
102
{ACAD_REACTORS
330
13490
102
}
330
13490
100
AcDbXrecord
280
     1
102
SHADEPLOT
 70
     0
102
SHADEPLOTRESLEVEL
 70
     2
102
SHADEPLOTCUSTOMDPI
 70
   300
  0
XRECORD
  5
1348F
102
{ACAD_REACTORS
330
1348E
102
}
330
1348E
100
AcDbXrecord
280
     1
102
SHADEPLOT
 70
     0
102
SHADEPLOTRESLEVEL
 70
     2
102
SHADEPLOTCUSTOMDPI
 70
   300
  0
ENDSEC
  0
EOF
