  0
SECTION
  2
HEADER
  9
$ACADVER
  1
AC1015
  9
$ACADMAINTVER
 70
    20
  9
$DWGCODEPAGE
  3
ANSI_1252
  9
$INSBASE
 10
0.0
 20
0.0
 30
0.0
  9
$EXTMIN
 10
40.13379056752433
 20
68.26905199298948
 30
-0.0015258207003583
  9
$EXTMAX
 10
648.9731730202118
 20
720.7179485747778
 30
0.0000000349246037
  9
$LIMMIN
 10
0.0
 20
0.0
  9
$LIMMAX
 10
36.05
 20
26.9
  9
$ORTHOMODE
 70
     1
  9
$REGENMODE
 70
     1
  9
$FILLMODE
 70
     1
  9
$QTEXTMODE
 70
     0
  9
$MIRRTEXT
 70
     0
  9
$LTSCALE
 40
12.0
  9
$ATTMODE
 70
     1
  9
$TEXTSIZE
 40
0.2
  9
$TRACEWID
 40
0.05
  9
$TEXTSTYLE
  7
Standard
  9
$CLAYER
  8
DIM
  9
$CELTYPE
  6
ByLayer
  9
$CECOLOR
 62
   256
  9
$CELTSCALE
 40
1.0
  9
$DISPSILH
 70
     0
  9
$DIMSCALE
 40
1.0
  9
$DIMASZ
 40
5.0
  9
$DIMEXO
 40
1.6
  9
$DIMDLI
 40
10.0
  9
$DIMRND
 40
0.0
  9
$DIMDLE
 40
0.0
  9
$DIMEXE
 40
1.6
  9
$DIMTP
 40
0.0
  9
$DIMTM
 40
0.0
  9
$DIMTXT
 40
5.0
  9
$DIMCEN
 40
0.09
  9
$DIMTSZ
 40
0.0
  9
$DIMTOL
 70
     0
  9
$DIMLIM
 70
     0
  9
$DIMTIH
 70
     1
  9
$DIMTOH
 70
     1
  9
$DIMSE1
 70
     0
  9
$DIMSE2
 70
     0
  9
$DIMTAD
 70
     0
  9
$DIMZIN
 70
     0
  9
$DIMBLK
  1

  9
$DIMASO
 70
     1
  9
$DIMSHO
 70
     1
  9
$DIMPOST
  1

  9
$DIMAPOST
  1

  9
$DIMALT
 70
     0
  9
$DIMALTD
 70
     2
  9
$DIMALTF
 40
25.4
  9
$DIMLFAC
 40
1.0
  9
$DIMTOFL
 70
     0
  9
$DIMTVP
 40
0.0
  9
$DIMTIX
 70
     0
  9
$DIMSOXD
 70
     0
  9
$DIMSAH
 70
     0
  9
$DIMBLK1
  1

  9
$DIMBLK2
  1

  9
$DIMSTYLE
  2
METRIC
  9
$DIMCLRD
 70
     0
  9
$DIMCLRE
 70
     0
  9
$DIMCLRT
 70
   256
  9
$DIMTFAC
 40
1.0
  9
$DIMGAP
 40
2.5
  9
$DIMJUST
 70
     0
  9
$DIMSD1
 70
     0
  9
$DIMSD2
 70
     0
  9
$DIMTOLJ
 70
     1
  9
$DIMTZIN
 70
     0
  9
$DIMALTZ
 70
     0
  9
$DIMALTTZ
 70
     0
  9
$DIMUPT
 70
     0
  9
$DIMDEC
 70
     3
  9
$DIMTDEC
 70
     3
  9
$DIMALTU
 70
     2
  9
$DIMALTTD
 70
     2
  9
$DIMTXSTY
  7
ARIAL
  9
$DIMAUNIT
 70
     0
  9
$DIMADEC
 70
     3
  9
$DIMALTRND
 40
0.0
  9
$DIMAZIN
 70
     0
  9
$DIMDSEP
 70
    46
  9
$DIMATFIT
 70
     3
  9
$DIMFRAC
 70
     0
  9
$DIMLDRBLK
  1

  9
$DIMLUNIT
 70
     2
  9
$DIMLWD
 70
    -2
  9
$DIMLWE
 70
    -2
  9
$DIMTMOVE
 70
     0
  9
$LUNITS
 70
     2
  9
$LUPREC
 70
     4
  9
$SKETCHINC
 40
0.1
  9
$FILLETRAD
 40
0.08
  9
$AUNITS
 70
     0
  9
$AUPREC
 70
     0
  9
$MENU
  1
.
  9
$ELEVATION
 40
0.0
  9
$PELEVATION
 40
0.0
  9
$THICKNESS
 40
0.0
  9
$LIMCHECK
 70
     0
  9
$CHAMFERA
 40
0.0
  9
$CHAMFERB
 40
0.0
  9
$CHAMFERC
 40
1.0
  9
$CHAMFERD
 40
0.0
  9
$SKPOLY
 70
     0
  9
$TDCREATE
 40
2451534.924419676
  9
$TDUCREATE
 40
2451535.091086343
  9
$TDUPDATE
 40
2454761.497123473
  9
$TDUUPDATE
 40
2454761.663790139
  9
$TDINDWG
 40
6.8167461458
  9
$TDUSRTIMER
 40
6.8167461458
  9
$USRTIMER
 70
     1
  9
$ANGBASE
 50
0.0
  9
$ANGDIR
 70
     0
  9
$PDMODE
 70
     0
  9
$PDSIZE
 40
0.0
  9
$PLINEWID
 40
0.0
  9
$SPLFRAME
 70
     0
  9
$SPLINETYPE
 70
     6
  9
$SPLINESEGS
 70
 32767
  9
$HANDSEED
  5
1183B
  9
$SURFTAB1
 70
     6
  9
$SURFTAB2
 70
     6
  9
$SURFTYPE
 70
     6
  9
$SURFU
 70
     6
  9
$SURFV
 70
     6
  9
$UCSBASE
  2

  9
$UCSNAME
  2

  9
$UCSORG
 10
0.0
 20
0.0
 30
0.0
  9
$UCSXDIR
 10
1.0
 20
0.0
 30
0.0
  9
$UCSYDIR
 10
0.0
 20
1.0
 30
0.0
  9
$UCSORTHOREF
  2

  9
$UCSORTHOVIEW
 70
     0
  9
$UCSORGTOP
 10
0.0
 20
0.0
 30
0.0
  9
$UCSORGBOTTOM
 10
0.0
 20
0.0
 30
0.0
  9
$UCSORGLEFT
 10
0.0
 20
0.0
 30
0.0
  9
$UCSORGRIGHT
 10
0.0
 20
0.0
 30
0.0
  9
$UCSORGFRONT
 10
0.0
 20
0.0
 30
0.0
  9
$UCSORGBACK
 10
0.0
 20
0.0
 30
0.0
  9
$PUCSBASE
  2

  9
$PUCSNAME
  2

  9
$PUCSORG
 10
0.0
 20
0.0
 30
0.0
  9
$PUCSXDIR
 10
1.0
 20
0.0
 30
0.0
  9
$PUCSYDIR
 10
0.0
 20
1.0
 30
0.0
  9
$PUCSORTHOREF
  2

  9
$PUCSORTHOVIEW
 70
     0
  9
$PUCSORGTOP
 10
0.0
 20
0.0
 30
0.0
  9
$PUCSORGBOTTOM
 10
0.0
 20
0.0
 30
0.0
  9
$PUCSORGLEFT
 10
0.0
 20
0.0
 30
0.0
  9
$PUCSORGRIGHT
 10
0.0
 20
0.0
 30
0.0
  9
$PUCSORGFRONT
 10
0.0
 20
0.0
 30
0.0
  9
$PUCSORGBACK
 10
0.0
 20
0.0
 30
0.0
  9
$USERI1
 70
     0
  9
$USERI2
 70
     0
  9
$USERI3
 70
     0
  9
$USERI4
 70
     0
  9
$USERI5
 70
     0
  9
$USERR1
 40
0.0
  9
$USERR2
 40
0.0
  9
$USERR3
 40
0.0
  9
$USERR4
 40
0.0
  9
$USERR5
 40
0.0
  9
$WORLDVIEW
 70
     1
  9
$SHADEDGE
 70
     3
  9
$SHADEDIF
 70
    70
  9
$TILEMODE
 70
     1
  9
$MAXACTVP
 70
    64
  9
$PINSBASE
 10
0.0
 20
0.0
 30
0.0
  9
$PLIMCHECK
 70
     0
  9
$PEXTMIN
 10
0.0
 20
0.0
 30
0.0
  9
$PEXTMAX
 10
0.0
 20
0.0
 30
0.0
  9
$PLIMMIN
 10
0.0
 20
0.0
  9
$PLIMMAX
 10
12.0
 20
9.0
  9
$UNITMODE
 70
     0
  9
$VISRETAIN
 70
     1
  9
$PLINEGEN
 70
     0
  9
$PSLTSCALE
 70
     1
  9
$TREEDEPTH
 70
  3020
  9
$CMLSTYLE
  2
Standard
  9
$CMLJUST
 70
     0
  9
$CMLSCALE
 40
1.0
  9
$PROXYGRAPHICS
 70
     1
  9
$MEASUREMENT
 70
     0
  9
$CELWEIGHT
370
    -1
  9
$ENDCAPS
280
     0
  9
$JOINSTYLE
280
     0
  9
$LWDISPLAY
290
     0
  9
$INSUNITS
 70
     1
  9
$HYPERLINKBASE
  1

  9
$STYLESHEET
  1
Dart1.ctb
  9
$XEDIT
290
     1
  9
$CEPSNTYPE
380
     0
  9
$PSTYLEMODE
290
     1
  9
$FINGERPRINTGUID
  2
{FDEAD576-A652-11D2-9A35-0060089B3A3F}
  9
$VERSIONGUID
  2
{8A66C218-BB61-4C29-B004-25871A23239A}
  9
$EXTNAMES
290
     1
  9
$PSVPSCALE
 40
0.0
  9
$OLESTARTUP
290
     0
  0
ENDSEC
  0
SECTION
  2
CLASSES
  0
CLASS
  1
ACDBDICTIONARYWDFLT
  2
AcDbDictionaryWithDefault
  3
ObjectDBX Classes
 90
        0
280
     0
281
     0
  0
CLASS
  1
ACDBPLACEHOLDER
  2
AcDbPlaceHolder
  3
ObjectDBX Classes
 90
        0
280
     0
281
     0
  0
CLASS
  1
LAYOUT
  2
AcDbLayout
  3
ObjectDBX Classes
 90
        0
280
     0
281
     0
  0
CLASS
  1
TABLESTYLE
  2
AcDbTableStyle
  3
ObjectDBX Classes
 90
     2047
280
     0
281
     0
  0
CLASS
  1
DICTIONARYVAR
  2
AcDbDictionaryVar
  3
ObjectDBX Classes
 90
        0
280
     0
281
     0
  0
CLASS
  1
SORTENTSTABLE
  2
AcDbSortentsTable
  3
ObjectDBX Classes
 90
        0
280
     0
281
     0
  0
ENDSEC
  0
SECTION
  2
TABLES
  0
TABLE
  2
VPORT
  5
8
330
0
100
AcDbSymbolTable
 70
     7
  0
VPORT
  5
11826
330
8
100
AcDbSymbolTableRecord
100
AcDbViewportTableRecord
  2
*Active
 70
     0
 10
0.0
 20
0.0
 11
1.0
 21
1.0
 12
324.4865865101059
 22
360.3589742873889
 13
0.0
 23
0.0
 14
0.05
 24
0.05
 15
0.5
 25
0.5
 16
0.0
 26
0.0
 36
1.0
 17
0.0
 27
0.0
 37
0.0
 40
726.6254727434236
 41
1.752393980848153
 42
50.0
 43
0.0
 44
0.0
 50
0.0
 51
0.0
 71
     0
 72
 20000
 73
     1
 74
     3
 75
     0
 76
     0
 77
     0
 78
     0
281
     0
 65
     1
110
0.0
120
0.0
130
0.0
111
1.0
121
0.0
131
0.0
112
0.0
122
1.0
132
0.0
 79
     0
146
0.0
  0
ENDTAB
  0
TABLE
  2
LTYPE
  5
5
330
0
100
AcDbSymbolTable
 70
     3
  0
LTYPE
  5
14
330
5
100
AcDbSymbolTableRecord
100
AcDbLinetypeTableRecord
  2
ByBlock
 70
     0
  3

 72
    65
 73
     0
 40
0.0
  0
LTYPE
  5
15
330
5
100
AcDbSymbolTableRecord
100
AcDbLinetypeTableRecord
  2
ByLayer
 70
     0
  3

 72
    65
 73
     0
 40
0.0
  0
LTYPE
  5
16
330
5
100
AcDbSymbolTableRecord
100
AcDbLinetypeTableRecord
  2
Continuous
 70
     0
  3
Solid line
 72
    65
 73
     0
 40
0.0
  0
LTYPE
  5
3184
330
5
100
AcDbSymbolTableRecord
100
AcDbLinetypeTableRecord
  2
HIDDEN
 70
     0
  3
Hidden __ __ __ __ __ __ __ __ __ __ __ __ __ _
 72
    65
 73
     2
 40
0.375
 49
0.25
 74
     0
 49
-0.125
 74
     0
  0
LTYPE
  5
5233
330
5
100
AcDbSymbolTableRecord
100
AcDbLinetypeTableRecord
  2
CENTER
 70
     0
  3
____ _ ____ _ ____ _ ____ _ ____ _ ____ _ ____
 72
    65
 73
     4
 40
2.0
 49
1.25
 74
     0
 49
-0.25
 74
     0
 49
0.25
 74
     0
 49
-0.25
 74
     0
  0
ENDTAB
  0
TABLE
  2
LAYER
  5
2
102
{ACAD_XDICTIONARY
360
5031
102
}
330
0
100
AcDbSymbolTable
 70
    16
  0
LAYER
  5
10
330
2
100
AcDbSymbolTableRecord
100
AcDbLayerTableRecord
  2
0
 70
     0
 62
     7
  6
Continuous
370
    -3
390
F
  0
LAYER
  5
6FD
330
2
100
AcDbSymbolTableRecord
100
AcDbLayerTableRecord
  2
DEFPOINTS
 70
     0
 62
     7
  6
Continuous
290
     0
370
    -3
390
F
  0
LAYER
  5
1A71
330
2
100
AcDbSymbolTableRecord
100
AcDbLayerTableRecord
  2
Front Panel
 70
     0
 62
     7
  6
Continuous
370
    -3
390
F
  0
LAYER
  5
1AB5
330
2
100
AcDbSymbolTableRecord
100
AcDbLayerTableRecord
  2
Rear Panel
 70
     0
 62
     7
  6
Continuous
370
    -3
390
F
  0
LAYER
  5
4ACC
330
2
100
AcDbSymbolTableRecord
100
AcDbLayerTableRecord
  2
Hidden
 70
     0
 62
     7
  6
HIDDEN
370
    -3
390
F
  0
LAYER
  5
5234
330
2
100
AcDbSymbolTableRecord
100
AcDbLayerTableRecord
  2
CENTER
 70
     0
 62
     7
  6
CENTER
370
    -3
390
F
  0
LAYER
  5
5235
330
2
100
AcDbSymbolTableRecord
100
AcDbLayerTableRecord
  2
CONNECT
 70
     0
 62
     7
  6
Continuous
370
    -3
390
F
  0
LAYER
  5
55CC
330
2
100
AcDbSymbolTableRecord
100
AcDbLayerTableRecord
  2
DIM
 70
     0
 62
     7
  6
Continuous
370
    -3
390
F
  0
LAYER
  5
857F
330
2
100
AcDbSymbolTableRecord
100
AcDbLayerTableRecord
  2
FASTENER
 70
     0
 62
     7
  6
Continuous
370
    -3
390
F
  0
LAYER
  5
AAD1
330
2
100
AcDbSymbolTableRecord
100
AcDbLayerTableRecord
  2
MOTOR
 70
     0
 62
     7
  6
Continuous
370
    -3
390
F
  0
LAYER
  5
AD13
330
2
100
AcDbSymbolTableRecord
100
AcDbLayerTableRecord
  2
PART
 70
     0
 62
     7
  6
Continuous
370
    -3
390
F
  0
LAYER
  5
B076
330
2
100
AcDbSymbolTableRecord
100
AcDbLayerTableRecord
  2
VENT
 70
     0
 62
     7
  6
Continuous
370
    -3
390
F
  0
LAYER
  5
C19C
330
2
100
AcDbSymbolTableRecord
100
AcDbLayerTableRecord
  2
Base
 70
     0
 62
     7
  6
Continuous
370
    -3
390
F
1001
AcAecLayerStandard
1000

1000

  0
LAYER
  5
C19F
330
2
100
AcDbSymbolTableRecord
100
AcDbLayerTableRecord
  2
Top Panel
 70
     0
 62
     7
  6
Continuous
370
    -3
390
F
1001
AcAecLayerStandard
1000

1000

  0
LAYER
  5
E3D9
330
2
100
AcDbSymbolTableRecord
100
AcDbLayerTableRecord
  2
CONNECTOR
 70
     0
 62
     7
  6
Continuous
370
    -3
390
F
  0
LAYER
  5
10C4D
330
2
100
AcDbSymbolTableRecord
100
AcDbLayerTableRecord
  2
PSU
 70
     0
 62
     7
  6
Continuous
370
    -3
390
F
1001
AcAecLayerStandard
1000

1000

  0
ENDTAB
  0
TABLE
  2
STYLE
  5
3
330
0
100
AcDbSymbolTable
 70
     4
  0
STYLE
  5
11
330
3
100
AcDbSymbolTableRecord
100
AcDbTextStyleTableRecord
  2
Standard
 70
     0
 40
0.0
 41
1.0
 50
0.0
 71
     0
 42
0.2
  3
romans.shx
  4

  0
STYLE
  5
EE94
330
3
100
AcDbSymbolTableRecord
100
AcDbTextStyleTableRecord
  2
ARIAL
 70
     0
 40
0.0
 41
1.0
 50
0.0
 71
     0
 42
3.5
  3
ARIAL.TTF
  4

1001
ACAD
1000
Arial
1071
       34
  0
ENDTAB
  0
TABLE
  2
VIEW
  5
6
330
0
100
AcDbSymbolTable
 70
     0
  0
ENDTAB
  0
TABLE
  2
UCS
  5
7
330
0
100
AcDbSymbolTable
 70
     6
  0
UCS
  5
96E6
330
7
100
AcDbSymbolTableRecord
100
AcDbUCSTableRecord
  2
TOP
 70
     0
 10
4.048409592529651
 20
10.77986676717617
 30
0.0
 11
1.0
 21
0.0
 31
0.0
 12
0.0
 22
1.0
 32
0.0
 79
     0
146
0.0
  0
UCS
  5
AD9D
330
7
100
AcDbSymbolTableRecord
100
AcDbUCSTableRecord
  2
PCB TOP
 70
     0
 10
20.54840959252969
 20
10.82986676717617
 30
0.0
 11
1.0
 21
0.0
 31
0.0
 12
0.0
 22
1.0
 32
0.0
 79
     0
146
0.0
  0
UCS
  5
C2DB
330
7
100
AcDbSymbolTableRecord
100
AcDbUCSTableRecord
  2
FRONT PANEL
 70
     0
 10
21.89840959252965
 20
3.940614798672223
 30
0.0
 11
1.0
 21
0.0
 31
0.0
 12
0.0
 22
1.0
 32
0.0
 79
     0
146
0.0
  0
UCS
  5
D271
330
7
100
AcDbSymbolTableRecord
100
AcDbUCSTableRecord
  2
REAR PANEL
 70
     0
 10
21.15825211221469
 20
24.92247319142812
 30
0.0
 11
1.0
 21
0.0
 31
0.0
 12
0.0
 22
1.0
 32
0.0
 79
     0
146
0.0
  0
UCS
  5
D579
330
7
100
AcDbSymbolTableRecord
100
AcDbUCSTableRecord
  2
PCB 2
 70
     0
 10
54.84840959252968
 20
10.82986676717617
 30
0.0
 11
1.0
 21
0.0
 31
0.0
 12
0.0
 22
1.0
 32
0.0
 79
     0
146
0.0
  0
UCS
  5
D57A
330
7
100
AcDbSymbolTableRecord
100
AcDbUCSTableRecord
  2
REAR PANEL 2
 70
     0
 10
55.45825211221469
 20
24.92247319142812
 30
0.0
 11
1.0
 21
0.0
 31
0.0
 12
0.0
 22
1.0
 32
0.0
 79
     0
146
0.0
  0
ENDTAB
  0
TABLE
  2
APPID
  5
9
330
0
100
AcDbSymbolTable
 70
     6
  0
APPID
  5
12
330
9
100
AcDbSymbolTableRecord
100
AcDbRegAppTableRecord
  2
ACAD
 70
     0
  0
APPID
  5
5240
330
9
100
AcDbSymbolTableRecord
100
AcDbRegAppTableRecord
  2
PHOENIX7010
 70
     0
  0
APPID
  5
5241
330
9
100
AcDbSymbolTableRecord
100
AcDbRegAppTableRecord
  2
AcAecLayerStandard
 70
     0
  0
APPID
  5
5242
330
9
100
AcDbSymbolTableRecord
100
AcDbRegAppTableRecord
  2
ACAD_PSEXT
 70
     0
  0
APPID
  5
55E7
330
9
100
AcDbSymbolTableRecord
100
AcDbRegAppTableRecord
  2
ACAD_DSTYLE_DIMTEXT_FILL
 70
     0
  0
APPID
  5
5A7B
330
9
100
AcDbSymbolTableRecord
100
AcDbRegAppTableRecord
  2
DCO15
 70
     0
  0
ENDTAB
  0
TABLE
  2
DIMSTYLE
  5
A
330
0
100
AcDbSymbolTable
 70
     3
100
AcDbDimStyleTable
 71
     2
340
EE95
340
27
  0
DIMSTYLE
105
27
330
A
100
AcDbSymbolTableRecord
100
AcDbDimStyleTableRecord
  2
Standard
 70
     0
  3
\X
  4
mm
 40
0.0
 73
     0
140
0.156
141
0.0
178
     3
271
     2
272
     2
340
11
  0
DIMSTYLE
105
EE95
102
{ACAD_REACTORS
330
F98E
330
F99C
330
FAA4
330
FAB3
330
FA26
330
FB14
330
FB2C
330
FC81
330
FFE5
102
}
330
A
100
AcDbSymbolTableRecord
100
AcDbDimStyleTableRecord
  2
METRIC
 70
     0
 41
5.0
 42
1.6
 43
10.0
 44
1.6
140
5.0
141
2.5
147
2.5
178
   256
271
     1
272
     1
340
EE94
  0
ENDTAB
  0
TABLE
  2
BLOCK_RECORD
  5
1
330
0
100
AcDbSymbolTable
 70
    26
  0
BLOCK_RECORD
  5
1F
102
{ACAD_XDICTIONARY
360
54D8
102
}
330
1
100
AcDbSymbolTableRecord
100
AcDbBlockTableRecord
  2
*Model_Space
340
22
  0
BLOCK_RECORD
  5
F8D6
330
1
100
AcDbSymbolTableRecord
100
AcDbBlockTableRecord
  2
*Paper_Space
340
F8D7
  0
BLOCK_RECORD
  5
E951
330
1
100
AcDbSymbolTableRecord
100
AcDbBlockTableRecord
  2
m2.5flatt
340
0
102
{BLKREFS
331
E961
331
E962
331
E963
331
E964
331
ED41
331
ED42
331
ED44
102
}
  0
BLOCK_RECORD
  5
F261
330
1
100
AcDbSymbolTableRecord
100
AcDbBlockTableRecord
  2
m4pant
340
0
102
{BLKREFS
331
F271
331
F272
331
F273
331
F274
102
}
  0
BLOCK_RECORD
  5
F98F
330
1
100
AcDbSymbolTableRecord
100
AcDbBlockTableRecord
  2
*D2
340
0
  0
BLOCK_RECORD
  5
F99D
330
1
100
AcDbSymbolTableRecord
100
AcDbBlockTableRecord
  2
*D3
340
0
  0
BLOCK_RECORD
  5
FA27
330
1
100
AcDbSymbolTableRecord
100
AcDbBlockTableRecord
  2
*D4
340
0
  0
BLOCK_RECORD
  5
FAA5
330
1
100
AcDbSymbolTableRecord
100
AcDbBlockTableRecord
  2
*D5
340
0
  0
BLOCK_RECORD
  5
FAB4
330
1
100
AcDbSymbolTableRecord
100
AcDbBlockTableRecord
  2
*D6
340
0
  0
BLOCK_RECORD
  5
FB15
330
1
100
AcDbSymbolTableRecord
100
AcDbBlockTableRecord
  2
*D7
340
0
  0
BLOCK_RECORD
  5
FB2D
330
1
100
AcDbSymbolTableRecord
100
AcDbBlockTableRecord
  2
*D8
340
0
  0
BLOCK_RECORD
  5
FC82
330
1
100
AcDbSymbolTableRecord
100
AcDbBlockTableRecord
  2
*D9
340
0
  0
BLOCK_RECORD
  5
FFE6
330
1
100
AcDbSymbolTableRecord
100
AcDbBlockTableRecord
  2
*D10
340
0
  0
BLOCK_RECORD
  5
1046D
330
1
100
AcDbSymbolTableRecord
100
AcDbBlockTableRecord
  2
m3washe
340
0
102
{BLKREFS
331
10483
331
10484
331
104C4
331
104C5
331
1176F
331
11770
331
11800
331
11801
102
}
  0
BLOCK_RECORD
  5
10474
102
{ACAD_XDICTIONARY
360
10485
102
}
330
1
100
AcDbSymbolTableRecord
100
AcDbBlockTableRecord
  2
A$C15614AF3
340
0
102
{BLKREFS
331
10489
102
}
  0
BLOCK_RECORD
  5
104CF
330
1
100
AcDbSymbolTableRecord
100
AcDbBlockTableRecord
  2
m3pant
340
0
102
{BLKREFS
331
104DF
331
104E0
331
104E1
331
104E2
102
}
  0
BLOCK_RECORD
  5
11725
330
1
100
AcDbSymbolTableRecord
100
AcDbBlockTableRecord
  2
m3washt
340
0
102
{BLKREFS
331
11729
102
}
  0
BLOCK_RECORD
  5
1172A
330
1
100
AcDbSymbolTableRecord
100
AcDbBlockTableRecord
  2
m3nutt
340
0
102
{BLKREFS
331
11731
102
}
  0
BLOCK_RECORD
  5
11748
330
1
100
AcDbSymbolTableRecord
100
AcDbBlockTableRecord
  2
m3nute
340
0
102
{BLKREFS
331
11771
331
11802
102
}
  0
ENDTAB
  0
ENDSEC
  0
SECTION
  2
BLOCKS
  0
BLOCK
  5
20
330
1F
100
AcDbEntity
  8
0
100
AcDbBlockBegin
  2
*Model_Space
 70
     0
 10
0.0
 20
0.0
 30
0.0
  3
*Model_Space
  1

  0
ENDBLK
  5
21
330
1F
100
AcDbEntity
  8
0
100
AcDbBlockEnd
  0
BLOCK
  5
F8D8
330
F8D6
100
AcDbEntity
 67
     1
  8
0
100
AcDbBlockBegin
  2
*Paper_Space
 70
     0
 10
0.0
 20
0.0
 30
0.0
  3
*Paper_Space
  1

  0
ENDBLK
  5
F8D9
330
F8D6
100
AcDbEntity
 67
     1
  8
0
100
AcDbBlockEnd
  0
BLOCK
  5
E95F
330
E951
100
AcDbEntity
  8
0
100
AcDbBlockBegin
  2
m2.5flatt
 70
     0
 10
0.0
 20
0.0
 30
0.0
  3
m2.5flatt
  1

  0
LINE
  5
E952
330
E951
100
AcDbEntity
  8
FASTENER
100
AcDbLine
 10
-0.3065217391305168
 20
-1.226086956521896
 30
0.0
 11
0.3065217391304316
 21
-1.226086956521896
 31
0.0
  0
LINE
  5
E953
330
E951
100
AcDbEntity
  8
FASTENER
100
AcDbLine
 10
-0.3065217391303747
 20
1.226086956521726
 30
0.0
 11
0.3065217391304316
 21
1.226086956521896
 31
0.0
  0
LINE
  5
E954
330
E951
100
AcDbEntity
  8
FASTENER
100
AcDbLine
 10
-1.226086956521726
 20
-0.3065217391306305
 30
0.0
 11
-0.3065217391303747
 21
-0.3065217391304031
 31
0.0
  0
LINE
  5
E955
330
E951
100
AcDbEntity
  8
FASTENER
100
AcDbLine
 10
-1.226086956521584
 20
0.3065217391306305
 30
0.0
 11
-0.3065217391305737
 21
0.3065217391306305
 31
0.0
  0
LINE
  5
E956
330
E951
100
AcDbEntity
  8
FASTENER
100
AcDbLine
 10
-0.3065217391305168
 20
0.3065217391304031
 30
0.0
 11
-0.3065217391303747
 21
1.226086956521726
 31
0.0
  0
LINE
  5
E957
330
E951
100
AcDbEntity
  8
FASTENER
100
AcDbLine
 10
-0.3065217391305168
 20
-1.226086956521896
 30
0.0
 11
-0.3065217391304316
 21
-0.3065217391306305
 31
0.0
  0
LINE
  5
E958
330
E951
100
AcDbEntity
  8
FASTENER
100
AcDbLine
 10
-1.226086956521726
 20
-0.3065217391306305
 30
0.0
 11
-1.226086956521584
 21
0.3065217391306305
 31
0.0
  0
LINE
  5
E959
330
E951
100
AcDbEntity
  8
FASTENER
100
AcDbLine
 10
0.3065217391304316
 20
-0.3065217391304031
 30
0.0
 11
1.226086956521811
 21
-0.3065217391304031
 31
0.0
  0
LINE
  5
E95A
330
E951
100
AcDbEntity
  8
FASTENER
100
AcDbLine
 10
0.3065217391303747
 20
0.3065217391306305
 30
0.0
 11
1.226086956521754
 21
0.3065217391306305
 31
0.0
  0
LINE
  5
E95B
330
E951
100
AcDbEntity
  8
FASTENER
100
AcDbLine
 10
0.3065217391304316
 20
-1.226086956521896
 30
0.0
 11
0.3065217391304316
 21
-0.3065217391304031
 31
0.0
  0
LINE
  5
E95C
330
E951
100
AcDbEntity
  8
FASTENER
100
AcDbLine
 10
0.3065217391303747
 20
0.3065217391304031
 30
0.0
 11
0.3065217391304316
 21
1.226086956521896
 31
0.0
  0
LINE
  5
E95D
330
E951
100
AcDbEntity
  8
FASTENER
100
AcDbLine
 10
1.226086956521811
 20
-0.3065217391304031
 30
0.0
 11
1.226086956521754
 21
0.3065217391306305
 31
0.0
  0
CIRCLE
  5
E95E
330
E951
100
AcDbEntity
  8
FASTENER
100
AcDbCircle
 10
0.0
 20
0.0
 30
0.0
 40
2.35
  0
ENDBLK
  5
E960
330
E951
100
AcDbEntity
  8
0
100
AcDbBlockEnd
  0
BLOCK
  5
F26F
330
F261
100
AcDbEntity
  8
0
100
AcDbBlockBegin
  2
m4pant
 70
     0
 10
0.0
 20
0.0
 30
0.0
  3
m4pant
  1

  0
CIRCLE
  5
F262
330
F261
100
AcDbEntity
  8
PART
100
AcDbCircle
 10
0.0
 20
0.0
 30
0.0
 40
3.9999285
  0
LINE
  5
F263
330
F261
100
AcDbEntity
  8
PART
100
AcDbLine
 10
-1.481454999998732
 20
0.4444364999995969
 30
0.0
 11
-0.4444365000028938
 21
0.4444364999995969
 31
0.0
  0
LINE
  5
F264
330
F261
100
AcDbEntity
  8
PART
100
AcDbLine
 10
-1.481454999998732
 20
-0.4444364999995969
 30
0.0
 11
-0.4444365000028938
 21
-0.4444364999995969
 31
0.0
  0
LINE
  5
F265
330
F261
100
AcDbEntity
  8
PART
100
AcDbLine
 10
0.4444365000028938
 20
1.481455000000323
 30
0.0
 11
0.4444365000028938
 21
0.4444364999995969
 31
0.0
  0
LINE
  5
F266
330
F261
100
AcDbEntity
  8
PART
100
AcDbLine
 10
-0.4444365000028938
 20
1.481455000000323
 30
0.0
 11
-0.4444365000028938
 21
0.4444364999995969
 31
0.0
  0
LINE
  5
F267
330
F261
100
AcDbEntity
  8
PART
100
AcDbLine
 10
-0.4444365000028938
 20
1.481455000000323
 30
0.0
 11
0.4444365000028938
 21
1.481455000000323
 31
0.0
  0
LINE
  5
F268
330
F261
100
AcDbEntity
  8
PART
100
AcDbLine
 10
-1.481454999998732
 20
-0.4444364999995969
 30
0.0
 11
-1.481454999998732
 21
0.4444364999995969
 31
0.0
  0
LINE
  5
F269
330
F261
100
AcDbEntity
  8
PART
100
AcDbLine
 10
0.4444365000028938
 20
-1.481455000000323
 30
0.0
 11
-0.4444365000028938
 21
-1.481455000000323
 31
0.0
  0
LINE
  5
F26A
330
F261
100
AcDbEntity
  8
PART
100
AcDbLine
 10
1.481454999998732
 20
0.4444364999995969
 30
0.0
 11
1.481454999998732
 21
-0.4444364999995969
 31
0.0
  0
LINE
  5
F26B
330
F261
100
AcDbEntity
  8
PART
100
AcDbLine
 10
0.4444365000028938
 20
-0.4444364999995969
 30
0.0
 11
0.4444365000028938
 21
-1.481455000000323
 31
0.0
  0
LINE
  5
F26C
330
F261
100
AcDbEntity
  8
PART
100
AcDbLine
 10
0.4444365000028938
 20
0.4444364999995969
 30
0.0
 11
1.481454999998732
 21
0.4444364999995969
 31
0.0
  0
LINE
  5
F26D
330
F261
100
AcDbEntity
  8
PART
100
AcDbLine
 10
-0.4444365000028938
 20
-0.4444364999995969
 30
0.0
 11
-0.4444365000028938
 21
-1.481455000000323
 31
0.0
  0
LINE
  5
F26E
330
F261
100
AcDbEntity
  8
PART
100
AcDbLine
 10
0.4444365000028938
 20
-0.4444364999995969
 30
0.0
 11
1.481454999998732
 21
-0.4444364999995969
 31
0.0
  0
ENDBLK
  5
F270
330
F261
100
AcDbEntity
  8
0
100
AcDbBlockEnd
  0
BLOCK
  5
F99A
330
F98F
100
AcDbEntity
  8
0
100
AcDbBlockBegin
  2
*D2
 70
     1
 10
0.0
 20
0.0
 30
0.0
  3
*D2
  1

  0
LINE
  5
10141
330
F98F
100
AcDbEntity
  8
DIM
 62
     0
370
    -2
100
AcDbLine
 10
556.2196036502534
 20
269.2086158862748
 30
0.0
 11
556.2196036502534
 21
234.3242760908801
 31
0.0
  0
LINE
  5
10142
330
F98F
100
AcDbEntity
  8
DIM
 62
     0
370
    -2
100
AcDbLine
 10
73.61960365025281
 20
269.208615886275
 30
0.0
 11
73.61960365025281
 21
234.3242760908801
 31
0.0
  0
LINE
  5
10143
330
F98F
100
AcDbEntity
  8
DIM
 62
     0
370
    -2
100
AcDbLine
 10
551.2196036502534
 20
235.9242760908801
 30
0.0
 11
325.9547332546187
 21
235.9242760908801
 31
0.0
  0
LINE
  5
10144
330
F98F
100
AcDbEntity
  8
DIM
 62
     0
370
    -2
100
AcDbLine
 10
78.61960365025281
 20
235.9242760908801
 30
0.0
 11
303.8844740458875
 21
235.9242760908801
 31
0.0
  0
SOLID
  5
10145
330
F98F
100
AcDbEntity
  8
DIM
 62
     0
100
AcDbTrace
 10
551.2196036502534
 20
236.7576094242134
 30
0.0
 11
551.2196036502534
 21
235.0909427575468
 31
0.0
 12
556.2196036502534
 22
235.9242760908801
 32
0.0
 13
556.2196036502534
 23
235.9242760908801
 33
0.0
  0
SOLID
  5
10146
330
F98F
100
AcDbEntity
  8
DIM
 62
     0
100
AcDbTrace
 10
78.61960365025281
 20
236.7576094242134
 30
0.0
 11
78.61960365025281
 21
235.0909427575468
 31
0.0
 12
73.61960365025281
 22
235.9242760908801
 32
0.0
 13
73.61960365025281
 23
235.9242760908801
 33
0.0
  0
MTEXT
  5
10147
330
F98F
100
AcDbEntity
  8
DIM
100
AcDbMText
 10
314.9196036502531
 20
235.9242760908801
 30
0.0
 40
5.0
 41
0.0
 71
     5
 72
     1
  1
\A1;482.6\P(19")
  7
ARIAL
 73
     1
 44
1.0
1001
ACAD
1000
MTEXTBEGIN
1070
    73
1070
     1
1070
    44
1040
1.0
1070
    74
1070
     0
1000
MTEXTEND
  0
POINT
  5
10148
330
F98F
100
AcDbEntity
  8
DEFPOINTS
 62
     0
100
AcDbPoint
 10
556.2196036502534
 20
270.8086158862748
 30
0.0
  0
POINT
  5
10149
330
F98F
100
AcDbEntity
  8
DEFPOINTS
 62
     0
100
AcDbPoint
 10
73.61960365025281
 20
270.808615886275
 30
0.0
  0
POINT
  5
1014A
330
F98F
100
AcDbEntity
  8
DEFPOINTS
 62
     0
100
AcDbPoint
 10
73.61960365025281
 20
235.9242760908801
 30
0.0
  0
ENDBLK
  5
F99B
330
F98F
100
AcDbEntity
  8
0
100
AcDbBlockEnd
  0
BLOCK
  5
F9A8
330
F99D
100
AcDbEntity
  8
0
100
AcDbBlockBegin
  2
*D3
 70
     1
 10
0.0
 20
0.0
 30
0.0
  3
*D3
  1

  0
LINE
  5
FC06
330
F99D
100
AcDbEntity
  8
DIM
 62
     0
370
    -2
100
AcDbLine
 10
90.91960365025277
 20
493.4086218862723
 30
0.0
 11
90.91960365025277
 21
533.6196685369294
 31
0.0
  0
LINE
  5
FC07
330
F99D
100
AcDbEntity
  8
DIM
 62
     0
370
    -2
100
AcDbLine
 10
538.9196036502528
 20
493.4086218862723
 30
0.0
 11
538.9196036502528
 21
533.6196685369294
 31
0.0
  0
LINE
  5
FC08
330
F99D
100
AcDbEntity
  8
DIM
 62
     0
370
    -2
100
AcDbLine
 10
95.91960365025277
 20
532.0196685369294
 30
0.0
 11
303.8912953282883
 21
532.0196685369294
 31
0.0
  0
LINE
  5
FC09
330
F99D
100
AcDbEntity
  8
DIM
 62
     0
370
    -2
100
AcDbLine
 10
533.9196036502528
 20
532.0196685369294
 30
0.0
 11
325.9479119722173
 21
532.0196685369294
 31
0.0
  0
SOLID
  5
FC0A
330
F99D
100
AcDbEntity
  8
DIM
 62
     0
100
AcDbTrace
 10
95.91960365025277
 20
532.8530018702628
 30
0.0
 11
95.91960365025277
 21
531.1863352035961
 31
0.0
 12
90.91960365025277
 22
532.0196685369294
 32
0.0
 13
90.91960365025277
 23
532.0196685369294
 33
0.0
  0
SOLID
  5
FC0B
330
F99D
100
AcDbEntity
  8
DIM
 62
     0
100
AcDbTrace
 10
533.9196036502528
 20
532.8530018702628
 30
0.0
 11
533.9196036502528
 21
531.1863352035961
 31
0.0
 12
538.9196036502528
 22
532.0196685369294
 32
0.0
 13
538.9196036502528
 23
532.0196685369294
 33
0.0
  0
MTEXT
  5
FC0C
330
F99D
100
AcDbEntity
  8
DIM
100
AcDbMText
 10
314.9196036502528
 20
532.0196685369294
 30
0.0
 40
5.0
 41
0.0
 71
     5
 72
     1
  1
\A1;448.0
  7
ARIAL
 73
     1
 44
1.0
1001
ACAD
1000
MTEXTBEGIN
1070
    73
1070
     1
1070
    44
1040
1.0
1070
    74
1070
     0
1000
MTEXTEND
  0
POINT
  5
FC0D
330
F99D
100
AcDbEntity
  8
DEFPOINTS
 62
     0
100
AcDbPoint
 10
90.91960365025277
 20
491.8086218862722
 30
0.0
  0
POINT
  5
FC0E
330
F99D
100
AcDbEntity
  8
DEFPOINTS
 62
     0
100
AcDbPoint
 10
538.9196036502528
 20
491.8086218862722
 30
0.0
  0
POINT
  5
FC0F
330
F99D
100
AcDbEntity
  8
DEFPOINTS
 62
     0
100
AcDbPoint
 10
538.9196036502528
 20
532.0196685369294
 30
0.0
  0
ENDBLK
  5
F9A9
330
F99D
100
AcDbEntity
  8
0
100
AcDbBlockEnd
  0
BLOCK
  5
FA32
330
FA27
100
AcDbEntity
  8
0
100
AcDbBlockBegin
  2
*D4
 70
     1
 10
0.0
 20
0.0
 30
0.0
  3
*D4
  1

  0
LINE
  5
1048A
330
FA27
100
AcDbEntity
  8
DIM
 62
     0
370
    -2
100
AcDbLine
 10
72.01960365025282
 20
270.808615886275
 30
0.0
 11
47.25000257085588
 21
270.808615886275
 31
0.0
  0
LINE
  5
1048B
330
FA27
100
AcDbEntity
  8
DIM
 62
     0
370
    -2
100
AcDbLine
 10
103.894586393134
 20
512.5946158862732
 30
0.0
 11
47.25000257085594
 21
512.5946158862732
 31
0.0
  0
LINE
  5
1048C
330
FA27
100
AcDbEntity
  8
DIM
 62
     0
370
    -2
100
AcDbLine
 10
48.85000257085589
 20
275.808615886275
 30
0.0
 11
48.85000257085591
 21
389.3557519476655
 31
0.0
  0
LINE
  5
1048D
330
FA27
100
AcDbEntity
  8
DIM
 62
     0
370
    -2
100
AcDbLine
 10
48.85000257085594
 20
507.5946158862732
 30
0.0
 11
48.85000257085591
 21
399.4614818248825
 31
0.0
  0
SOLID
  5
1048E
330
FA27
100
AcDbEntity
  8
DIM
 62
     0
100
AcDbTrace
 10
48.01666923752256
 20
275.808615886275
 30
0.0
 11
49.68333590418922
 21
275.808615886275
 31
0.0
 12
48.85000257085589
 22
270.808615886275
 32
0.0
 13
48.85000257085589
 23
270.808615886275
 33
0.0
  0
SOLID
  5
1048F
330
FA27
100
AcDbEntity
  8
DIM
 62
     0
100
AcDbTrace
 10
48.01666923752261
 20
507.5946158862732
 30
0.0
 11
49.68333590418928
 21
507.5946158862732
 31
0.0
 12
48.85000257085594
 22
512.5946158862732
 32
0.0
 13
48.85000257085594
 23
512.5946158862732
 33
0.0
  0
MTEXT
  5
10490
330
FA27
100
AcDbEntity
  8
DIM
100
AcDbMText
 10
48.85000257085585
 20
394.408616886274
 30
0.0
 40
5.0
 41
0.0
 71
     5
 72
     1
  1
\A1;241.8
  7
ARIAL
 73
     1
 44
1.0
1001
ACAD
1000
MTEXTBEGIN
1070
    73
1070
     1
1070
    44
1040
1.0
1070
    74
1070
     0
1000
MTEXTEND
  0
POINT
  5
10491
330
FA27
100
AcDbEntity
  8
DEFPOINTS
 62
     0
100
AcDbPoint
 10
73.61960365025281
 20
270.808615886275
 30
0.0
  0
POINT
  5
10492
330
FA27
100
AcDbEntity
  8
DEFPOINTS
 62
     0
100
AcDbPoint
 10
105.494586393134
 20
512.5946158862732
 30
0.0
  0
POINT
  5
10493
330
FA27
100
AcDbEntity
  8
DEFPOINTS
 62
     0
100
AcDbPoint
 10
48.85000257085594
 20
512.5946158862732
 30
0.0
  0
ENDBLK
  5
FA33
330
FA27
100
AcDbEntity
  8
0
100
AcDbBlockEnd
  0
BLOCK
  5
FAB1
330
FAA5
100
AcDbEntity
  8
0
100
AcDbBlockBegin
  2
*D5
 70
     1
 10
0.0
 20
0.0
 30
0.0
  3
*D5
  1

  0
LINE
  5
FC2F
330
FAA5
100
AcDbEntity
  8
DIM
 62
     0
370
    -2
100
AcDbLine
 10
72.01960365025282
 20
270.808615886275
 30
0.0
 11
65.45774951983078
 21
270.808615886275
 31
0.0
  0
LINE
  5
FC30
330
FAA5
100
AcDbEntity
  8
DIM
 62
     0
370
    -2
100
AcDbLine
 10
72.01960365025283
 20
273.808615886275
 30
0.0
 11
65.45774951983078
 21
273.808615886275
 31
0.0
  0
LINE
  5
FC31
330
FAA5
100
AcDbEntity
  8
DIM
 62
     0
370
    -2
100
AcDbLine
 10
67.05774951983078
 20
278.808615886275
 30
0.0
 11
67.05774951983078
 21
283.808615886275
 31
0.0
  0
LINE
  5
FC32
330
FAA5
100
AcDbEntity
  8
DIM
 62
     0
370
    -2
100
AcDbLine
 10
67.05774951983078
 20
265.808615886275
 30
0.0
 11
67.05774951983078
 21
260.808615886275
 31
0.0
  0
LINE
  5
FC33
330
FAA5
100
AcDbEntity
  8
DIM
 62
     0
370
    -2
100
AcDbLine
 10
67.05774951983078
 20
260.808615886275
 30
0.0
 11
62.05774951983078
 21
260.808615886275
 31
0.0
  0
SOLID
  5
FC34
330
FAA5
100
AcDbEntity
  8
DIM
 62
     0
100
AcDbTrace
 10
66.22441618649745
 20
278.808615886275
 30
0.0
 11
67.89108285316411
 21
278.808615886275
 31
0.0
 12
67.05774951983078
 22
273.808615886275
 32
0.0
 13
67.05774951983078
 23
273.808615886275
 33
0.0
  0
SOLID
  5
FC35
330
FAA5
100
AcDbEntity
  8
DIM
 62
     0
100
AcDbTrace
 10
66.22441618649745
 20
265.808615886275
 30
0.0
 11
67.89108285316411
 21
265.808615886275
 31
0.0
 12
67.05774951983078
 22
270.808615886275
 32
0.0
 13
67.05774951983078
 23
270.808615886275
 33
0.0
  0
MTEXT
  5
FC36
330
FAA5
100
AcDbEntity
  8
DIM
100
AcDbMText
 10
55.01648076130414
 20
260.808615886275
 30
0.0
 40
5.0
 41
0.0
 71
     5
 72
     1
  1
\A1;3.0
  7
ARIAL
 73
     1
 44
1.0
1001
ACAD
1000
MTEXTBEGIN
1070
    73
1070
     1
1070
    44
1040
1.0
1070
    74
1070
     0
1000
MTEXTEND
  0
POINT
  5
FC37
330
FAA5
100
AcDbEntity
  8
DEFPOINTS
 62
     0
100
AcDbPoint
 10
73.61960365025281
 20
270.808615886275
 30
0.0
  0
POINT
  5
FC38
330
FAA5
100
AcDbEntity
  8
DEFPOINTS
 62
     0
100
AcDbPoint
 10
73.61960365025282
 20
273.808615886275
 30
0.0
  0
POINT
  5
FC39
330
FAA5
100
AcDbEntity
  8
DEFPOINTS
 62
     0
100
AcDbPoint
 10
67.05774951983078
 20
273.808615886275
 30
0.0
  0
ENDBLK
  5
FAB2
330
FAA5
100
AcDbEntity
  8
0
100
AcDbBlockEnd
  0
BLOCK
  5
FABF
330
FAB4
100
AcDbEntity
  8
0
100
AcDbBlockBegin
  2
*D6
 70
     1
 10
0.0
 20
0.0
 30
0.0
  3
*D6
  1

  0
LINE
  5
FC3A
330
FAB4
100
AcDbEntity
  8
DIM
 62
     0
370
    -2
100
AcDbLine
 10
72.01960365025283
 20
273.808615886275
 30
0.0
 11
60.51375077417283
 21
273.808615886275
 31
0.0
  0
LINE
  5
FC3B
330
FAB4
100
AcDbEntity
  8
DIM
 62
     0
370
    -2
100
AcDbLine
 10
90.81960365025244
 20
494.8086158862733
 30
0.0
 11
60.51375077417286
 21
494.8086158862733
 31
0.0
  0
LINE
  5
FC3C
330
FAB4
100
AcDbEntity
  8
DIM
 62
     0
370
    -2
100
AcDbLine
 10
62.11375077417283
 20
278.808615886275
 30
0.0
 11
62.11375077417285
 21
378.1589776819727
 31
0.0
  0
LINE
  5
FC3D
330
FAB4
100
AcDbEntity
  8
DIM
 62
     0
370
    -2
100
AcDbLine
 10
62.11375077417287
 20
489.8086158862733
 30
0.0
 11
62.11375077417285
 21
388.2647075591896
 31
0.0
  0
SOLID
  5
FC3E
330
FAB4
100
AcDbEntity
  8
DIM
 62
     0
100
AcDbTrace
 10
61.28041744083949
 20
278.808615886275
 30
0.0
 11
62.94708410750616
 21
278.808615886275
 31
0.0
 12
62.11375077417283
 22
273.808615886275
 32
0.0
 13
62.11375077417283
 23
273.808615886275
 33
0.0
  0
SOLID
  5
FC3F
330
FAB4
100
AcDbEntity
  8
DIM
 62
     0
100
AcDbTrace
 10
61.28041744083954
 20
489.8086158862733
 30
0.0
 11
62.94708410750621
 21
489.8086158862733
 31
0.0
 12
62.11375077417287
 22
494.8086158862733
 32
0.0
 13
62.11375077417287
 23
494.8086158862733
 33
0.0
  0
MTEXT
  5
FC40
330
FAB4
100
AcDbEntity
  8
DIM
100
AcDbMText
 10
62.11375077417279
 20
383.2118426205811
 30
0.0
 40
5.0
 41
0.0
 71
     5
 72
     1
  1
\A1;221.0
  7
ARIAL
 73
     1
 44
1.0
1001
ACAD
1000
MTEXTBEGIN
1070
    73
1070
     1
1070
    44
1040
1.0
1070
    74
1070
     0
1000
MTEXTEND
  0
POINT
  5
FC41
330
FAB4
100
AcDbEntity
  8
DEFPOINTS
 62
     0
100
AcDbPoint
 10
73.61960365025282
 20
273.808615886275
 30
0.0
  0
POINT
  5
FC42
330
FAB4
100
AcDbEntity
  8
DEFPOINTS
 62
     0
100
AcDbPoint
 10
92.41960365025242
 20
494.8086158862733
 30
0.0
  0
POINT
  5
FC43
330
FAB4
100
AcDbEntity
  8
DEFPOINTS
 62
     0
100
AcDbPoint
 10
62.11375077417287
 20
494.8086158862733
 30
0.0
  0
ENDBLK
  5
FAC0
330
FAB4
100
AcDbEntity
  8
0
100
AcDbBlockEnd
  0
BLOCK
  5
FB20
330
FB15
100
AcDbEntity
  8
0
100
AcDbBlockBegin
  2
*D7
 70
     1
 10
0.0
 20
0.0
 30
0.0
  3
*D7
  1

  0
LINE
  5
FBD4
330
FB15
100
AcDbEntity
  8
DIM
 62
     0
370
    -2
100
AcDbLine
 10
72.019603650253
 20
169.1416158862743
 30
0.0
 11
56.19612383446283
 21
169.1416158862743
 31
0.0
  0
LINE
  5
FBD5
330
FB15
100
AcDbEntity
  8
DIM
 62
     0
370
    -2
100
AcDbLine
 10
72.01960365025643
 20
125.4916158862722
 30
0.0
 11
56.19612383446282
 21
125.4916158862722
 31
0.0
  0
LINE
  5
FBD6
330
FB15
100
AcDbEntity
  8
DIM
 62
     0
370
    -2
100
AcDbLine
 10
57.79612383446283
 20
164.1416158862743
 30
0.0
 11
57.79612383446283
 21
157.271140670266
 31
0.0
  0
LINE
  5
FBD7
330
FB15
100
AcDbEntity
  8
DIM
 62
     0
370
    -2
100
AcDbLine
 10
57.79612383446282
 20
130.4916158862722
 30
0.0
 11
57.79612383446282
 21
137.3620911022805
 31
0.0
  0
SOLID
  5
FBD8
330
FB15
100
AcDbEntity
  8
DIM
 62
     0
100
AcDbTrace
 10
56.96279050112949
 20
164.1416158862743
 30
0.0
 11
58.62945716779616
 21
164.1416158862743
 31
0.0
 12
57.79612383446283
 22
169.1416158862743
 32
0.0
 13
57.79612383446283
 23
169.1416158862743
 33
0.0
  0
SOLID
  5
FBD9
330
FB15
100
AcDbEntity
  8
DIM
 62
     0
100
AcDbTrace
 10
56.96279050112948
 20
130.4916158862722
 30
0.0
 11
58.62945716779616
 21
130.4916158862722
 31
0.0
 12
57.79612383446282
 22
125.4916158862722
 32
0.0
 13
57.79612383446282
 23
125.4916158862722
 33
0.0
  0
MTEXT
  5
FBDA
330
FB15
100
AcDbEntity
  8
DIM
100
AcDbMText
 10
57.79612383446281
 20
147.3166158862732
 30
0.0
 40
5.0
 41
0.0
 71
     5
 72
     1
  1
\A1;43.7\P(1U)
  7
ARIAL
 73
     1
 44
1.0
1001
ACAD
1000
MTEXTBEGIN
1070
    73
1070
     1
1070
    44
1040
1.0
1070
    74
1070
     0
1000
MTEXTEND
  0
POINT
  5
FBDB
330
FB15
100
AcDbEntity
  8
DEFPOINTS
 62
     0
100
AcDbPoint
 10
73.619603650253
 20
169.1416158862743
 30
0.0
  0
POINT
  5
FBDC
330
FB15
100
AcDbEntity
  8
DEFPOINTS
 62
     0
100
AcDbPoint
 10
73.61960365025642
 20
125.4916158862722
 30
0.0
  0
POINT
  5
FBDD
330
FB15
100
AcDbEntity
  8
DEFPOINTS
 62
     0
100
AcDbPoint
 10
57.79612383446282
 20
125.4916158862722
 30
0.0
  0
ENDBLK
  5
FB21
330
FB15
100
AcDbEntity
  8
0
100
AcDbBlockEnd
  0
BLOCK
  5
FB38
330
FB2D
100
AcDbEntity
  8
0
100
AcDbBlockBegin
  2
*D8
 70
     1
 10
0.0
 20
0.0
 30
0.0
  3
*D8
  1

  0
LINE
  5
FCCB
330
FB2D
100
AcDbEntity
  8
DIM
 62
     0
370
    -2
100
AcDbLine
 10
579.7775655397169
 20
495.4086198862726
 30
0.0
 11
579.7775655397169
 21
532.9219227641539
 31
0.0
  0
LINE
  5
FCCC
330
FB2D
100
AcDbEntity
  8
DIM
 62
     0
370
    -2
100
AcDbLine
 10
622.3767075893536
 20
493.3933818862721
 30
0.0
 11
622.3767075893536
 21
532.9219227641539
 31
0.0
  0
LINE
  5
FCCD
330
FB2D
100
AcDbEntity
  8
DIM
 62
     0
370
    -2
100
AcDbLine
 10
584.7775655397169
 20
531.3219227641538
 30
0.0
 11
591.8761503487078
 21
531.3219227641538
 31
0.0
  0
LINE
  5
FCCE
330
FB2D
100
AcDbEntity
  8
DIM
 62
     0
370
    -2
100
AcDbLine
 10
617.3767075893536
 20
531.3219227641538
 30
0.0
 11
610.0616892300174
 21
531.3219227641538
 31
0.0
  0
SOLID
  5
FCCF
330
FB2D
100
AcDbEntity
  8
DIM
 62
     0
100
AcDbTrace
 10
584.7775655397169
 20
532.1552560974872
 30
0.0
 11
584.7775655397169
 21
530.4885894308205
 31
0.0
 12
579.7775655397169
 22
531.3219227641538
 32
0.0
 13
579.7775655397169
 23
531.3219227641538
 33
0.0
  0
SOLID
  5
FCD0
330
FB2D
100
AcDbEntity
  8
DIM
 62
     0
100
AcDbTrace
 10
617.3767075893536
 20
532.1552560974872
 30
0.0
 11
617.3767075893536
 21
530.4885894308205
 31
0.0
 12
622.3767075893536
 22
531.3219227641538
 32
0.0
 13
622.3767075893536
 23
531.3219227641538
 33
0.0
  0
MTEXT
  5
FCD1
330
FB2D
100
AcDbEntity
  8
DIM
100
AcDbMText
 10
600.9689197893626
 20
531.3219227641538
 30
0.0
 40
5.0
 41
0.0
 71
     5
 72
     1
  1
\A1;42.6
  7
ARIAL
 73
     1
 44
1.0
1001
ACAD
1000
MTEXTBEGIN
1070
    73
1070
     1
1070
    44
1040
1.0
1070
    74
1070
     0
1000
MTEXTEND
  0
POINT
  5
FCD2
330
FB2D
100
AcDbEntity
  8
DEFPOINTS
 62
     0
100
AcDbPoint
 10
579.7775655397169
 20
493.8086198862726
 30
0.0
  0
POINT
  5
FCD3
330
FB2D
100
AcDbEntity
  8
DEFPOINTS
 62
     0
100
AcDbPoint
 10
622.3767075893536
 20
491.793381886272
 30
0.0
  0
POINT
  5
FCD4
330
FB2D
100
AcDbEntity
  8
DEFPOINTS
 62
     0
100
AcDbPoint
 10
622.3767075893536
 20
531.3219227641538
 30
0.0
  0
ENDBLK
  5
FB39
330
FB2D
100
AcDbEntity
  8
0
100
AcDbBlockEnd
  0
BLOCK
  5
FC8D
330
FC82
100
AcDbEntity
  8
0
100
AcDbBlockBegin
  2
*D9
 70
     1
 10
0.0
 20
0.0
 30
0.0
  3
*D9
  1

  0
LINE
  5
102DD
330
FC82
100
AcDbEntity
  8
CONNECT
 62
     0
370
    -2
100
AcDbLine
 10
622.9017075893534
 20
269.2086158862724
 30
0.0
 11
622.9017075893534
 21
233.0
 31
0.0
  0
LINE
  5
102DE
330
FC82
100
AcDbEntity
  8
CONNECT
 62
     0
370
    -2
100
AcDbLine
 10
579.2517075893535
 20
269.2086158862748
 30
0.0
 11
579.2517075893535
 21
233.0
 31
0.0
  0
LINE
  5
102DF
330
FC82
100
AcDbEntity
  8
CONNECT
 62
     0
370
    -2
100
AcDbLine
 10
617.9017075893534
 20
234.6
 30
0.0
 11
610.5080570824177
 21
234.6
 31
0.0
  0
LINE
  5
102E0
330
FC82
100
AcDbEntity
  8
CONNECT
 62
     0
370
    -2
100
AcDbLine
 10
584.2517075893534
 20
234.6
 30
0.0
 11
592.3225182011081
 21
234.6
 31
0.0
  0
SOLID
  5
102E1
330
FC82
100
AcDbEntity
  8
CONNECT
 62
     0
100
AcDbTrace
 10
617.9017075893534
 20
235.4333333333334
 30
0.0
 11
617.9017075893534
 21
233.7666666666667
 31
0.0
 12
622.9017075893534
 22
234.6
 32
0.0
 13
622.9017075893534
 23
234.6
 33
0.0
  0
SOLID
  5
102E2
330
FC82
100
AcDbEntity
  8
CONNECT
 62
     0
100
AcDbTrace
 10
584.2517075893534
 20
235.4333333333334
 30
0.0
 11
584.2517075893534
 21
233.7666666666667
 31
0.0
 12
579.2517075893535
 22
234.6
 32
0.0
 13
579.2517075893535
 23
234.6
 33
0.0
  0
MTEXT
  5
102E3
330
FC82
100
AcDbEntity
  8
CONNECT
100
AcDbMText
 10
601.4152876417629
 20
234.6
 30
0.0
 40
5.0
 41
0.0
 71
     5
 72
     1
  1
\A1;43.6\P(1U)
  7
ARIAL
 73
     1
 44
1.0
1001
ACAD
1000
MTEXTBEGIN
1070
    73
1070
     1
1070
    44
1040
1.0
1070
    74
1070
     0
1000
MTEXTEND
  0
POINT
  5
102E4
330
FC82
100
AcDbEntity
  8
DEFPOINTS
 62
     0
100
AcDbPoint
 10
622.9017075893534
 20
270.8086158862724
 30
0.0
  0
POINT
  5
102E5
330
FC82
100
AcDbEntity
  8
DEFPOINTS
 62
     0
100
AcDbPoint
 10
579.2517075893535
 20
270.8086158862748
 30
0.0
  0
POINT
  5
102E6
330
FC82
100
AcDbEntity
  8
DEFPOINTS
 62
     0
100
AcDbPoint
 10
579.2517075893535
 20
234.6
 30
0.0
  0
ENDBLK
  5
FC8E
330
FC82
100
AcDbEntity
  8
0
100
AcDbBlockEnd
  0
BLOCK
  5
FFF1
330
FFE6
100
AcDbEntity
  8
0
100
AcDbBlockBegin
  2
*D10
 70
     1
 10
0.0
 20
0.0
 30
0.0
  3
*D10
  1

  0
LINE
  5
FFF3
330
FFE6
100
AcDbEntity
  8
CONNECT
 62
     0
370
    -2
100
AcDbLine
 10
73.61960365025642
 20
123.8916158862725
 30
0.0
 11
73.61960365025642
 21
99.99898764800233
 31
0.0
  0
LINE
  5
FFF4
330
FFE6
100
AcDbEntity
  8
CONNECT
 62
     0
370
    -2
100
AcDbLine
 10
556.219603650253
 20
123.8916158862745
 30
0.0
 11
556.219603650253
 21
99.99898764800233
 31
0.0
  0
LINE
  5
FFF5
330
FFE6
100
AcDbEntity
  8
CONNECT
 62
     0
370
    -2
100
AcDbLine
 10
78.61960365025642
 20
101.5989876480023
 30
0.0
 11
303.8844740458891
 21
101.5989876480023
 31
0.0
  0
LINE
  5
FFF6
330
FFE6
100
AcDbEntity
  8
CONNECT
 62
     0
370
    -2
100
AcDbLine
 10
551.219603650253
 20
101.5989876480023
 30
0.0
 11
325.9547332546203
 21
101.5989876480023
 31
0.0
  0
SOLID
  5
FFF7
330
FFE6
100
AcDbEntity
  8
CONNECT
 62
     0
100
AcDbTrace
 10
78.61960365025642
 20
102.4323209813356
 30
0.0
 11
78.61960365025642
 21
100.765654314669
 31
0.0
 12
73.61960365025642
 22
101.5989876480023
 32
0.0
 13
73.61960365025642
 23
101.5989876480023
 33
0.0
  0
SOLID
  5
FFF8
330
FFE6
100
AcDbEntity
  8
CONNECT
 62
     0
100
AcDbTrace
 10
551.219603650253
 20
102.4323209813356
 30
0.0
 11
551.219603650253
 21
100.765654314669
 31
0.0
 12
556.219603650253
 22
101.5989876480023
 32
0.0
 13
556.219603650253
 23
101.5989876480023
 33
0.0
  0
MTEXT
  5
FFF9
330
FFE6
100
AcDbEntity
  8
CONNECT
100
AcDbMText
 10
314.9196036502547
 20
101.5989876480023
 30
0.0
 40
5.0
 41
0.0
 71
     5
 72
     1
  1
\A1;482.6\P(19")
  7
ARIAL
 73
     1
 44
1.0
1001
ACAD
1000
MTEXTBEGIN
1070
    73
1070
     1
1070
    44
1040
1.0
1070
    74
1070
     0
1000
MTEXTEND
  0
POINT
  5
FFFA
330
FFE6
100
AcDbEntity
  8
DEFPOINTS
 62
     0
100
AcDbPoint
 10
73.61960365025642
 20
125.4916158862725
 30
0.0
  0
POINT
  5
FFFB
330
FFE6
100
AcDbEntity
  8
DEFPOINTS
 62
     0
100
AcDbPoint
 10
556.219603650253
 20
125.4916158862745
 30
0.0
  0
POINT
  5
FFFC
330
FFE6
100
AcDbEntity
  8
DEFPOINTS
 62
     0
100
AcDbPoint
 10
556.219603650253
 20
101.5989876480023
 30
0.0
  0
ENDBLK
  5
FFF2
330
FFE6
100
AcDbEntity
  8
0
100
AcDbBlockEnd
  0
BLOCK
  5
1046E
330
1046D
100
AcDbEntity
  8
0
100
AcDbBlockBegin
  2
m3washe
 70
     0
 10
0.0
 20
0.0
 30
0.0
  3
m3washe
  1

  0
LINE
  5
1046F
330
1046D
100
AcDbEntity
  8
FASTENER
100
AcDbLine
 10
0.5
 20
3.0
 30
0.0
 11
0.0
 21
3.0
 31
0.0
  0
LINE
  5
10470
330
1046D
100
AcDbEntity
  8
FASTENER
100
AcDbLine
 10
0.5
 20
-3.0
 30
0.0
 11
0.5
 21
3.0
 31
0.0
  0
LINE
  5
10471
330
1046D
100
AcDbEntity
  8
FASTENER
100
AcDbLine
 10
0.0
 20
-3.0
 30
0.0
 11
0.5
 21
-3.0
 31
0.0
  0
LINE
  5
10472
330
1046D
100
AcDbEntity
  8
FASTENER
100
AcDbLine
 10
0.0
 20
3.0
 30
0.0
 11
0.0
 21
-3.0
 31
0.0
  0
ENDBLK
  5
10473
330
1046D
100
AcDbEntity
  8
0
100
AcDbBlockEnd
  0
BLOCK
  5
10487
330
10474
100
AcDbEntity
  8
0
100
AcDbBlockBegin
  2
A$C15614AF3
 70
     0
 10
0.0
 20
0.0
 30
0.0
  3
A$C15614AF3
  1

  0
LINE
  5
10475
330
10474
100
AcDbEntity
  8
MOTOR
100
AcDbLine
 10
-0.0000002386848905
 20
0.0000002128409164
 30
0.0
 11
40.00147546369001
 21
0.0000002128411438
 31
0.0
  0
LINE
  5
10476
330
10474
100
AcDbEntity
  8
MOTOR
100
AcDbLine
 10
-0.0000002386849758
 20
14.98600021284102
 30
0.0
 11
40.00147546369001
 21
14.98600021284102
 31
0.0
  0
LINE
  5
10477
330
10474
100
AcDbEntity
  8
MOTOR
100
AcDbLine
 10
-0.0000002386849758
 20
14.98600021284102
 30
0.0
 11
-0.0000002386848905
 21
0.0000002128409164
 31
0.0
  0
LINE
  5
10478
330
10474
100
AcDbEntity
  8
MOTOR
100
AcDbLine
 10
40.00147546369001
 20
0.0000002128411438
 30
0.0
 11
40.00147546369001
 21
14.98600021284102
 31
0.0
  0
LINE
  5
10479
330
10474
100
AcDbEntity
  8
0
100
AcDbLine
 10
2.29571705538143
 20
17.78600021284097
 30
0.0
 11
5.695717055381464
 21
17.78600021284097
 31
0.0
  0
LINE
  5
1047A
330
10474
100
AcDbEntity
  8
0
100
AcDbLine
 10
6.995717055381447
 20
15.48600021284096
 30
0.0
 11
6.995717055381447
 21
16.48600021284096
 31
0.0
  0
ARC
  5
1047B
330
10474
100
AcDbEntity
  8
0
100
AcDbCircle
 10
5.695717055381464
 20
16.48600021284096
 30
0.0
 40
1.3
100
AcDbArc
 50
0.0
 51
90.0
  0
LINE
  5
1047C
330
10474
100
AcDbEntity
  8
0
100
AcDbLine
 10
0.9957170553814478
 20
15.48600021284096
 30
0.0
 11
0.9957170553814478
 21
16.48600021284096
 31
0.0
  0
ARC
  5
1047D
330
10474
100
AcDbEntity
  8
0
100
AcDbCircle
 10
2.29571705538143
 20
16.48600021284096
 30
0.0
 40
1.3
100
AcDbArc
 50
90.0
 51
180.0
  0
LINE
  5
1047E
330
10474
100
AcDbEntity
  8
0
100
AcDbLine
 10
34.30575816962346
 20
17.78600021284097
 30
0.0
 11
37.70575816962347
 21
17.78600021284097
 31
0.0
  0
LINE
  5
1047F
330
10474
100
AcDbEntity
  8
0
100
AcDbLine
 10
39.00575816962345
 20
15.48600021284096
 30
0.0
 11
39.00575816962345
 21
16.48600021284096
 31
0.0
  0
ARC
  5
10480
330
10474
100
AcDbEntity
  8
0
100
AcDbCircle
 10
37.70575816962347
 20
16.48600021284096
 30
0.0
 40
1.3
100
AcDbArc
 50
0.0
 51
90.0
  0
LINE
  5
10481
330
10474
100
AcDbEntity
  8
0
100
AcDbLine
 10
33.00575816962345
 20
15.48600021284096
 30
0.0
 11
33.00575816962345
 21
16.48600021284096
 31
0.0
  0
ARC
  5
10482
330
10474
100
AcDbEntity
  8
0
100
AcDbCircle
 10
34.30575816962346
 20
16.48600021284096
 30
0.0
 40
1.3
100
AcDbArc
 50
90.0
 51
180.0
  0
INSERT
  5
10483
330
10474
100
AcDbEntity
  8
FASTENER
100
AcDbBlockReference
  2
m3washe
 10
3.995717055381447
 20
14.98600021284102
 30
0.0
 50
90.0
  0
INSERT
  5
10484
330
10474
100
AcDbEntity
  8
FASTENER
100
AcDbBlockReference
  2
m3washe
 10
36.00575816962345
 20
14.98600021284102
 30
0.0
 50
90.0
  0
ENDBLK
  5
10488
330
10474
100
AcDbEntity
  8
0
100
AcDbBlockEnd
  0
BLOCK
  5
104DD
330
104CF
100
AcDbEntity
  8
0
100
AcDbBlockBegin
  2
m3pant
 70
     0
 10
0.0
 20
0.0
 30
0.0
  3
m3pant
  1

  0
CIRCLE
  5
104D0
330
104CF
100
AcDbEntity
  8
FASTENER
100
AcDbCircle
 10
0.0
 20
0.0
 30
0.0
 40
3.0
  0
LINE
  5
104D1
330
104CF
100
AcDbEntity
  8
FASTENER
100
AcDbLine
 10
0.476250000003347
 20
-0.476250000003347
 30
0.0
 11
1.587499999998499
 21
-0.476250000003347
 31
0.0
  0
LINE
  5
104D2
330
104CF
100
AcDbEntity
  8
FASTENER
100
AcDbLine
 10
-0.476250000003347
 20
-0.476250000003347
 30
0.0
 11
-0.476250000003347
 21
-1.587499999998499
 31
0.0
  0
LINE
  5
104D3
330
104CF
100
AcDbEntity
  8
FASTENER
100
AcDbLine
 10
0.476250000003347
 20
0.476250000003347
 30
0.0
 11
1.587499999998499
 21
0.476250000003347
 31
0.0
  0
LINE
  5
104D4
330
104CF
100
AcDbEntity
  8
FASTENER
100
AcDbLine
 10
0.476250000003347
 20
-0.476250000003347
 30
0.0
 11
0.476250000003347
 21
-1.587499999998499
 31
0.0
  0
LINE
  5
104D5
330
104CF
100
AcDbEntity
  8
FASTENER
100
AcDbLine
 10
1.587499999998499
 20
0.476250000003347
 30
0.0
 11
1.587499999998499
 21
-0.476250000003347
 31
0.0
  0
LINE
  5
104D6
330
104CF
100
AcDbEntity
  8
FASTENER
100
AcDbLine
 10
0.476250000003347
 20
-1.587499999998499
 30
0.0
 11
-0.476250000003347
 21
-1.587499999998499
 31
0.0
  0
LINE
  5
104D7
330
104CF
100
AcDbEntity
  8
FASTENER
100
AcDbLine
 10
-1.587499999998499
 20
-0.476250000003347
 30
0.0
 11
-1.587499999998499
 21
0.476250000003347
 31
0.0
  0
LINE
  5
104D8
330
104CF
100
AcDbEntity
  8
FASTENER
100
AcDbLine
 10
-0.476250000003347
 20
1.587499999998499
 30
0.0
 11
0.476250000003347
 21
1.587499999998499
 31
0.0
  0
LINE
  5
104D9
330
104CF
100
AcDbEntity
  8
FASTENER
100
AcDbLine
 10
-0.476250000003347
 20
1.587499999998499
 30
0.0
 11
-0.476250000003347
 21
0.476250000003347
 31
0.0
  0
LINE
  5
104DA
330
104CF
100
AcDbEntity
  8
FASTENER
100
AcDbLine
 10
0.476250000003347
 20
1.587499999998499
 30
0.0
 11
0.476250000003347
 21
0.476250000003347
 31
0.0
  0
LINE
  5
104DB
330
104CF
100
AcDbEntity
  8
FASTENER
100
AcDbLine
 10
-1.587499999998499
 20
-0.476250000003347
 30
0.0
 11
-0.476250000003347
 21
-0.476250000003347
 31
0.0
  0
LINE
  5
104DC
330
104CF
100
AcDbEntity
  8
FASTENER
100
AcDbLine
 10
-1.587499999998499
 20
0.476250000003347
 30
0.0
 11
-0.476250000003347
 21
0.476250000003347
 31
0.0
  0
ENDBLK
  5
104DE
330
104CF
100
AcDbEntity
  8
0
100
AcDbBlockEnd
  0
BLOCK
  5
11727
330
11725
100
AcDbEntity
  8
0
100
AcDbBlockBegin
  2
m3washt
 70
     0
 10
0.0
 20
0.0
 30
0.0
  3
m3washt
  1

  0
CIRCLE
  5
11726
330
11725
100
AcDbEntity
  8
FASTENER
100
AcDbCircle
 10
0.0
 20
0.0
 30
0.0
 40
3.0
  0
ENDBLK
  5
11728
330
11725
100
AcDbEntity
  8
0
100
AcDbBlockEnd
  0
BLOCK
  5
1172F
330
1172A
100
AcDbEntity
  8
0
100
AcDbBlockBegin
  2
m3nutt
 70
     0
 10
0.0
 20
0.0
 30
0.0
  3
m3nutt
  1

  0
LWPOLYLINE
  5
1172B
330
1172A
100
AcDbEntity
  8
FASTENER
100
AcDbPolyline
 90
        6
 70
     1
 43
0.0
 10
0.0
 20
3.175334104499853
 10
-2.749919999999974
 20
1.58766705224994
 10
-2.749919999999974
 20
-1.58766705224994
 10
0.0
 20
-3.175334104499853
 10
2.749919999999974
 20
-1.58766705224994
 10
2.749919999999974
 20
1.58766705224994
  0
CIRCLE
  5
1172C
330
1172A
100
AcDbEntity
  8
FASTENER
100
AcDbCircle
 10
0.0
 20
0.0
 30
0.0
 40
2.749919999999973
  0
CIRCLE
  5
1172D
330
1172A
100
AcDbEntity
  8
FASTENER
100
AcDbCircle
 10
0.0
 20
0.0
 30
0.0
 40
1.121856939515055
  0
ARC
  5
1172E
330
1172A
100
AcDbEntity
  8
FASTENER
100
AcDbCircle
 10
0.0
 20
0.0
 30
0.0
 40
1.5
100
AcDbArc
 50
65.35367617694219
 51
23.434044262597
  0
ENDBLK
  5
11730
330
1172A
100
AcDbEntity
  8
0
100
AcDbBlockEnd
  0
BLOCK
  5
11755
330
11748
100
AcDbEntity
  8
0
100
AcDbBlockBegin
  2
m3nute
 70
     0
 10
0.0
 20
0.0
 30
0.0
  3
m3nute
  1

  0
LINE
  5
11749
330
11748
100
AcDbEntity
  8
FASTENER
100
AcDbLine
 10
-2.110048701229146
 20
3.162499999922061
 30
-0.000000000072457
 11
-0.289871298772141
 21
3.16249999992209
 31
-0.000000000072457
  0
LINE
  5
1174A
330
11748
100
AcDbEntity
  8
FASTENER
100
AcDbLine
 10
-2.399919999999838
 20
2.406249999922067
 30
-0.000000000072457
 11
-2.399919999999838
 21
-2.40625000007725
 31
-0.000000000072457
  0
LINE
  5
1174B
330
11748
100
AcDbEntity
  8
FASTENER
100
AcDbLine
 10
-2.110048701229146
 20
1.649999999922044
 30
-0.000000000072457
 11
-0.289871298772141
 21
1.649999999922016
 31
-0.000000000072457
  0
ARC
  5
1174C
330
11748
100
AcDbEntity
  8
FASTENER
100
AcDbCircle
 10
-1.268487817625356
 20
2.406249999921612
 30
-0.000000000072457
 40
1.131432182374452
100
AcDbArc
 50
138.0562545220032
 51
221.9437454779968
  0
ARC
  5
1174D
330
11748
100
AcDbEntity
  8
FASTENER
100
AcDbCircle
 10
-1.131432182374481
 20
2.406249999921584
 30
-0.000000000072457
 40
1.131432182374452
100
AcDbArc
 50
318.0562545220033
 51
41.94374547799673
  0
LINE
  5
1174E
330
11748
100
AcDbEntity
  8
FASTENER
100
AcDbLine
 10
0.0
 20
2.406249999922039
 30
-0.000000000072457
 11
0.0
 21
-2.406250000077278
 31
-0.000000000072457
  0
LINE
  5
1174F
330
11748
100
AcDbEntity
  8
FASTENER
100
AcDbLine
 10
-2.110048701229146
 20
-1.650000000077255
 30
-0.000000000072457
 11
-0.289871298772141
 21
-1.650000000077284
 31
-0.000000000072457
  0
LINE
  5
11750
330
11748
100
AcDbEntity
  8
FASTENER
100
AcDbLine
 10
-2.110048701229146
 20
-3.162500000077244
 30
-0.000000000072457
 11
-0.289871298772141
 21
-3.162500000077358
 31
-0.000000000072457
  0
ARC
  5
11751
330
11748
100
AcDbEntity
  8
FASTENER
100
AcDbCircle
 10
-1.268487817625356
 20
-2.406250000076823
 30
-0.000000000072457
 40
1.131432182374452
100
AcDbArc
 50
138.0562545220032
 51
221.9437454779968
  0
ARC
  5
11752
330
11748
100
AcDbEntity
  8
FASTENER
100
AcDbCircle
 10
-1.131432182374481
 20
-2.406250000076852
 30
-0.000000000072457
 40
1.131432182374452
100
AcDbArc
 50
318.0562545220033
 51
41.94374547799673
  0
ARC
  5
11753
330
11748
100
AcDbEntity
  8
FASTENER
100
AcDbCircle
 10
-4.840985260948514
 20
-0.0000000000791545
 30
-0.000000000072457
 40
4.840985260948518
100
AcDbArc
 50
340.0719581665772
 51
19.9280418334697
  0
ARC
  5
11754
330
11748
100
AcDbEntity
  8
FASTENER
100
AcDbCircle
 10
2.441065260966126
 20
-0.0000000000761133
 30
-0.000000000072457
 40
4.840985260965952
100
AcDbArc
 50
160.0719581666431
 51
199.9280418333847
  0
ENDBLK
  5
11756
330
11748
100
AcDbEntity
  8
0
100
AcDbBlockEnd
  0
ENDSEC
  0
SECTION
  2
ENTITIES
  0
LINE
  5
45A9
330
1F
100
AcDbEntity
  8
Rear Panel
100
AcDbLine
 10
582.4285635397171
 20
494.808615886273
 30
0.0
 11
619.7257095893533
 21
494.8086158862723
 31
0.0
  0
ARC
  5
45B5
330
1F
100
AcDbEntity
  8
Rear Panel
100
AcDbCircle
 10
619.7257095893533
 20
493.1576158862728
 30
0.0
 40
1.650999999999999
100
AcDbArc
 50
22.64851582373353
 51
90.0
  0
LINE
  5
45BB
330
1F
100
AcDbEntity
  8
Rear Panel
100
AcDbLine
 10
580.777563539717
 20
484.608615886273
 30
0.0
 11
580.7775635397172
 21
493.1576158862731
 31
0.0
  0
ARC
  5
45C3
330
1F
100
AcDbEntity
  8
Rear Panel
100
AcDbCircle
 10
582.4285635397171
 20
493.1576158862732
 30
0.0
 40
1.650999999999999
100
AcDbArc
 50
90.0
 51
157.3514841762753
  0
ARC
  5
D27E
330
1F
100
AcDbEntity
  8
Front Panel
100
AcDbCircle
 10
545.8056036502579
 20
131.4416158862746
 30
0.0
 40
3.174999999999999
100
AcDbArc
 50
90.0
 51
270.0
  0
ARC
  5
D27F
330
1F
100
AcDbEntity
  8
Front Panel
100
AcDbCircle
 10
548.853603650258
 20
131.4416158862746
 30
0.0
 40
3.174999999999999
100
AcDbArc
 50
270.0
 51
90.0
  0
ARC
  5
D280
330
1F
100
AcDbEntity
  8
Front Panel
100
AcDbCircle
 10
548.8536036502559
 20
131.4416158862704
 30
0.0
 40
3.174999999999999
100
AcDbArc
 50
270.0
 51
90.0
  0
ARC
  5
D281
330
1F
100
AcDbEntity
  8
Front Panel
100
AcDbCircle
 10
545.8056036502557
 20
131.4416158862704
 30
0.0
 40
3.174999999999999
100
AcDbArc
 50
90.0
 51
270.0
  0
LINE
  5
D282
330
1F
100
AcDbEntity
  8
Front Panel
100
AcDbLine
 10
556.2196036502556
 20
169.1416158862745
 30
0.0
 11
556.219603650253
 21
125.4916158862745
 31
0.0
  0
LINE
  5
D283
330
1F
100
AcDbEntity
  8
Front Panel
100
AcDbLine
 10
545.8056036502579
 20
128.2666158862746
 30
0.0
 11
548.853603650258
 21
128.2666158862746
 31
0.0
  0
LINE
  5
D284
330
1F
100
AcDbEntity
  8
Front Panel
100
AcDbLine
 10
545.8056036502557
 20
128.2666158862704
 30
0.0
 11
548.8536036502559
 21
128.2666158862704
 31
0.0
  0
ARC
  5
D285
330
1F
100
AcDbEntity
  8
Front Panel
100
AcDbCircle
 10
545.8056036502579
 20
163.1916158862746
 30
0.0
 40
3.174999999999999
100
AcDbArc
 50
90.0
 51
270.0
  0
ARC
  5
D286
330
1F
100
AcDbEntity
  8
Front Panel
100
AcDbCircle
 10
548.853603650258
 20
163.1916158862746
 30
0.0
 40
3.174999999999999
100
AcDbArc
 50
270.0
 51
90.0
  0
ARC
  5
D287
330
1F
100
AcDbEntity
  8
Front Panel
100
AcDbCircle
 10
548.8536036502559
 20
163.1916158862704
 30
0.0
 40
3.174999999999999
100
AcDbArc
 50
270.0
 51
90.0
  0
ARC
  5
D288
330
1F
100
AcDbEntity
  8
Front Panel
100
AcDbCircle
 10
545.8056036502557
 20
163.1916158862704
 30
0.0
 40
3.174999999999999
100
AcDbArc
 50
90.0
 51
270.0
  0
LINE
  5
D289
330
1F
100
AcDbEntity
  8
Front Panel
100
AcDbLine
 10
545.8056036502579
 20
134.6166158862746
 30
0.0
 11
548.853603650258
 21
134.6166158862746
 31
0.0
  0
LINE
  5
D28A
330
1F
100
AcDbEntity
  8
Front Panel
100
AcDbLine
 10
545.8056036502557
 20
134.6166158862704
 30
0.0
 11
548.8536036502559
 21
134.6166158862704
 31
0.0
  0
LINE
  5
D28B
330
1F
100
AcDbEntity
  8
Front Panel
100
AcDbLine
 10
545.8056036502579
 20
160.0166158862746
 30
0.0
 11
548.853603650258
 21
160.0166158862746
 31
0.0
  0
LINE
  5
D28C
330
1F
100
AcDbEntity
  8
Front Panel
100
AcDbLine
 10
545.8056036502557
 20
160.0166158862704
 30
0.0
 11
548.8536036502559
 21
160.0166158862704
 31
0.0
  0
LINE
  5
D28D
330
1F
100
AcDbEntity
  8
Front Panel
100
AcDbLine
 10
545.8056036502579
 20
166.3666158862746
 30
0.0
 11
548.853603650258
 21
166.3666158862746
 31
0.0
  0
LINE
  5
D28E
330
1F
100
AcDbEntity
  8
Front Panel
100
AcDbLine
 10
545.8056036502557
 20
166.3666158862704
 30
0.0
 11
548.8536036502559
 21
166.3666158862704
 31
0.0
  0
LINE
  5
D28F
330
1F
100
AcDbEntity
  8
Front Panel
100
AcDbLine
 10
73.61960365025281
 20
273.808615886275
 30
0.0
 11
73.61960365025281
 21
270.808615886275
 31
0.0
  0
LINE
  5
D290
330
1F
100
AcDbEntity
  8
Front Panel
100
AcDbLine
 10
556.2196036502534
 20
273.8086158862749
 30
0.0
 11
556.2196036502534
 21
270.8086158862748
 31
0.0
  0
LINE
  5
D295
330
1F
100
AcDbEntity
  8
Front Panel
100
AcDbLine
 10
73.619603650253
 20
169.1416158862743
 30
0.0
 11
556.2196036502556
 21
169.1416158862745
 31
0.0
  0
LINE
  5
D296
330
1F
100
AcDbEntity
  8
Front Panel
100
AcDbLine
 10
73.61960365025642
 20
125.4916158862725
 30
0.0
 11
556.219603650253
 21
125.4916158862745
 31
0.0
  0
ARC
  5
D297
330
1F
100
AcDbEntity
  8
Front Panel
100
AcDbCircle
 10
84.03360365025164
 20
131.4416158862743
 30
0.0
 40
3.174999999999999
100
AcDbArc
 50
270.0000000000009
 51
90.00000000000094
  0
ARC
  5
D298
330
1F
100
AcDbEntity
  8
Front Panel
100
AcDbCircle
 10
80.98560365025154
 20
131.4416158862743
 30
0.0
 40
3.174999999999999
100
AcDbArc
 50
90.00000000000094
 51
270.0000000000009
  0
ARC
  5
D299
330
1F
100
AcDbEntity
  8
Front Panel
100
AcDbCircle
 10
80.98560365025369
 20
131.4416158862701
 30
0.0
 40
3.174999999999999
100
AcDbArc
 50
90.00000000000094
 51
270.0000000000009
  0
ARC
  5
D29A
330
1F
100
AcDbEntity
  8
Front Panel
100
AcDbCircle
 10
84.03360365025381
 20
131.4416158862701
 30
0.0
 40
3.174999999999999
100
AcDbArc
 50
270.0000000000009
 51
90.00000000000094
  0
LINE
  5
D29B
330
1F
100
AcDbEntity
  8
Front Panel
100
AcDbLine
 10
84.03360365025164
 20
128.2666158862743
 30
0.0
 11
80.98560365025154
 21
128.2666158862743
 31
0.0
  0
LINE
  5
D29C
330
1F
100
AcDbEntity
  8
Front Panel
100
AcDbLine
 10
84.03360365025381
 20
128.2666158862702
 30
0.0
 11
80.98560365025369
 21
128.2666158862702
 31
0.0
  0
LINE
  5
D29D
330
1F
100
AcDbEntity
  8
Front Panel
100
AcDbLine
 10
84.03360365025164
 20
134.6166158862743
 30
0.0
 11
80.98560365025154
 21
134.6166158862743
 31
0.0
  0
LINE
  5
D29E
330
1F
100
AcDbEntity
  8
Front Panel
100
AcDbLine
 10
84.03360365025381
 20
134.6166158862702
 30
0.0
 11
80.98560365025369
 21
134.6166158862702
 31
0.0
  0
ARC
  5
D29F
330
1F
100
AcDbEntity
  8
Front Panel
100
AcDbCircle
 10
84.03360365025111
 20
163.1916158862743
 30
0.0
 40
3.174999999999999
100
AcDbArc
 50
270.0000000000009
 51
90.00000000000094
  0
ARC
  5
D2A0
330
1F
100
AcDbEntity
  8
Front Panel
100
AcDbCircle
 10
80.98560365025099
 20
163.1916158862743
 30
0.0
 40
3.174999999999999
100
AcDbArc
 50
90.00000000000094
 51
270.0000000000009
  0
ARC
  5
D2A1
330
1F
100
AcDbEntity
  8
Front Panel
100
AcDbCircle
 10
80.98560365025315
 20
163.1916158862702
 30
0.0
 40
3.174999999999999
100
AcDbArc
 50
90.00000000000094
 51
270.0000000000009
  0
ARC
  5
D2A2
330
1F
100
AcDbEntity
  8
Front Panel
100
AcDbCircle
 10
84.03360365025326
 20
163.1916158862702
 30
0.0
 40
3.174999999999999
100
AcDbArc
 50
270.0000000000009
 51
90.00000000000094
  0
LINE
  5
D2A3
330
1F
100
AcDbEntity
  8
Front Panel
100
AcDbLine
 10
84.03360365025111
 20
160.0166158862743
 30
0.0
 11
80.98560365025099
 21
160.0166158862743
 31
0.0
  0
LINE
  5
D2A4
330
1F
100
AcDbEntity
  8
Front Panel
100
AcDbLine
 10
84.03360365025111
 20
166.3666158862743
 30
0.0
 11
80.98560365025099
 21
166.3666158862743
 31
0.0
  0
LINE
  5
D2A5
330
1F
100
AcDbEntity
  8
Front Panel
100
AcDbLine
 10
84.03360365025326
 20
166.3666158862701
 30
0.0
 11
80.98560365025315
 21
166.3666158862701
 31
0.0
  0
LINE
  5
D2A6
330
1F
100
AcDbEntity
  8
Front Panel
100
AcDbLine
 10
84.03360365025326
 20
160.0166158862702
 30
0.0
 11
80.98560365025315
 21
160.0166158862702
 31
0.0
  0
LINE
  5
D2A7
330
1F
100
AcDbEntity
  8
Front Panel
100
AcDbLine
 10
73.619603650253
 20
169.1416158862743
 30
0.0
 11
73.61960365025642
 21
125.4916158862722
 31
0.0
  0
CIRCLE
  5
D2AC
330
1F
100
AcDbEntity
  8
Front Panel
100
AcDbCircle
 10
148.5496036502547
 20
144.6521138862755
 30
0.0
 40
2.044699999999999
  0
LINE
  5
D38A
330
1F
100
AcDbEntity
  8
Base
100
AcDbLine
 10
90.91960365025284
 20
491.8086218862722
 30
0.0
 11
90.91960365025284
 21
273.808615886275
 31
0.0
  0
LINE
  5
D38E
330
1F
100
AcDbEntity
  8
Front Panel
100
AcDbLine
 10
556.2196036502534
 20
273.8086158862749
 30
0.0
 11
73.61960365025281
 21
273.808615886275
 31
0.0
  0
LINE
  5
D390
330
1F
100
AcDbEntity
  8
Front Panel
100
AcDbLine
 10
556.2196036502534
 20
270.8086158862748
 30
0.0
 11
73.61960365025281
 21
270.808615886275
 31
0.0
  0
LINE
  5
D398
330
1F
100
AcDbEntity
  8
Base
100
AcDbLine
 10
538.9196036502527
 20
491.8086218862722
 30
0.0
 11
538.9196036502527
 21
273.808615886275
 31
0.0
  0
ARC
  5
D3A7
330
1F
100
AcDbEntity
  8
Base
100
AcDbCircle
 10
536.9196076502528
 20
491.8086218862722
 30
0.0
 40
0.999998
100
AcDbArc
 50
0.000000000000007
 51
65.70494098952194
  0
ARC
  5
D3A8
330
1F
100
AcDbEntity
  8
Base
100
AcDbCircle
 10
536.9196076502528
 20
491.8086218862722
 30
0.0
 40
1.999996
100
AcDbArc
 50
0.000000000000007
 51
75.52257657647041
  0
CIRCLE
  5
D3E4
330
1F
100
AcDbEntity
  8
Front Panel
100
AcDbCircle
 10
523.7084046502559
 20
161.2891558862731
 30
0.0
 40
4.2545
  0
CIRCLE
  5
D3E5
330
1F
100
AcDbEntity
  8
Front Panel
100
AcDbCircle
 10
523.7084046502559
 20
133.3440758862731
 30
0.0
 40
4.2545
  0
LINE
  5
D3F2
330
1F
100
AcDbEntity
  8
Base
100
AcDbLine
 10
537.3875991822605
 20
491.8086203542661
 30
0.0
 11
538.9196036502527
 21
491.8086218862722
 31
0.0
  0
ARC
  5
D3F3
330
1F
100
AcDbEntity
  8
Base
100
AcDbCircle
 10
92.91959965025275
 20
491.8086218862722
 30
0.0
 40
0.999998
100
AcDbArc
 50
114.2950590104774
 51
180.0
  0
ARC
  5
D3F4
330
1F
100
AcDbEntity
  8
Base
100
AcDbCircle
 10
92.91959965025275
 20
491.8086218862722
 30
0.0
 40
1.999996
100
AcDbArc
 50
104.4774234235327
 51
180.0
  0
LINE
  5
D3F5
330
1F
100
AcDbEntity
  8
Base
100
AcDbLine
 10
92.45160611824806
 20
491.8086203542682
 30
0.0
 11
90.91960365025284
 21
491.8086218862722
 31
0.0
  0
CIRCLE
  5
D3FC
330
1F
100
AcDbEntity
  8
Front Panel
100
AcDbCircle
 10
106.1308026502497
 20
161.2891558862731
 30
0.0
 40
4.2545
  0
CIRCLE
  5
D3FD
330
1F
100
AcDbEntity
  8
Front Panel
100
AcDbCircle
 10
106.1308026502497
 20
133.3440758862731
 30
0.0
 40
4.2545
  0
LWPOLYLINE
  5
DF38
330
1F
100
AcDbEntity
  8
Front Panel
100
AcDbPolyline
 90
       18
 70
     1
 43
0.0
 10
619.0567095893531
 20
273.8086158862747
 10
583.0967055893536
 20
273.8086158862747
 10
582.7564101149663
 20
272.5386158862747
 10
582.1670010637412
 20
272.5386158862747
 10
581.8267055893535
 20
273.8086158862747
 10
581.8267055893535
 20
280.3086158862746
 10
580.3267055893535
 20
280.3086158862748
 10
580.3267055893534
 20
273.8086158862748
 10
579.2517075893535
 20
273.8086158862748
 10
579.2517075893535
 20
270.8086158862748
 10
622.9017075893534
 20
270.8086158862724
 10
622.9017075893535
 20
273.8086158862723
 10
621.8267095893533
 20
273.8086158862724
 10
621.8267095893533
 20
280.3086158862748
 10
620.3267095893534
 20
280.3086158862746
 10
620.3267095893535
 20
273.8086158862747
 10
619.9864141149658
 20
272.5386158862747
 10
619.3970050637407
 20
272.5386158862747
  0
LWPOLYLINE
  5
E91B
330
1F
100
AcDbEntity
  8
MOTOR
100
AcDbPolyline
 90
        8
 70
     1
 43
0.0
 10
526.6903415014442
 20
647.267654865219
 10
526.6903415014442
 20
680.9197655675941
 42
0.4142135623730951
 10
523.5156590014441
 20
684.094448067594
 10
489.8635482990693
 20
684.094448067594
 42
0.414213562373096
 10
486.6888657990691
 20
680.9197655675941
 10
486.6888657990694
 20
647.267654865219
 42
0.4142135623730951
 10
489.8635482990693
 20
644.0929723652191
 10
523.5156590014441
 20
644.092972365219
 42
0.4142135623730951
  0
CIRCLE
  5
E91C
330
1F
100
AcDbEntity
  8
MOTOR
100
AcDbCircle
 10
506.6896036502567
 20
664.0937102164065
 30
0.0
 40
19.47138599999999
  0
CIRCLE
  5
E91D
330
1F
100
AcDbEntity
  8
MOTOR
100
AcDbCircle
 10
506.6896036502567
 20
664.0937102164065
 30
0.0
 40
10.96546107948468
  0
LINE
  5
E921
330
1F
100
AcDbEntity
  8
MOTOR
100
AcDbLine
 10
508.9228986174435
 20
653.358081204782
 30
0.0
 11
510.4838334214963
 21
644.995576977683
 31
0.0
  0
LINE
  5
E936
330
1F
100
AcDbEntity
  8
MOTOR
100
AcDbLine
 10
517.1035785835219
 20
660.6599858863219
 30
0.0
 11
525.1261870854709
 21
657.8305429667333
 31
0.0
  0
LINE
  5
E937
330
1F
100
AcDbEntity
  8
MOTOR
100
AcDbLine
 10
514.8702836163352
 20
671.3956148979465
 30
0.0
 11
521.3319573142314
 21
676.9286762054569
 31
0.0
  0
LINE
  5
E938
330
1F
100
AcDbEntity
  8
MOTOR
100
AcDbLine
 10
504.4563086830698
 20
674.8293392280308
 30
0.0
 11
502.895373879017
 21
683.1918434551298
 31
0.0
  0
LINE
  5
E939
330
1F
100
AcDbEntity
  8
MOTOR
100
AcDbLine
 10
496.2756287169912
 20
667.5274345464909
 30
0.0
 11
488.2530202150424
 21
670.3568774660793
 31
0.0
  0
LINE
  5
E93A
330
1F
100
AcDbEntity
  8
MOTOR
100
AcDbLine
 10
498.5089236841782
 20
656.7918055348664
 30
0.0
 11
492.0472499862821
 21
651.258744227356
 31
0.0
  0
INSERT
  5
E961
330
1F
100
AcDbEntity
  8
FASTENER
100
AcDbBlockReference
  2
m2.5flatt
 10
531.889603650261
 20
651.5937102164051
 30
0.0
 41
0.999998
 42
0.999998
 43
0.999998
 50
180.0
  0
INSERT
  5
E962
330
1F
100
AcDbEntity
  8
FASTENER
100
AcDbBlockReference
  2
m2.5flatt
 10
531.889603650261
 20
676.5937102164066
 30
0.0
 41
-0.999998
 42
0.999998
 43
0.999998
  0
INSERT
  5
E963
330
1F
100
AcDbEntity
  8
FASTENER
100
AcDbBlockReference
  2
m2.5flatt
 10
97.88960365026111
 20
651.5937102164051
 30
0.0
 41
-0.999998
 42
0.999998
 43
0.999998
 50
180.0
  0
INSERT
  5
E964
330
1F
100
AcDbEntity
  8
FASTENER
100
AcDbBlockReference
  2
m2.5flatt
 10
97.88960365026111
 20
676.5937102164066
 30
0.0
 41
0.999998
 42
0.999998
 43
0.999998
  0
LINE
  5
EA32
330
1F
100
AcDbEntity
  8
Rear Panel
100
AcDbLine
 10
537.4196036502528
 20
494.8086158862733
 30
0.0
 11
537.4196036502528
 21
492.8086198862711
 31
0.0
  0
LINE
  5
EA33
330
1F
100
AcDbEntity
  8
Rear Panel
100
AcDbLine
 10
92.41960365025242
 20
494.8086158862733
 30
0.0
 11
537.4196036502529
 21
494.8086158862733
 31
0.0
  0
LINE
  5
EA35
330
1F
100
AcDbEntity
  8
Rear Panel
100
AcDbLine
 10
92.41960365025242
 20
494.8086158862733
 30
0.0
 11
92.41960365025288
 21
492.8086198862711
 31
0.0
  0
LINE
  5
EA36
330
1F
100
AcDbEntity
  8
Rear Panel
100
AcDbLine
 10
92.41960365025288
 20
492.8086198862711
 30
0.0
 11
92.93560465025198
 21
492.292618886272
 31
0.0
  0
LINE
  5
EA37
330
1F
100
AcDbEntity
  8
Rear Panel
100
AcDbLine
 10
537.4196036502525
 20
492.8086198862709
 30
0.0
 11
536.903601650254
 21
492.2926178862724
 31
0.0
  0
LINE
  5
EB4A
330
1F
100
AcDbEntity
  8
CONNECTOR
100
AcDbLine
 10
163.9483536502553
 20
497.5851257968147
 30
0.0
 11
163.9483536502553
 21
500.5086418862493
 31
0.0
  0
LINE
  5
EB4B
330
1F
100
AcDbEntity
  8
CONNECTOR
100
AcDbLine
 10
163.4403536502553
 20
501.0166418862493
 30
0.0
 11
163.9483536502553
 21
500.5086418862493
 31
0.0
  0
LINE
  5
EB4C
330
1F
100
AcDbEntity
  8
CONNECTOR
100
AcDbLine
 10
163.4403536502553
 20
501.0166418862493
 30
0.0
 11
156.5188536502553
 21
501.0166418862493
 31
0.0
  0
LINE
  5
EB53
330
1F
100
AcDbEntity
  8
CONNECTOR
100
AcDbLine
 10
156.0108536502553
 20
497.5851257968147
 30
0.0
 11
156.0108536502553
 21
500.5086418862493
 31
0.0
  0
LINE
  5
EB54
330
1F
100
AcDbEntity
  8
CONNECTOR
100
AcDbLine
 10
156.5188536502553
 20
501.0166418862493
 30
0.0
 11
156.0108536502553
 21
500.5086418862493
 31
0.0
  0
LINE
  5
EB67
330
1F
100
AcDbEntity
  8
CONNECTOR
100
AcDbLine
 10
156.5188536502553
 20
501.0166418862493
 30
0.0
 11
156.5188536502553
 21
497.5851257968147
 31
0.0
  0
LINE
  5
EB68
330
1F
100
AcDbEntity
  8
CONNECTOR
100
AcDbLine
 10
163.4403536502553
 20
501.0166418862493
 30
0.0
 11
163.4403536502553
 21
497.5851257968147
 31
0.0
  0
LINE
  5
EB69
330
1F
100
AcDbEntity
  8
CONNECTOR
100
AcDbLine
 10
163.9483536502553
 20
500.5086418862493
 30
0.0
 11
156.0108536502553
 21
500.5086418862493
 31
0.0
  0
LINE
  5
ED03
330
1F
100
AcDbEntity
  8
Top Panel
100
AcDbLine
 10
92.41960365025288
 20
491.7766178862729
 30
0.0
 11
92.41960365025287
 21
273.808615886275
 31
0.0
  0
LINE
  5
ED04
330
1F
100
AcDbEntity
  8
Top Panel
100
AcDbLine
 10
94.45160365025284
 20
493.8086178862729
 30
0.0
 11
92.41960365025288
 21
491.7766178862729
 31
0.0
  0
LINE
  5
ED05
330
1F
100
AcDbEntity
  8
Top Panel
100
AcDbLine
 10
537.4196016502533
 20
491.7766178862732
 30
0.0
 11
537.4196016502533
 21
273.8086158862749
 31
0.0
  0
LINE
  5
ED07
330
1F
100
AcDbEntity
  8
Top Panel
100
AcDbLine
 10
534.740993650253
 20
323.6086178862748
 30
0.0
 11
528.4925936502528
 21
323.6086178862749
 31
0.0
  0
LINE
  5
ED08
330
1F
100
AcDbEntity
  8
Top Panel
100
AcDbLine
 10
535.4267936502528
 20
332.7526178862748
 30
0.0
 11
527.8067936502529
 21
332.7526178862749
 31
0.0
  0
LINE
  5
ED09
330
1F
100
AcDbEntity
  8
Top Panel
100
AcDbLine
 10
535.3876016502534
 20
493.8086178862731
 30
0.0
 11
94.45160365025284
 21
493.8086178862729
 31
0.0
  0
LINE
  5
ED0A
330
1F
100
AcDbEntity
  8
Top Panel
100
AcDbLine
 10
537.4196016502533
 20
491.7766178862732
 30
0.0
 11
535.3876016502534
 21
493.8086178862731
 31
0.0
  0
LINE
  5
ED1D
330
1F
100
AcDbEntity
  8
Top Panel
100
AcDbLine
 10
534.740993650253
 20
323.6086178862748
 30
0.0
 11
535.4267936502528
 21
332.7526178862748
 31
0.0
  0
LINE
  5
ED1E
330
1F
100
AcDbEntity
  8
Top Panel
100
AcDbLine
 10
528.4925936502528
 20
323.6086178862749
 30
0.0
 11
527.8067936502529
 21
332.7526178862749
 31
0.0
  0
LINE
  5
ED1F
330
1F
100
AcDbEntity
  8
Top Panel
100
AcDbLine
 10
534.740993650253
 20
443.6086178862748
 30
0.0
 11
528.4925936502528
 21
443.6086178862749
 31
0.0
  0
LINE
  5
ED20
330
1F
100
AcDbEntity
  8
Top Panel
100
AcDbLine
 10
535.4267936502528
 20
452.7526178862747
 30
0.0
 11
527.8067936502529
 21
452.7526178862749
 31
0.0
  0
LINE
  5
ED21
330
1F
100
AcDbEntity
  8
Top Panel
100
AcDbLine
 10
534.740993650253
 20
443.6086178862748
 30
0.0
 11
535.4267936502528
 21
452.7526178862747
 31
0.0
  0
LINE
  5
ED22
330
1F
100
AcDbEntity
  8
Top Panel
100
AcDbLine
 10
528.4925936502528
 20
443.6086178862749
 30
0.0
 11
527.8067936502529
 21
452.7526178862749
 31
0.0
  0
LINE
  5
ED23
330
1F
100
AcDbEntity
  8
Top Panel
100
AcDbLine
 10
95.09821165025332
 20
323.6086178862748
 30
0.0
 11
101.3466116502534
 21
323.6086178862749
 31
0.0
  0
LINE
  5
ED24
330
1F
100
AcDbEntity
  8
Top Panel
100
AcDbLine
 10
94.41241165025356
 20
332.7526178862748
 30
0.0
 11
102.0324116502534
 21
332.7526178862749
 31
0.0
  0
LINE
  5
ED25
330
1F
100
AcDbEntity
  8
Top Panel
100
AcDbLine
 10
95.09821165025332
 20
323.6086178862748
 30
0.0
 11
94.41241165025356
 21
332.7526178862748
 31
0.0
  0
LINE
  5
ED26
330
1F
100
AcDbEntity
  8
Top Panel
100
AcDbLine
 10
101.3466116502534
 20
323.6086178862749
 30
0.0
 11
102.0324116502534
 21
332.7526178862749
 31
0.0
  0
LINE
  5
ED27
330
1F
100
AcDbEntity
  8
Top Panel
100
AcDbLine
 10
95.09821165025332
 20
443.6086178862748
 30
0.0
 11
101.3466116502534
 21
443.6086178862749
 31
0.0
  0
LINE
  5
ED28
330
1F
100
AcDbEntity
  8
Top Panel
100
AcDbLine
 10
94.41241165025356
 20
452.7526178862747
 30
0.0
 11
102.0324116502534
 21
452.7526178862749
 31
0.0
  0
LINE
  5
ED29
330
1F
100
AcDbEntity
  8
Top Panel
100
AcDbLine
 10
95.09821165025332
 20
443.6086178862748
 30
0.0
 11
94.41241165025356
 21
452.7526178862747
 31
0.0
  0
LINE
  5
ED2A
330
1F
100
AcDbEntity
  8
Top Panel
100
AcDbLine
 10
101.3466116502534
 20
443.6086178862749
 30
0.0
 11
102.0324116502534
 21
452.7526178862749
 31
0.0
  0
INSERT
  5
ED41
330
1F
100
AcDbEntity
  8
FASTENER
100
AcDbBlockReference
  2
m2.5flatt
 10
134.9196036502528
 20
489.108615886273
 30
0.0
 41
0.999998
 42
0.999998
 43
0.999998
  0
INSERT
  5
ED42
330
1F
100
AcDbEntity
  8
FASTENER
100
AcDbBlockReference
  2
m2.5flatt
 10
254.9196036502527
 20
489.108615886273
 30
0.0
 41
0.999998
 42
0.999998
 43
0.999998
  0
INSERT
  5
ED44
330
1F
100
AcDbEntity
  8
FASTENER
100
AcDbBlockReference
  2
m2.5flatt
 10
494.9196036502526
 20
489.1086158862731
 30
0.0
 41
0.999998
 42
0.999998
 43
0.999998
  0
LINE
  5
EDEE
330
1F
100
AcDbEntity
  8
Top Panel
100
AcDbLine
 10
579.7775655397169
 20
493.8086198862726
 30
0.0
 11
580.7775635397172
 21
493.8086198862726
 31
0.0
  0
LINE
  5
EDEF
330
1F
100
AcDbEntity
  8
Top Panel
100
AcDbLine
 10
582.1525635397169
 20
272.808619886274
 30
0.0
 11
582.1525635397168
 21
280.5233758862747
 31
0.0
  0
LINE
  5
EDF0
330
1F
100
AcDbEntity
  8
Top Panel
100
AcDbLine
 10
579.7775655397169
 20
285.523375886275
 30
0.0
 11
579.7775655397169
 21
493.8086198862726
 31
0.0
  0
LINE
  5
EDF1
330
1F
100
AcDbEntity
  8
Top Panel
100
AcDbLine
 10
583.1525615397168
 20
273.8086158862747
 30
0.0
 11
583.1525615397169
 21
280.9375886202202
 31
0.0
  0
LINE
  5
EDF2
330
1F
100
AcDbEntity
  8
Top Panel
100
AcDbLine
 10
580.7775635397172
 20
285.9375886202203
 30
0.0
 11
580.7775635397172
 21
493.8086198862722
 31
0.0
  0
LINE
  5
EDF5
330
1F
100
AcDbEntity
  8
Top Panel
100
AcDbLine
 10
582.8287574687192
 20
272.808619886274
 30
0.0
 11
582.1525635397169
 21
272.808619886274
 31
0.0
  0
LINE
  5
EDF6
330
1F
100
AcDbEntity
  8
Top Panel
100
AcDbLine
 10
579.777565539717
 20
285.5233758862749
 30
0.0
 11
582.1525635397169
 21
280.5233758862747
 31
0.0
  0
LINE
  5
EDF7
330
1F
100
AcDbEntity
  8
Top Panel
100
AcDbLine
 10
580.7775635397172
 20
285.9375886202205
 30
0.0
 11
583.1525615397171
 21
280.9375886202203
 31
0.0
  0
LINE
  5
EE49
330
1F
100
AcDbEntity
  8
Base
100
AcDbLine
 10
622.3767075893534
 20
285.5233758862745
 30
0.0
 11
622.3767075893536
 21
491.793381886272
 31
0.0
  0
LINE
  5
EE4A
330
1F
100
AcDbEntity
  8
Base
100
AcDbLine
 10
618.8207075893537
 20
273.7933738862748
 30
0.0
 11
618.8207075893537
 21
286.7633758862748
 31
0.0
  0
LINE
  5
EE4C
330
1F
100
AcDbEntity
  8
Base
100
AcDbLine
 10
621.3767095893534
 20
491.793381886272
 30
0.0
 11
621.3767095893534
 21
493.793377886272
 31
0.0
  0
LINE
  5
EE4D
330
1F
100
AcDbEntity
  8
Base
100
AcDbLine
 10
580.7767055893536
 20
293.7933338862748
 30
0.0
 11
580.7767055893536
 21
491.793381886272
 31
0.0
  0
LINE
  5
EE4E
330
1F
100
AcDbEntity
  8
Base
100
AcDbLine
 10
582.3769055893535
 20
282.5563738862748
 30
0.0
 11
582.3769055893535
 21
293.7933338862748
 31
0.0
  0
LINE
  5
EE4F
330
1F
100
AcDbEntity
  8
Base
100
AcDbLine
 10
583.3929055893532
 20
273.7933738862748
 30
0.0
 11
583.3929055893531
 21
282.5563738862748
 31
0.0
  0
LINE
  5
EE50
330
1F
100
AcDbEntity
  8
Base
100
AcDbLine
 10
620.3267095893534
 20
273.8086158862744
 30
0.0
 11
620.3267095893535
 21
280.5233758862748
 31
0.0
  0
LINE
  5
EE51
330
1F
100
AcDbEntity
  8
Base
100
AcDbLine
 10
619.3267115893534
 20
272.7933758862747
 30
0.0
 11
619.3267115893534
 21
280.9375886202206
 31
0.0
  0
LINE
  5
EE52
330
1F
100
AcDbEntity
  8
Base
100
AcDbLine
 10
619.3267115893534
 20
272.7933758862747
 30
0.0
 11
620.0546768512297
 21
272.7933758862747
 31
0.0
  0
LINE
  5
EE53
330
1F
100
AcDbEntity
  8
Base
100
AcDbLine
 10
622.3767075893538
 20
285.5233758862749
 30
0.0
 11
620.3267095893534
 21
280.5233758862747
 31
0.0
  0
LINE
  5
EE54
330
1F
100
AcDbEntity
  8
Base
100
AcDbLine
 10
621.194582546121
 20
285.4933758862747
 30
0.0
 11
619.3267115893533
 21
280.9375886202203
 31
0.0
  0
LINE
  5
EE55
330
1F
100
AcDbEntity
  8
Base
100
AcDbLine
 10
580.7767055893536
 20
293.7933338862748
 30
0.0
 11
582.3769055893535
 21
293.7933338862748
 31
0.0
  0
LINE
  5
EE56
330
1F
100
AcDbEntity
  8
Base
100
AcDbLine
 10
622.3644076013536
 20
286.7633758862747
 30
0.0
 11
618.8207075893537
 21
286.7633758862748
 31
0.0
  0
LINE
  5
EE58
330
1F
100
AcDbEntity
  8
Base
100
AcDbLine
 10
582.3769055893535
 20
282.5563738862748
 30
0.0
 11
583.3929055893531
 21
282.5563738862748
 31
0.0
  0
LINE
  5
EE5C
330
1F
100
AcDbEntity
  8
Base
100
AcDbLine
 10
580.7775635397173
 20
493.7933778862721
 30
0.0
 11
621.3767095893534
 21
493.793377886272
 31
0.0
  0
LINE
  5
EE5E
330
1F
100
AcDbEntity
  8
Base
100
AcDbLine
 10
621.3767095893533
 20
491.793381886272
 30
0.0
 11
622.3767075893536
 21
491.793381886272
 31
0.0
  0
LINE
  5
EE75
330
1F
100
AcDbEntity
  8
Base
100
AcDbLine
 10
648.9533670241487
 20
162.0286356874748
 30
0.0
 11
648.9533670241487
 21
162.0786355874748
 31
0.0
  0
ARC
  5
F1EE
330
1F
100
AcDbEntity
  8
FASTENER
100
AcDbCircle
 10
164.159730407224
 20
495.6163915957537
 30
0.0
 40
1.968734201058435
100
AcDbArc
 50
48.05625452200557
 51
131.9437454779944
  0
LINE
  5
F1EF
330
1F
100
AcDbEntity
  8
FASTENER
100
AcDbLine
 10
162.8438271982265
 20
497.0807389244169
 30
0.0
 11
162.8438271982265
 21
495.8932988376052
 31
0.0
  0
LINE
  5
F1F0
330
1F
100
AcDbEntity
  8
FASTENER
100
AcDbLine
 10
154.4698976864196
 20
497.0807389244169
 30
0.0
 11
154.4698976864194
 21
495.8932988376142
 31
0.0
  0
LINE
  5
F1F1
330
1F
100
AcDbEntity
  8
FASTENER
100
AcDbLine
 10
165.475633616223
 20
497.0807389244169
 30
0.0
 11
165.4756336162232
 21
495.8932988376052
 31
0.0
  0
ARC
  5
F1F2
330
1F
100
AcDbEntity
  8
FASTENER
100
AcDbCircle
 10
164.159730407224
 20
497.3576461662659
 30
0.0
 40
1.968734201058435
100
AcDbArc
 50
228.0562545220056
 51
311.9437454779944
  0
LINE
  5
F1F3
330
1F
100
AcDbEntity
  8
FASTENER
100
AcDbLine
 10
164.159730407224
 20
495.3889119652075
 30
0.0
 11
155.7994768932865
 21
495.3889119652076
 31
0.0
  0
LINE
  5
F1F4
330
1F
100
AcDbEntity
  8
FASTENER
100
AcDbLine
 10
157.1153801022839
 20
497.0807389244169
 30
0.0
 11
157.1153801022839
 21
495.8932988376052
 31
0.0
  0
ARC
  5
F1F5
330
1F
100
AcDbEntity
  8
FASTENER
100
AcDbCircle
 10
155.7994768932865
 20
497.3576461662659
 30
0.0
 40
1.968734201058435
100
AcDbArc
 50
228.0562545220056
 51
311.9437454779944
  0
ARC
  5
F1F6
330
1F
100
AcDbEntity
  8
FASTENER
100
AcDbCircle
 10
159.9796036502579
 20
503.7751712237738
 30
0.0
 40
8.386160554426393
100
AcDbArc
 50
250.0291692589788
 51
289.9708307409722
  0
LINE
  5
F1F7
330
1F
100
AcDbEntity
  8
FASTENER
100
AcDbLine
 10
164.159730407224
 20
497.5851257968146
 30
0.0
 11
155.7994768932865
 21
497.5851257968146
 31
0.0
  0
ARC
  5
F1F8
330
1F
100
AcDbEntity
  8
FASTENER
100
AcDbCircle
 10
155.7994768932865
 20
495.6163915957537
 30
0.0
 40
1.968734201058435
100
AcDbArc
 50
48.05625452200557
 51
131.9437454779944
  0
ARC
  5
F1F9
330
1F
100
AcDbEntity
  8
FASTENER
100
AcDbCircle
 10
159.9796036502579
 20
489.1988665382482
 30
0.0
 40
8.386160554426393
100
AcDbArc
 50
70.02916925902777
 51
109.9708307410212
  0
LINE
  5
F1FA
330
1F
100
AcDbEntity
  8
FASTENER
 48
25.4
100
AcDbLine
 10
166.1085913921161
 20
495.3889119652076
 30
0.0
 11
166.1085913921161
 21
494.8086158862732
 31
0.0
  0
LINE
  5
F1FB
330
1F
100
AcDbEntity
  8
FASTENER
 48
25.4
100
AcDbLine
 10
153.8506159081162
 20
495.3889119652076
 30
0.0
 11
166.1085913921161
 21
495.3889119652076
 31
0.0
  0
LINE
  5
F1FC
330
1F
100
AcDbEntity
  8
FASTENER
 48
25.4
100
AcDbLine
 10
153.8506159081162
 20
494.8086158862732
 30
0.0
 11
153.8506159081162
 21
495.3889119652076
 31
0.0
  0
LINE
  5
F1FD
330
1F
100
AcDbEntity
  8
FASTENER
 48
25.4
100
AcDbLine
 10
166.1085913921161
 20
494.8086158862732
 30
0.0
 11
153.8506159081162
 21
494.8086158862732
 31
0.0
  0
LINE
  5
F246
330
1F
100
AcDbEntity
  8
MOTOR
100
AcDbLine
 10
581.0759697381666
 20
494.8086158862725
 30
0.0
 11
621.0774454405414
 21
494.8086158862725
 31
0.0
  0
LINE
  5
F247
330
1F
100
AcDbEntity
  8
MOTOR
100
AcDbLine
 10
581.0759697381664
 20
509.7946158862724
 30
0.0
 11
621.0774454405414
 21
509.7946158862727
 31
0.0
  0
LINE
  5
F249
330
1F
100
AcDbEntity
  8
MOTOR
100
AcDbLine
 10
581.0759697381664
 20
509.7946158862724
 30
0.0
 11
581.0759697381666
 21
494.8086158862725
 31
0.0
  0
LINE
  5
F24A
330
1F
100
AcDbEntity
  8
MOTOR
100
AcDbLine
 10
621.0774454405414
 20
494.8086158862725
 30
0.0
 11
621.0774454405414
 21
509.7946158862725
 31
0.0
  0
INSERT
  5
F271
330
1F
100
AcDbEntity
  8
FASTENER
100
AcDbBlockReference
  2
m4pant
 10
106.1308026502497
 20
161.2891558862731
 30
0.0
 41
0.999998
 42
0.999998
 43
0.999998
  0
INSERT
  5
F272
330
1F
100
AcDbEntity
  8
FASTENER
100
AcDbBlockReference
  2
m4pant
 10
106.1308026502497
 20
133.3440758862731
 30
0.0
 41
0.999998
 42
0.999998
 43
0.999998
  0
INSERT
  5
F273
330
1F
100
AcDbEntity
  8
FASTENER
100
AcDbBlockReference
  2
m4pant
 10
523.7084046502559
 20
133.3440758862731
 30
0.0
 41
0.999998
 42
0.999998
 43
0.999998
  0
INSERT
  5
F274
330
1F
100
AcDbEntity
  8
FASTENER
100
AcDbBlockReference
  2
m4pant
 10
523.7084046502559
 20
161.2891558862731
 30
0.0
 41
0.999998
 42
0.999998
 43
0.999998
  0
LINE
  5
F275
330
1F
100
AcDbEntity
  8
Base
100
AcDbLine
 10
621.194582546121
 20
285.4933758862747
 30
0.0
 11
621.194582546121
 21
286.7633758862747
 31
0.0
  0
ARC
  5
F30F
330
1F
100
AcDbEntity
  8
Front Panel
100
AcDbCircle
 10
84.0336036502515
 20
648.2191391915886
 30
0.0
 40
3.174999999999999
100
AcDbArc
 50
270.0
 51
89.99999999999998
  0
ARC
  5
F310
330
1F
100
AcDbEntity
  8
Front Panel
100
AcDbCircle
 10
80.98560365025139
 20
648.2191391915886
 30
0.0
 40
3.174999999999999
100
AcDbArc
 50
89.99999999999998
 51
270.0
  0
ARC
  5
F311
330
1F
100
AcDbEntity
  8
Front Panel
100
AcDbCircle
 10
80.98560365025354
 20
648.2191391915843
 30
0.0
 40
3.174999999999999
100
AcDbArc
 50
89.99999999999998
 51
270.0
  0
ARC
  5
F312
330
1F
100
AcDbEntity
  8
Front Panel
100
AcDbCircle
 10
84.03360365025367
 20
648.2191391915843
 30
0.0
 40
3.174999999999999
100
AcDbArc
 50
270.0
 51
89.99999999999998
  0
LINE
  5
F313
330
1F
100
AcDbEntity
  8
Front Panel
100
AcDbLine
 10
73.61960365025379
 20
685.9191391915883
 30
0.0
 11
73.61960365025641
 21
642.2691391915885
 31
0.0
  0
LINE
  5
F314
330
1F
100
AcDbEntity
  8
Front Panel
100
AcDbLine
 10
84.0336036502515
 20
645.0441391915886
 30
0.0
 11
80.98560365025139
 21
645.0441391915886
 31
0.0
  0
LINE
  5
F315
330
1F
100
AcDbEntity
  8
Front Panel
100
AcDbLine
 10
84.03360365025367
 20
645.0441391915842
 30
0.0
 11
80.98560365025354
 21
645.0441391915842
 31
0.0
  0
ARC
  5
F316
330
1F
100
AcDbEntity
  8
Front Panel
100
AcDbCircle
 10
84.0336036502515
 20
679.9691391915886
 30
0.0
 40
3.174999999999999
100
AcDbArc
 50
270.0
 51
89.99999999999998
  0
ARC
  5
F317
330
1F
100
AcDbEntity
  8
Front Panel
100
AcDbCircle
 10
80.98560365025139
 20
679.9691391915886
 30
0.0
 40
3.174999999999999
100
AcDbArc
 50
89.99999999999998
 51
270.0
  0
ARC
  5
F318
330
1F
100
AcDbEntity
  8
Front Panel
100
AcDbCircle
 10
80.98560365025354
 20
679.9691391915843
 30
0.0
 40
3.174999999999999
100
AcDbArc
 50
89.99999999999998
 51
270.0
  0
ARC
  5
F319
330
1F
100
AcDbEntity
  8
Front Panel
100
AcDbCircle
 10
84.03360365025367
 20
679.9691391915843
 30
0.0
 40
3.174999999999999
100
AcDbArc
 50
270.0
 51
89.99999999999998
  0
LINE
  5
F31A
330
1F
100
AcDbEntity
  8
Front Panel
100
AcDbLine
 10
84.0336036502515
 20
651.3941391915885
 30
0.0
 11
80.98560365025139
 21
651.3941391915885
 31
0.0
  0
LINE
  5
F31B
330
1F
100
AcDbEntity
  8
Front Panel
100
AcDbLine
 10
84.03360365025367
 20
651.3941391915842
 30
0.0
 11
80.98560365025354
 21
651.3941391915842
 31
0.0
  0
LINE
  5
F31C
330
1F
100
AcDbEntity
  8
Front Panel
100
AcDbLine
 10
84.0336036502515
 20
676.7941391915885
 30
0.0
 11
80.98560365025139
 21
676.7941391915885
 31
0.0
  0
LINE
  5
F31D
330
1F
100
AcDbEntity
  8
Front Panel
100
AcDbLine
 10
84.03360365025367
 20
676.7941391915842
 30
0.0
 11
80.98560365025354
 21
676.7941391915842
 31
0.0
  0
LINE
  5
F31E
330
1F
100
AcDbEntity
  8
Front Panel
100
AcDbLine
 10
84.0336036502515
 20
683.1441391915886
 30
0.0
 11
80.98560365025139
 21
683.1441391915886
 31
0.0
  0
LINE
  5
F31F
330
1F
100
AcDbEntity
  8
Front Panel
100
AcDbLine
 10
84.03360365025367
 20
683.1441391915842
 30
0.0
 11
80.98560365025354
 21
683.1441391915842
 31
0.0
  0
LINE
  5
F320
330
1F
100
AcDbEntity
  8
Front Panel
100
AcDbLine
 10
556.2196036502564
 20
685.9191391915883
 30
0.0
 11
73.61960365025379
 21
685.9191391915883
 31
0.0
  0
LINE
  5
F321
330
1F
100
AcDbEntity
  8
Front Panel
100
AcDbLine
 10
556.219603650253
 20
642.2691391915862
 30
0.0
 11
73.61960365025641
 21
642.2691391915885
 31
0.0
  0
ARC
  5
F322
330
1F
100
AcDbEntity
  8
Front Panel
100
AcDbCircle
 10
545.8056036502577
 20
648.2191391915882
 30
0.0
 40
3.174999999999999
100
AcDbArc
 50
89.99999999999909
 51
269.9999999999991
  0
ARC
  5
F323
330
1F
100
AcDbEntity
  8
Front Panel
100
AcDbCircle
 10
548.8536036502579
 20
648.2191391915882
 30
0.0
 40
3.174999999999999
100
AcDbArc
 50
269.9999999999991
 51
89.99999999999909
  0
ARC
  5
F324
330
1F
100
AcDbEntity
  8
Front Panel
100
AcDbCircle
 10
548.8536036502558
 20
648.219139191584
 30
0.0
 40
3.174999999999999
100
AcDbArc
 50
269.9999999999991
 51
89.99999999999909
  0
ARC
  5
F325
330
1F
100
AcDbEntity
  8
Front Panel
100
AcDbCircle
 10
545.8056036502556
 20
648.219139191584
 30
0.0
 40
3.174999999999999
100
AcDbArc
 50
89.99999999999909
 51
269.9999999999991
  0
LINE
  5
F326
330
1F
100
AcDbEntity
  8
Front Panel
100
AcDbLine
 10
545.8056036502577
 20
645.0441391915882
 30
0.0
 11
548.8536036502579
 21
645.0441391915882
 31
0.0
  0
LINE
  5
F327
330
1F
100
AcDbEntity
  8
Front Panel
100
AcDbLine
 10
545.8056036502556
 20
645.0441391915841
 30
0.0
 11
548.8536036502558
 21
645.0441391915841
 31
0.0
  0
LINE
  5
F328
330
1F
100
AcDbEntity
  8
Front Panel
100
AcDbLine
 10
545.8056036502577
 20
651.3941391915882
 30
0.0
 11
548.8536036502579
 21
651.3941391915882
 31
0.0
  0
LINE
  5
F329
330
1F
100
AcDbEntity
  8
Front Panel
100
AcDbLine
 10
545.8056036502556
 20
651.394139191584
 30
0.0
 11
548.8536036502558
 21
651.394139191584
 31
0.0
  0
ARC
  5
F32A
330
1F
100
AcDbEntity
  8
Front Panel
100
AcDbCircle
 10
545.8056036502582
 20
679.9691391915882
 30
0.0
 40
3.174999999999999
100
AcDbArc
 50
89.99999999999909
 51
269.9999999999991
  0
ARC
  5
F32B
330
1F
100
AcDbEntity
  8
Front Panel
100
AcDbCircle
 10
548.8536036502584
 20
679.9691391915882
 30
0.0
 40
3.174999999999999
100
AcDbArc
 50
269.9999999999991
 51
89.99999999999909
  0
ARC
  5
F32C
330
1F
100
AcDbEntity
  8
Front Panel
100
AcDbCircle
 10
548.8536036502562
 20
679.9691391915841
 30
0.0
 40
3.174999999999999
100
AcDbArc
 50
269.9999999999991
 51
89.99999999999909
  0
ARC
  5
F32D
330
1F
100
AcDbEntity
  8
Front Panel
100
AcDbCircle
 10
545.8056036502561
 20
679.9691391915841
 30
0.0
 40
3.174999999999999
100
AcDbArc
 50
89.99999999999909
 51
269.9999999999991
  0
LINE
  5
F32E
330
1F
100
AcDbEntity
  8
Front Panel
100
AcDbLine
 10
545.8056036502582
 20
676.7941391915882
 30
0.0
 11
548.8536036502584
 21
676.7941391915882
 31
0.0
  0
LINE
  5
F32F
330
1F
100
AcDbEntity
  8
Front Panel
100
AcDbLine
 10
545.8056036502582
 20
683.1441391915882
 30
0.0
 11
548.8536036502584
 21
683.1441391915882
 31
0.0
  0
LINE
  5
F330
330
1F
100
AcDbEntity
  8
Front Panel
100
AcDbLine
 10
545.8056036502561
 20
683.144139191584
 30
0.0
 11
548.8536036502562
 21
683.144139191584
 31
0.0
  0
LINE
  5
F331
330
1F
100
AcDbEntity
  8
Front Panel
100
AcDbLine
 10
545.8056036502561
 20
676.7941391915841
 30
0.0
 11
548.8536036502562
 21
676.7941391915841
 31
0.0
  0
LINE
  5
F332
330
1F
100
AcDbEntity
  8
Front Panel
100
AcDbLine
 10
556.2196036502564
 20
685.9191391915883
 30
0.0
 11
556.219603650253
 21
642.269139191586
 31
0.0
  0
LEADER
  5
F4EF
330
1F
100
AcDbEntity
  8
DIM
100
AcDbLeader
  3
METRIC
 73
     0
 40
5.253260572987721
 41
46.72837653478854
 76
     3
 10
183.5395595304799
 20
149.4538825715126
 30
0.0
 10
204.2782066041302
 20
188.9
 30
0.0
 10
210.06419503213
 20
188.9
 30
0.0
213
0.0
223
-2.53999492
233
0.0
1001
ACAD
1000
DSTYLE
1002
{
1070
   141
1040
0.0
1070
   179
1070
     2
1070
   271
1070
     2
1070
   272
1070
     2
1002
}
  0
MTEXT
  5
F4F0
102
{ACAD_REACTORS
330
F4EF
102
}
330
1F
100
AcDbEntity
  8
DIM
100
AcDbMText
 10
212.5641900321302
 20
191.4399949199998
 30
0.0
 40
5.07998984
 41
0.0
 71
     1
 72
     1
  1
STATUS LEDs
  7
ARIAL
 73
     1
 44
1.0
1001
ACAD
1000
MTEXTBEGIN
1070
    73
1070
     1
1070
    44
1040
1.0
1070
    74
1070
     0
1000
MTEXTEND
  0
DIMENSION
  5
F98E
330
1F
100
AcDbEntity
  8
DIM
100
AcDbDimension
  2
*D2
 10
73.61960365025281
 20
235.9242760908801
 30
0.0
 11
314.9196036502531
 21
235.9242760908801
 31
0.0
 70
    32
  1
<>\P(19")
 71
     5
 42
482.6000000000006
  3
METRIC
100
AcDbAlignedDimension
 13
556.2196036502534
 23
270.8086158862748
 33
0.0
 14
73.61960365025281
 24
270.808615886275
 34
0.0
100
AcDbRotatedDimension
1001
ACAD
1000
DSTYLE
1002
{
1070
   141
1040
0.0
1002
}
  0
DIMENSION
  5
F99C
330
1F
100
AcDbEntity
  8
DIM
100
AcDbDimension
  2
*D3
 10
538.9196036502528
 20
532.0196685369294
 30
0.0
 11
314.9196036502528
 21
532.0196685369294
 31
0.0
 70
   160
 71
     5
 42
448.0
  3
METRIC
100
AcDbAlignedDimension
 13
90.91960365025277
 23
491.8086218862722
 33
0.0
 14
538.9196036502528
 24
491.8086218862722
 34
0.0
100
AcDbRotatedDimension
1001
ACAD
1000
DSTYLE
1002
{
1070
   141
1040
0.0
1002
}
  0
DIMENSION
  5
FA26
330
1F
100
AcDbEntity
  8
DIM
100
AcDbDimension
  2
*D4
 10
48.85000257085594
 20
512.5946158862732
 30
0.0
 11
48.85000257085585
 21
394.408616886274
 31
0.0
 70
   160
 71
     5
 42
241.7859999999982
  3
METRIC
100
AcDbAlignedDimension
 13
73.61960365025281
 23
270.808615886275
 33
0.0
 14
105.494586393134
 24
512.5946158862732
 34
0.0
 50
90.0
100
AcDbRotatedDimension
1001
ACAD
1000
DSTYLE
1002
{
1070
   141
1040
0.0
1070
   179
1070
     1
1002
}
  0
DIMENSION
  5
FAA4
330
1F
100
AcDbEntity
  8
DIM
100
AcDbDimension
  2
*D5
 10
67.05774951983078
 20
273.808615886275
 30
0.0
 11
55.01648076130414
 21
260.808615886275
 31
0.0
 70
   160
 71
     5
 42
3.0
  3
METRIC
100
AcDbAlignedDimension
 13
73.61960365025281
 23
270.808615886275
 33
0.0
 14
73.61960365025282
 24
273.808615886275
 34
0.0
 50
90.0
100
AcDbRotatedDimension
1001
ACAD
1000
DSTYLE
1002
{
1070
   141
1040
0.0
1070
   179
1070
     1
1002
}
  0
DIMENSION
  5
FAB3
330
1F
100
AcDbEntity
  8
DIM
100
AcDbDimension
  2
*D6
 10
62.11375077417287
 20
494.8086158862733
 30
0.0
 11
62.11375077417279
 21
383.2118426205811
 31
0.0
 70
   160
 71
     5
 42
220.9999999999983
  3
METRIC
100
AcDbAlignedDimension
 13
73.61960365025282
 23
273.808615886275
 33
0.0
 14
92.41960365025242
 24
494.8086158862733
 34
0.0
 50
90.0
100
AcDbRotatedDimension
1001
ACAD
1000
DSTYLE
1002
{
1070
   141
1040
0.0
1070
   179
1070
     1
1002
}
  0
DIMENSION
  5
FB14
330
1F
100
AcDbEntity
  8
DIM
100
AcDbDimension
  2
*D7
 10
57.79612383446282
 20
125.4916158862722
 30
0.0
 11
57.79612383446281
 21
147.3166158862732
 31
0.0
 70
    32
  1
<>\P(1U)
 71
     5
 42
43.65000000000217
  3
METRIC
100
AcDbAlignedDimension
 13
73.619603650253
 23
169.1416158862743
 33
0.0
 14
73.61960365025642
 24
125.4916158862722
 34
0.0
 50
90.0
100
AcDbRotatedDimension
1001
ACAD
1000
DSTYLE
1002
{
1070
   141
1040
0.0
1070
   179
1070
     1
1002
}
  0
DIMENSION
  5
FB2C
330
1F
100
AcDbEntity
  8
DIM
100
AcDbDimension
  2
*D8
 10
622.3767075893536
 20
531.3219227641538
 30
0.0
 11
600.9689197893626
 21
531.3219227641538
 31
0.0
 70
   160
 71
     5
 42
42.59914204963661
  3
METRIC
100
AcDbAlignedDimension
 13
579.7775655397169
 23
493.8086198862726
 33
0.0
 14
622.3767075893536
 24
491.793381886272
 34
0.0
100
AcDbRotatedDimension
1001
ACAD
1000
DSTYLE
1002
{
1070
   141
1040
0.0
1070
   179
1070
     1
1002
}
  0
DIMENSION
  5
FC81
330
1F
100
AcDbEntity
  8
CONNECT
100
AcDbDimension
  2
*D9
 10
579.2517075893535
 20
234.6
 30
0.0
 11
601.4152876417629
 21
234.6
 31
0.0
 70
   160
  1
<>\P(1U)
 71
     5
 42
43.64999999999997
  3
METRIC
100
AcDbAlignedDimension
 13
622.9017075893534
 23
270.8086158862724
 33
0.0
 14
579.2517075893535
 24
270.8086158862748
 34
0.0
100
AcDbRotatedDimension
1001
ACAD
1000
DSTYLE
1002
{
1070
   141
1040
0.0
1070
   179
1070
     1
1002
}
  0
DIMENSION
  5
FFE5
330
1F
100
AcDbEntity
  8
CONNECT
100
AcDbDimension
  2
*D10
 10
556.219603650253
 20
101.5989876480023
 30
0.0
 11
314.9196036502547
 21
101.5989876480023
 31
0.0
 70
    32
  1
<>\P(19")
 71
     5
 42
482.5999999999965
  3
METRIC
100
AcDbAlignedDimension
 13
73.61960365025642
 23
125.4916158862725
 33
0.0
 14
556.219603650253
 24
125.4916158862745
 34
0.0
100
AcDbRotatedDimension
1001
ACAD
1000
DSTYLE
1002
{
1070
   141
1040
0.0
1070
   179
1070
     1
1002
}
  0
MTEXT
  5
10074
330
1F
100
AcDbEntity
  8
CONNECT
100
AcDbMText
 10
302.3110760560626
 20
392.2831113370642
 30
0.0
 40
8.0
 41
99.8044490030054
 71
     1
 72
     5
  1
{\fArial|b0|i0|c0|p34;TOP}
 73
     1
 44
1.0
1001
ACAD
1000
MTEXTBEGIN
1070
    73
1070
     1
1070
    44
1040
1.0
1070
    74
1070
     0
1000
MTEXTEND
  0
MTEXT
  5
1011D
330
1F
100
AcDbEntity
  8
DIM
100
AcDbMText
 10
142.8888390327601
 20
139.6480078455304
 30
0.0
 40
3.0
 41
38.0
 71
     1
 72
     5
  1
Power
  7
ARIAL
 73
     1
 44
1.0
1001
ACAD
1000
MTEXTBEGIN
1070
    73
1070
     1
1070
    44
1040
1.0
1070
    74
1070
     0
1000
MTEXTEND
  0
MTEXT
  5
1045E
330
1F
100
AcDbEntity
  8
CONNECT
100
AcDbMText
 10
286.6610760560625
 20
624.6331113370642
 30
0.0
 40
8.0
 41
99.8044490030054
 71
     1
 72
     5
  1
{\fArial|b0|i0|c0|p34;BACK VIEW (ROTATED)}
 73
     1
 44
1.0
1001
ACAD
1000
MTEXTBEGIN
1070
    73
1070
     1
1070
    44
1040
1.0
1070
    74
1070
     0
1000
MTEXTEND
  0
MTEXT
  5
1045F
330
1F
100
AcDbEntity
  8
CONNECT
100
AcDbMText
 10
286.6610760560625
 20
78.78311133706414
 30
0.0
 40
8.0
 41
99.8044490030054
 71
     1
 72
     5
  1
{\fArial|b0|i0|c0|p34;FRONT VIEW}
 73
     1
 44
1.0
1001
ACAD
1000
MTEXTBEGIN
1070
    73
1070
     1
1070
    44
1040
1.0
1070
    74
1070
     0
1000
MTEXTEND
  0
INSERT
  5
10489
330
1F
100
AcDbEntity
  8
DIM
100
AcDbBlockReference
  2
A$C15614AF3
 10
103.1488660377522
 20
494.8086156734323
 30
0.0
  0
LINE
  5
104BA
330
1F
100
AcDbEntity
  8
0
100
AcDbLine
 10
583.3716870322327
 20
512.5946158862723
 30
0.0
 11
586.7716870322328
 21
512.5946158862723
 31
0.0
  0
LINE
  5
104BB
330
1F
100
AcDbEntity
  8
0
100
AcDbLine
 10
588.0716870322328
 20
510.2946158862724
 30
0.0
 11
588.0716870322328
 21
511.2946158862723
 31
0.0
  0
ARC
  5
104BC
330
1F
100
AcDbEntity
  8
0
100
AcDbCircle
 10
586.7716870322328
 20
511.2946158862723
 30
0.0
 40
1.3
100
AcDbArc
 50
0.0
 51
90.0
  0
LINE
  5
104BD
330
1F
100
AcDbEntity
  8
0
100
AcDbLine
 10
582.0716870322327
 20
510.2946158862724
 30
0.0
 11
582.0716870322327
 21
511.2946158862723
 31
0.0
  0
ARC
  5
104BE
330
1F
100
AcDbEntity
  8
0
100
AcDbCircle
 10
583.3716870322327
 20
511.2946158862723
 30
0.0
 40
1.3
100
AcDbArc
 50
90.0
 51
180.0
  0
LINE
  5
104BF
330
1F
100
AcDbEntity
  8
0
100
AcDbLine
 10
615.3817281464748
 20
512.5946158862723
 30
0.0
 11
618.7817281464748
 21
512.5946158862723
 31
0.0
  0
LINE
  5
104C0
330
1F
100
AcDbEntity
  8
0
100
AcDbLine
 10
620.0817281464749
 20
510.2946158862724
 30
0.0
 11
620.0817281464749
 21
511.2946158862723
 31
0.0
  0
ARC
  5
104C1
330
1F
100
AcDbEntity
  8
0
100
AcDbCircle
 10
618.7817281464748
 20
511.2946158862723
 30
0.0
 40
1.3
100
AcDbArc
 50
0.0
 51
90.0
  0
LINE
  5
104C2
330
1F
100
AcDbEntity
  8
0
100
AcDbLine
 10
614.0817281464749
 20
510.2946158862724
 30
0.0
 11
614.0817281464749
 21
511.2946158862723
 31
0.0
  0
ARC
  5
104C3
330
1F
100
AcDbEntity
  8
0
100
AcDbCircle
 10
615.3817281464748
 20
511.2946158862723
 30
0.0
 40
1.3
100
AcDbArc
 50
90.0
 51
180.0
  0
INSERT
  5
104C4
330
1F
100
AcDbEntity
  8
FASTENER
100
AcDbBlockReference
  2
m3washe
 10
585.0716870322328
 20
509.7946158862724
 30
0.0
 50
90.0
  0
INSERT
  5
104C5
330
1F
100
AcDbEntity
  8
FASTENER
100
AcDbBlockReference
  2
m3washe
 10
617.0817281464749
 20
509.7946158862724
 30
0.0
 50
90.0
  0
INSERT
  5
104DF
330
1F
100
AcDbEntity
  8
FASTENER
100
AcDbBlockReference
  2
m3pant
 10
490.6896036502567
 20
680.0937102164066
 30
0.0
  0
INSERT
  5
104E0
330
1F
100
AcDbEntity
  8
FASTENER
100
AcDbBlockReference
  2
m3pant
 10
522.6896036502568
 20
680.0937102164064
 30
0.0
  0
INSERT
  5
104E1
330
1F
100
AcDbEntity
  8
FASTENER
100
AcDbBlockReference
  2
m3pant
 10
522.6896036502567
 20
648.0937102164062
 30
0.0
  0
INSERT
  5
104E2
330
1F
100
AcDbEntity
  8
FASTENER
100
AcDbBlockReference
  2
m3pant
 10
490.6896036502566
 20
648.0937102164065
 30
0.0
  0
CIRCLE
  5
10E14
330
1F
100
AcDbEntity
  8
Front Panel
100
AcDbCircle
 10
167.8536036502547
 20
144.6521138862756
 30
0.0
 40
2.044699999999999
  0
CIRCLE
  5
10E15
330
1F
100
AcDbEntity
  8
Front Panel
100
AcDbCircle
 10
174.4576036502547
 20
144.6521138862756
 30
0.0
 40
2.044699999999999
  0
CIRCLE
  5
10E16
330
1F
100
AcDbEntity
  8
Front Panel
100
AcDbCircle
 10
181.0616036502547
 20
144.6521138862756
 30
0.0
 40
2.044699999999999
  0
CIRCLE
  5
10E17
330
1F
100
AcDbEntity
  8
Front Panel
100
AcDbCircle
 10
187.6656036502547
 20
144.6521138862756
 30
0.0
 40
2.044699999999999
  0
CIRCLE
  5
10E18
330
1F
100
AcDbEntity
  8
Front Panel
100
AcDbCircle
 10
194.2696036502547
 20
144.6521138862756
 30
0.0
 40
2.044699999999999
  0
CIRCLE
  5
10E19
330
1F
100
AcDbEntity
  8
Front Panel
100
AcDbCircle
 10
200.8736036502547
 20
144.6521138862756
 30
0.0
 40
2.044699999999999
  0
CIRCLE
  5
10E1A
330
1F
100
AcDbEntity
  8
Front Panel
100
AcDbCircle
 10
207.4776036502548
 20
144.6521138862756
 30
0.0
 40
2.044699999999999
  0
LINE
  5
10F05
330
1F
100
AcDbEntity
  8
Top Panel
100
AcDbLine
 10
537.3896036502612
 20
685.3932812412247
 30
0.0
 11
537.3896036502612
 21
684.3932832412251
 31
0.0
  0
LINE
  5
10F07
330
1F
100
AcDbEntity
  8
Top Panel
100
AcDbLine
 10
92.38960365026128
 20
684.3932832412247
 30
0.0
 11
92.38960365026128
 21
685.3932812412247
 31
0.0
  0
LINE
  5
10F08
330
1F
100
AcDbEntity
  8
Top Panel
100
AcDbLine
 10
92.38960365026128
 20
685.3932812412247
 30
0.0
 11
537.3896036502612
 21
685.3932812412247
 31
0.0
  0
LINE
  5
1103E
330
1F
100
AcDbEntity
  8
Rear Panel
100
AcDbLine
 10
92.38960365026105
 20
684.3932832412249
 30
0.0
 11
92.38960365026116
 21
643.7941371915886
 31
0.0
  0
LINE
  5
1103F
330
1F
100
AcDbEntity
  8
Rear Panel
100
AcDbLine
 10
537.389603650261
 20
684.3932832412254
 30
0.0
 11
537.389603650261
 21
643.7941371915884
 31
0.0
  0
LINE
  5
11040
330
1F
100
AcDbEntity
  8
Rear Panel
100
AcDbLine
 10
92.38960365026116
 20
643.7941371915886
 30
0.0
 11
537.389603650261
 21
643.7941371915884
 31
0.0
  0
LINE
  5
11041
330
1F
100
AcDbEntity
  8
Rear Panel
100
AcDbLine
 10
92.38960365026105
 20
684.3932832412249
 30
0.0
 11
537.389603650261
 21
684.3932832412254
 31
0.0
  0
LINE
  5
11069
330
1F
100
AcDbEntity
  8
Rear Panel
100
AcDbLine
 10
181.7975436502611
 20
648.0441376841787
 30
0.0
 11
218.3735436502611
 21
648.0441376841788
 31
0.0
  0
LINE
  5
1106A
330
1F
100
AcDbEntity
  8
Rear Panel
100
AcDbLine
 10
218.3735436502611
 20
648.0441376841788
 30
0.0
 11
218.3735436502611
 21
677.2541376841787
 31
0.0
  0
LINE
  5
1106B
330
1F
100
AcDbEntity
  8
Rear Panel
100
AcDbLine
 10
218.3735436502611
 20
677.2541376841787
 30
0.0
 11
181.7975436502612
 21
677.2541376841787
 31
0.0
  0
LINE
  5
1106C
330
1F
100
AcDbEntity
  8
Rear Panel
100
AcDbLine
 10
181.7975436502612
 20
677.2541376841787
 30
0.0
 11
181.7975436502611
 21
648.0441376841787
 31
0.0
  0
CIRCLE
  5
1106D
330
1F
100
AcDbEntity
  8
VENT
100
AcDbCircle
 10
141.9196036502611
 20
659.0341371915886
 30
0.0
 40
2.381249999999997
  0
CIRCLE
  5
1106E
330
1F
100
AcDbEntity
  8
VENT
100
AcDbCircle
 10
134.2996036502612
 20
659.0341371915886
 30
0.0
 40
2.381249999999975
  0
CIRCLE
  5
1106F
330
1F
100
AcDbEntity
  8
VENT
100
AcDbCircle
 10
126.6796036502612
 20
659.0341371915886
 30
0.0
 40
2.381249999999964
  0
CIRCLE
  5
11070
330
1F
100
AcDbEntity
  8
VENT
100
AcDbCircle
 10
119.0596036502612
 20
659.0341371915886
 30
0.0
 40
2.381249999999964
  0
CIRCLE
  5
11071
330
1F
100
AcDbEntity
  8
VENT
100
AcDbCircle
 10
141.9196036502611
 20
669.1941371915886
 30
0.0
 40
2.381249999999997
  0
CIRCLE
  5
11072
330
1F
100
AcDbEntity
  8
VENT
100
AcDbCircle
 10
134.2996036502612
 20
669.1941371915886
 30
0.0
 40
2.381249999999975
  0
CIRCLE
  5
11073
330
1F
100
AcDbEntity
  8
VENT
100
AcDbCircle
 10
126.6796036502612
 20
669.1941371915886
 30
0.0
 40
2.381249999999964
  0
CIRCLE
  5
11074
330
1F
100
AcDbEntity
  8
VENT
100
AcDbCircle
 10
119.0596036502612
 20
669.1941371915886
 30
0.0
 40
2.381249999999964
  0
CIRCLE
  5
11075
330
1F
100
AcDbEntity
  8
VENT
100
AcDbCircle
 10
141.9196036502611
 20
679.3541371915887
 30
0.0
 40
2.381249999999997
  0
CIRCLE
  5
11076
330
1F
100
AcDbEntity
  8
VENT
100
AcDbCircle
 10
134.2996036502612
 20
679.3541371915887
 30
0.0
 40
2.381249999999975
  0
CIRCLE
  5
11077
330
1F
100
AcDbEntity
  8
VENT
100
AcDbCircle
 10
126.6796036502612
 20
679.3541371915887
 30
0.0
 40
2.381249999999964
  0
CIRCLE
  5
11078
330
1F
100
AcDbEntity
  8
VENT
100
AcDbCircle
 10
119.0596036502612
 20
679.3541371915887
 30
0.0
 40
2.381249999999964
  0
CIRCLE
  5
11079
330
1F
100
AcDbEntity
  8
VENT
100
AcDbCircle
 10
145.7296036502611
 20
653.9541371915888
 30
0.0
 40
2.381249999999975
  0
CIRCLE
  5
1107A
330
1F
100
AcDbEntity
  8
VENT
100
AcDbCircle
 10
138.1096036502611
 20
653.9541371915888
 30
0.0
 40
2.381249999999975
  0
CIRCLE
  5
1107B
330
1F
100
AcDbEntity
  8
VENT
100
AcDbCircle
 10
130.4896036502611
 20
653.9541371915888
 30
0.0
 40
2.381249999999997
  0
CIRCLE
  5
1107C
330
1F
100
AcDbEntity
  8
VENT
100
AcDbCircle
 10
122.8696036502611
 20
653.9541371915888
 30
0.0
 40
2.381249999999997
  0
CIRCLE
  5
1107D
330
1F
100
AcDbEntity
  8
VENT
100
AcDbCircle
 10
145.7296036502611
 20
664.1141371915887
 30
0.0
 40
2.381249999999975
  0
CIRCLE
  5
1107E
330
1F
100
AcDbEntity
  8
VENT
100
AcDbCircle
 10
138.1096036502611
 20
664.1141371915887
 30
0.0
 40
2.381249999999975
  0
CIRCLE
  5
1107F
330
1F
100
AcDbEntity
  8
VENT
100
AcDbCircle
 10
130.4896036502611
 20
664.1141371915887
 30
0.0
 40
2.381249999999997
  0
CIRCLE
  5
11080
330
1F
100
AcDbEntity
  8
VENT
100
AcDbCircle
 10
122.8696036502611
 20
664.1141371915887
 30
0.0
 40
2.381249999999997
  0
CIRCLE
  5
11081
330
1F
100
AcDbEntity
  8
VENT
100
AcDbCircle
 10
145.7296036502611
 20
674.2741371915886
 30
0.0
 40
2.381249999999975
  0
CIRCLE
  5
11082
330
1F
100
AcDbEntity
  8
VENT
100
AcDbCircle
 10
138.1096036502611
 20
674.2741371915886
 30
0.0
 40
2.381249999999975
  0
CIRCLE
  5
11083
330
1F
100
AcDbEntity
  8
VENT
100
AcDbCircle
 10
130.4896036502611
 20
674.2741371915886
 30
0.0
 40
2.381249999999997
  0
CIRCLE
  5
11084
330
1F
100
AcDbEntity
  8
VENT
100
AcDbCircle
 10
122.8696036502611
 20
674.2741371915886
 30
0.0
 40
2.381249999999997
  0
CIRCLE
  5
11085
330
1F
100
AcDbEntity
  8
VENT
100
AcDbCircle
 10
141.9196036502611
 20
648.8741371915887
 30
0.0
 40
2.381249999999997
  0
CIRCLE
  5
11086
330
1F
100
AcDbEntity
  8
VENT
100
AcDbCircle
 10
134.2996036502612
 20
648.8741371915887
 30
0.0
 40
2.381249999999975
  0
CIRCLE
  5
11087
330
1F
100
AcDbEntity
  8
VENT
100
AcDbCircle
 10
126.6796036502612
 20
648.8741371915887
 30
0.0
 40
2.381249999999964
  0
CIRCLE
  5
11088
330
1F
100
AcDbEntity
  8
VENT
100
AcDbCircle
 10
119.0596036502612
 20
648.8741371915887
 30
0.0
 40
2.381249999999964
  0
CIRCLE
  5
11089
330
1F
100
AcDbEntity
  8
VENT
100
AcDbCircle
 10
103.8196036502612
 20
648.8741371915887
 30
0.0
 40
2.381249999999997
  0
CIRCLE
  5
1108A
330
1F
100
AcDbEntity
  8
VENT
100
AcDbCircle
 10
103.8196036502612
 20
669.1941371915886
 30
0.0
 40
2.381249999999997
  0
CIRCLE
  5
1108B
330
1F
100
AcDbEntity
  8
VENT
100
AcDbCircle
 10
107.6296036502611
 20
653.9541371915888
 30
0.0
 40
2.381249999999964
  0
CIRCLE
  5
1108C
330
1F
100
AcDbEntity
  8
VENT
100
AcDbCircle
 10
107.6296036502611
 20
674.2741371915886
 30
0.0
 40
2.381249999999964
  0
CIRCLE
  5
1108D
330
1F
100
AcDbEntity
  8
VENT
100
AcDbCircle
 10
107.6296036502611
 20
664.1141371915887
 30
0.0
 40
2.381249999999964
  0
CIRCLE
  5
1108E
330
1F
100
AcDbEntity
  8
VENT
100
AcDbCircle
 10
103.8196036502612
 20
679.3541371915887
 30
0.0
 40
2.381249999999997
  0
CIRCLE
  5
1108F
330
1F
100
AcDbEntity
  8
VENT
100
AcDbCircle
 10
103.8196036502612
 20
659.0341371915886
 30
0.0
 40
2.381249999999997
  0
CIRCLE
  5
11090
330
1F
100
AcDbEntity
  8
VENT
100
AcDbCircle
 10
111.4396036502611
 20
648.8741371915887
 30
0.0
 40
2.381249999999997
  0
CIRCLE
  5
11091
330
1F
100
AcDbEntity
  8
VENT
100
AcDbCircle
 10
115.2496036502612
 20
674.2741371915886
 30
0.0
 40
2.381249999999997
  0
CIRCLE
  5
11092
330
1F
100
AcDbEntity
  8
VENT
100
AcDbCircle
 10
115.2496036502612
 20
664.1141371915887
 30
0.0
 40
2.381249999999997
  0
CIRCLE
  5
11093
330
1F
100
AcDbEntity
  8
VENT
100
AcDbCircle
 10
115.2496036502612
 20
653.9541371915888
 30
0.0
 40
2.381249999999997
  0
CIRCLE
  5
11094
330
1F
100
AcDbEntity
  8
VENT
100
AcDbCircle
 10
111.4396036502611
 20
679.3541371915887
 30
0.0
 40
2.381249999999997
  0
CIRCLE
  5
11095
330
1F
100
AcDbEntity
  8
VENT
100
AcDbCircle
 10
111.4396036502611
 20
669.1941371915886
 30
0.0
 40
2.381249999999997
  0
CIRCLE
  5
11096
330
1F
100
AcDbEntity
  8
VENT
100
AcDbCircle
 10
111.4396036502611
 20
659.0341371915886
 30
0.0
 40
2.381249999999997
  0
LINE
  5
110A7
330
1F
100
AcDbEntity
  8
CENTER
100
AcDbLine
 10
307.5276036502609
 20
666.7557371915888
 30
0.0
 11
312.0996036502609
 21
666.7557371915888
 31
0.0
  0
LINE
  5
110A8
330
1F
100
AcDbEntity
  8
CENTER
100
AcDbLine
 10
309.8136036502609
 20
664.4697371915888
 30
0.0
 11
309.8136036502609
 21
669.0417371915888
 31
0.0
  0
LINE
  5
110A9
330
1F
100
AcDbEntity
  8
CENTER
100
AcDbLine
 10
330.3876036502608
 20
666.7557371915888
 30
0.0
 11
334.9596036502608
 21
666.7557371915888
 31
0.0
  0
LINE
  5
110AA
330
1F
100
AcDbEntity
  8
CENTER
100
AcDbLine
 10
332.6736036502608
 20
664.4697371915888
 30
0.0
 11
332.6736036502608
 21
669.0417371915888
 31
0.0
  0
LINE
  5
110AB
330
1F
100
AcDbEntity
  8
CENTER
100
AcDbLine
 10
353.2476036502609
 20
666.7557371915888
 30
0.0
 11
357.8196036502609
 21
666.7557371915888
 31
0.0
  0
LINE
  5
110AC
330
1F
100
AcDbEntity
  8
CENTER
100
AcDbLine
 10
355.5336036502609
 20
664.4697371915888
 30
0.0
 11
355.5336036502609
 21
669.0417371915888
 31
0.0
  0
LINE
  5
110AD
330
1F
100
AcDbEntity
  8
CENTER
100
AcDbLine
 10
376.1076036502609
 20
666.7557371915888
 30
0.0
 11
380.6796036502608
 21
666.7557371915888
 31
0.0
  0
LINE
  5
110AE
330
1F
100
AcDbEntity
  8
CENTER
100
AcDbLine
 10
378.3936036502609
 20
664.4697371915888
 30
0.0
 11
378.3936036502609
 21
669.0417371915888
 31
0.0
  0
LINE
  5
110AF
330
1F
100
AcDbEntity
  8
CENTER
100
AcDbLine
 10
398.967603650261
 20
666.7557371915888
 30
0.0
 11
403.5396036502609
 21
666.7557371915888
 31
0.0
  0
LINE
  5
110B0
330
1F
100
AcDbEntity
  8
CENTER
100
AcDbLine
 10
401.2536036502609
 20
664.4697371915888
 30
0.0
 11
401.2536036502609
 21
669.0417371915888
 31
0.0
  0
LINE
  5
110B1
330
1F
100
AcDbEntity
  8
CENTER
100
AcDbLine
 10
421.8276036502609
 20
666.7557371915888
 30
0.0
 11
426.3996036502609
 21
666.7557371915888
 31
0.0
  0
LINE
  5
110B2
330
1F
100
AcDbEntity
  8
CENTER
100
AcDbLine
 10
424.1136036502608
 20
664.4697371915888
 30
0.0
 11
424.1136036502608
 21
669.0417371915888
 31
0.0
  0
LINE
  5
110B3
330
1F
100
AcDbEntity
  8
CENTER
100
AcDbLine
 10
444.6876036502608
 20
666.7557371915888
 30
0.0
 11
449.2596036502608
 21
666.7557371915888
 31
0.0
  0
LINE
  5
110B4
330
1F
100
AcDbEntity
  8
CENTER
100
AcDbLine
 10
446.9736036502609
 20
664.4697371915888
 30
0.0
 11
446.9736036502609
 21
669.0417371915888
 31
0.0
  0
LINE
  5
110B5
330
1F
100
AcDbEntity
  8
CENTER
100
AcDbLine
 10
467.5476036502608
 20
666.7557371915888
 30
0.0
 11
472.1196036502607
 21
666.7557371915888
 31
0.0
  0
LINE
  5
110B6
330
1F
100
AcDbEntity
  8
CENTER
100
AcDbLine
 10
469.8336036502608
 20
664.4697371915888
 30
0.0
 11
469.8336036502608
 21
669.0417371915888
 31
0.0
  0
CIRCLE
  5
110B7
330
1F
100
AcDbEntity
  8
CONNECTOR
100
AcDbCircle
 10
309.8136036502609
 20
666.7557371915888
 30
0.0
 40
3.968750000000022
  0
CIRCLE
  5
110B8
330
1F
100
AcDbEntity
  8
CONNECTOR
100
AcDbCircle
 10
309.8136036502609
 20
666.7557371915888
 30
0.0
 40
3.460750000000016
  0
CIRCLE
  5
110B9
330
1F
100
AcDbEntity
  8
CONNECTOR
100
AcDbCircle
 10
309.8136036502609
 20
666.7557371915888
 30
0.0
 40
1.27
  0
LWPOLYLINE
  5
110BA
330
1F
100
AcDbEntity
  8
FASTENER
100
AcDbPolyline
 90
        6
 70
     1
 43
0.0
 10
307.0639729932455
 20
671.5244594648764
 10
304.3143423362299
 20
666.7619594648764
 10
307.0639729932455
 20
661.9994594648764
 10
312.5632343072767
 20
661.9994594648764
 10
315.3128649642923
 20
666.7619594648764
 10
312.5632343072767
 20
671.5244594648764
  0
CIRCLE
  5
110BB
330
1F
100
AcDbEntity
  8
FASTENER
100
AcDbCircle
 10
309.8136036502609
 20
666.7557371915888
 30
0.0
 40
4.768722273287317
  0
CIRCLE
  5
110BC
330
1F
100
AcDbEntity
  8
FASTENER
100
AcDbCircle
 10
309.8136036502609
 20
666.7557371915888
 30
0.0
 40
5.499264834201705
  0
CIRCLE
  5
110BD
330
1F
100
AcDbEntity
  8
CONNECTOR
100
AcDbCircle
 10
332.6736036502608
 20
666.7557371915888
 30
0.0
 40
3.968750000000022
  0
CIRCLE
  5
110BE
330
1F
100
AcDbEntity
  8
CONNECTOR
100
AcDbCircle
 10
332.6736036502608
 20
666.7557371915888
 30
0.0
 40
3.460750000000016
  0
CIRCLE
  5
110BF
330
1F
100
AcDbEntity
  8
CONNECTOR
100
AcDbCircle
 10
332.6736036502608
 20
666.7557371915888
 30
0.0
 40
1.27
  0
LWPOLYLINE
  5
110C0
330
1F
100
AcDbEntity
  8
FASTENER
100
AcDbPolyline
 90
        6
 70
     1
 43
0.0
 10
329.9239729932454
 20
671.5244594648764
 10
327.1743423362299
 20
666.7619594648764
 10
329.9239729932454
 20
661.9994594648764
 10
335.4232343072766
 20
661.9994594648764
 10
338.1728649642922
 20
666.7619594648764
 10
335.4232343072766
 20
671.5244594648764
  0
CIRCLE
  5
110C1
330
1F
100
AcDbEntity
  8
FASTENER
100
AcDbCircle
 10
332.6736036502608
 20
666.7557371915888
 30
0.0
 40
4.768722273287317
  0
CIRCLE
  5
110C2
330
1F
100
AcDbEntity
  8
FASTENER
100
AcDbCircle
 10
332.6736036502608
 20
666.7557371915888
 30
0.0
 40
5.499264834201705
  0
CIRCLE
  5
110C3
330
1F
100
AcDbEntity
  8
CONNECTOR
100
AcDbCircle
 10
355.5336036502609
 20
666.7557371915888
 30
0.0
 40
3.968750000000022
  0
CIRCLE
  5
110C4
330
1F
100
AcDbEntity
  8
CONNECTOR
100
AcDbCircle
 10
355.5336036502609
 20
666.7557371915888
 30
0.0
 40
3.460750000000016
  0
CIRCLE
  5
110C5
330
1F
100
AcDbEntity
  8
CONNECTOR
100
AcDbCircle
 10
355.5336036502609
 20
666.7557371915888
 30
0.0
 40
1.27
  0
LWPOLYLINE
  5
110C6
330
1F
100
AcDbEntity
  8
FASTENER
100
AcDbPolyline
 90
        6
 70
     1
 43
0.0
 10
352.7839729932455
 20
671.5244594648764
 10
350.0343423362299
 20
666.7619594648764
 10
352.7839729932455
 20
661.9994594648764
 10
358.2832343072767
 20
661.9994594648764
 10
361.0328649642923
 20
666.7619594648764
 10
358.2832343072767
 20
671.5244594648764
  0
CIRCLE
  5
110C7
330
1F
100
AcDbEntity
  8
FASTENER
100
AcDbCircle
 10
355.5336036502609
 20
666.7557371915888
 30
0.0
 40
4.768722273287317
  0
CIRCLE
  5
110C8
330
1F
100
AcDbEntity
  8
FASTENER
100
AcDbCircle
 10
355.5336036502609
 20
666.7557371915888
 30
0.0
 40
5.499264834201705
  0
CIRCLE
  5
110C9
330
1F
100
AcDbEntity
  8
CONNECTOR
100
AcDbCircle
 10
378.3936036502609
 20
666.7557371915888
 30
0.0
 40
3.968750000000022
  0
CIRCLE
  5
110CA
330
1F
100
AcDbEntity
  8
CONNECTOR
100
AcDbCircle
 10
378.3936036502609
 20
666.7557371915888
 30
0.0
 40
3.460750000000016
  0
CIRCLE
  5
110CB
330
1F
100
AcDbEntity
  8
CONNECTOR
100
AcDbCircle
 10
378.3936036502609
 20
666.7557371915888
 30
0.0
 40
1.27
  0
LWPOLYLINE
  5
110CC
330
1F
100
AcDbEntity
  8
FASTENER
100
AcDbPolyline
 90
        6
 70
     1
 43
0.0
 10
375.6439729932455
 20
671.5244594648764
 10
372.8943423362299
 20
666.7619594648764
 10
375.6439729932455
 20
661.9994594648764
 10
381.1432343072766
 20
661.9994594648764
 10
383.8928649642923
 20
666.7619594648764
 10
381.1432343072766
 20
671.5244594648764
  0
CIRCLE
  5
110CD
330
1F
100
AcDbEntity
  8
FASTENER
100
AcDbCircle
 10
378.3936036502609
 20
666.7557371915888
 30
0.0
 40
4.768722273287317
  0
CIRCLE
  5
110CE
330
1F
100
AcDbEntity
  8
FASTENER
100
AcDbCircle
 10
378.3936036502609
 20
666.7557371915888
 30
0.0
 40
5.499264834201705
  0
CIRCLE
  5
110CF
330
1F
100
AcDbEntity
  8
CONNECTOR
100
AcDbCircle
 10
401.2536036502609
 20
666.7557371915888
 30
0.0
 40
3.968750000000022
  0
CIRCLE
  5
110D0
330
1F
100
AcDbEntity
  8
CONNECTOR
100
AcDbCircle
 10
401.2536036502609
 20
666.7557371915888
 30
0.0
 40
3.460750000000016
  0
CIRCLE
  5
110D1
330
1F
100
AcDbEntity
  8
CONNECTOR
100
AcDbCircle
 10
401.2536036502609
 20
666.7557371915888
 30
0.0
 40
1.27
  0
LWPOLYLINE
  5
110D2
330
1F
100
AcDbEntity
  8
FASTENER
100
AcDbPolyline
 90
        6
 70
     1
 43
0.0
 10
398.5039729932456
 20
671.5244594648764
 10
395.75434233623
 20
666.7619594648764
 10
398.5039729932456
 20
661.9994594648764
 10
404.0032343072767
 20
661.9994594648764
 10
406.7528649642923
 20
666.7619594648764
 10
404.0032343072767
 20
671.5244594648764
  0
CIRCLE
  5
110D3
330
1F
100
AcDbEntity
  8
FASTENER
100
AcDbCircle
 10
401.2536036502609
 20
666.7557371915888
 30
0.0
 40
4.768722273287317
  0
CIRCLE
  5
110D4
330
1F
100
AcDbEntity
  8
FASTENER
100
AcDbCircle
 10
401.2536036502609
 20
666.7557371915888
 30
0.0
 40
5.499264834201705
  0
CIRCLE
  5
110D5
330
1F
100
AcDbEntity
  8
CONNECTOR
100
AcDbCircle
 10
424.1136036502608
 20
666.7557371915888
 30
0.0
 40
3.968750000000022
  0
CIRCLE
  5
110D6
330
1F
100
AcDbEntity
  8
CONNECTOR
100
AcDbCircle
 10
424.1136036502608
 20
666.7557371915888
 30
0.0
 40
3.460750000000016
  0
CIRCLE
  5
110D7
330
1F
100
AcDbEntity
  8
CONNECTOR
100
AcDbCircle
 10
424.1136036502608
 20
666.7557371915888
 30
0.0
 40
1.27
  0
LWPOLYLINE
  5
110D8
330
1F
100
AcDbEntity
  8
FASTENER
100
AcDbPolyline
 90
        6
 70
     1
 43
0.0
 10
421.3639729932455
 20
671.5244594648764
 10
418.61434233623
 20
666.7619594648764
 10
421.3639729932455
 20
661.9994594648764
 10
426.8632343072767
 20
661.9994594648764
 10
429.6128649642922
 20
666.7619594648764
 10
426.8632343072767
 20
671.5244594648764
  0
CIRCLE
  5
110D9
330
1F
100
AcDbEntity
  8
FASTENER
100
AcDbCircle
 10
424.1136036502608
 20
666.7557371915888
 30
0.0
 40
4.768722273287317
  0
CIRCLE
  5
110DA
330
1F
100
AcDbEntity
  8
FASTENER
100
AcDbCircle
 10
424.1136036502608
 20
666.7557371915888
 30
0.0
 40
5.499264834201705
  0
CIRCLE
  5
110DB
330
1F
100
AcDbEntity
  8
CONNECTOR
100
AcDbCircle
 10
446.9736036502609
 20
666.7557371915888
 30
0.0
 40
3.968750000000022
  0
CIRCLE
  5
110DC
330
1F
100
AcDbEntity
  8
CONNECTOR
100
AcDbCircle
 10
446.9736036502609
 20
666.7557371915888
 30
0.0
 40
3.460750000000016
  0
CIRCLE
  5
110DD
330
1F
100
AcDbEntity
  8
CONNECTOR
100
AcDbCircle
 10
446.9736036502609
 20
666.7557371915888
 30
0.0
 40
1.27
  0
LWPOLYLINE
  5
110DE
330
1F
100
AcDbEntity
  8
FASTENER
100
AcDbPolyline
 90
        6
 70
     1
 43
0.0
 10
444.2239729932455
 20
671.5244594648764
 10
441.4743423362299
 20
666.7619594648764
 10
444.2239729932455
 20
661.9994594648764
 10
449.7232343072766
 20
661.9994594648764
 10
452.4728649642923
 20
666.7619594648764
 10
449.7232343072766
 20
671.5244594648764
  0
CIRCLE
  5
110DF
330
1F
100
AcDbEntity
  8
FASTENER
100
AcDbCircle
 10
446.9736036502609
 20
666.7557371915888
 30
0.0
 40
4.768722273287317
  0
CIRCLE
  5
110E0
330
1F
100
AcDbEntity
  8
FASTENER
100
AcDbCircle
 10
446.9736036502609
 20
666.7557371915888
 30
0.0
 40
5.499264834201705
  0
CIRCLE
  5
110E1
330
1F
100
AcDbEntity
  8
CONNECTOR
100
AcDbCircle
 10
469.8336036502608
 20
666.7557371915888
 30
0.0
 40
3.968750000000022
  0
CIRCLE
  5
110E2
330
1F
100
AcDbEntity
  8
CONNECTOR
100
AcDbCircle
 10
469.8336036502608
 20
666.7557371915888
 30
0.0
 40
3.460750000000016
  0
CIRCLE
  5
110E3
330
1F
100
AcDbEntity
  8
CONNECTOR
100
AcDbCircle
 10
469.8336036502608
 20
666.7557371915888
 30
0.0
 40
1.27
  0
LWPOLYLINE
  5
110E4
330
1F
100
AcDbEntity
  8
FASTENER
100
AcDbPolyline
 90
        6
 70
     1
 43
0.0
 10
467.0839729932453
 20
671.5244594648764
 10
464.3343423362298
 20
666.7619594648764
 10
467.0839729932453
 20
661.9994594648764
 10
472.5832343072766
 20
661.9994594648764
 10
475.3328649642922
 20
666.7619594648764
 10
472.5832343072766
 20
671.5244594648764
  0
CIRCLE
  5
110E5
330
1F
100
AcDbEntity
  8
FASTENER
100
AcDbCircle
 10
469.8336036502608
 20
666.7557371915888
 30
0.0
 40
4.768722273287317
  0
CIRCLE
  5
110E6
330
1F
100
AcDbEntity
  8
FASTENER
100
AcDbCircle
 10
469.8336036502608
 20
666.7557371915888
 30
0.0
 40
5.499264834201705
  0
ARC
  5
110EB
330
1F
100
AcDbEntity
  8
PSU
  6
Continuous
100
AcDbCircle
 10
183.8295436502611
 20
649.9491376841786
 30
0.0
 40
1.524000000000011
100
AcDbArc
 50
180.0000000000005
 51
270.0000000000008
  0
ARC
  5
110EC
330
1F
100
AcDbEntity
  8
PSU
  6
Continuous
100
AcDbCircle
 10
183.8295436502611
 20
675.3491376841785
 30
0.0
 40
1.524000000000011
100
AcDbArc
 50
90.0
 51
180.0000000000005
  0
LINE
  5
110ED
330
1F
100
AcDbEntity
  8
PSU
  6
Continuous
100
AcDbLine
 10
182.3055436502611
 20
649.9491376841786
 30
0.0
 11
182.3055436502611
 21
675.3491376841785
 31
0.0
  0
LINE
  5
110EE
330
1F
100
AcDbEntity
  8
PSU
  6
Continuous
100
AcDbLine
 10
185.861543650261
 20
669.7611376841786
 30
0.0
 11
185.861543650261
 21
655.5371376841785
 31
0.0
  0
ARC
  5
110EF
330
1F
100
AcDbEntity
  8
PSU
  6
Continuous
100
AcDbCircle
 10
189.671543650261
 20
655.5371376841785
 30
0.0
 40
3.810000000000005
100
AcDbArc
 50
180.0000000000005
 51
270.0000000000008
  0
LINE
  5
110F0
330
1F
100
AcDbEntity
  8
PSU
  6
Continuous
100
AcDbLine
 10
189.671543650261
 20
651.7271376841786
 30
0.0
 11
210.4995436502611
 21
651.7271376841786
 31
0.0
  0
ARC
  5
110F1
330
1F
100
AcDbEntity
  8
PSU
  6
Continuous
100
AcDbCircle
 10
210.4995436502611
 20
655.5371376841785
 30
0.0
 40
3.810000000000005
100
AcDbArc
 50
270.0000000000008
 51
0.0
  0
LINE
  5
110F2
330
1F
100
AcDbEntity
  8
PSU
  6
Continuous
100
AcDbLine
 10
214.3095436502611
 20
655.5371376841785
 30
0.0
 11
214.3095436502611
 21
669.7611376841786
 31
0.0
  0
ARC
  5
110F3
330
1F
100
AcDbEntity
  8
PSU
  6
Continuous
100
AcDbCircle
 10
210.4995436502611
 20
669.7611376841786
 30
0.0
 40
3.810000000000005
100
AcDbArc
 50
0.0
 51
90.0
  0
LINE
  5
110F4
330
1F
100
AcDbEntity
  8
PSU
  6
Continuous
100
AcDbLine
 10
210.4995436502611
 20
673.5711376841785
 30
0.0
 11
189.671543650261
 21
673.5711376841785
 31
0.0
  0
ARC
  5
110F5
330
1F
100
AcDbEntity
  8
PSU
  6
Continuous
100
AcDbCircle
 10
189.671543650261
 20
669.7611376841786
 30
0.0
 40
3.810000000000005
100
AcDbArc
 50
90.00000000000019
 51
180.0000000000005
  0
LINE
  5
110F6
330
1F
100
AcDbEntity
  8
PSU
  6
Continuous
100
AcDbLine
 10
216.341543650261
 20
648.4251376841785
 30
0.0
 11
183.8295436502611
 21
648.4251376841785
 31
0.0
  0
LINE
  5
110F7
330
1F
100
AcDbEntity
  8
PSU
  6
Continuous
100
AcDbLine
 10
183.8295436502611
 20
676.8731376841786
 30
0.0
 11
216.341543650261
 21
676.8731376841786
 31
0.0
  0
ARC
  5
110F8
330
1F
100
AcDbEntity
  8
PSU
  6
Continuous
100
AcDbCircle
 10
216.341543650261
 20
675.3491376841785
 30
0.0
 40
1.524000000000011
100
AcDbArc
 50
0.0
 51
90.0
  0
ARC
  5
110F9
330
1F
100
AcDbEntity
  8
PSU
  6
Continuous
100
AcDbCircle
 10
216.341543650261
 20
649.9491376841786
 30
0.0
 40
1.523999999999988
100
AcDbArc
 50
270.0000000000008
 51
0.0
  0
LINE
  5
110FA
330
1F
100
AcDbEntity
  8
PSU
  6
Continuous
100
AcDbLine
 10
217.865543650261
 20
675.3491376841785
 30
0.0
 11
217.865543650261
 21
649.9491376841786
 31
0.0
  0
ARC
  5
11107
330
1F
100
AcDbEntity
  8
PSU
  6
Continuous
100
AcDbCircle
 10
191.195543650261
 20
657.6961376841786
 30
0.0
 40
3.174999999999997
100
AcDbArc
 50
180.0000000000005
 51
270.0000000000008
  0
LINE
  5
11108
330
1F
100
AcDbEntity
  8
PSU
  6
Continuous
100
AcDbLine
 10
191.195543650261
 20
654.5211376841786
 30
0.0
 11
208.975543650261
 21
654.5211376841786
 31
0.0
  0
ARC
  5
11109
330
1F
100
AcDbEntity
  8
PSU
  6
Continuous
100
AcDbCircle
 10
208.975543650261
 20
657.6961376841786
 30
0.0
 40
3.174999999999997
100
AcDbArc
 50
270.0000000000008
 51
0.0
  0
LINE
  5
1110A
330
1F
100
AcDbEntity
  8
PSU
  6
Continuous
100
AcDbLine
 10
212.150543650261
 20
657.6961376841786
 30
0.0
 11
212.150543650261
 21
663.112009623644
 31
0.0
  0
ARC
  5
1110B
330
1F
100
AcDbEntity
  8
PSU
  6
Continuous
100
AcDbCircle
 10
208.975543650261
 20
663.112009623644
 30
0.0
 40
3.175000000000022
100
AcDbArc
 50
0.0
 51
45.0
  0
LINE
  5
1110C
330
1F
100
AcDbEntity
  8
PSU
  6
Continuous
100
AcDbLine
 10
211.2206076805283
 20
665.3570736539112
 30
0.0
 11
206.7304796199938
 21
669.8472017144458
 31
0.0
  0
ARC
  5
1110D
330
1F
100
AcDbEntity
  8
PSU
  6
Continuous
100
AcDbCircle
 10
204.4854155897265
 20
667.6021376841786
 30
0.0
 40
3.174999999999974
100
AcDbArc
 50
44.99999999999968
 51
90.0
  0
LINE
  5
1110E
330
1F
100
AcDbEntity
  8
PSU
  6
Continuous
100
AcDbLine
 10
204.4854155897265
 20
670.7771376841785
 30
0.0
 11
195.6856717107956
 21
670.7771376841785
 31
0.0
  0
ARC
  5
1110F
330
1F
100
AcDbEntity
  8
PSU
  6
Continuous
100
AcDbCircle
 10
195.6856717107956
 20
667.6021376841786
 30
0.0
 40
3.174999999999982
100
AcDbArc
 50
90.0
 51
135.0000000000003
  0
LINE
  5
11110
330
1F
100
AcDbEntity
  8
PSU
  6
Continuous
100
AcDbLine
 10
193.4406076805283
 20
669.8472017144458
 30
0.0
 11
188.9504796199938
 21
665.3570736539112
 31
0.0
  0
ARC
  5
11111
330
1F
100
AcDbEntity
  8
PSU
  6
Continuous
100
AcDbCircle
 10
191.195543650261
 20
663.112009623644
 30
0.0
 40
3.174999999999998
100
AcDbArc
 50
134.9999999999995
 51
180.0000000000005
  0
LINE
  5
11112
330
1F
100
AcDbEntity
  8
PSU
  6
Continuous
100
AcDbLine
 10
188.020543650261
 20
663.112009623644
 30
0.0
 11
188.020543650261
 21
657.6961376841786
 31
0.0
  0
LINE
  5
1111A
330
1F
100
AcDbEntity
  8
PSU
  6
Continuous
100
AcDbLine
 10
192.973543650261
 20
662.1411376841786
 30
0.0
 11
190.992343650261
 21
662.1411376841786
 31
0.0
  0
LINE
  5
1111B
330
1F
100
AcDbEntity
  8
PSU
  6
Continuous
100
AcDbLine
 10
192.973543650261
 20
658.3311376841785
 30
0.0
 11
192.973543650261
 21
662.1411376841786
 31
0.0
  0
LINE
  5
1111C
330
1F
100
AcDbEntity
  8
PSU
  6
Continuous
100
AcDbLine
 10
190.992343650261
 20
662.1411376841786
 30
0.0
 11
190.992343650261
 21
658.3311376841785
 31
0.0
  0
LINE
  5
1111D
330
1F
100
AcDbEntity
  8
PSU
  6
Continuous
100
AcDbLine
 10
190.992343650261
 20
658.3311376841785
 30
0.0
 11
192.973543650261
 21
658.3311376841785
 31
0.0
  0
LINE
  5
1111E
330
1F
100
AcDbEntity
  8
PSU
  6
Continuous
100
AcDbLine
 10
199.094943650261
 20
666.2051376841786
 30
0.0
 11
199.094943650261
 21
662.3951376841785
 31
0.0
  0
LINE
  5
1111F
330
1F
100
AcDbEntity
  8
PSU
  6
Continuous
100
AcDbLine
 10
201.076143650261
 20
666.2051376841786
 30
0.0
 11
199.094943650261
 21
666.2051376841786
 31
0.0
  0
LINE
  5
11120
330
1F
100
AcDbEntity
  8
PSU
  6
Continuous
100
AcDbLine
 10
201.076143650261
 20
662.3951376841785
 30
0.0
 11
201.076143650261
 21
666.2051376841786
 31
0.0
  0
LINE
  5
11121
330
1F
100
AcDbEntity
  8
PSU
  6
Continuous
100
AcDbLine
 10
199.094943650261
 20
662.3951376841785
 30
0.0
 11
201.076143650261
 21
662.3951376841785
 31
0.0
  0
LINE
  5
11122
330
1F
100
AcDbEntity
  8
PSU
  6
Continuous
100
AcDbLine
 10
209.178743650261
 20
658.3311376841785
 30
0.0
 11
209.178743650261
 21
662.1411376841786
 31
0.0
  0
LINE
  5
11123
330
1F
100
AcDbEntity
  8
PSU
  6
Continuous
100
AcDbLine
 10
207.1975436502611
 20
662.1411376841786
 30
0.0
 11
207.1975436502611
 21
658.3311376841785
 31
0.0
  0
LINE
  5
11124
330
1F
100
AcDbEntity
  8
PSU
  6
Continuous
100
AcDbLine
 10
209.178743650261
 20
662.1411376841786
 30
0.0
 11
207.1975436502611
 21
662.1411376841786
 31
0.0
  0
LINE
  5
11125
330
1F
100
AcDbEntity
  8
PSU
  6
Continuous
100
AcDbLine
 10
207.1975436502611
 20
658.3311376841785
 30
0.0
 11
209.178743650261
 21
658.3311376841785
 31
0.0
  0
LINE
  5
1112A
330
1F
100
AcDbEntity
  8
0
  6
Continuous
100
AcDbLine
 10
244.9548170789898
 20
669.0670302164065
 30
0.0
 11
244.954817078991
 21
658.9070302164064
 31
0.0
  0
LINE
  5
1112B
330
1F
100
AcDbEntity
  8
0
  6
Continuous
100
AcDbLine
 10
255.7117105265621
 20
658.9070302164066
 30
0.0
 11
255.7117105265621
 21
658.7038302164065
 31
0.0
  0
LINE
  5
1112C
330
1F
100
AcDbEntity
  8
0
  6
Continuous
100
AcDbLine
 10
258.8867105265622
 20
658.7038302164065
 30
0.0
 11
258.8867105265622
 21
658.9070302164064
 31
0.0
  0
LINE
  5
1112D
330
1F
100
AcDbEntity
  8
0
  6
Continuous
100
AcDbLine
 10
258.8867105265618
 20
669.0670302164067
 30
0.0
 11
258.8867105265618
 21
669.2702302164065
 31
0.0
  0
LINE
  5
1112E
330
1F
100
AcDbEntity
  8
0
  6
Continuous
100
AcDbLine
 10
255.7117105265617
 20
669.2702302164065
 30
0.0
 11
255.7117105265617
 21
669.0670302164066
 31
0.0
  0
LINE
  5
11131
330
1F
100
AcDbEntity
  8
0
  6
Continuous
100
AcDbLine
 10
269.2795526773232
 20
658.9070302164064
 30
0.0
 11
266.7580601879606
 21
658.9070302164067
 31
0.0
  0
LINE
  5
11132
330
1F
100
AcDbEntity
  8
0
  6
Continuous
100
AcDbLine
 10
266.758060187961
 20
669.0670302164069
 30
0.0
 11
266.7580601879606
 21
658.9070302164067
 31
0.0
  0
LINE
  5
11133
330
1F
100
AcDbEntity
  8
0
  6
Continuous
100
AcDbLine
 10
266.758060187961
 20
669.0670302164069
 30
0.0
 11
269.2795526773236
 21
669.0670302164066
 31
0.0
  0
LINE
  5
11134
330
1F
100
AcDbEntity
  8
0
  6
Continuous
100
AcDbLine
 10
256.7096525626516
 20
669.0670302164066
 30
0.0
 11
256.7096525626516
 21
658.9070302164064
 31
0.0
  0
LINE
  5
11135
330
1F
100
AcDbEntity
  8
0
  6
Continuous
100
AcDbLine
 10
266.7580601879606
 20
658.9070302164067
 30
0.0
 11
256.7096525626516
 21
658.9070302164064
 31
0.0
  0
LINE
  5
11136
330
1F
100
AcDbEntity
  8
0
  6
Continuous
100
AcDbLine
 10
256.7096525626516
 20
669.0670302164066
 30
0.0
 11
266.758060187961
 21
669.0670302164069
 31
0.0
  0
LINE
  5
11137
330
1F
100
AcDbEntity
  8
0
  6
Continuous
100
AcDbLine
 10
269.6959155449052
 20
669.0670302164066
 30
0.0
 11
269.6959155449052
 21
658.9070302164064
 31
0.0
  0
LINE
  5
11138
330
1F
100
AcDbEntity
  8
0
  6
Continuous
100
AcDbLine
 10
269.6959155449052
 20
658.9070302164064
 30
0.0
 11
269.2795526773232
 21
658.9070302164064
 31
0.0
  0
LINE
  5
11139
330
1F
100
AcDbEntity
  8
0
  6
Continuous
100
AcDbLine
 10
269.6959155449052
 20
669.0670302164066
 30
0.0
 11
269.2795526773236
 21
669.0670302164066
 31
0.0
  0
LINE
  5
1113A
330
1F
100
AcDbEntity
  8
0
  6
Continuous
100
AcDbLine
 10
245.2282549650224
 20
669.0670302164066
 30
0.0
 11
245.2282549650234
 21
658.9070302164064
 31
0.0
  0
LINE
  5
1113B
330
1F
100
AcDbEntity
  8
0
  6
Continuous
100
AcDbLine
 10
245.2282549650234
 20
658.9070302164064
 30
0.0
 11
244.954817078991
 21
658.9070302164064
 31
0.0
  0
LINE
  5
1113C
330
1F
100
AcDbEntity
  8
0
  6
Continuous
100
AcDbLine
 10
244.9548170789898
 20
669.0670302164065
 30
0.0
 11
245.2282549650224
 21
669.0670302164066
 31
0.0
  0
LINE
  5
1113D
330
1F
100
AcDbEntity
  8
0
  6
Continuous
100
AcDbLine
 10
256.7096525626516
 20
658.9070302164064
 30
0.0
 11
245.2282549650234
 21
658.9070302164064
 31
0.0
  0
LINE
  5
1113E
330
1F
100
AcDbEntity
  8
0
  6
Continuous
100
AcDbLine
 10
245.2282549650224
 20
669.0670302164066
 30
0.0
 11
256.7096525626516
 21
669.0670302164066
 31
0.0
  0
LINE
  5
11141
330
1F
100
AcDbEntity
  8
0
  6
Continuous
100
AcDbLine
 10
244.5230105265619
 20
658.7038302164065
 30
0.0
 11
244.5230105265619
 21
669.2702302164065
 31
0.0
  0
LINE
  5
11142
330
1F
100
AcDbEntity
  8
0
  6
Continuous
100
AcDbLine
 10
270.0754105265622
 20
658.7038302164065
 30
0.0
 11
244.5230105265619
 21
658.7038302164065
 31
0.0
  0
LINE
  5
11143
330
1F
100
AcDbEntity
  8
0
  6
Continuous
100
AcDbLine
 10
270.0754105265622
 20
669.2702302164065
 30
0.0
 11
270.0754105265622
 21
658.7038302164065
 31
0.0
  0
LINE
  5
11144
330
1F
100
AcDbEntity
  8
0
  6
Continuous
100
AcDbLine
 10
244.5230105265619
 20
669.2702302164065
 30
0.0
 11
270.0754105265622
 21
669.2702302164065
 31
0.0
  0
LINE
  5
11145
330
1F
100
AcDbEntity
  8
0
  6
Continuous
100
AcDbLine
 10
277.1112105265623
 20
672.2420302164066
 30
0.0
 11
277.1112105265615
 21
655.7320302164064
 31
0.0
  0
LINE
  5
11146
330
1F
100
AcDbEntity
  8
0
  6
Continuous
100
AcDbLine
 10
239.0112105265623
 20
673.7660302164065
 30
0.0
 11
275.5872105265622
 21
673.7660302164065
 31
0.0
  0
LINE
  5
11147
330
1F
100
AcDbEntity
  8
0
  6
Continuous
100
AcDbLine
 10
275.5872105265618
 20
654.2080302164061
 30
0.0
 11
239.0112105265612
 21
654.2080302164067
 31
0.0
  0
LINE
  5
11148
330
1F
100
AcDbEntity
  8
0
  6
Continuous
100
AcDbLine
 10
237.487210526561
 20
655.7320302164065
 30
0.0
 11
237.487210526562
 21
672.2420302164066
 31
0.0
  0
ARC
  5
11149
330
1F
100
AcDbEntity
  8
0
  6
Continuous
100
AcDbCircle
 10
275.5872105265627
 20
672.242030216407
 30
0.0
 40
1.523999999999627
100
AcDbArc
 50
0.0000000000005129
 51
90.00000000001948
  0
ARC
  5
1114A
330
1F
100
AcDbEntity
  8
0
  6
Continuous
100
AcDbCircle
 10
239.0112105265612
 20
655.732030216407
 30
0.0
 40
1.524000000000191
100
AcDbArc
 50
180.0
 51
270.0000000000025
  0
ARC
  5
1114B
330
1F
100
AcDbEntity
  8
0
  6
Continuous
100
AcDbCircle
 10
275.5872105265618
 20
655.7320302164058
 30
0.0
 40
1.523999999999695
100
AcDbArc
 50
270.0
 51
0.0000000000005129
  0
ARC
  5
1114C
330
1F
100
AcDbEntity
  8
0
  6
Continuous
100
AcDbCircle
 10
239.0112105265615
 20
672.2420302164071
 30
0.0
 40
1.523999999999402
100
AcDbArc
 50
89.99999999997102
 51
180.0
  0
LINE
  5
11169
330
1F
100
AcDbEntity
  8
Base
100
AcDbLine
 10
536.8906236502567
 20
642.7941391915878
 30
0.0
 11
92.8885836502571
 21
642.7941391915879
 31
0.0
  0
ARC
  5
1116A
330
1F
100
AcDbEntity
  8
Base
100
AcDbCircle
 10
536.8906236502567
 20
644.7931191915879
 30
0.0
 40
1.998979999999998
100
AcDbArc
 50
270.0
 51
0.0
  0
LINE
  5
1116B
330
1F
100
AcDbEntity
  8
Base
100
AcDbLine
 10
536.8906236502567
 20
684.3941411915882
 30
0.0
 11
523.5896036502565
 21
684.3941411915882
 31
0.0
  0
LINE
  5
1116D
330
1F
100
AcDbEntity
  8
Base
100
AcDbLine
 10
538.8896036502567
 20
682.395161191588
 30
0.0
 11
538.8896036502567
 21
644.7931191915879
 31
0.0
  0
ARC
  5
1116F
330
1F
100
AcDbEntity
  8
Base
100
AcDbCircle
 10
536.8906236502567
 20
682.395161191588
 30
0.0
 40
1.998979999999998
100
AcDbArc
 50
0.0
 51
75.5451325797248
  0
LINE
  5
11171
330
1F
100
AcDbEntity
  8
Base
100
AcDbLine
 10
536.8896076502567
 20
643.7941371915883
 30
0.0
 11
92.88959965025707
 21
643.7941371915886
 31
0.0
  0
ARC
  5
11172
330
1F
100
AcDbEntity
  8
Base
100
AcDbCircle
 10
536.8896076502567
 20
644.7941351915885
 30
0.0
 40
0.9999979999999991
100
AcDbArc
 50
299.9998015216921
 51
0.0
  0
ARC
  5
11174
330
1F
100
AcDbEntity
  8
Base
100
AcDbCircle
 10
536.8896076502564
 20
682.3941451915877
 30
0.0
 40
0.9999979999999991
100
AcDbArc
 50
0.0
 51
60.00019847829904
  0
LINE
  5
11175
330
1F
100
AcDbEntity
  8
Base
100
AcDbLine
 10
538.8896036502567
 20
682.3941451915877
 30
0.0
 11
537.389603650261
 21
682.3941451915877
 31
0.0
  0
LINE
  5
11176
330
1F
100
AcDbEntity
  8
Base
100
AcDbLine
 10
538.8896036502567
 20
644.7941351915885
 30
0.0
 11
537.389603650261
 21
644.7941351915885
 31
0.0
  0
ARC
  5
11179
330
1F
100
AcDbEntity
  8
Base
100
AcDbCircle
 10
92.8885836502571
 20
644.7931191915881
 30
0.0
 40
1.998979999999998
100
AcDbArc
 50
180.0
 51
270.0
  0
LINE
  5
1117C
330
1F
100
AcDbEntity
  8
Base
100
AcDbLine
 10
90.88960365025718
 20
682.3951611915884
 30
0.0
 11
90.88960365025716
 21
644.7931191915881
 31
0.0
  0
ARC
  5
11180
330
1F
100
AcDbEntity
  8
Base
100
AcDbCircle
 10
92.88959965025707
 20
644.7941351915885
 30
0.0
 40
0.9999979999999991
100
AcDbArc
 50
180.0
 51
240.0001984788718
  0
LINE
  5
11181
330
1F
100
AcDbEntity
  8
Hidden
100
AcDbLine
 10
91.88960165025694
 20
682.394145191588
 30
0.0
 11
91.88960165025694
 21
644.7941351915885
 31
0.0
  0
ARC
  5
11182
330
1F
100
AcDbEntity
  8
Base
100
AcDbCircle
 10
92.88959965025707
 20
682.394145191588
 30
0.0
 40
0.9999979999999991
100
AcDbArc
 50
119.9998015211371
 51
180.0
  0
LINE
  5
11183
330
1F
100
AcDbEntity
  8
Base
100
AcDbLine
 10
90.88960365025718
 20
682.394145191588
 30
0.0
 11
92.38960365026107
 21
682.3941451915881
 31
0.0
  0
LINE
  5
11184
330
1F
100
AcDbEntity
  8
Base
100
AcDbLine
 10
90.88960365025716
 20
644.7941351915885
 30
0.0
 11
92.38960365026116
 21
644.7941351915883
 31
0.0
  0
ARC
  5
1119A
330
1F
100
AcDbEntity
  8
Base
100
AcDbCircle
 10
536.8906236502567
 20
682.395161191588
 30
0.0
 40
1.998979999999998
100
AcDbArc
 50
88.32127321021367
 51
89.99999999999998
  0
ARC
  5
1119C
330
1F
100
AcDbEntity
  8
Base
100
AcDbCircle
 10
92.88858365025712
 20
682.3951611915884
 30
0.0
 40
1.998979999999998
100
AcDbArc
 50
104.4548674200317
 51
180.0
  0
LINE
  5
1119D
330
1F
100
AcDbEntity
  8
CENTER
100
AcDbLine
 10
504.4036036502567
 20
664.0937102164065
 30
0.0
 11
508.9756036502566
 21
664.0937102164065
 31
0.0
  0
LINE
  5
1119E
330
1F
100
AcDbEntity
  8
CENTER
100
AcDbLine
 10
506.6896036502567
 20
661.8077102164065
 30
0.0
 11
506.6896036502567
 21
666.3797102164064
 31
0.0
  0
LINE
  5
11342
330
1F
100
AcDbEntity
  8
CONNECTOR
100
AcDbLine
 10
186.8083536502553
 20
497.5851257968147
 30
0.0
 11
186.8083536502553
 21
500.5086418862493
 31
0.0
  0
LINE
  5
11343
330
1F
100
AcDbEntity
  8
CONNECTOR
100
AcDbLine
 10
186.3003536502553
 20
501.0166418862493
 30
0.0
 11
186.8083536502553
 21
500.5086418862493
 31
0.0
  0
LINE
  5
11344
330
1F
100
AcDbEntity
  8
CONNECTOR
100
AcDbLine
 10
186.3003536502553
 20
501.0166418862493
 30
0.0
 11
179.3788536502552
 21
501.0166418862493
 31
0.0
  0
LINE
  5
11345
330
1F
100
AcDbEntity
  8
CONNECTOR
100
AcDbLine
 10
178.8708536502553
 20
497.5851257968147
 30
0.0
 11
178.8708536502553
 21
500.5086418862493
 31
0.0
  0
LINE
  5
11346
330
1F
100
AcDbEntity
  8
CONNECTOR
100
AcDbLine
 10
179.3788536502552
 20
501.0166418862493
 30
0.0
 11
178.8708536502553
 21
500.5086418862493
 31
0.0
  0
LINE
  5
11347
330
1F
100
AcDbEntity
  8
CONNECTOR
100
AcDbLine
 10
179.3788536502552
 20
501.0166418862493
 30
0.0
 11
179.3788536502553
 21
497.5851257968147
 31
0.0
  0
LINE
  5
11348
330
1F
100
AcDbEntity
  8
CONNECTOR
100
AcDbLine
 10
186.3003536502553
 20
501.0166418862493
 30
0.0
 11
186.3003536502553
 21
497.5851257968147
 31
0.0
  0
LINE
  5
11349
330
1F
100
AcDbEntity
  8
CONNECTOR
100
AcDbLine
 10
186.8083536502553
 20
500.5086418862493
 30
0.0
 11
178.8708536502553
 21
500.5086418862493
 31
0.0
  0
ARC
  5
1134A
330
1F
100
AcDbEntity
  8
FASTENER
100
AcDbCircle
 10
187.0197304072241
 20
495.6163915957537
 30
0.0
 40
1.968734201058435
100
AcDbArc
 50
48.05625452200557
 51
131.9437454779944
  0
LINE
  5
1134B
330
1F
100
AcDbEntity
  8
FASTENER
100
AcDbLine
 10
185.7038271982265
 20
497.0807389244169
 30
0.0
 11
185.7038271982265
 21
495.8932988376052
 31
0.0
  0
LINE
  5
1134C
330
1F
100
AcDbEntity
  8
FASTENER
100
AcDbLine
 10
177.3298976864196
 20
497.0807389244169
 30
0.0
 11
177.3298976864194
 21
495.8932988376142
 31
0.0
  0
LINE
  5
1134D
330
1F
100
AcDbEntity
  8
FASTENER
100
AcDbLine
 10
188.335633616223
 20
497.0807389244169
 30
0.0
 11
188.3356336162233
 21
495.8932988376052
 31
0.0
  0
ARC
  5
1134E
330
1F
100
AcDbEntity
  8
FASTENER
100
AcDbCircle
 10
187.0197304072241
 20
497.3576461662659
 30
0.0
 40
1.968734201058435
100
AcDbArc
 50
228.0562545220056
 51
311.9437454779944
  0
LINE
  5
1134F
330
1F
100
AcDbEntity
  8
FASTENER
100
AcDbLine
 10
187.0197304072241
 20
495.3889119652075
 30
0.0
 11
178.6594768932865
 21
495.3889119652076
 31
0.0
  0
LINE
  5
11350
330
1F
100
AcDbEntity
  8
FASTENER
100
AcDbLine
 10
179.9753801022839
 20
497.0807389244169
 30
0.0
 11
179.9753801022839
 21
495.8932988376052
 31
0.0
  0
ARC
  5
11351
330
1F
100
AcDbEntity
  8
FASTENER
100
AcDbCircle
 10
178.6594768932865
 20
497.3576461662659
 30
0.0
 40
1.968734201058435
100
AcDbArc
 50
228.0562545220056
 51
311.9437454779944
  0
ARC
  5
11352
330
1F
100
AcDbEntity
  8
FASTENER
100
AcDbCircle
 10
182.8396036502579
 20
503.7751712237738
 30
0.0
 40
8.386160554426393
100
AcDbArc
 50
250.0291692589788
 51
289.9708307409722
  0
LINE
  5
11353
330
1F
100
AcDbEntity
  8
FASTENER
100
AcDbLine
 10
187.0197304072241
 20
497.5851257968146
 30
0.0
 11
178.6594768932865
 21
497.5851257968146
 31
0.0
  0
ARC
  5
11354
330
1F
100
AcDbEntity
  8
FASTENER
100
AcDbCircle
 10
178.6594768932865
 20
495.6163915957537
 30
0.0
 40
1.968734201058435
100
AcDbArc
 50
48.05625452200557
 51
131.9437454779944
  0
ARC
  5
11355
330
1F
100
AcDbEntity
  8
FASTENER
100
AcDbCircle
 10
182.8396036502579
 20
489.1988665382482
 30
0.0
 40
8.386160554426393
100
AcDbArc
 50
70.02916925902777
 51
109.9708307410212
  0
LINE
  5
11356
330
1F
100
AcDbEntity
  8
FASTENER
 48
25.4
100
AcDbLine
 10
188.9685913921162
 20
495.3889119652076
 30
0.0
 11
188.9685913921162
 21
494.8086158862732
 31
0.0
  0
LINE
  5
11357
330
1F
100
AcDbEntity
  8
FASTENER
 48
25.4
100
AcDbLine
 10
176.7106159081162
 20
495.3889119652076
 30
0.0
 11
188.9685913921162
 21
495.3889119652076
 31
0.0
  0
LINE
  5
11358
330
1F
100
AcDbEntity
  8
FASTENER
 48
25.4
100
AcDbLine
 10
176.7106159081162
 20
494.8086158862732
 30
0.0
 11
176.7106159081162
 21
495.3889119652076
 31
0.0
  0
LINE
  5
11359
330
1F
100
AcDbEntity
  8
FASTENER
 48
25.4
100
AcDbLine
 10
188.9685913921162
 20
494.8086158862732
 30
0.0
 11
176.7106159081162
 21
494.8086158862732
 31
0.0
  0
LINE
  5
1135A
330
1F
100
AcDbEntity
  8
CONNECTOR
100
AcDbLine
 10
209.6683536502553
 20
497.5851257968147
 30
0.0
 11
209.6683536502553
 21
500.5086418862493
 31
0.0
  0
LINE
  5
1135B
330
1F
100
AcDbEntity
  8
CONNECTOR
100
AcDbLine
 10
209.1603536502553
 20
501.0166418862493
 30
0.0
 11
209.6683536502553
 21
500.5086418862493
 31
0.0
  0
LINE
  5
1135C
330
1F
100
AcDbEntity
  8
CONNECTOR
100
AcDbLine
 10
209.1603536502553
 20
501.0166418862493
 30
0.0
 11
202.2388536502553
 21
501.0166418862493
 31
0.0
  0
LINE
  5
1135D
330
1F
100
AcDbEntity
  8
CONNECTOR
100
AcDbLine
 10
201.7308536502553
 20
497.5851257968147
 30
0.0
 11
201.7308536502553
 21
500.5086418862493
 31
0.0
  0
LINE
  5
1135E
330
1F
100
AcDbEntity
  8
CONNECTOR
100
AcDbLine
 10
202.2388536502553
 20
501.0166418862493
 30
0.0
 11
201.7308536502553
 21
500.5086418862493
 31
0.0
  0
LINE
  5
1135F
330
1F
100
AcDbEntity
  8
CONNECTOR
100
AcDbLine
 10
202.2388536502553
 20
501.0166418862493
 30
0.0
 11
202.2388536502553
 21
497.5851257968147
 31
0.0
  0
LINE
  5
11360
330
1F
100
AcDbEntity
  8
CONNECTOR
100
AcDbLine
 10
209.1603536502553
 20
501.0166418862493
 30
0.0
 11
209.1603536502553
 21
497.5851257968147
 31
0.0
  0
LINE
  5
11361
330
1F
100
AcDbEntity
  8
CONNECTOR
100
AcDbLine
 10
209.6683536502553
 20
500.5086418862493
 30
0.0
 11
201.7308536502553
 21
500.5086418862493
 31
0.0
  0
ARC
  5
11362
330
1F
100
AcDbEntity
  8
FASTENER
100
AcDbCircle
 10
209.879730407224
 20
495.6163915957537
 30
0.0
 40
1.968734201058435
100
AcDbArc
 50
48.05625452200557
 51
131.9437454779944
  0
LINE
  5
11363
330
1F
100
AcDbEntity
  8
FASTENER
100
AcDbLine
 10
208.5638271982265
 20
497.0807389244169
 30
0.0
 11
208.5638271982265
 21
495.8932988376052
 31
0.0
  0
LINE
  5
11364
330
1F
100
AcDbEntity
  8
FASTENER
100
AcDbLine
 10
200.1898976864196
 20
497.0807389244169
 30
0.0
 11
200.1898976864195
 21
495.8932988376142
 31
0.0
  0
LINE
  5
11365
330
1F
100
AcDbEntity
  8
FASTENER
100
AcDbLine
 10
211.1956336162231
 20
497.0807389244169
 30
0.0
 11
211.1956336162232
 21
495.8932988376052
 31
0.0
  0
ARC
  5
11366
330
1F
100
AcDbEntity
  8
FASTENER
100
AcDbCircle
 10
209.879730407224
 20
497.3576461662659
 30
0.0
 40
1.968734201058435
100
AcDbArc
 50
228.0562545220056
 51
311.9437454779944
  0
LINE
  5
11367
330
1F
100
AcDbEntity
  8
FASTENER
100
AcDbLine
 10
209.879730407224
 20
495.3889119652075
 30
0.0
 11
201.5194768932865
 21
495.3889119652076
 31
0.0
  0
LINE
  5
11368
330
1F
100
AcDbEntity
  8
FASTENER
100
AcDbLine
 10
202.835380102284
 20
497.0807389244169
 30
0.0
 11
202.835380102284
 21
495.8932988376052
 31
0.0
  0
ARC
  5
11369
330
1F
100
AcDbEntity
  8
FASTENER
100
AcDbCircle
 10
201.5194768932865
 20
497.3576461662659
 30
0.0
 40
1.968734201058435
100
AcDbArc
 50
228.0562545220056
 51
311.9437454779944
  0
ARC
  5
1136A
330
1F
100
AcDbEntity
  8
FASTENER
100
AcDbCircle
 10
205.6996036502579
 20
503.7751712237738
 30
0.0
 40
8.386160554426393
100
AcDbArc
 50
250.0291692589788
 51
289.9708307409722
  0
LINE
  5
1136B
330
1F
100
AcDbEntity
  8
FASTENER
100
AcDbLine
 10
209.879730407224
 20
497.5851257968146
 30
0.0
 11
201.5194768932865
 21
497.5851257968146
 31
0.0
  0
ARC
  5
1136C
330
1F
100
AcDbEntity
  8
FASTENER
100
AcDbCircle
 10
201.5194768932865
 20
495.6163915957537
 30
0.0
 40
1.968734201058435
100
AcDbArc
 50
48.05625452200557
 51
131.9437454779944
  0
ARC
  5
1136D
330
1F
100
AcDbEntity
  8
FASTENER
100
AcDbCircle
 10
205.6996036502579
 20
489.1988665382482
 30
0.0
 40
8.386160554426393
100
AcDbArc
 50
70.02916925902777
 51
109.9708307410212
  0
LINE
  5
1136E
330
1F
100
AcDbEntity
  8
FASTENER
 48
25.4
100
AcDbLine
 10
211.8285913921162
 20
495.3889119652076
 30
0.0
 11
211.8285913921162
 21
494.8086158862732
 31
0.0
  0
LINE
  5
1136F
330
1F
100
AcDbEntity
  8
FASTENER
 48
25.4
100
AcDbLine
 10
199.5706159081162
 20
495.3889119652076
 30
0.0
 11
211.8285913921162
 21
495.3889119652076
 31
0.0
  0
LINE
  5
11370
330
1F
100
AcDbEntity
  8
FASTENER
 48
25.4
100
AcDbLine
 10
199.5706159081162
 20
494.8086158862732
 30
0.0
 11
199.5706159081162
 21
495.3889119652076
 31
0.0
  0
LINE
  5
11371
330
1F
100
AcDbEntity
  8
FASTENER
 48
25.4
100
AcDbLine
 10
211.8285913921162
 20
494.8086158862732
 30
0.0
 11
199.5706159081162
 21
494.8086158862732
 31
0.0
  0
LINE
  5
11372
330
1F
100
AcDbEntity
  8
CONNECTOR
100
AcDbLine
 10
232.5283536502553
 20
497.5851257968147
 30
0.0
 11
232.5283536502553
 21
500.5086418862493
 31
0.0
  0
LINE
  5
11373
330
1F
100
AcDbEntity
  8
CONNECTOR
100
AcDbLine
 10
232.0203536502553
 20
501.0166418862493
 30
0.0
 11
232.5283536502553
 21
500.5086418862493
 31
0.0
  0
LINE
  5
11374
330
1F
100
AcDbEntity
  8
CONNECTOR
100
AcDbLine
 10
232.0203536502553
 20
501.0166418862493
 30
0.0
 11
225.0988536502553
 21
501.0166418862493
 31
0.0
  0
LINE
  5
11375
330
1F
100
AcDbEntity
  8
CONNECTOR
100
AcDbLine
 10
224.5908536502553
 20
497.5851257968147
 30
0.0
 11
224.5908536502553
 21
500.5086418862493
 31
0.0
  0
LINE
  5
11376
330
1F
100
AcDbEntity
  8
CONNECTOR
100
AcDbLine
 10
225.0988536502553
 20
501.0166418862493
 30
0.0
 11
224.5908536502553
 21
500.5086418862493
 31
0.0
  0
LINE
  5
11377
330
1F
100
AcDbEntity
  8
CONNECTOR
100
AcDbLine
 10
225.0988536502553
 20
501.0166418862493
 30
0.0
 11
225.0988536502553
 21
497.5851257968147
 31
0.0
  0
LINE
  5
11378
330
1F
100
AcDbEntity
  8
CONNECTOR
100
AcDbLine
 10
232.0203536502553
 20
501.0166418862493
 30
0.0
 11
232.0203536502553
 21
497.5851257968147
 31
0.0
  0
LINE
  5
11379
330
1F
100
AcDbEntity
  8
CONNECTOR
100
AcDbLine
 10
232.5283536502553
 20
500.5086418862493
 30
0.0
 11
224.5908536502553
 21
500.5086418862493
 31
0.0
  0
ARC
  5
1137A
330
1F
100
AcDbEntity
  8
FASTENER
100
AcDbCircle
 10
232.7397304072241
 20
495.6163915957537
 30
0.0
 40
1.968734201058435
100
AcDbArc
 50
48.05625452200557
 51
131.9437454779944
  0
LINE
  5
1137B
330
1F
100
AcDbEntity
  8
FASTENER
100
AcDbLine
 10
231.4238271982265
 20
497.0807389244169
 30
0.0
 11
231.4238271982265
 21
495.8932988376052
 31
0.0
  0
LINE
  5
1137C
330
1F
100
AcDbEntity
  8
FASTENER
100
AcDbLine
 10
223.0498976864196
 20
497.0807389244169
 30
0.0
 11
223.0498976864195
 21
495.8932988376142
 31
0.0
  0
LINE
  5
1137D
330
1F
100
AcDbEntity
  8
FASTENER
100
AcDbLine
 10
234.0556336162231
 20
497.0807389244169
 30
0.0
 11
234.0556336162233
 21
495.8932988376052
 31
0.0
  0
ARC
  5
1137E
330
1F
100
AcDbEntity
  8
FASTENER
100
AcDbCircle
 10
232.7397304072241
 20
497.3576461662659
 30
0.0
 40
1.968734201058435
100
AcDbArc
 50
228.0562545220056
 51
311.9437454779944
  0
LINE
  5
1137F
330
1F
100
AcDbEntity
  8
FASTENER
100
AcDbLine
 10
232.7397304072241
 20
495.3889119652075
 30
0.0
 11
224.3794768932865
 21
495.3889119652076
 31
0.0
  0
LINE
  5
11380
330
1F
100
AcDbEntity
  8
FASTENER
100
AcDbLine
 10
225.6953801022839
 20
497.0807389244169
 30
0.0
 11
225.6953801022839
 21
495.8932988376052
 31
0.0
  0
ARC
  5
11381
330
1F
100
AcDbEntity
  8
FASTENER
100
AcDbCircle
 10
224.3794768932865
 20
497.3576461662659
 30
0.0
 40
1.968734201058435
100
AcDbArc
 50
228.0562545220056
 51
311.9437454779944
  0
ARC
  5
11382
330
1F
100
AcDbEntity
  8
FASTENER
100
AcDbCircle
 10
228.5596036502579
 20
503.7751712237738
 30
0.0
 40
8.386160554426393
100
AcDbArc
 50
250.0291692589788
 51
289.9708307409722
  0
LINE
  5
11383
330
1F
100
AcDbEntity
  8
FASTENER
100
AcDbLine
 10
232.7397304072241
 20
497.5851257968146
 30
0.0
 11
224.3794768932865
 21
497.5851257968146
 31
0.0
  0
ARC
  5
11384
330
1F
100
AcDbEntity
  8
FASTENER
100
AcDbCircle
 10
224.3794768932865
 20
495.6163915957537
 30
0.0
 40
1.968734201058435
100
AcDbArc
 50
48.05625452200557
 51
131.9437454779944
  0
ARC
  5
11385
330
1F
100
AcDbEntity
  8
FASTENER
100
AcDbCircle
 10
228.5596036502579
 20
489.1988665382482
 30
0.0
 40
8.386160554426393
100
AcDbArc
 50
70.02916925902777
 51
109.9708307410212
  0
LINE
  5
11386
330
1F
100
AcDbEntity
  8
FASTENER
 48
25.4
100
AcDbLine
 10
234.6885913921162
 20
495.3889119652076
 30
0.0
 11
234.6885913921162
 21
494.8086158862732
 31
0.0
  0
LINE
  5
11387
330
1F
100
AcDbEntity
  8
FASTENER
 48
25.4
100
AcDbLine
 10
222.4306159081162
 20
495.3889119652076
 30
0.0
 11
234.6885913921162
 21
495.3889119652076
 31
0.0
  0
LINE
  5
11388
330
1F
100
AcDbEntity
  8
FASTENER
 48
25.4
100
AcDbLine
 10
222.4306159081162
 20
494.8086158862732
 30
0.0
 11
222.4306159081162
 21
495.3889119652076
 31
0.0
  0
LINE
  5
11389
330
1F
100
AcDbEntity
  8
FASTENER
 48
25.4
100
AcDbLine
 10
234.6885913921162
 20
494.8086158862732
 30
0.0
 11
222.4306159081162
 21
494.8086158862732
 31
0.0
  0
LINE
  5
1138A
330
1F
100
AcDbEntity
  8
CONNECTOR
100
AcDbLine
 10
255.3883536502553
 20
497.5851257968147
 30
0.0
 11
255.3883536502553
 21
500.5086418862493
 31
0.0
  0
LINE
  5
1138B
330
1F
100
AcDbEntity
  8
CONNECTOR
100
AcDbLine
 10
254.8803536502553
 20
501.0166418862493
 30
0.0
 11
255.3883536502553
 21
500.5086418862493
 31
0.0
  0
LINE
  5
1138C
330
1F
100
AcDbEntity
  8
CONNECTOR
100
AcDbLine
 10
254.8803536502553
 20
501.0166418862493
 30
0.0
 11
247.9588536502553
 21
501.0166418862493
 31
0.0
  0
LINE
  5
1138D
330
1F
100
AcDbEntity
  8
CONNECTOR
100
AcDbLine
 10
247.4508536502553
 20
497.5851257968147
 30
0.0
 11
247.4508536502553
 21
500.5086418862493
 31
0.0
  0
LINE
  5
1138E
330
1F
100
AcDbEntity
  8
CONNECTOR
100
AcDbLine
 10
247.9588536502553
 20
501.0166418862493
 30
0.0
 11
247.4508536502553
 21
500.5086418862493
 31
0.0
  0
LINE
  5
1138F
330
1F
100
AcDbEntity
  8
CONNECTOR
100
AcDbLine
 10
247.9588536502553
 20
501.0166418862493
 30
0.0
 11
247.9588536502554
 21
497.5851257968147
 31
0.0
  0
LINE
  5
11390
330
1F
100
AcDbEntity
  8
CONNECTOR
100
AcDbLine
 10
254.8803536502553
 20
501.0166418862493
 30
0.0
 11
254.8803536502553
 21
497.5851257968147
 31
0.0
  0
LINE
  5
11391
330
1F
100
AcDbEntity
  8
CONNECTOR
100
AcDbLine
 10
255.3883536502553
 20
500.5086418862493
 30
0.0
 11
247.4508536502553
 21
500.5086418862493
 31
0.0
  0
ARC
  5
11392
330
1F
100
AcDbEntity
  8
FASTENER
100
AcDbCircle
 10
255.5997304072241
 20
495.6163915957537
 30
0.0
 40
1.968734201058435
100
AcDbArc
 50
48.05625452200557
 51
131.9437454779944
  0
LINE
  5
11393
330
1F
100
AcDbEntity
  8
FASTENER
100
AcDbLine
 10
254.2838271982265
 20
497.0807389244169
 30
0.0
 11
254.2838271982265
 21
495.8932988376052
 31
0.0
  0
LINE
  5
11394
330
1F
100
AcDbEntity
  8
FASTENER
100
AcDbLine
 10
245.9098976864196
 20
497.0807389244169
 30
0.0
 11
245.9098976864194
 21
495.8932988376142
 31
0.0
  0
LINE
  5
11395
330
1F
100
AcDbEntity
  8
FASTENER
100
AcDbLine
 10
256.9156336162231
 20
497.0807389244169
 30
0.0
 11
256.9156336162233
 21
495.8932988376052
 31
0.0
  0
ARC
  5
11396
330
1F
100
AcDbEntity
  8
FASTENER
100
AcDbCircle
 10
255.5997304072241
 20
497.3576461662659
 30
0.0
 40
1.968734201058435
100
AcDbArc
 50
228.0562545220056
 51
311.9437454779944
  0
LINE
  5
11397
330
1F
100
AcDbEntity
  8
FASTENER
100
AcDbLine
 10
255.5997304072241
 20
495.3889119652075
 30
0.0
 11
247.2394768932865
 21
495.3889119652076
 31
0.0
  0
LINE
  5
11398
330
1F
100
AcDbEntity
  8
FASTENER
100
AcDbLine
 10
248.5553801022839
 20
497.0807389244169
 30
0.0
 11
248.5553801022839
 21
495.8932988376052
 31
0.0
  0
ARC
  5
11399
330
1F
100
AcDbEntity
  8
FASTENER
100
AcDbCircle
 10
247.2394768932865
 20
497.3576461662659
 30
0.0
 40
1.968734201058435
100
AcDbArc
 50
228.0562545220056
 51
311.9437454779944
  0
ARC
  5
1139A
330
1F
100
AcDbEntity
  8
FASTENER
100
AcDbCircle
 10
251.4196036502579
 20
503.7751712237738
 30
0.0
 40
8.386160554426393
100
AcDbArc
 50
250.0291692589788
 51
289.9708307409722
  0
LINE
  5
1139B
330
1F
100
AcDbEntity
  8
FASTENER
100
AcDbLine
 10
255.5997304072241
 20
497.5851257968146
 30
0.0
 11
247.2394768932865
 21
497.5851257968146
 31
0.0
  0
ARC
  5
1139C
330
1F
100
AcDbEntity
  8
FASTENER
100
AcDbCircle
 10
247.2394768932865
 20
495.6163915957537
 30
0.0
 40
1.968734201058435
100
AcDbArc
 50
48.05625452200557
 51
131.9437454779944
  0
ARC
  5
1139D
330
1F
100
AcDbEntity
  8
FASTENER
100
AcDbCircle
 10
251.4196036502579
 20
489.1988665382482
 30
0.0
 40
8.386160554426393
100
AcDbArc
 50
70.02916925902777
 51
109.9708307410212
  0
LINE
  5
1139E
330
1F
100
AcDbEntity
  8
FASTENER
 48
25.4
100
AcDbLine
 10
257.5485913921162
 20
495.3889119652076
 30
0.0
 11
257.5485913921162
 21
494.8086158862732
 31
0.0
  0
LINE
  5
1139F
330
1F
100
AcDbEntity
  8
FASTENER
 48
25.4
100
AcDbLine
 10
245.2906159081162
 20
495.3889119652076
 30
0.0
 11
257.5485913921162
 21
495.3889119652076
 31
0.0
  0
LINE
  5
113A0
330
1F
100
AcDbEntity
  8
FASTENER
 48
25.4
100
AcDbLine
 10
245.2906159081162
 20
494.8086158862732
 30
0.0
 11
245.2906159081162
 21
495.3889119652076
 31
0.0
  0
LINE
  5
113A1
330
1F
100
AcDbEntity
  8
FASTENER
 48
25.4
100
AcDbLine
 10
257.5485913921162
 20
494.8086158862732
 30
0.0
 11
245.2906159081162
 21
494.8086158862732
 31
0.0
  0
LINE
  5
113A2
330
1F
100
AcDbEntity
  8
CONNECTOR
100
AcDbLine
 10
278.2483536502553
 20
497.5851257968147
 30
0.0
 11
278.2483536502553
 21
500.5086418862493
 31
0.0
  0
LINE
  5
113A3
330
1F
100
AcDbEntity
  8
CONNECTOR
100
AcDbLine
 10
277.7403536502553
 20
501.0166418862493
 30
0.0
 11
278.2483536502553
 21
500.5086418862493
 31
0.0
  0
LINE
  5
113A4
330
1F
100
AcDbEntity
  8
CONNECTOR
100
AcDbLine
 10
277.7403536502553
 20
501.0166418862493
 30
0.0
 11
270.8188536502553
 21
501.0166418862493
 31
0.0
  0
LINE
  5
113A5
330
1F
100
AcDbEntity
  8
CONNECTOR
100
AcDbLine
 10
270.3108536502553
 20
497.5851257968147
 30
0.0
 11
270.3108536502553
 21
500.5086418862493
 31
0.0
  0
LINE
  5
113A6
330
1F
100
AcDbEntity
  8
CONNECTOR
100
AcDbLine
 10
270.8188536502553
 20
501.0166418862493
 30
0.0
 11
270.3108536502553
 21
500.5086418862493
 31
0.0
  0
LINE
  5
113A7
330
1F
100
AcDbEntity
  8
CONNECTOR
100
AcDbLine
 10
270.8188536502553
 20
501.0166418862493
 30
0.0
 11
270.8188536502553
 21
497.5851257968147
 31
0.0
  0
LINE
  5
113A8
330
1F
100
AcDbEntity
  8
CONNECTOR
100
AcDbLine
 10
277.7403536502553
 20
501.0166418862493
 30
0.0
 11
277.7403536502553
 21
497.5851257968147
 31
0.0
  0
LINE
  5
113A9
330
1F
100
AcDbEntity
  8
CONNECTOR
100
AcDbLine
 10
278.2483536502553
 20
500.5086418862493
 30
0.0
 11
270.3108536502553
 21
500.5086418862493
 31
0.0
  0
ARC
  5
113AA
330
1F
100
AcDbEntity
  8
FASTENER
100
AcDbCircle
 10
278.4597304072241
 20
495.6163915957537
 30
0.0
 40
1.968734201058435
100
AcDbArc
 50
48.05625452200557
 51
131.9437454779944
  0
LINE
  5
113AB
330
1F
100
AcDbEntity
  8
FASTENER
100
AcDbLine
 10
277.1438271982265
 20
497.0807389244169
 30
0.0
 11
277.1438271982265
 21
495.8932988376052
 31
0.0
  0
LINE
  5
113AC
330
1F
100
AcDbEntity
  8
FASTENER
100
AcDbLine
 10
268.7698976864196
 20
497.0807389244169
 30
0.0
 11
268.7698976864194
 21
495.8932988376142
 31
0.0
  0
LINE
  5
113AD
330
1F
100
AcDbEntity
  8
FASTENER
100
AcDbLine
 10
279.7756336162231
 20
497.0807389244169
 30
0.0
 11
279.7756336162233
 21
495.8932988376052
 31
0.0
  0
ARC
  5
113AE
330
1F
100
AcDbEntity
  8
FASTENER
100
AcDbCircle
 10
278.4597304072241
 20
497.3576461662659
 30
0.0
 40
1.968734201058435
100
AcDbArc
 50
228.0562545220056
 51
311.9437454779944
  0
LINE
  5
113AF
330
1F
100
AcDbEntity
  8
FASTENER
100
AcDbLine
 10
278.4597304072241
 20
495.3889119652075
 30
0.0
 11
270.0994768932865
 21
495.3889119652076
 31
0.0
  0
LINE
  5
113B0
330
1F
100
AcDbEntity
  8
FASTENER
100
AcDbLine
 10
271.415380102284
 20
497.0807389244169
 30
0.0
 11
271.415380102284
 21
495.8932988376052
 31
0.0
  0
ARC
  5
113B1
330
1F
100
AcDbEntity
  8
FASTENER
100
AcDbCircle
 10
270.0994768932865
 20
497.3576461662659
 30
0.0
 40
1.968734201058435
100
AcDbArc
 50
228.0562545220056
 51
311.9437454779944
  0
ARC
  5
113B2
330
1F
100
AcDbEntity
  8
FASTENER
100
AcDbCircle
 10
274.2796036502579
 20
503.7751712237738
 30
0.0
 40
8.386160554426393
100
AcDbArc
 50
250.0291692589788
 51
289.9708307409722
  0
LINE
  5
113B3
330
1F
100
AcDbEntity
  8
FASTENER
100
AcDbLine
 10
278.4597304072241
 20
497.5851257968146
 30
0.0
 11
270.0994768932865
 21
497.5851257968146
 31
0.0
  0
ARC
  5
113B4
330
1F
100
AcDbEntity
  8
FASTENER
100
AcDbCircle
 10
270.0994768932865
 20
495.6163915957537
 30
0.0
 40
1.968734201058435
100
AcDbArc
 50
48.05625452200557
 51
131.9437454779944
  0
ARC
  5
113B5
330
1F
100
AcDbEntity
  8
FASTENER
100
AcDbCircle
 10
274.2796036502579
 20
489.1988665382482
 30
0.0
 40
8.386160554426393
100
AcDbArc
 50
70.02916925902777
 51
109.9708307410212
  0
LINE
  5
113B6
330
1F
100
AcDbEntity
  8
FASTENER
 48
25.4
100
AcDbLine
 10
280.4085913921162
 20
495.3889119652076
 30
0.0
 11
280.4085913921162
 21
494.8086158862732
 31
0.0
  0
LINE
  5
113B7
330
1F
100
AcDbEntity
  8
FASTENER
 48
25.4
100
AcDbLine
 10
268.1506159081162
 20
495.3889119652076
 30
0.0
 11
280.4085913921162
 21
495.3889119652076
 31
0.0
  0
LINE
  5
113B8
330
1F
100
AcDbEntity
  8
FASTENER
 48
25.4
100
AcDbLine
 10
268.1506159081162
 20
494.8086158862732
 30
0.0
 11
268.1506159081162
 21
495.3889119652076
 31
0.0
  0
LINE
  5
113B9
330
1F
100
AcDbEntity
  8
FASTENER
 48
25.4
100
AcDbLine
 10
280.4085913921162
 20
494.8086158862732
 30
0.0
 11
268.1506159081162
 21
494.8086158862732
 31
0.0
  0
LINE
  5
113BA
330
1F
100
AcDbEntity
  8
CONNECTOR
100
AcDbLine
 10
301.1083536502553
 20
497.5851257968147
 30
0.0
 11
301.1083536502553
 21
500.5086418862493
 31
0.0
  0
LINE
  5
113BB
330
1F
100
AcDbEntity
  8
CONNECTOR
100
AcDbLine
 10
300.6003536502553
 20
501.0166418862493
 30
0.0
 11
301.1083536502553
 21
500.5086418862493
 31
0.0
  0
LINE
  5
113BC
330
1F
100
AcDbEntity
  8
CONNECTOR
100
AcDbLine
 10
300.6003536502553
 20
501.0166418862493
 30
0.0
 11
293.6788536502553
 21
501.0166418862493
 31
0.0
  0
LINE
  5
113BD
330
1F
100
AcDbEntity
  8
CONNECTOR
100
AcDbLine
 10
293.1708536502553
 20
497.5851257968147
 30
0.0
 11
293.1708536502553
 21
500.5086418862493
 31
0.0
  0
LINE
  5
113BE
330
1F
100
AcDbEntity
  8
CONNECTOR
100
AcDbLine
 10
293.6788536502553
 20
501.0166418862493
 30
0.0
 11
293.1708536502553
 21
500.5086418862493
 31
0.0
  0
LINE
  5
113BF
330
1F
100
AcDbEntity
  8
CONNECTOR
100
AcDbLine
 10
293.6788536502553
 20
501.0166418862493
 30
0.0
 11
293.6788536502553
 21
497.5851257968147
 31
0.0
  0
LINE
  5
113C0
330
1F
100
AcDbEntity
  8
CONNECTOR
100
AcDbLine
 10
300.6003536502553
 20
501.0166418862493
 30
0.0
 11
300.6003536502553
 21
497.5851257968147
 31
0.0
  0
LINE
  5
113C1
330
1F
100
AcDbEntity
  8
CONNECTOR
100
AcDbLine
 10
301.1083536502553
 20
500.5086418862493
 30
0.0
 11
293.1708536502553
 21
500.5086418862493
 31
0.0
  0
ARC
  5
113C2
330
1F
100
AcDbEntity
  8
FASTENER
100
AcDbCircle
 10
301.319730407224
 20
495.6163915957537
 30
0.0
 40
1.968734201058435
100
AcDbArc
 50
48.05625452200557
 51
131.9437454779944
  0
LINE
  5
113C3
330
1F
100
AcDbEntity
  8
FASTENER
100
AcDbLine
 10
300.0038271982266
 20
497.0807389244169
 30
0.0
 11
300.0038271982266
 21
495.8932988376052
 31
0.0
  0
LINE
  5
113C4
330
1F
100
AcDbEntity
  8
FASTENER
100
AcDbLine
 10
291.6298976864196
 20
497.0807389244169
 30
0.0
 11
291.6298976864194
 21
495.8932988376142
 31
0.0
  0
LINE
  5
113C5
330
1F
100
AcDbEntity
  8
FASTENER
100
AcDbLine
 10
302.6356336162231
 20
497.0807389244169
 30
0.0
 11
302.6356336162232
 21
495.8932988376052
 31
0.0
  0
ARC
  5
113C6
330
1F
100
AcDbEntity
  8
FASTENER
100
AcDbCircle
 10
301.319730407224
 20
497.3576461662659
 30
0.0
 40
1.968734201058435
100
AcDbArc
 50
228.0562545220056
 51
311.9437454779944
  0
LINE
  5
113C7
330
1F
100
AcDbEntity
  8
FASTENER
100
AcDbLine
 10
301.319730407224
 20
495.3889119652075
 30
0.0
 11
292.9594768932865
 21
495.3889119652076
 31
0.0
  0
LINE
  5
113C8
330
1F
100
AcDbEntity
  8
FASTENER
100
AcDbLine
 10
294.275380102284
 20
497.0807389244169
 30
0.0
 11
294.275380102284
 21
495.8932988376052
 31
0.0
  0
ARC
  5
113C9
330
1F
100
AcDbEntity
  8
FASTENER
100
AcDbCircle
 10
292.9594768932865
 20
497.3576461662659
 30
0.0
 40
1.968734201058435
100
AcDbArc
 50
228.0562545220056
 51
311.9437454779944
  0
ARC
  5
113CA
330
1F
100
AcDbEntity
  8
FASTENER
100
AcDbCircle
 10
297.1396036502579
 20
503.7751712237738
 30
0.0
 40
8.386160554426393
100
AcDbArc
 50
250.0291692589788
 51
289.9708307409722
  0
LINE
  5
113CB
330
1F
100
AcDbEntity
  8
FASTENER
100
AcDbLine
 10
301.319730407224
 20
497.5851257968146
 30
0.0
 11
292.9594768932865
 21
497.5851257968146
 31
0.0
  0
ARC
  5
113CC
330
1F
100
AcDbEntity
  8
FASTENER
100
AcDbCircle
 10
292.9594768932865
 20
495.6163915957537
 30
0.0
 40
1.968734201058435
100
AcDbArc
 50
48.05625452200557
 51
131.9437454779944
  0
ARC
  5
113CD
330
1F
100
AcDbEntity
  8
FASTENER
100
AcDbCircle
 10
297.1396036502579
 20
489.1988665382482
 30
0.0
 40
8.386160554426393
100
AcDbArc
 50
70.02916925902777
 51
109.9708307410212
  0
LINE
  5
113CE
330
1F
100
AcDbEntity
  8
FASTENER
 48
25.4
100
AcDbLine
 10
303.2685913921162
 20
495.3889119652076
 30
0.0
 11
303.2685913921162
 21
494.8086158862732
 31
0.0
  0
LINE
  5
113CF
330
1F
100
AcDbEntity
  8
FASTENER
 48
25.4
100
AcDbLine
 10
291.0106159081162
 20
495.3889119652076
 30
0.0
 11
303.2685913921162
 21
495.3889119652076
 31
0.0
  0
LINE
  5
113D0
330
1F
100
AcDbEntity
  8
FASTENER
 48
25.4
100
AcDbLine
 10
291.0106159081162
 20
494.8086158862732
 30
0.0
 11
291.0106159081162
 21
495.3889119652076
 31
0.0
  0
LINE
  5
113D1
330
1F
100
AcDbEntity
  8
FASTENER
 48
25.4
100
AcDbLine
 10
303.2685913921162
 20
494.8086158862732
 30
0.0
 11
291.0106159081162
 21
494.8086158862732
 31
0.0
  0
LINE
  5
113D2
330
1F
100
AcDbEntity
  8
CONNECTOR
100
AcDbLine
 10
323.9683536502553
 20
497.5851257968147
 30
0.0
 11
323.9683536502553
 21
500.5086418862493
 31
0.0
  0
LINE
  5
113D3
330
1F
100
AcDbEntity
  8
CONNECTOR
100
AcDbLine
 10
323.4603536502553
 20
501.0166418862493
 30
0.0
 11
323.9683536502553
 21
500.5086418862493
 31
0.0
  0
LINE
  5
113D4
330
1F
100
AcDbEntity
  8
CONNECTOR
100
AcDbLine
 10
323.4603536502553
 20
501.0166418862493
 30
0.0
 11
316.5388536502553
 21
501.0166418862493
 31
0.0
  0
LINE
  5
113D5
330
1F
100
AcDbEntity
  8
CONNECTOR
100
AcDbLine
 10
316.0308536502553
 20
497.5851257968147
 30
0.0
 11
316.0308536502553
 21
500.5086418862493
 31
0.0
  0
LINE
  5
113D6
330
1F
100
AcDbEntity
  8
CONNECTOR
100
AcDbLine
 10
316.5388536502553
 20
501.0166418862493
 30
0.0
 11
316.0308536502553
 21
500.5086418862493
 31
0.0
  0
LINE
  5
113D7
330
1F
100
AcDbEntity
  8
CONNECTOR
100
AcDbLine
 10
316.5388536502553
 20
501.0166418862493
 30
0.0
 11
316.5388536502553
 21
497.5851257968147
 31
0.0
  0
LINE
  5
113D8
330
1F
100
AcDbEntity
  8
CONNECTOR
100
AcDbLine
 10
323.4603536502553
 20
501.0166418862493
 30
0.0
 11
323.4603536502553
 21
497.5851257968147
 31
0.0
  0
LINE
  5
113D9
330
1F
100
AcDbEntity
  8
CONNECTOR
100
AcDbLine
 10
323.9683536502553
 20
500.5086418862493
 30
0.0
 11
316.0308536502553
 21
500.5086418862493
 31
0.0
  0
ARC
  5
113DA
330
1F
100
AcDbEntity
  8
FASTENER
100
AcDbCircle
 10
324.179730407224
 20
495.6163915957537
 30
0.0
 40
1.968734201058435
100
AcDbArc
 50
48.05625452200557
 51
131.9437454779944
  0
LINE
  5
113DB
330
1F
100
AcDbEntity
  8
FASTENER
100
AcDbLine
 10
322.8638271982265
 20
497.0807389244169
 30
0.0
 11
322.8638271982265
 21
495.8932988376052
 31
0.0
  0
LINE
  5
113DC
330
1F
100
AcDbEntity
  8
FASTENER
100
AcDbLine
 10
314.4898976864196
 20
497.0807389244169
 30
0.0
 11
314.4898976864194
 21
495.8932988376142
 31
0.0
  0
LINE
  5
113DD
330
1F
100
AcDbEntity
  8
FASTENER
100
AcDbLine
 10
325.495633616223
 20
497.0807389244169
 30
0.0
 11
325.4956336162233
 21
495.8932988376052
 31
0.0
  0
ARC
  5
113DE
330
1F
100
AcDbEntity
  8
FASTENER
100
AcDbCircle
 10
324.179730407224
 20
497.3576461662659
 30
0.0
 40
1.968734201058435
100
AcDbArc
 50
228.0562545220056
 51
311.9437454779944
  0
LINE
  5
113DF
330
1F
100
AcDbEntity
  8
FASTENER
100
AcDbLine
 10
324.179730407224
 20
495.3889119652075
 30
0.0
 11
315.8194768932865
 21
495.3889119652076
 31
0.0
  0
LINE
  5
113E0
330
1F
100
AcDbEntity
  8
FASTENER
100
AcDbLine
 10
317.1353801022839
 20
497.0807389244169
 30
0.0
 11
317.1353801022839
 21
495.8932988376052
 31
0.0
  0
ARC
  5
113E1
330
1F
100
AcDbEntity
  8
FASTENER
100
AcDbCircle
 10
315.8194768932865
 20
497.3576461662659
 30
0.0
 40
1.968734201058435
100
AcDbArc
 50
228.0562545220056
 51
311.9437454779944
  0
ARC
  5
113E2
330
1F
100
AcDbEntity
  8
FASTENER
100
AcDbCircle
 10
319.9996036502579
 20
503.7751712237738
 30
0.0
 40
8.386160554426393
100
AcDbArc
 50
250.0291692589788
 51
289.9708307409722
  0
LINE
  5
113E3
330
1F
100
AcDbEntity
  8
FASTENER
100
AcDbLine
 10
324.179730407224
 20
497.5851257968146
 30
0.0
 11
315.8194768932865
 21
497.5851257968146
 31
0.0
  0
ARC
  5
113E4
330
1F
100
AcDbEntity
  8
FASTENER
100
AcDbCircle
 10
315.8194768932865
 20
495.6163915957537
 30
0.0
 40
1.968734201058435
100
AcDbArc
 50
48.05625452200557
 51
131.9437454779944
  0
ARC
  5
113E5
330
1F
100
AcDbEntity
  8
FASTENER
100
AcDbCircle
 10
319.9996036502579
 20
489.1988665382482
 30
0.0
 40
8.386160554426393
100
AcDbArc
 50
70.02916925902777
 51
109.9708307410212
  0
LINE
  5
113E6
330
1F
100
AcDbEntity
  8
FASTENER
 48
25.4
100
AcDbLine
 10
326.1285913921162
 20
495.3889119652076
 30
0.0
 11
326.1285913921162
 21
494.8086158862732
 31
0.0
  0
LINE
  5
113E7
330
1F
100
AcDbEntity
  8
FASTENER
 48
25.4
100
AcDbLine
 10
313.8706159081162
 20
495.3889119652076
 30
0.0
 11
326.1285913921162
 21
495.3889119652076
 31
0.0
  0
LINE
  5
113E8
330
1F
100
AcDbEntity
  8
FASTENER
 48
25.4
100
AcDbLine
 10
313.8706159081162
 20
494.8086158862732
 30
0.0
 11
313.8706159081162
 21
495.3889119652076
 31
0.0
  0
LINE
  5
113E9
330
1F
100
AcDbEntity
  8
FASTENER
 48
25.4
100
AcDbLine
 10
326.1285913921162
 20
494.8086158862732
 30
0.0
 11
313.8706159081162
 21
494.8086158862732
 31
0.0
  0
LINE
  5
113EA
330
1F
100
AcDbEntity
  8
0
  6
Continuous
100
AcDbLine
 10
359.2170913845116
 20
497.4210487866399
 30
0.0
 11
359.2044852836257
 21
497.3722983704671
 31
0.0
  0
ARC
  5
113EB
330
1F
100
AcDbEntity
  8
0
  6
Continuous
100
AcDbCircle
 10
354.2092967739525
 20
495.659515886273
 30
0.0
 40
1.511299999999973
100
AcDbArc
 50
89.99999999999579
 51
180.0000000000004
  0
LINE
  5
113EC
330
1F
100
AcDbEntity
  8
0
  6
Continuous
100
AcDbLine
 10
354.2219967739526
 20
497.1708158862731
 30
0.0
 11
354.2092967739526
 21
497.1708158862729
 31
0.0
  0
LINE
  5
113ED
330
1F
100
AcDbEntity
  8
0
  6
Continuous
100
AcDbLine
 10
354.2219967739526
 20
495.6595158862731
 30
0.0
 11
354.2219967739526
 21
497.1708158862731
 31
0.0
  0
LINE
  5
113EE
330
1F
100
AcDbEntity
  8
0
  6
Continuous
100
AcDbLine
 10
390.7979967739525
 20
495.659515886272
 30
0.0
 11
390.7979967739525
 21
497.1708158862723
 31
0.0
  0
LINE
  5
113EF
330
1F
100
AcDbEntity
  8
0
  6
Continuous
100
AcDbLine
 10
390.8106967739527
 20
497.1708158862723
 30
0.0
 11
390.7979967739525
 21
497.1708158862723
 31
0.0
  0
ARC
  5
113F0
330
1F
100
AcDbEntity
  8
0
  6
Continuous
100
AcDbCircle
 10
390.8106967739524
 20
495.6595158862724
 30
0.0
 40
1.511299999999928
100
AcDbArc
 50
0.0000000000007693
 51
89.99999999998884
  0
LINE
  5
113F1
330
1F
100
AcDbEntity
  8
0
  6
Continuous
100
AcDbLine
 10
392.3219967739532
 20
494.8086158862721
 30
0.0
 11
392.3219967739523
 21
495.659515886272
 31
0.0
  0
LINE
  5
113F3
330
1F
100
AcDbEntity
  8
0
  6
Continuous
100
AcDbLine
 10
390.7979967739525
 20
497.1708158862723
 30
0.0
 11
386.1027942901598
 21
497.1708158862719
 31
0.0
  0
LINE
  5
113F4
330
1F
100
AcDbEntity
  8
0
  6
Continuous
100
AcDbLine
 10
358.9171997617916
 20
497.170815886274
 30
0.0
 11
354.2219967739526
 21
497.1708158862731
 31
0.0
  0
LINE
  5
113F6
330
1F
100
AcDbEntity
  8
0
  6
Continuous
100
AcDbLine
 10
352.6979967739526
 20
494.808615886273
 30
0.0
 11
352.6979967739526
 21
495.6595158862731
 31
0.0
  0
ARC
  5
113F8
330
1F
100
AcDbEntity
  8
0
  6
Continuous
100
AcDbCircle
 10
359.4404326929944
 20
497.58266435773
 30
0.0
 40
0.2775151275425046
100
AcDbArc
 50
219.3542292613406
 51
283.522134587169
  0
ARC
  5
113F9
330
1F
100
AcDbEntity
  8
0
  6
Continuous
100
AcDbCircle
 10
358.9170817028187
 20
497.472771241798
 30
0.0
 40
0.3044355785335724
100
AcDbArc
 50
269.9260193224566
 51
350.2182146587017
  0
ARC
  5
113FA
330
1F
100
AcDbEntity
  8
0
  6
Continuous
100
AcDbCircle
 10
372.5099967739524
 20
495.1388158862721
 30
0.0
 40
13.48740000000069
100
AcDbArc
 50
9.742065777821206
 51
44.14412964565577
  0
ARC
  5
113FB
330
1F
100
AcDbEntity
  8
0
  6
Continuous
100
AcDbCircle
 10
372.5099967739496
 20
495.1388158862735
 30
0.0
 40
13.48739999999677
100
AcDbArc
 50
135.8558703543354
 51
170.2579799200013
  0
ARC
  5
1140F
330
1F
100
AcDbEntity
  8
0
  6
Continuous
100
AcDbCircle
 10
358.9171991737551
 20
497.4756158862716
 30
0.0
 40
0.3047999999983903
100
AcDbArc
 50
270.0001105380838
 51
350.2453727462502
  0
LINE
  5
11410
330
1F
100
AcDbEntity
  8
0
  6
Continuous
100
AcDbLine
 10
359.217592490885
 20
497.4239738973219
 30
0.0
 11
359.2170913845116
 21
497.4210487866399
 31
0.0
  0
ARC
  5
11411
330
1F
100
AcDbEntity
  8
0
  6
Continuous
100
AcDbCircle
 10
386.1027943741534
 20
497.4756158862725
 30
0.0
 40
0.3048000000005417
100
AcDbArc
 50
189.7546272538012
 51
269.9999842110149
  0
ARC
  5
11412
330
1F
100
AcDbEntity
  8
0
  6
Continuous
100
AcDbCircle
 10
381.2770819087054
 20
503.6478158862733
 30
0.0
 40
1.270000000000456
100
AcDbArc
 50
44.14412964562594
 51
90.00000000000204
  0
ARC
  5
11413
330
1F
100
AcDbEntity
  8
0
  6
Continuous
100
AcDbCircle
 10
363.7429116392011
 20
503.6478158862724
 30
0.0
 40
1.270000000001487
100
AcDbArc
 50
90.0000000000041
 51
135.8558703543554
  0
LINE
  5
11414
330
1F
100
AcDbEntity
  8
0
  6
Continuous
100
AcDbLine
 10
381.2770819088791
 20
504.917815886273
 30
0.0
 11
363.7429116392007
 21
504.917815886273
 31
0.0
  0
LINE
  5
11449
330
1F
100
AcDbEntity
  8
0
  6
Continuous
100
AcDbLine
 10
385.6126329742421
 20
498.3211803340806
 30
0.0
 11
385.8024010570214
 21
497.4239738973221
 31
0.0
  0
LWPOLYLINE
  5
1144A
330
1F
100
AcDbEntity
  8
0
  6
Continuous
100
AcDbPolyline
 90
        3
 70
   128
 43
0.0
 10
359.2175924908843
 20
497.4239738973222
 10
359.3894911733626
 20
498.2632824879314
 10
359.42060392342
 20
498.3787513485149
  0
LINE
  5
1144B
330
1F
100
AcDbEntity
  8
0
  6
Continuous
100
AcDbLine
 10
359.4962262639739
 20
498.6594088115245
 30
0.0
 11
359.595125151078
 21
499.0264526050101
 31
0.0
  0
LINE
  5
1144C
330
1F
100
AcDbEntity
  8
0
  6
Continuous
100
AcDbLine
 10
362.5002615468179
 20
504.1566745298681
 30
0.0
 11
362.8315722281036
 21
504.5323273207841
 31
0.0
  0
LINE
  5
1144D
330
1F
100
AcDbEntity
  8
0
  6
Continuous
100
AcDbLine
 10
363.2615431852486
 20
504.8230539096276
 30
0.0
 11
363.7429116392016
 21
504.9178158862726
 31
0.0
  0
LINE
  5
11456
330
1F
100
AcDbEntity
  8
0
  6
Continuous
100
AcDbLine
 10
405.5936636502534
 20
493.8086178862719
 30
0.0
 11
477.4756636502533
 21
493.8086178862719
 31
0.0
  0
LINE
  5
1145E
330
1F
100
AcDbEntity
  8
0
  6
Continuous
100
AcDbLine
 10
445.9796636502533
 20
494.9516178862719
 30
0.0
 11
446.4876636502533
 21
494.9516178862719
 31
0.0
  0
ARC
  5
1145F
330
1F
100
AcDbEntity
  8
0
  6
Continuous
100
AcDbCircle
 10
446.4876636502533
 20
493.9356178862719
 30
0.0
 40
1.016000000000022
100
AcDbArc
 50
59.23247694647936
 51
90.00000000000039
  0
LINE
  5
11461
330
1F
100
AcDbEntity
  8
0
  6
Continuous
100
AcDbLine
 10
413.4676636502534
 20
494.9516178862719
 30
0.0
 11
445.9796636502533
 21
494.9516178862719
 31
0.0
  0
ARC
  5
11463
330
1F
100
AcDbEntity
  8
0
  6
Continuous
100
AcDbCircle
 10
412.9596636502533
 20
493.9356178862719
 30
0.0
 40
1.016000000000022
100
AcDbArc
 50
90.00000000000039
 51
120.7675230535206
  0
LINE
  5
11464
330
1F
100
AcDbEntity
  8
0
  6
Continuous
100
AcDbLine
 10
412.9596636502533
 20
494.9516178862719
 30
0.0
 11
413.4676636502534
 21
494.9516178862719
 31
0.0
  0
LINE
  5
1146A
330
1F
100
AcDbEntity
  8
0
  6
Continuous
100
AcDbLine
 10
609.3317075893537
 20
495.6595158862727
 30
0.0
 11
609.3317075893537
 21
497.1708158862726
 31
0.0
  0
LINE
  5
1146B
330
1F
100
AcDbEntity
  8
0
  6
Continuous
100
AcDbLine
 10
609.3444075893536
 20
497.1708158862727
 30
0.0
 11
609.3317075893537
 21
497.1708158862726
 31
0.0
  0
ARC
  5
1146C
330
1F
100
AcDbEntity
  8
0
  6
Continuous
100
AcDbCircle
 10
609.3444075893538
 20
495.6595158862727
 30
0.0
 40
1.511299999999995
100
AcDbArc
 50
0.0
 51
90.00000000000333
  0
ARC
  5
1146D
330
1F
100
AcDbEntity
  8
0
  6
Continuous
100
AcDbCircle
 10
592.809007589354
 20
495.659515886273
 30
0.0
 40
1.51130000000004
100
AcDbArc
 50
90.00000000001179
 51
180.0000000000004
  0
LINE
  5
1146E
330
1F
100
AcDbEntity
  8
0
  6
Continuous
100
AcDbLine
 10
592.8217075893537
 20
497.1708158862731
 30
0.0
 11
592.8090075893537
 21
497.170815886273
 31
0.0
  0
LINE
  5
1146F
330
1F
100
AcDbEntity
  8
0
  6
Continuous
100
AcDbLine
 10
592.8217075893537
 20
495.6595158862727
 30
0.0
 11
592.8217075893537
 21
497.1708158862731
 31
0.0
  0
LINE
  5
11470
330
1F
100
AcDbEntity
  8
0
  6
Continuous
100
AcDbLine
 10
610.8557075893536
 20
495.6595158862727
 30
0.0
 11
610.8557075893536
 21
494.8086158862728
 31
0.0
  0
LINE
  5
11472
330
1F
100
AcDbEntity
  8
0
  6
Continuous
100
AcDbLine
 10
609.3317075893537
 20
497.1708158862726
 30
0.0
 11
592.8217075893537
 21
497.1708158862731
 31
0.0
  0
LINE
  5
11474
330
1F
100
AcDbEntity
  8
0
  6
Continuous
100
AcDbLine
 10
591.2977075893537
 20
494.8086158862728
 30
0.0
 11
591.297707589354
 21
495.6595158862727
 31
0.0
  0
ARC
  5
114AB
330
1F
100
AcDbEntity
  8
0
  6
Continuous
100
AcDbCircle
 10
609.9429782725295
 20
498.3376930951972
 30
0.0
 40
1.04163584140722
100
AcDbArc
 50
241.641694442202
 51
259.6750717602806
  0
ARC
  5
114AC
330
1F
100
AcDbEntity
  8
0
  6
Continuous
100
AcDbCircle
 10
610.0606927693759
 20
497.3283941774862
 30
0.0
 40
0.3048000000003342
100
AcDbArc
 50
182.9092499376986
 51
246.7709144946523
  0
ARC
  5
114AD
330
1F
100
AcDbEntity
  8
0
  6
Continuous
100
AcDbCircle
 10
603.4246506447297
 20
497.7093901333013
 30
0.0
 40
6.030464146549145
100
AcDbArc
 50
354.8525771266467
 51
357.25950799707
  0
LINE
  5
114AE
330
1F
100
AcDbEntity
  8
0
  6
Continuous
100
AcDbLine
 10
592.7224639610436
 20
497.1683359187486
 30
0.0
 11
592.7217332246867
 21
497.1724603173264
 31
0.0
  0
ARC
  5
114AF
330
1F
100
AcDbEntity
  8
0
  6
Continuous
100
AcDbCircle
 10
592.0925307768028
 20
497.3283119154744
 30
0.0
 40
0.3048000000008817
100
AcDbArc
 50
293.2356647783917
 51
357.090750062283
  0
ARC
  5
114B0
330
1F
100
AcDbEntity
  8
0
  6
Continuous
100
AcDbCircle
 10
607.1878040017453
 20
497.4756158862733
 30
0.0
 40
0.3048000000005978
100
AcDbArc
 50
270.0000000001026
 51
357.0907500621635
  0
ARC
  5
114B1
330
1F
100
AcDbEntity
  8
0
  6
Continuous
100
AcDbCircle
 10
594.9654237249624
 20
497.4756158862731
 30
0.0
 40
0.304800000000643
100
AcDbArc
 50
182.9092499376706
 51
270.0000000000007
  0
LINE
  5
114B2
330
1F
100
AcDbEntity
  8
0
  6
Continuous
100
AcDbLine
 10
592.7538278525047
 20
504.3355144489007
 30
0.0
 11
592.3969379433554
 21
497.3128420430758
 31
0.0
  0
LINE
  5
114B3
330
1F
100
AcDbEntity
  8
0
  6
Continuous
100
AcDbLine
 10
609.7562856028238
 20
497.3129243050878
 30
0.0
 11
609.3993998742039
 21
504.3355144489007
 31
0.0
  0
LINE
  5
114B4
330
1F
100
AcDbEntity
  8
0
  6
Continuous
100
AcDbLine
 10
607.8416151379464
 20
504.3355144489007
 30
0.0
 11
607.4922111682974
 21
497.4601460138748
 31
0.0
  0
LINE
  5
114B5
330
1F
100
AcDbEntity
  8
0
  6
Continuous
100
AcDbLine
 10
594.6610165584099
 20
497.4601460138748
 30
0.0
 11
594.3116125412244
 21
504.3355153843099
 31
0.0
  0
LINE
  5
114B6
330
1F
100
AcDbEntity
  8
0
  6
Continuous
100
AcDbLine
 10
595.9967075893538
 20
497.722627299631
 30
0.0
 11
606.1567075893539
 21
497.7226272996307
 31
0.0
  0
LINE
  5
114B7
330
1F
100
AcDbEntity
  8
0
  6
Continuous
100
AcDbLine
 10
606.1567075893539
 20
497.7226272996307
 30
0.0
 11
606.1567075893539
 21
497.1708158862727
 31
0.0
  0
LINE
  5
114B8
330
1F
100
AcDbEntity
  8
0
  6
Continuous
100
AcDbLine
 10
595.9967075893538
 20
497.1708158862727
 30
0.0
 11
595.9967075893538
 21
497.722627299631
 31
0.0
  0
LINE
  5
114B9
330
1F
100
AcDbEntity
  8
0
  6
Continuous
100
AcDbLine
 10
593.9923167163036
 20
504.9178158862731
 30
0.0
 11
593.0731237249613
 21
504.9178158862741
 31
0.0
  0
LINE
  5
114BA
330
1F
100
AcDbEntity
  8
0
  6
Continuous
100
AcDbLine
 10
608.1609110104047
 20
504.9178158862737
 30
0.0
 11
609.0801040017459
 21
504.9178158862737
 31
0.0
  0
ARC
  5
114BB
330
1F
100
AcDbEntity
  8
0
  6
Continuous
100
AcDbCircle
 10
593.9923167163033
 20
504.6130158862727
 30
0.0
 40
0.3048000000004625
100
AcDbArc
 50
2.909249937837839
 51
89.99999999990667
  0
LINE
  5
114BC
330
1F
100
AcDbEntity
  8
0
  6
Continuous
100
AcDbLine
 10
594.3116125887615
 20
504.3355144489007
 30
0.0
 11
594.2967238828552
 21
504.6284857586718
 31
0.0
  0
ARC
  5
114BD
330
1F
100
AcDbEntity
  8
0
  6
Continuous
100
AcDbCircle
 10
593.0731237249623
 20
504.6130158862736
 30
0.0
 40
0.3048000000005568
100
AcDbArc
 50
90.00000000017822
 51
177.0907500598076
  0
LINE
  5
114BE
330
1F
100
AcDbEntity
  8
0
  6
Continuous
100
AcDbLine
 10
592.7687165584109
 20
504.6284857586853
 30
0.0
 11
592.7538278525047
 21
504.3355144489007
 31
0.0
  0
ARC
  5
114BF
330
1F
100
AcDbEntity
  8
0
  6
Continuous
100
AcDbCircle
 10
609.0801040017454
 20
504.6130158862732
 30
0.0
 40
0.3048000000005156
100
AcDbArc
 50
2.909249937700209
 51
89.99999999990667
  0
LINE
  5
114C0
330
1F
100
AcDbEntity
  8
0
  6
Continuous
100
AcDbLine
 10
609.3993998742039
 20
504.3355144489007
 30
0.0
 11
609.3845111682973
 21
504.6284857586717
 31
0.0
  0
ARC
  5
114C1
330
1F
100
AcDbEntity
  8
0
  6
Continuous
100
AcDbCircle
 10
608.160911010405
 20
504.6130158862732
 30
0.0
 40
0.3048000000005122
100
AcDbArc
 50
90.00000000008514
 51
177.0907500623125
  0
LINE
  5
114C2
330
1F
100
AcDbEntity
  8
0
  6
Continuous
100
AcDbLine
 10
607.8565038438529
 20
504.6284857586717
 30
0.0
 11
607.8416151379464
 21
504.3355144489007
 31
0.0
  0
LINE
  5
114C3
330
1F
100
AcDbEntity
  8
0
  6
Continuous
100
AcDbLine
 10
595.9967075893536
 20
503.0707091968553
 30
0.0
 11
606.1567075893536
 21
503.0707091968551
 31
0.0
  0
LINE
  5
114C4
330
1F
100
AcDbEntity
  8
0
  6
Continuous
100
AcDbLine
 10
606.1567075893536
 20
503.0707091968551
 30
0.0
 11
606.1567075893539
 21
497.7226272996307
 31
0.0
  0
LINE
  5
114C5
330
1F
100
AcDbEntity
  8
0
  6
Continuous
100
AcDbLine
 10
595.9967075893538
 20
497.722627299631
 30
0.0
 11
595.9967075893536
 21
503.0707091968553
 31
0.0
  0
LINE
  5
114E6
330
1F
100
AcDbEntity
  8
0
  6
Continuous
100
AcDbLine
 10
614.7887115893537
 20
494.9516178862714
 30
0.0
 11
614.2807115893536
 21
494.9516178862714
 31
0.0
  0
ARC
  5
114E7
330
1F
100
AcDbEntity
  8
0
  6
Continuous
100
AcDbCircle
 10
614.7887115893537
 20
493.9356178862715
 30
0.0
 40
1.015999999999977
100
AcDbArc
 50
59.2324769464244
 51
89.99999999999948
  0
LINE
  5
114E9
330
1F
100
AcDbEntity
  8
0
  6
Continuous
100
AcDbLine
 10
588.8807115893537
 20
494.9516178862714
 30
0.0
 11
588.3727115893536
 21
494.9516178862714
 31
0.0
  0
ARC
  5
114EA
330
1F
100
AcDbEntity
  8
0
  6
Continuous
100
AcDbCircle
 10
588.3727115893536
 20
493.9356178862715
 30
0.0
 40
1.016000000000022
100
AcDbArc
 50
89.99999999999948
 51
120.7675230535278
  0
LINE
  5
114EB
330
1F
100
AcDbEntity
  8
0
  6
Continuous
100
AcDbLine
 10
614.2807115893536
 20
494.9516178862714
 30
0.0
 11
588.8807115893537
 21
494.9516178862714
 31
0.0
  0
MTEXT
  5
1152A
330
1F
100
AcDbEntity
  8
DIM
100
AcDbMText
 10
310.1320261159427
 20
712.6292181222102
 30
0.0
 40
5.0
 41
0.0
 71
     5
 72
     1
  1
CIRCUIT BREAKER
  7
ARIAL
 73
     1
 44
1.0
1001
ACAD
1000
MTEXTBEGIN
1070
    73
1070
     1
1070
    44
1040
1.0
1070
    74
1070
     0
1000
MTEXTEND
  0
LEADER
  5
1152B
330
1F
100
AcDbEntity
  8
DIM
100
AcDbLeader
  3
METRIC
 73
     0
 40
13.810022737608
 41
34.74914051841746
 76
     3
 10
256.23461779831
 20
673.7660302164065
 30
0.0
 10
271.3053837499296
 20
712.3703161374601
 30
0.0
 10
276.3053837499297
 20
712.3703161374601
 30
0.0
211
-1.0
221
0.0
231
0.0
213
0.0
223
2.53999492
233
0.0
1001
ACAD
1000
DSTYLE
1002
{
1070
   141
1040
0.0
1070
   179
1070
     2
1070
   271
1070
     2
1070
   272
1070
     2
1002
}
  0
MTEXT
  5
1152C
330
1F
100
AcDbEntity
  8
DIM
100
AcDbMText
 10
180.1559603451937
 20
712.6292181222102
 30
0.0
 40
5.0
 41
0.0
 71
     6
 72
     1
  1
100-240VAC 50/60Hz  INPUT
  7
ARIAL
 73
     1
 44
1.0
1001
ACAD
1000
MTEXTBEGIN
1070
    73
1070
     1
1070
    44
1040
1.0
1070
    74
1070
     0
1000
MTEXTEND
  0
LEADER
  5
1152D
330
1F
100
AcDbEntity
  8
DIM
100
AcDbLeader
  3
METRIC
 73
     0
 40
13.810022737608
 41
34.74914051841746
 76
     3
 10
201.1
 20
677.2541376841787
 30
0.0
 10
186.7931146771248
 20
712.3703161374601
 30
0.0
 10
181.7931146771248
 20
712.3703161374601
 30
0.0
213
0.0
223
2.53999492
233
0.0
1001
ACAD
1000
DSTYLE
1002
{
1070
   141
1040
0.0
1070
   179
1070
     2
1070
   271
1070
     2
1070
   272
1070
     2
1002
}
  0
MTEXT
  5
1152E
330
1F
100
AcDbEntity
  8
DIM
100
AcDbMText
 10
381.251700163935
 20
712.6292181222102
 30
0.0
 40
5.0
 41
0.0
 71
     4
 72
     1
  1
8X\P+24VDC OUT
  7
ARIAL
 73
     1
 44
1.0
1001
ACAD
1000
MTEXTBEGIN
1070
    73
1070
     1
1070
    44
1040
1.0
1070
    74
1070
     0
1000
MTEXTEND
  0
LEADER
  5
1152F
330
1F
100
AcDbEntity
  8
DIM
100
AcDbLeader
  3
METRIC
 73
     0
 40
13.810022737608
 41
34.74914051841746
 76
     3
 10
357.0670848253823
 20
672.0368686236056
 30
0.0
 10
372.4420418222662
 20
712.3703161374601
 30
0.0
 10
377.4420418222662
 20
712.3703161374601
 30
0.0
211
-1.0
221
0.0
231
0.0
213
0.0
223
2.53999492
233
0.0
1001
ACAD
1000
DSTYLE
1002
{
1070
   141
1040
0.0
1070
   179
1070
     2
1070
   271
1070
     2
1070
   272
1070
     2
1002
}
  0
LINE
  5
11647
330
1F
100
AcDbEntity
  8
Front Panel
100
AcDbLine
 10
518.2196036502536
 20
280.3086158862748
 30
0.0
 11
518.2196036502534
 21
273.8086158862749
 31
0.0
  0
LINE
  5
11648
330
1F
100
AcDbEntity
  8
Front Panel
100
AcDbLine
 10
111.6196036502528
 20
280.3086158862747
 30
0.0
 11
111.6196036502528
 21
273.808615886275
 31
0.0
  0
LINE
  5
11649
330
1F
100
AcDbEntity
  8
Front Panel
100
AcDbLine
 10
518.2196036502536
 20
280.3086158862748
 30
0.0
 11
111.6196036502528
 21
280.3086158862747
 31
0.0
  0
INSERT
  5
11729
330
1F
100
AcDbEntity
  8
FASTENER
100
AcDbBlockReference
  2
m3washt
 10
478.4996036502566
 20
651.4141371915881
 30
0.0
  0
INSERT
  5
11731
330
1F
100
AcDbEntity
  8
FASTENER
100
AcDbBlockReference
  2
m3nutt
 10
478.4996036502566
 20
651.4141371915881
 30
0.0
  0
INSERT
  5
1176F
330
1F
100
AcDbEntity
  8
FASTENER
100
AcDbBlockReference
  2
m3washe
 10
151.3396016502494
 20
497.7085358862732
 30
-0.000000000072457
 41
-1.0
 50
270.0
  0
INSERT
  5
11770
330
1F
100
AcDbEntity
  8
FASTENER
100
AcDbBlockReference
  2
m3washe
 10
151.3396016502495
 20
499.8086158862733
 30
0.0
 41
-1.0
 50
270.0
  0
INSERT
  5
11771
330
1F
100
AcDbEntity
  8
FASTENER
100
AcDbBlockReference
  2
m3nute
 10
151.3396016502495
 20
500.3086158862733
 30
0.0
 41
-1.0
 50
90.0
  0
LINE
  5
11772
330
1F
100
AcDbEntity
  8
0
  6
HIDDEN
100
AcDbLine
 10
152.8396016502494
 20
503.5346534862732
 30
0.0
 11
149.8396016502494
 21
503.5346534862732
 31
0.0
  0
LINE
  5
11773
330
1F
100
AcDbEntity
  8
0
100
AcDbLine
 10
152.5656372502497
 20
503.8086178862729
 30
0.0
 11
150.1135660502492
 21
503.808617886273
 31
0.0
  0
LINE
  5
11774
330
1F
100
AcDbEntity
  8
0
  6
HIDDEN
100
AcDbLine
 10
152.5656372502498
 20
498.2085358862731
 30
0.0
 11
152.5656372502497
 21
499.8086158862733
 31
0.0
  0
LINE
  5
11775
330
1F
100
AcDbEntity
  8
0
  6
HIDDEN
100
AcDbLine
 10
152.5656372502498
 20
502.7085358862731
 30
0.0
 11
152.5656372502497
 21
503.8086178862729
 31
0.0
  0
LINE
  5
11776
330
1F
100
AcDbEntity
  8
0
100
AcDbLine
 10
152.8396016502494
 20
498.2085358862732
 30
0.0
 11
152.8396016502494
 21
499.8086158862733
 31
0.0
  0
LINE
  5
11777
330
1F
100
AcDbEntity
  8
0
100
AcDbLine
 10
152.8396016502494
 20
502.7085358862732
 30
0.0
 11
152.8396016502494
 21
503.5346534862732
 31
0.0
  0
LINE
  5
11778
330
1F
100
AcDbEntity
  8
0
100
AcDbLine
 10
152.8396016502494
 20
503.5346534862732
 30
0.0
 11
152.5656372502497
 21
503.8086178862729
 31
0.0
  0
LINE
  5
11779
330
1F
100
AcDbEntity
  8
0
  6
HIDDEN
100
AcDbLine
 10
150.1135660502493
 20
498.2085358862731
 30
0.0
 11
150.1135660502493
 21
499.8086158862733
 31
0.0
  0
LINE
  5
1177A
330
1F
100
AcDbEntity
  8
0
  6
HIDDEN
100
AcDbLine
 10
150.1135660502493
 20
502.7085358862731
 30
0.0
 11
150.1135660502491
 21
503.8086178862729
 31
0.0
  0
LINE
  5
1177B
330
1F
100
AcDbEntity
  8
0
100
AcDbLine
 10
149.8396016502495
 20
498.2085358862732
 30
0.0
 11
149.8396016502494
 21
499.8086158862733
 31
0.0
  0
LINE
  5
1177C
330
1F
100
AcDbEntity
  8
0
100
AcDbLine
 10
149.8396016502494
 20
502.7085358862732
 30
0.0
 11
149.8396016502494
 21
503.5346534862732
 31
0.0
  0
LINE
  5
1177D
330
1F
100
AcDbEntity
  8
0
100
AcDbLine
 10
149.8396016502494
 20
503.5346534862732
 30
0.0
 11
150.1135660502491
 21
503.8086178862729
 31
0.0
  0
LINE
  5
1177F
330
1F
100
AcDbEntity
  8
FASTENER
100
AcDbLine
 10
148.3396016502495
 20
495.3086158862733
 30
0.0
 11
153.8506159081162
 21
495.3086158862733
 31
0.0
  0
LINE
  5
11780
330
1F
100
AcDbEntity
  8
FASTENER
100
AcDbLine
 10
148.3396016502495
 20
494.8086158862733
 30
0.0
 11
148.3396016502495
 21
495.3086158862733
 31
0.0
  0
LINE
  5
11781
330
1F
100
AcDbEntity
  8
FASTENER
100
AcDbLine
 10
154.3396016502495
 20
494.8086158862733
 30
0.0
 11
148.3396016502495
 21
494.8086158862733
 31
0.0
  0
LINE
  5
11782
330
1F
100
AcDbEntity
  8
FASTENER
100
AcDbLine
 10
148.1771016503274
 20
497.4186645875025
 30
-0.000000000072457
 11
148.1771016503274
 21
495.5984871850454
 31
-0.000000000072457
  0
LINE
  5
11783
330
1F
100
AcDbEntity
  8
FASTENER
100
AcDbLine
 10
148.9333516503274
 20
497.7085358862732
 30
-0.000000000072457
 11
153.7458516503267
 21
497.7085358862732
 31
-0.000000000072457
  0
LINE
  5
11784
330
1F
100
AcDbEntity
  8
FASTENER
100
AcDbLine
 10
149.6896016503274
 20
497.4186645875025
 30
-0.000000000072457
 11
149.6896016503275
 21
495.5984871850454
 31
-0.000000000072457
  0
ARC
  5
11785
330
1F
100
AcDbEntity
  8
FASTENER
100
AcDbCircle
 10
148.9333516503279
 20
496.5771037038987
 30
-0.000000000072457
 40
1.131432182374452
100
AcDbArc
 50
48.05625452200326
 51
131.9437454779967
  0
ARC
  5
11786
330
1F
100
AcDbEntity
  8
FASTENER
100
AcDbCircle
 10
148.9333516503279
 20
496.4400480686478
 30
-0.000000000072457
 40
1.131432182374452
100
AcDbArc
 50
228.0562545220032
 51
311.9437454779967
  0
LINE
  5
11787
330
1F
100
AcDbEntity
  8
FASTENER
100
AcDbLine
 10
148.9333516503274
 20
495.3086158862733
 30
-0.000000000072457
 11
153.7458516503268
 21
495.3086158862733
 31
-0.000000000072457
  0
LINE
  5
11788
330
1F
100
AcDbEntity
  8
FASTENER
100
AcDbLine
 10
152.9896016503267
 20
497.4186645875025
 30
-0.000000000072457
 11
152.9896016503268
 21
495.5984871850454
 31
-0.000000000072457
  0
LINE
  5
11789
330
1F
100
AcDbEntity
  8
FASTENER
100
AcDbLine
 10
154.5021016503267
 20
497.4186645875025
 30
-0.000000000072457
 11
154.5021016503268
 21
497.0971791677478
 31
-0.000000000072457
  0
ARC
  5
1178A
330
1F
100
AcDbEntity
  8
FASTENER
100
AcDbCircle
 10
153.7458516503263
 20
496.5771037038987
 30
-0.000000000072457
 40
1.131432182374452
100
AcDbArc
 50
48.05625452200326
 51
131.9437454779967
  0
ARC
  5
1178B
330
1F
100
AcDbEntity
  8
FASTENER
100
AcDbCircle
 10
153.7458516503263
 20
496.4400480686477
 30
-0.000000000072457
 40
1.131432182374452
100
AcDbArc
 50
228.0562545220032
 51
275.3128773724379
  0
ARC
  5
1178C
330
1F
100
AcDbEntity
  8
FASTENER
100
AcDbCircle
 10
151.3396016503286
 20
500.1496011472219
 30
-0.000000000072457
 40
4.840985260948518
100
AcDbArc
 50
250.0719581665303
 51
289.9280418334228
  0
ARC
  5
1178D
330
1F
100
AcDbEntity
  8
FASTENER
100
AcDbCircle
 10
151.3396016503256
 20
492.8675506253072
 30
-0.000000000072457
 40
4.840985260965952
100
AcDbArc
 50
70.07195816661532
 51
109.9280418333568
  0
LINE
  5
1178E
330
1F
100
AcDbEntity
  8
FASTENER
100
AcDbLine
 10
154.5021016503268
 20
495.8768585942717
 30
-0.000000000072457
 11
154.5021016503268
 21
495.5984871850454
 31
-0.000000000072457
  0
ARC
  5
1178F
330
1F
100
AcDbEntity
  8
FASTENER
100
AcDbCircle
 10
153.7458516503263
 20
496.4400480686477
 30
-0.000000000072457
 40
1.131432182374452
100
AcDbArc
 50
291.7156612879993
 51
311.9437454779967
  0
LINE
  5
117BA
330
1F
100
AcDbEntity
  8
CENTER
100
AcDbLine
 10
476.2496036502573
 20
651.4141371915881
 30
0.0
 11
480.749603650256
 21
651.4141371915881
 31
0.0
  0
LINE
  5
117BB
330
1F
100
AcDbEntity
  8
CENTER
100
AcDbLine
 10
478.4996036502566
 20
649.1641371915873
 30
0.0
 11
478.4996036502566
 21
653.6641371915889
 31
0.0
  0
LEADER
  5
117BC
330
1F
100
AcDbEntity
  8
DIM
100
AcDbLeader
  3
METRIC
 73
     0
 40
5.177353342428377
 41
58.03547066848569
 76
     3
 10
477.1246436502567
 20
649.0326366132133
 30
0.0
 10
468.0122503968464
 20
629.4539685570405
 30
0.0
 10
462.1505094047343
 20
629.4539685570405
 30
0.0
340
117BD
213
0.0
223
2.5
233
0.0
1001
ACAD
1000
DSTYLE
1002
{
1070
   147
1040
2.5
1070
    77
1070
     0
1070
   141
1040
0.09
1070
   179
1070
     3
1070
   271
1070
     3
1070
   272
1070
     3
1002
}
  0
MTEXT
  5
117BD
102
{ACAD_REACTORS
330
117BC
102
}
330
1F
100
AcDbEntity
  8
DIM
100
AcDbMText
 10
459.6505094047342
 20
626.9539685570405
 30
0.0
 40
5.0
 41
0.0
 71
     9
 72
     1
  1
\A1;M3 GROUND LUG
  7
ARIAL
 73
     1
 44
1.0
1001
ACAD
1000
MTEXTBEGIN
1070
    73
1070
     1
1070
    44
1040
1.0
1070
    74
1070
     0
1000
MTEXTEND
  0
LINE
  5
117EF
330
1F
100
AcDbEntity
  8
FASTENER
100
AcDbLine
 10
610.8557075893537
 20
495.3086158862734
 30
0.0
 11
616.26772384722
 21
495.3086158862733
 31
0.0
  0
LINE
  5
117F1
330
1F
100
AcDbEntity
  8
FASTENER
100
AcDbLine
 10
616.7567095893534
 20
494.8086158862733
 30
0.0
 11
610.7567095893533
 21
494.8086158862733
 31
0.0
  0
LINE
  5
117F2
330
1F
100
AcDbEntity
  8
FASTENER
100
AcDbLine
 10
610.5942095894313
 20
497.4186645875025
 30
-0.000000000072457
 11
610.5942095894313
 21
496.5092350461146
 31
-0.000000000072457
  0
LINE
  5
117F3
330
1F
100
AcDbEntity
  8
FASTENER
100
AcDbLine
 10
611.3504595894312
 20
497.7085358862732
 30
-0.000000000072457
 11
616.1629595894305
 21
497.7085358862732
 31
-0.000000000072457
  0
LINE
  5
117F4
330
1F
100
AcDbEntity
  8
FASTENER
100
AcDbLine
 10
612.1067095894313
 20
497.4186645875025
 30
-0.000000000072457
 11
612.1067095894313
 21
495.5984871850454
 31
-0.000000000072457
  0
ARC
  5
117F5
330
1F
100
AcDbEntity
  8
FASTENER
100
AcDbCircle
 10
611.3504595894316
 20
496.5771037038987
 30
-0.000000000072457
 40
1.131432182374452
100
AcDbArc
 50
48.05625452200326
 51
131.9437454779967
  0
ARC
  5
117F6
330
1F
100
AcDbEntity
  8
FASTENER
100
AcDbCircle
 10
611.3504595894318
 20
496.4400480686478
 30
-0.000000000072457
 40
1.131432182374452
100
AcDbArc
 50
244.0695746267124
 51
311.9437454779967
  0
LINE
  5
117F7
330
1F
100
AcDbEntity
  8
FASTENER
100
AcDbLine
 10
611.3504595894313
 20
495.3086158862733
 30
-0.000000000072457
 11
616.7567095895056
 21
495.3086158862734
 31
-0.000000000072457
  0
LINE
  5
117F8
330
1F
100
AcDbEntity
  8
FASTENER
100
AcDbLine
 10
615.4067095894306
 20
497.4186645875025
 30
-0.000000000072457
 11
615.4067095894306
 21
495.5984871850454
 31
-0.000000000072457
  0
LINE
  5
117F9
330
1F
100
AcDbEntity
  8
FASTENER
100
AcDbLine
 10
616.9192095894305
 20
497.4186645875025
 30
-0.000000000072457
 11
616.9192095894312
 21
495.5984871850446
 31
-0.000000000072457
  0
ARC
  5
117FB
330
1F
100
AcDbEntity
  8
FASTENER
100
AcDbCircle
 10
616.1629595894302
 20
496.5771037038987
 30
-0.000000000072457
 40
1.131432182374452
100
AcDbArc
 50
48.05625452200326
 51
131.9437454779967
  0
ARC
  5
117FC
330
1F
100
AcDbEntity
  8
FASTENER
100
AcDbCircle
 10
616.1629595894302
 20
496.4400480686477
 30
-0.000000000072457
 40
1.131432182374452
100
AcDbArc
 50
228.0562545220033
 51
311.9437454787891
  0
ARC
  5
117FE
330
1F
100
AcDbEntity
  8
FASTENER
100
AcDbCircle
 10
613.7567095894325
 20
500.1496011472219
 30
-0.000000000072457
 40
4.840985260948518
100
AcDbArc
 50
250.0719581665303
 51
289.9280418334228
  0
ARC
  5
117FF
330
1F
100
AcDbEntity
  8
FASTENER
100
AcDbCircle
 10
613.7567095894294
 20
492.8675506253072
 30
-0.000000000072457
 40
4.840985260965952
100
AcDbArc
 50
70.07195816661532
 51
109.9280418333568
  0
INSERT
  5
11800
330
1F
100
AcDbEntity
  8
FASTENER
100
AcDbBlockReference
  2
m3washe
 10
613.7567095893532
 20
497.7085358862732
 30
-0.000000000072457
 41
-1.0
 50
270.0
  0
INSERT
  5
11801
330
1F
100
AcDbEntity
  8
FASTENER
100
AcDbBlockReference
  2
m3washe
 10
613.7567095893533
 20
499.8086158862733
 30
0.0
 41
-1.0
 50
270.0
  0
INSERT
  5
11802
330
1F
100
AcDbEntity
  8
FASTENER
100
AcDbBlockReference
  2
m3nute
 10
613.7567095893533
 20
500.3086158862733
 30
0.0
 41
-1.0
 50
90.0
  0
LINE
  5
11803
330
1F
100
AcDbEntity
  8
0
  6
HIDDEN
100
AcDbLine
 10
615.2567095893532
 20
503.5346534862732
 30
0.0
 11
612.2567095893532
 21
503.5346534862732
 31
0.0
  0
LINE
  5
11804
330
1F
100
AcDbEntity
  8
0
100
AcDbLine
 10
614.9827451893536
 20
503.8086178862729
 30
0.0
 11
612.5306739893531
 21
503.808617886273
 31
0.0
  0
LINE
  5
11805
330
1F
100
AcDbEntity
  8
0
  6
HIDDEN
100
AcDbLine
 10
614.9827451893536
 20
498.2085358862731
 30
0.0
 11
614.9827451893536
 21
499.8086158862733
 31
0.0
  0
LINE
  5
11806
330
1F
100
AcDbEntity
  8
0
  6
HIDDEN
100
AcDbLine
 10
614.9827451893536
 20
502.7085358862731
 30
0.0
 11
614.9827451893536
 21
503.8086178862729
 31
0.0
  0
LINE
  5
11807
330
1F
100
AcDbEntity
  8
0
100
AcDbLine
 10
615.2567095893532
 20
498.2085358862732
 30
0.0
 11
615.2567095893532
 21
499.8086158862733
 31
0.0
  0
LINE
  5
11808
330
1F
100
AcDbEntity
  8
0
100
AcDbLine
 10
615.2567095893532
 20
502.7085358862732
 30
0.0
 11
615.2567095893532
 21
503.5346534862732
 31
0.0
  0
LINE
  5
11809
330
1F
100
AcDbEntity
  8
0
100
AcDbLine
 10
615.2567095893532
 20
503.5346534862732
 30
0.0
 11
614.9827451893536
 21
503.8086178862729
 31
0.0
  0
LINE
  5
1180A
330
1F
100
AcDbEntity
  8
0
  6
HIDDEN
100
AcDbLine
 10
612.5306739893531
 20
498.2085358862731
 30
0.0
 11
612.5306739893531
 21
499.8086158862733
 31
0.0
  0
LINE
  5
1180B
330
1F
100
AcDbEntity
  8
0
  6
HIDDEN
100
AcDbLine
 10
612.5306739893532
 20
502.7085358862731
 30
0.0
 11
612.5306739893531
 21
503.8086178862729
 31
0.0
  0
LINE
  5
1180C
330
1F
100
AcDbEntity
  8
0
100
AcDbLine
 10
612.2567095893534
 20
498.2085358862732
 30
0.0
 11
612.2567095893532
 21
499.8086158862733
 31
0.0
  0
LINE
  5
1180D
330
1F
100
AcDbEntity
  8
0
100
AcDbLine
 10
612.2567095893532
 20
502.7085358862732
 30
0.0
 11
612.2567095893532
 21
503.5346534862732
 31
0.0
  0
LINE
  5
1180E
330
1F
100
AcDbEntity
  8
0
100
AcDbLine
 10
612.2567095893532
 20
503.5346534862732
 30
0.0
 11
612.5306739893531
 21
503.8086178862729
 31
0.0
  0
LINE
  5
11810
330
1F
100
AcDbEntity
  8
FASTENER
100
AcDbLine
 10
616.7567095895056
 20
494.8086158862733
 30
0.0
 11
616.7567095895056
 21
495.3086158862733
 31
0.0
  0
ENDSEC
  0
SECTION
  2
OBJECTS
  0
DICTIONARY
  5
C
330
0
100
AcDbDictionary
281
     1
  3
ACAD_COLOR
350
5029
  3
ACAD_GROUP
350
D
  3
ACAD_LAYOUT
350
1A
  3
ACAD_MATERIAL
350
5028
  3
ACAD_MLINESTYLE
350
17
  3
ACAD_PLOTSETTINGS
350
19
  3
ACAD_PLOTSTYLENAME
350
E
  3
ACAD_TABLESTYLE
350
502A
  3
AcadDim
350
10419
  3
ACDBHEADERROUNDTRIPXREC
350
11828
  3
AcDbVariableDictionary
350
5039
  3
ASE_INDEX_DICTIONARY
350
E3A5
  3
DWGPROPS
350
11827
  0
DICTIONARY
  5
5031
330
2
100
AcDbDictionary
280
     1
281
     1
  3
ACAD_LAYERFILTERS
360
11129
  3
ACAD_LAYERSTATES
360
5032
  3
ACLYDICTIONARY
360
11128
  0
DICTIONARY
  5
54D8
330
1F
100
AcDbDictionary
280
     1
281
     1
  3
ACAD_SORTENTS
360
54D9
  0
DICTIONARY
  5
10485
330
10474
100
AcDbDictionary
280
     1
281
     1
  3
ACAD_SORTENTS
360
10486
  0
DICTIONARY
  5
5029
102
{ACAD_REACTORS
330
C
102
}
330
C
100
AcDbDictionary
281
     1
  0
DICTIONARY
  5
D
102
{ACAD_REACTORS
330
C
102
}
330
C
100
AcDbDictionary
281
     1
  0
DICTIONARY
  5
1A
102
{ACAD_REACTORS
330
C
102
}
330
C
100
AcDbDictionary
281
     1
  3
Layout1
350
F8D7
  3
Model
350
22
  0
DICTIONARY
  5
5028
102
{ACAD_REACTORS
330
C
102
}
330
C
100
AcDbDictionary
281
     1
  0
DICTIONARY
  5
17
102
{ACAD_REACTORS
330
C
102
}
330
C
100
AcDbDictionary
281
     1
  3
Standard
350
18
  0
DICTIONARY
  5
19
102
{ACAD_REACTORS
330
C
102
}
330
C
100
AcDbDictionary
281
     1
  0
ACDBDICTIONARYWDFLT
  5
E
102
{ACAD_REACTORS
330
C
102
}
330
C
100
AcDbDictionary
281
     1
  3
Normal
350
F
100
AcDbDictionaryWithDefault
340
F
  0
DICTIONARY
  5
502A
102
{ACAD_REACTORS
330
C
102
}
330
C
100
AcDbDictionary
281
     1
  3
Standard
350
502B
  0
XRECORD
  5
10419
102
{ACAD_REACTORS
330
C
102
}
330
C
100
AcDbXrecord
280
     1
 90
   990106
  3

 60
     0
 61
     0
 62
     1
 63
     3
 64
     0
 65
     0
 66
     0
 67
     3
 68
     1
 69
     0
 70
     0
 71
     0
 72
     0
 40
0.0
170
     0
340
117BD
  0
DICTIONARY
  5
11828
102
{ACAD_REACTORS
330
C
102
}
330
C
100
AcDbDictionary
281
     1
  0
DICTIONARY
  5
5039
102
{ACAD_REACTORS
330
C
102
}
330
C
100
AcDbDictionary
281
     1
  3
CTABLESTYLE
350
503A
  3
DIMASSOC
350
505A
  3
PROJECTNAME
350
505B
  0
DICTIONARY
  5
E3A5
102
{ACAD_REACTORS
330
C
102
}
330
C
100
AcDbDictionary
281
     1
  3
ASEBlockHierarchyIndexRecord
350
E3A6
1001
DCO15
1040
1575292618.728
  0
XRECORD
  5
11827
102
{ACAD_REACTORS
330
C
102
}
330
C
100
AcDbXrecord
280
     1
  1
DWGPROPS COOKIE
  2

  3

  4

  6

  7

  8

  9

300
=
301
=
302
=
303
=
304
=
305
=
306
=
307
=
308
=
309
=
 40
6.816745960648148
 41
2451534.924419676
 42
2454761.497123473
  1

 90
        0
  0
DICTIONARY
  5
11129
102
{ACAD_REACTORS
330
5031
102
}
330
5031
100
AcDbDictionary
281
     1
  0
DICTIONARY
  5
5032
102
{ACAD_REACTORS
330
5031
102
}
330
5031
100
AcDbDictionary
281
     1
  0
DICTIONARY
  5
11128
102
{ACAD_REACTORS
330
5031
102
}
330
5031
100
AcDbDictionary
281
     1
1001
ACAD
1000
<All
  0
SORTENTSTABLE
  5
54D9
102
{ACAD_REACTORS
330
54D8
102
}
330
54D8
100
AcDbSortentsTable
330
1F
331
1178E
  5
1177B
331
11179
  5
1110A
331
11368
  5
113E8
331
11181
  5
1110E
331
11370
  5
113F0
331
113A7
  5
11427
331
113E6
  5
11466
331
114C4
  5
1152A
331
113EE
  5
10F45
331
11378
  5
113F8
331
113AF
  5
1142F
331
113F6
  5
10F4E
331
11380
  5
11400
331
113B7
  5
11437
331
113BF
  5
1143F
331
1146D
  5
114D1
331
1152C
  5
1152E
331
1106B
  5
1114A
331
110B2
  5
1119D
331
110F1
  5
11366
331
11073
  5
1116C
331
10E14
  5
11388
331
110BA
  5
11392
331
11138
  5
110E8
331
110F9
  5
1136E
331
1107B
  5
11174
331
104BD
  5
104BF
331
110C2
  5
1139A
331
110CA
  5
113A2
331
104C5
  5
104E0
331
11083
  5
1117C
331
EB4B
  5
EB27
331
D2A6
  5
E5D7
331
D3E5
  5
EC21
331
ED2A
  5
EE73
331
EB53
  5
EB2A
331
D3F5
  5
EC25
331
ED42
  5
F3EE
331
D38E
  5
EBD3
331
D3FD
  5
ED1E
331
D27F
  5
E5A8
331
EDF2
  5
EDE4
331
FA26
  5
FAB3
331
F4EF
  5
F9E4
331
F310
  5
F499
331
F1F1
  5
F451
331
1176F
  5
11781
331
11349
  5
113C9
331
11388
  5
11408
331
11777
  5
11789
331
11351
  5
113D1
331
11390
  5
11410
331
113C7
  5
11447
331
1177F
  5
1176F
331
11359
  5
113D9
331
11398
  5
11418
331
113CF
  5
1144F
331
114AD
  5
114D9
331
11787
  5
11778
331
11361
  5
113E1
331
113D7
  5
11457
331
114B5
  5
114E1
331
113DF
  5
1145F
331
114BD
  5
114E9
331
11148
  5
110F8
331
11109
  5
11372
331
1108B
  5
11184
331
110D2
  5
113AA
331
11111
  5
1137A
331
11093
  5
1118C
331
110DA
  5
113B2
331
110E2
  5
113BA
331
110AB
  5
11194
331
11121
  5
11383
331
EE4A
  5
EDB9
331
D287
  5
E5B0
331
ED03
  5
EDE8
331
EE52
  5
EDC0
331
D28F
  5
E5BE
331
E964
  5
F0C2
331
D297
  5
E5C7
331
D29F
  5
E5D0
331
E91D
  5
EBD0
331
ED23
  5
EDFF
331
F1F9
  5
F459
331
F318
  5
F4A1
331
F320
  5
F4A9
331
F328
  5
F4B1
331
F249
  5
E58A
331
1178F
  5
1177E
331
11369
  5
113E9
331
113A0
  5
11420
331
11456
  5
11355
331
11182
  5
1110F
331
11371
  5
113F1
331
113A8
  5
11428
331
113E7
  5
11467
331
114C5
  5
1152B
331
113EF
  5
10F46
331
11729
  5
11729
331
1119A
  5
11104
331
11379
  5
113F9
331
113B0
  5
11430
331
1145E
  5
11357
331
11342
  5
113C2
331
11381
  5
11401
331
113B8
  5
11438
331
1146E
  5
114D2
331
1152D
  5
1152F
331
1106C
  5
1114B
331
110B3
  5
1119E
331
11131
  5
110DA
331
110F2
  5
11367
331
11074
  5
1116D
331
10E15
  5
11389
331
110BB
  5
11393
331
11139
  5
110E9
331
110FA
  5
1136F
331
1107C
  5
11175
331
104BE
  5
104C0
331
110C3
  5
1139B
331
11141
  5
110F1
331
10F05
  5
10F01
331
11084
  5
1117D
331
110CB
  5
113A3
331
D2A7
  5
EB24
331
EB4C
  5
EB28
331
EB54
  5
EB2B
331
F330
  5
F4BB
331
F271
  5
F485
331
F4F0
  5
F9E5
331
F311
  5
F49A
331
F1F2
  5
F452
331
10074
  5
1045E
331
11731
  5
11731
331
11770
  5
11782
331
1134A
  5
113CA
331
11389
  5
11409
331
113C0
  5
11440
331
1140F
  5
10F6D
331
11778
  5
1178A
331
11352
  5
113D2
331
11391
  5
11411
331
113C8
  5
11448
331
11399
  5
11419
331
11780
  5
11770
331
1135A
  5
113DA
331
113D0
  5
11450
331
114AE
  5
114DA
331
11362
  5
113E2
331
113D8
  5
11458
331
114B6
  5
114E2
331
114BE
  5
114EA
331
11149
  5
110F9
331
1110A
  5
11373
331
1108C
  5
11185
331
110D3
  5
113AB
331
11169
  5
110FF
331
11112
  5
1137B
331
11094
  5
1118D
331
110DB
  5
113B3
331
11171
  5
11105
331
1111A
  5
1137C
331
110E3
  5
113BB
331
110AC
  5
11195
331
11122
  5
11384
331
D280
  5
E5A9
331
D288
  5
E5B1
331
ED04
  5
EDEB
331
D290
  5
E5C3
331
D3A7
  5
EC18
331
EE53
  5
EDD7
331
D298
  5
E5C8
331
EA35
  5
EDB1
331
ED24
  5
EE00
331
F1FA
  5
F45A
331
F319
  5
F4A2
331
F321
  5
F4AA
331
F329
  5
F4B2
331
F24A
  5
E58B
331
11788
  5
11779
331
1136A
  5
113EA
331
113A1
  5
11421
331
113E0
  5
11460
331
11183
  5
11142
331
11372
  5
113F2
331
113A9
  5
11429
331
113E8
  5
114C2
331
113F0
  5
10F48
331
1137A
  5
113FA
331
113B1
  5
11431
331
1145F
  5
11359
331
114E6
  5
114C5
331
113F8
  5
10F4F
331
11343
  5
113C3
331
11382
  5
11402
331
113B9
  5
11439
331
1146F
  5
114D3
331
1152E
  5
11647
331
1112A
  5
110D4
331
1106D
  5
1114C
331
110B4
  5
111CC
331
110EB
  5
11360
331
11132
  5
110DB
331
110F3
  5
11368
331
11075
  5
1116E
331
10E16
  5
1138A
331
110BC
  5
11394
331
1113A
  5
110EA
331
1107D
  5
11176
331
104BF
  5
104C1
331
110C4
  5
1139C
331
11142
  5
110F2
331
11085
  5
1117E
331
110CC
  5
113A4
331
D2A0
  5
E5D1
331
E936
  5
EE74
331
ED44
  5
F44C
331
D390
  5
EBD4
331
F331
  5
F4F5
331
F272
  5
F486
331
FFE5
  5
1011D
331
F312
  5
F49B
331
F1F3
  5
F453
331
11771
  5
11783
331
1134B
  5
113CB
331
1138A
  5
1140A
331
113C1
  5
11441
331
11410
  5
10F6F
331
11779
  5
1178B
331
11353
  5
113D3
331
11392
  5
11412
331
113C9
  5
11449
331
1139A
  5
1141A
331
11781
  5
11771
331
1135B
  5
113DB
331
113D1
  5
11451
331
114AF
  5
114DB
331
11363
  5
113E3
331
113D9
  5
11459
331
114B7
  5
114E3
331
114BF
  5
114EB
331
1114A
  5
110FA
331
1110B
  5
11374
331
1108D
  5
11186
331
110D4
  5
113AC
331
1116A
  5
11100
331
11095
  5
1118E
331
1103E
  5
11144
331
110DC
  5
113B4
331
11172
  5
11106
331
1111B
  5
1137D
331
104DF
  5
104E1
331
110E4
  5
113BC
331
110AD
  5
11196
331
11123
  5
11385
331
D281
  5
E5AA
331
D398
  5
EBD5
331
EE4C
  5
EDBA
331
D289
  5
E5B2
331
ED05
  5
EDEE
331
D3A8
  5
EC19
331
EE54
  5
EDD8
331
EE5C
  5
EDDE
331
D299
  5
E5C9
331
EA36
  5
EDB5
331
ED1D
  5
EDF9
331
ED25
  5
EE01
331
F1FB
  5
F45B
331
F31A
  5
F4A3
331
F322
  5
F4AB
331
1011D
  5
1045F
331
F32A
  5
F4B3
331
11789
  5
1177A
331
1117C
  5
1110B
331
1136B
  5
113EB
331
113A2
  5
11422
331
113E1
  5
11461
331
11184
  5
11143
331
11373
  5
113F3
331
113AA
  5
1142A
331
113E9
  5
114C3
331
113F1
  5
10F49
331
1119C
  5
1110C
331
1137B
  5
113FB
331
113B2
  5
11432
331
114E7
  5
114C6
331
113F9
  5
10F50
331
11344
  5
113C4
331
11383
  5
11403
331
113BA
  5
1143A
331
45A9
  5
4B8E
331
1152F
  5
11648
331
1112B
  5
110D6
331
1106E
  5
1114D
331
110B5
  5
1134C
331
110EC
  5
11361
331
11133
  5
110E3
331
110F4
  5
11369
331
11076
  5
1116F
331
10E17
  5
1138B
331
110BD
  5
11395
331
1113B
  5
110EB
331
104C0
  5
104C2
331
1107E
  5
11177
331
110C5
  5
1139D
331
11143
  5
110F3
331
11086
  5
1117F
331
10F07
  5
10F3C
331
110CD
  5
113A5
331
D2A1
  5
E5D2
331
E937
  5
EE75
331
EDF5
  5
EDE5
331
F332
  5
F945
331
F273
  5
F487
331
F1F4
  5
F454
331
F313
  5
F49C
331
11772
  5
11784
331
1134C
  5
113CC
331
1138B
  5
1140B
331
113C2
  5
11442
331
11470
  5
114D4
331
11647
  5
E5C4
331
11411
  5
10F70
331
1177A
  5
1178C
331
11354
  5
113D4
331
11393
  5
11413
331
113CA
  5
1144A
331
11449
  5
110B6
331
1139B
  5
1141B
331
11782
  5
11773
331
1135C
  5
113DC
331
113D2
  5
11452
331
114B0
  5
114DC
331
11364
  5
113E4
331
113DA
  5
1145A
331
114B8
  5
114E4
331
1114B
  5
110FD
331
1110C
  5
11375
331
1108E
  5
11187
331
110D5
  5
113AD
331
1116B
  5
11101
331
11096
  5
1118F
331
1103F
  5
11145
331
110DD
  5
113B5
331
1111C
  5
1137E
331
104E0
  5
104E2
331
110E5
  5
113BD
331
110AE
  5
11197
331
11124
  5
11386
331
D282
  5
E5AB
331
DF38
  5
EDB7
331
D28A
  5
E5B3
331
EE4D
  5
EDBB
331
EE55
  5
EDD9
331
D29A
  5
E5CA
331
EA37
  5
EDB6
331
ED1E
  5
EDFA
331
ED26
  5
EE02
331
F1FC
  5
F483
331
F31B
  5
F4A4
331
F323
  5
F4AC
331
F32B
  5
F4B6
331
1178A
  5
1177C
331
1136C
  5
113EC
331
113A3
  5
11423
331
113E2
  5
11462
331
114C0
  5
114EC
331
113EA
  5
10F3F
331
11374
  5
113F4
331
113AB
  5
1142B
331
11461
  5
1135A
331
1119D
  5
113C0
331
1137C
  5
113FC
331
113B3
  5
11433
331
113FA
  5
10F6A
331
11345
  5
113C5
331
11384
  5
11404
331
113BB
  5
1143B
331
10489
  5
104BB
331
1112C
  5
110D7
331
1106F
  5
1115B
331
110B6
  5
11354
331
110ED
  5
11362
331
11134
  5
110E4
331
110F5
  5
1136A
331
11077
  5
11170
331
10E18
  5
1138C
331
110BE
  5
11396
331
1113C
  5
110EC
331
1107F
  5
11178
331
104C1
  5
104C3
331
110C6
  5
1139E
331
11144
  5
110F4
331
11087
  5
11180
331
110CE
  5
113A6
331
D2A2
  5
E5D3
331
D38A
  5
EBD2
331
E938
  5
F006
331
EB67
  5
EB2C
331
EDEE
  5
EDE0
331
EDF6
  5
EDE6
331
EE75
  5
F44D
331
F274
  5
F496
331
F314
  5
F49D
331
F1F5
  5
F455
331
1045E
  5
10489
331
11773
  5
11785
331
1134D
  5
113CD
331
1138C
  5
1140C
331
113C3
  5
11443
331
11648
  5
E5BF
331
11412
  5
10F74
331
1177B
  5
1178D
331
11355
  5
113D5
331
11394
  5
11414
331
113CB
  5
1144B
331
1144A
  5
110B7
331
1139C
  5
1141C
331
11783
  5
11774
331
1135D
  5
113DD
331
113D3
  5
11453
331
114B1
  5
114DD
331
11365
  5
113E5
331
113DB
  5
1145B
331
114B9
  5
114E5
331
10F08
  5
10F3E
331
1114C
  5
110FE
331
1110D
  5
11376
331
1108F
  5
11188
331
110D6
  5
113AE
331
11040
  5
11146
331
110DE
  5
113B6
331
11174
  5
11107
331
1111D
  5
1137F
331
110A7
  5
11190
331
104E1
  5
10EFE
331
110E6
  5
113BE
331
110AF
  5
11198
331
11125
  5
11387
331
D283
  5
E5AC
331
EE4E
  5
EDBC
331
D28B
  5
E5B4
331
ED07
  5
EDF1
331
EE56
  5
EDDB
331
EE5E
  5
EDDF
331
D29B
  5
E5CC
331
ED1F
  5
EDFB
331
ED27
  5
EE03
331
F1FD
  5
F484
331
F31C
  5
F4A5
331
F324
  5
F4AD
331
F32C
  5
F4B7
331
1178B
  5
1177D
331
1136D
  5
113ED
331
113A4
  5
11424
331
113E3
  5
11463
331
114C1
  5
114ED
331
113EB
  5
10F40
331
11375
  5
113F5
331
113AC
  5
1142C
331
113F3
  5
10F4B
331
1119E
  5
113C1
331
1137D
  5
113FD
331
113B4
  5
11434
331
114E9
  5
114C7
331
113FB
  5
10F6B
331
11385
  5
11405
331
11346
  5
113C6
331
113BC
  5
1143C
331
1146A
  5
114CE
331
1112D
  5
110D8
331
110EE
  5
11363
331
11070
  5
11169
331
110B7
  5
1138F
331
11135
  5
110E5
331
110F6
  5
1136B
331
11078
  5
11171
331
104BA
  5
104BC
331
10E19
  5
1138D
331
110BF
  5
11397
331
45BB
  5
545F
331
1113D
  5
110ED
331
11080
  5
11179
331
104C2
  5
104C4
331
110C7
  5
1139F
331
11145
  5
110F5
331
110CF
  5
113A7
331
D2A3
  5
E5D4
331
E921
  5
EBD1
331
D3F2
  5
EC22
331
E939
  5
F0B7
331
EB68
  5
EBC9
331
EDEF
  5
EDE1
331
EDF7
  5
EDE7
331
F275
  5
F497
331
F1EE
  5
F44E
331
F315
  5
F49E
331
F1F6
  5
F456
331
FAB3
  5
FB2C
331
FC81
  5
10074
331
1045F
  5
104BA
331
11774
  5
11786
331
1134E
  5
113CE
331
1138D
  5
1140D
331
113C4
  5
11444
331
11472
  5
114D5
331
11649
  5
11649
331
11413
  5
110B4
331
1177C
  5
1178E
331
11356
  5
113D6
331
11395
  5
11415
331
113CC
  5
1144C
331
1144B
  5
110B8
331
11784
  5
11775
331
1135E
  5
113DE
331
1139D
  5
1141D
331
113D4
  5
11454
331
114B2
  5
114DE
331
45C3
  5
5464
331
113DC
  5
1145C
331
11366
  5
113E6
331
114BA
  5
114E6
331
11088
  5
11181
331
1110E
  5
11377
331
11090
  5
11189
331
110D7
  5
113AF
331
1116D
  5
11102
331
11041
  5
11147
331
110DF
  5
113B7
331
11175
  5
11108
331
110A8
  5
11191
331
104E2
  5
10F00
331
1111E
  5
11380
331
D284
  5
E5AD
331
EE4F
  5
EDBD
331
ED08
  5
EDF3
331
D28C
  5
E5B5
331
E961
  5
F0B9
331
D29C
  5
E5CD
331
ED20
  5
EDFC
331
F31D
  5
F4A6
331
F246
  5
D3F2
331
F325
  5
F4AE
331
F32D
  5
F4B8
331
F99C
  5
FAA4
331
1178C
  5
1177F
331
1136E
  5
113EE
331
113A5
  5
11425
331
113E4
  5
11464
331
114C2
  5
114EE
331
113EC
  5
10F41
331
11376
  5
113F6
331
113AD
  5
1142D
331
113F4
  5
10F4D
331
1137E
  5
113FE
331
113B5
  5
11435
331
11463
  5
1135E
331
114EA
  5
114CC
331
11386
  5
11406
331
11347
  5
113C7
331
113BD
  5
1143D
331
1146B
  5
114CF
331
1152A
  5
1152C
331
11069
  5
11148
331
110B0
  5
11199
331
1112E
  5
110D9
331
110EF
  5
11364
331
11071
  5
1116A
331
110B8
  5
11390
331
11136
  5
110E6
331
110F7
  5
1136C
331
11079
  5
11172
331
104BB
  5
104BD
331
10E1A
  5
1138E
331
110C0
  5
11398
331
1113E
  5
110EE
331
104C3
  5
104C5
331
11081
  5
1117A
331
110C8
  5
113A0
331
D2A4
  5
E5D5
331
ED28
  5
EE04
331
11146
  5
110F6
331
11107
  5
11370
331
D2AC
  5
EB25
331
D3F3
  5
EC23
331
E93A
  5
F0B8
331
EB69
  5
EBCB
331
EDF0
  5
EDE2
331
F1EF
  5
F44F
331
FAA4
  5
FB14
331
F316
  5
F49F
331
F1F7
  5
F457
331
11775
  5
11787
331
1134F
  5
113CF
331
1138E
  5
1140E
331
113C5
  5
11445
331
11414
  5
110B5
331
1177D
  5
1178F
331
11357
  5
113D7
331
11396
  5
11416
331
113CD
  5
1144D
331
114AB
  5
114D7
331
1144C
  5
110D1
331
11785
  5
11776
331
1135F
  5
113DF
331
1139E
  5
1141E
331
113D5
  5
11455
331
114B3
  5
114DF
331
11367
  5
113E7
331
113DD
  5
1145D
331
114BB
  5
114E7
331
11089
  5
11182
331
110D0
  5
113A8
331
1110F
  5
11378
331
11091
  5
1118A
331
110D8
  5
113B0
331
110E0
  5
113B8
331
11176
  5
11109
331
110A9
  5
11192
331
1111F
  5
11381
331
D285
  5
E5AE
331
EE50
  5
EDBE
331
ED09
  5
EDF7
331
D28D
  5
E5B6
331
E962
  5
F0BB
331
D295
  5
E5C5
331
EA32
  5
EDAF
331
EE58
  5
EDDD
331
D29D
  5
E5CE
331
E91B
  5
EBCC
331
ED21
  5
EDFD
331
F31E
  5
F4A7
331
F247
  5
D3FE
331
F326
  5
F4AF
331
F32E
  5
F4B9
331
FB14
  5
FC81
331
1178D
  5
11780
331
11180
  5
1110D
331
1136F
  5
113EF
331
113A6
  5
11426
331
113E5
  5
11465
331
114C3
  5
114EF
331
113ED
  5
10F44
331
11377
  5
113F7
331
113AE
  5
1142E
331
11464
  5
1135F
331
1137F
  5
113FF
331
113B6
  5
11436
331
114EB
  5
114CD
331
11387
  5
11407
331
113BE
  5
1143E
331
1146C
  5
114D0
331
1152B
  5
1152D
331
1106A
  5
11149
331
110B1
  5
1119A
331
110F0
  5
11365
331
45B5
  5
545E
331
11072
  5
1116B
331
110B9
  5
11391
331
11137
  5
110E7
331
110F8
  5
1136D
331
1107A
  5
11173
331
104BC
  5
104BE
331
110C1
  5
11399
331
110C9
  5
113A1
331
104C4
  5
104DF
331
11082
  5
1117B
331
EB4A
  5
EB26
331
D2A5
  5
E5D6
331
D3E4
  5
EC1D
331
ED29
  5
EE72
331
11147
  5
110F7
331
D3F4
  5
EC24
331
ED41
  5
F0C4
331
D3FC
  5
ED1D
331
D27E
  5
E5A7
331
EDF1
  5
EDE3
331
FB2C
  5
FFE5
331
F1F0
  5
F450
331
F30F
  5
F498
331
F317
  5
F4A0
331
11348
  5
113C8
331
11776
  5
11788
331
11350
  5
113D0
331
1138F
  5
1140F
331
113C6
  5
11446
331
11474
  5
114D6
331
11358
  5
113D8
331
11397
  5
11417
331
113CE
  5
1144E
331
114AC
  5
114D8
331
1144D
  5
110D2
331
11786
  5
11777
331
11360
  5
113E0
331
1139F
  5
1141F
331
113D6
  5
11456
331
114B4
  5
114E0
331
113DE
  5
1145E
331
114BC
  5
114E8
331
11108
  5
11371
331
1108A
  5
11183
331
110D1
  5
113A9
331
11110
  5
11379
331
11092
  5
1118B
331
110D9
  5
113B1
331
1116F
  5
11103
331
110E1
  5
113B9
331
110AA
  5
11193
331
11120
  5
11382
331
D286
  5
E5AF
331
EE49
  5
EDB8
331
EE51
  5
EDBF
331
ED0A
  5
EDF8
331
D28E
  5
E5BD
331
E963
  5
F0C1
331
D296
  5
E5C6
331
EA33
  5
EDB0
331
D29E
  5
E5CF
331
E91C
  5
EBCF
331
ED22
  5
EDFE
331
F1F8
  5
F458
331
F31F
  5
F4A8
331
F327
  5
F4B0
331
F98E
  5
FA26
331
F32F
  5
F4BA
  0
SORTENTSTABLE
  5
10486
102
{ACAD_REACTORS
330
10485
102
}
330
10485
100
AcDbSortentsTable
330
10474
  0
LAYOUT
  5
F8D7
102
{ACAD_XDICTIONARY
360
1182B
102
}
102
{ACAD_REACTORS
330
1A
102
}
330
1A
100
AcDbPlotSettings
  1

  2
hp LaserJet 1010 Series Driver
  4

  6

 40
0.0
 41
0.0
 42
0.0
 43
0.0
 44
0.0
 45
0.0
 46
0.0
 47
0.0
 48
0.0
 49
0.0
140
0.0
141
0.0
142
1.0
143
1.0
 70
   688
 72
     0
 73
     0
 74
     5
  7
Dart1.ctb
 75
    16
147
1.0
148
0.0
149
0.0
100
AcDbLayout
  1
Layout1
 70
     1
 71
     1
 10
0.0
 20
0.0
 11
12.0
 21
9.0
 12
0.0
 22
0.0
 32
0.0
 14
0.0
 24
0.0
 34
0.0
 15
0.0
 25
0.0
 35
0.0
146
0.0
 13
0.0
 23
0.0
 33
0.0
 16
1.0
 26
0.0
 36
0.0
 17
0.0
 27
1.0
 37
0.0
 76
     0
330
F8D6
  0
LAYOUT
  5
22
102
{ACAD_XDICTIONARY
360
11829
102
}
102
{ACAD_REACTORS
330
1A
102
}
330
1A
100
AcDbPlotSettings
  1

  2
PDF995
  4
Letter
  6

 40
3.174999952316284
 41
3.174999952316284
 42
3.175003051757812
 43
3.17498779296875
 44
215.8999938964844
 45
279.3999938964844
 46
0.0
 47
0.0
 48
1.570809578957408
 49
3.657146664025759
140
32.90297866818838
141
26.37105672299524
142
1.0
143
2.914620314733771
 70
 11952
 72
     0
 73
     1
 74
     4
  7
Dart1.ctb
 75
     0
147
0.3430978625054093
148
-39.89856330551818
149
-92.89152526625429
100
AcDbLayout
  1
Model
 70
     1
 71
     0
 10
0.0
 20
0.0
 11
12.0
 21
9.0
 12
0.0
 22
0.0
 32
0.0
 14
0.0
 24
0.0
 34
0.0
 15
0.0
 25
0.0
 35
0.0
146
0.0
 13
0.0
 23
0.0
 33
0.0
 16
1.0
 26
0.0
 36
0.0
 17
0.0
 27
1.0
 37
0.0
 76
     0
330
1F
1001
ACAD_PSEXT
1000
PDF995
1000
PDF995 Printer Driver
1000
PDF995PORT
1000

1070
     0
  0
MLINESTYLE
  5
18
102
{ACAD_REACTORS
330
17
102
}
330
17
100
AcDbMlineStyle
  2
STANDARD
 70
     0
  3

 62
   256
 51
90.0
 52
90.0
 71
     2
 49
0.5
 62
   256
  6
BYLAYER
 49
-0.5
 62
   256
  6
BYLAYER
  0
ACDBPLACEHOLDER
  5
F
102
{ACAD_REACTORS
330
E
102
}
330
E
  0
TABLESTYLE
  5
502B
102
{ACAD_REACTORS
330
502A
102
}
330
502A
100
AcDbTableStyle
  3
Standard
 70
     0
 71
     0
 40
0.06
 41
0.06
280
     0
281
     0
  7
Standard
140
0.18
170
     2
 62
     0
 63
     7
283
     0
274
    -2
284
     1
 64
     0
275
    -2
285
     1
 65
     0
276
    -2
286
     1
 66
     0
277
    -2
287
     1
 67
     0
278
    -2
288
     1
 68
     0
279
    -2
289
     1
 69
     0
  7
Standard
140
0.25
170
     5
 62
     0
 63
     7
283
     0
274
    -2
284
     1
 64
     0
275
    -2
285
     1
 65
     0
276
    -2
286
     1
 66
     0
277
    -2
287
     1
 67
     0
278
    -2
288
     1
 68
     0
279
    -2
289
     1
 69
     0
  7
Standard
140
0.18
170
     5
 62
     0
 63
     7
283
     0
274
    -2
284
     1
 64
     0
275
    -2
285
     1
 65
     0
276
    -2
286
     1
 66
     0
277
    -2
287
     1
 67
     0
278
    -2
288
     1
 68
     0
279
    -2
289
     1
 69
     0
  0
DICTIONARYVAR
  5
503A
102
{ACAD_REACTORS
330
5039
102
}
330
5039
100
DictionaryVariables
280
     0
  1
STANDARD
  0
DICTIONARYVAR
  5
505A
102
{ACAD_REACTORS
330
5039
102
}
330
5039
100
DictionaryVariables
280
     0
  1
1
  0
DICTIONARYVAR
  5
505B
102
{ACAD_REACTORS
330
5039
102
}
330
5039
100
DictionaryVariables
280
     0
  1

  0
XRECORD
  5
E3A6
102
{ACAD_REACTORS
330
E3A5
102
}
330
E3A5
100
AcDbXrecord
280
     1
330
0
330
0
330
0
330
0
330
0
330
0
330
0
330
0
330
0
330
0
330
0
330
0
330
0
330
0
330
0
330
0
330
0
330
0
330
0
330
0
330
0
330
0
330
0
330
0
330
0
330
0
330
0
330
0
330
0
330
0
330
0
330
0
330
0
330
0
330
0
330
0
330
0
330
0
330
0
330
0
330
0
330
0
330
0
330
0
330
0
330
0
330
0
330
0
330
0
330
0
330
0
330
0
330
0
330
0
330
0
330
0
330
0
330
0
330
0
330
0
330
0
330
0
330
0
330
0
330
0
330
0
330
0
330
0
330
0
330
0
330
0
330
0
330
0
330
0
330
0
330
0
330
0
330
0
330
0
330
0
330
0
330
0
330
0
330
0
330
0
330
0
330
0
330
0
330
0
330
0
330
0
330
0
330
0
330
0
330
0
330
0
330
0
330
0
330
0
  0
DICTIONARY
  5
1182B
330
F8D7
100
AcDbDictionary
280
     1
281
     1
  3
ACAD_XREC_ROUNDTRIP
360
1182C
  0
DICTIONARY
  5
11829
330
22
100
AcDbDictionary
280
     1
281
     1
  3
ACAD_XREC_ROUNDTRIP
360
1182A
  0
XRECORD
  5
1182C
102
{ACAD_REACTORS
330
1182B
102
}
330
1182B
100
AcDbXrecord
280
     1
102
SHADEPLOT
 70
     0
102
SHADEPLOTRESLEVEL
 70
     2
102
SHADEPLOTCUSTOMDPI
 70
   300
  0
XRECORD
  5
1182A
102
{ACAD_REACTORS
330
11829
102
}
330
11829
100
AcDbXrecord
280
     1
102
SHADEPLOT
 70
     0
102
SHADEPLOTRESLEVEL
 70
     2
102
SHADEPLOTCUSTOMDPI
 70
   300
  0
ENDSEC
  0
EOF
